  0
SECTION
  2
HEADER
  9
$ACADVER
  1
AC1012
  9
$DWGCODEPAGE
  3
dos932
  9
$INSBASE
 10
0.0
 20
0.0
 30
0.0
  9
$EXTMIN
 10
9.98474220045
 20
2.981964806306564
 30
-0.0015258207003583
  9
$EXTMAX
 10
395.0189218472444
 20
275.0068823797708
 30
0.0000000349246037
  9
$LIMMIN
 10
0.0
 20
0.0
  9
$LIMMAX
 10
420.0
 20
297.0
  9
$ORTHOMODE
 70
     0
  9
$REGENMODE
 70
     1
  9
$FILLMODE
 70
     1
  9
$QTEXTMODE
 70
     0
  9
$MIRRTEXT
 70
     1
  9
$DRAGMODE
 70
     2
  9
$LTSCALE
 40
15.0
  9
$OSMODE
 70
    37
  9
$ATTMODE
 70
     1
  9
$TEXTSIZE
 40
0.2
  9
$TRACEWID
 40
0.05
  9
$TEXTSTYLE
  7
GOTHIC
  9
$CLAYER
  8
CSLAYER1
  9
$CELTYPE
  6
BYLAYER
  9
$CECOLOR
 62
   256
  9
$CELTSCALE
 40
1.0
  9
$DELOBJ
 70
     1
  9
$DISPSILH
 70
     0
  9
$DIMSCALE
 40
1.0
  9
$DIMASZ
 40
0.18
  9
$DIMEXO
 40
0.0625
  9
$DIMDLI
 40
0.38
  9
$DIMRND
 40
0.0
  9
$DIMDLE
 40
0.0
  9
$DIMEXE
 40
0.18
  9
$DIMTP
 40
0.0
  9
$DIMTM
 40
0.0
  9
$DIMTXT
 40
0.18
  9
$DIMCEN
 40
0.09
  9
$DIMTSZ
 40
0.0
  9
$DIMTOL
 70
     0
  9
$DIMLIM
 70
     0
  9
$DIMTIH
 70
     1
  9
$DIMTOH
 70
     1
  9
$DIMSE1
 70
     0
  9
$DIMSE2
 70
     0
  9
$DIMTAD
 70
     0
  9
$DIMZIN
 70
     0
  9
$DIMBLK
  1

  9
$DIMASO
 70
     1
  9
$DIMSHO
 70
     1
  9
$DIMPOST
  1

  9
$DIMAPOST
  1

  9
$DIMALT
 70
     0
  9
$DIMALTD
 70
     2
  9
$DIMALTF
 40
25.4
  9
$DIMLFAC
 40
1.0
  9
$DIMTOFL
 70
     0
  9
$DIMTVP
 40
0.0
  9
$DIMTIX
 70
     0
  9
$DIMSOXD
 70
     0
  9
$DIMSAH
 70
     0
  9
$DIMBLK1
  1

  9
$DIMBLK2
  1

  9
$DIMSTYLE
  2
STANDARD
  9
$DIMCLRD
 70
     0
  9
$DIMCLRE
 70
     0
  9
$DIMCLRT
 70
     0
  9
$DIMTFAC
 40
1.0
  9
$DIMGAP
 40
0.09
  9
$DIMJUST
 70
     0
  9
$DIMSD1
 70
     0
  9
$DIMSD2
 70
     0
  9
$DIMTOLJ
 70
     1
  9
$DIMTZIN
 70
     0
  9
$DIMALTZ
 70
     0
  9
$DIMALTTZ
 70
     0
  9
$DIMFIT
 70
     3
  9
$DIMUPT
 70
     0
  9
$DIMUNIT
 70
     2
  9
$DIMDEC
 70
     4
  9
$DIMTDEC
 70
     4
  9
$DIMALTU
 70
     2
  9
$DIMALTTD
 70
     2
  9
$DIMTXSTY
  7
STANDARD
  9
$DIMAUNIT
 70
     0
  9
$LUNITS
 70
     2
  9
$LUPREC
 70
     4
  9
$SKETCHINC
 40
0.1
  9
$FILLETRAD
 40
0.0
  9
$AUNITS
 70
     0
  9
$AUPREC
 70
     0
  9
$MENU
  1
ACAD
  9
$ELEVATION
 40
0.0
  9
$PELEVATION
 40
0.0
  9
$THICKNESS
 40
0.0
  9
$LIMCHECK
 70
     0
  9
$BLIPMODE
 70
     1
  9
$CHAMFERA
 40
0.0
  9
$CHAMFERB
 40
0.0
  9
$CHAMFERC
 40
0.0
  9
$CHAMFERD
 40
0.0
  9
$SKPOLY
 70
     0
  9
$TDCREATE
 40
2453483.000000000
  9
$TDUPDATE
 40
2453516.606893935
  9
$TDINDWG
 40
0.0003428588
  9
$TDUSRTIMER
 40
0.0003427431
  9
$USRTIMER
 70
     1
  9
$ANGBASE
 50
0.0
  9
$ANGDIR
 70
     0
  9
$PDMODE
 70
     0
  9
$PDSIZE
 40
0.0
  9
$PLINEWID
 40
0.0
  9
$COORDS
 70
     0
  9
$SPLFRAME
 70
     0
  9
$SPLINETYPE
 70
     6
  9
$SPLINESEGS
 70
     8
  9
$ATTDIA
 70
     0
  9
$ATTREQ
 70
     1
  9
$HANDLING
 70
-16383
  9
$HANDSEED
  5
35E
  9
$SURFTAB1
 70
     6
  9
$SURFTAB2
 70
     6
  9
$SURFTYPE
 70
     6
  9
$SURFU
 70
     6
  9
$SURFV
 70
     6
  9
$UCSNAME
  2

  9
$UCSORG
 10
0.0
 20
0.0
 30
0.0
  9
$UCSXDIR
 10
1.0
 20
0.0
 30
0.0
  9
$UCSYDIR
 10
0.0
 20
1.0
 30
0.0
  9
$PUCSNAME
  2

  9
$PUCSORG
 10
0.0
 20
0.0
 30
0.0
  9
$PUCSXDIR
 10
1.0
 20
0.0
 30
0.0
  9
$PUCSYDIR
 10
0.0
 20
1.0
 30
0.0
  9
$USERI1
 70
     0
  9
$USERI2
 70
     0
  9
$USERI3
 70
     0
  9
$USERI4
 70
     0
  9
$USERI5
 70
     0
  9
$USERR1
 40
0.0
  9
$USERR2
 40
0.0
  9
$USERR3
 40
0.0
  9
$USERR4
 40
0.0
  9
$USERR5
 40
0.0
  9
$WORLDVIEW
 70
     1
  9
$SHADEDGE
 70
     3
  9
$SHADEDIF
 70
    70
  9
$TILEMODE
 70
     1
  9
$MAXACTVP
 70
    64
  9
$PINSBASE
 10
0.0
 20
0.0
 30
0.0
  9
$PLIMCHECK
 70
     0
  9
$PEXTMIN
 10
1.000000000000000E+20
 20
1.000000000000000E+20
 30
1.000000000000000E+20
  9
$PEXTMAX
 10
-1.000000000000000E+20
 20
-1.000000000000000E+20
 30
-1.000000000000000E+20
  9
$PLIMMIN
 10
0.0
 20
0.0
  9
$PLIMMAX
 10
12.0
 20
9.0
  9
$UNITMODE
 70
     0
  9
$VISRETAIN
 70
     1
  9
$PLINEGEN
 70
     0
  9
$PSLTSCALE
 70
     1
  9
$TREEDEPTH
 70
  3020
  9
$PICKSTYLE
 70
     3
  9
$CMLSTYLE
  2
STANDARD
  9
$CMLJUST
 70
     0
  9
$CMLSCALE
 40
1.0
  9
$SAVEIMAGES
 70
     1
  0
ENDSEC
  0
SECTION
  2
CLASSES
  0
CLASS
  1
ACDBDICTIONARYWDFLT
  2
AcDbDictionaryWithDefault
  3
AutoCAD 2000
 90
    32768
280
     0
281
     0
  0
CLASS
  1
ACDBPLACEHOLDER
  2
AcDbPlaceHolder
  3
AutoCAD 2000
 90
    32768
280
     0
281
     0
  0
CLASS
  1
LAYOUT
  2
AcDbLayout
  3
AutoCAD 2000
 90
    32768
280
     0
281
     0
  0
CLASS
  1
DICTIONARYVAR
  2
AcDbDictionaryVar
  3
AutoCAD 2000
 90
    32768
280
     0
281
     0
  0
CLASS
  1
LONG_TRANSACTION
  2
AcDbLongTransaction
  3
AutoCAD 2000
 90
    32768
280
     0
281
     0
  0
CLASS
  1
LWPOLYLINE
  2
AcDbPolyline
  3
AutoCAD 2000
 90
    32768
280
     0
281
     1
  0
CLASS
  1
HATCH
  2
AcDbHatch
  3
AutoCAD 2000
 90
    32768
280
     0
281
     1
  0
CLASS
  1
XRECORD
  2
AcDbXrecord
  3
AutoCAD 2000
 90
    32768
280
     0
281
     0
  0
CLASS
  1
LONG_TRANSACTION
  2
AcDbLongTransaction
  3
AutoCAD 2000
 90
    32768
280
     0
281
     0
  0
CLASS
  1
LWPOLYLINE
  2
AcDbPolyline
  3
AutoCAD 2000
 90
    32768
280
     0
281
     1
  0
CLASS
  1
HATCH
  2
AcDbHatch
  3
AutoCAD 2000
 90
    32768
280
     0
281
     1
  0
CLASS
  1
XRECORD
  2
AcDbXrecord
  3
AutoCAD 2000
 90
    32768
280
     0
281
     0
  0
ENDSEC
  0
SECTION
  2
TABLES
  0
TABLE
  2
VPORT
  5
8
330
0
100
AcDbSymbolTable
 70
     2
  0
VPORT
  5
35B
330
8
100
AcDbSymbolTableRecord
100
AcDbViewportTableRecord
  2
*ACTIVE
 70
     0
 10
0.0
 20
0.0
 11
1.0
 21
1.0
 12
202.5018320238472
 22
138.9944235930387
 13
0.0
 23
0.0
 14
1.0
 24
1.0
 15
0.0
 25
0.0
 16
0.0
 26
0.0
 36
1.0
 17
0.0
 27
0.0
 37
0.0
 40
274.0676578806492
 41
1.510025062656641
 42
50.0
 43
0.0
 44
0.0
 50
0.0
 51
0.0
 71
     0
 72
   100
 73
     1
 74
     1
 75
     0
 76
     0
 77
     0
 78
     0
  0
ENDTAB
  0
TABLE
  2
LTYPE
  5
5
330
0
100
AcDbSymbolTable
 70
     4
  0
LTYPE
  5
13
330
5
100
AcDbSymbolTableRecord
100
AcDbLinetypeTableRecord
  2
BYBLOCK
 70
     0
  3

 72
    65
 73
     0
 40
0.0
  0
LTYPE
  5
14
330
5
100
AcDbSymbolTableRecord
100
AcDbLinetypeTableRecord
  2
BYLAYER
 70
     0
  3

 72
    65
 73
     0
 40
0.0
  0
LTYPE
  5
15
330
5
100
AcDbSymbolTableRecord
100
AcDbLinetypeTableRecord
  2
CONTINUOUS
 70
     0
  3
Solid line
 72
    65
 73
     0
 40
0.0
  0
LTYPE
  5
23
330
5
100
AcDbSymbolTableRecord
100
AcDbLinetypeTableRecord
  2
DASHED
 70
     0
  3
__ __ __ __ __ __ __ __ __ __ __ __ __ __ __
 72
    65
 73
     2
 40
0.75
 49
0.5
 74
     0
 49
-0.25
 74
     0
  0
LTYPE
  5
25
330
5
100
AcDbSymbolTableRecord
100
AcDbLinetypeTableRecord
  2
DOT
 70
     0
  3
...............................................
 72
    65
 73
     2
 40
0.25
 49
0.0
 74
     0
 49
-0.25
 74
     0
  0
LTYPE
  5
28
330
5
100
AcDbSymbolTableRecord
100
AcDbLinetypeTableRecord
  2
CENTER
 70
     0
  3
____ _ ____ _ ____ _ ____ _ ____ _ ____ _ ____ 
 72
    65
 73
     4
 40
2.0
 49
1.25
 74
     0
 49
-0.25
 74
     0
 49
0.25
 74
     0
 49
-0.25
 74
     0
  0
ENDTAB
  0
TABLE
  2
LAYER
  5
2
330
0
100
AcDbSymbolTable
 70
     3
  0
LAYER
  5
10
330
2
100
AcDbSymbolTableRecord
100
AcDbLayerTableRecord
  2
0
 70
     0
 62
     7
  6
CONTINUOUS
  0
LAYER
  5
22
330
2
100
AcDbSymbolTableRecord
100
AcDbLayerTableRecord
  2
CSLAYER1
 70
     0
 62
     7
  6
CONTINUOUS
  0
LAYER
  5
332
330
2
100
AcDbSymbolTableRecord
100
AcDbLayerTableRecord
  2
DEFPOINTS
 70
     0
 62
     7
  6
CONTINUOUS
  0
ENDTAB
  0
TABLE
  2
STYLE
  5
3
330
0
100
AcDbSymbolTable
 70
     3
  0
STYLE
  5
11
330
3
100
AcDbSymbolTableRecord
100
AcDbTextStyleTableRecord
  2
STANDARD
 70
     0
 40
0.0
 41
1.0
 50
0.0
 71
     0
 42
0.2
  3
txt
  4
extfont.shx
  0
STYLE
  5
3A
330
3
100
AcDbSymbolTableRecord
100
AcDbTextStyleTableRecord
  2
FX_FONT
 70
     0
 40
1.0
 41
1.0
 50
0.0
 71
     0
 42
1.0
  3
monotxt
  4
bigfont
  0
STYLE
  5
32A
330
3
100
AcDbSymbolTableRecord
100
AcDbTextStyleTableRecord
  2
GOTHIC
 70
     0
 40
0.0
 41
1.0
 50
0.0
 71
     0
 42
0.2
  3
txt.shx
  4
extfont.shx
  0
ENDTAB
  0
TABLE
  2
VIEW
  5
6
330
0
100
AcDbSymbolTable
 70
     0
  0
ENDTAB
  0
TABLE
  2
UCS
  5
7
330
0
100
AcDbSymbolTable
 70
     0
  0
ENDTAB
  0
TABLE
  2
APPID
  5
9
330
0
100
AcDbSymbolTable
 70
     1
  0
APPID
  5
12
330
9
100
AcDbSymbolTableRecord
100
AcDbRegAppTableRecord
  2
ACAD
 70
     0
  0
ENDTAB
  0
TABLE
  2
DIMSTYLE
  5
A
330
0
100
AcDbSymbolTable
 70
     1
  0
DIMSTYLE
105
327
330
A
100
AcDbSymbolTableRecord
100
AcDbDimStyleTableRecord
  2
STANDARD
 70
     0
  3

  4

  5

  6

  7

 40
1.0
 41
0.18
 42
0.0625
 43
0.38
 44
0.18
 45
0.0
 46
0.0
 47
0.0
 48
0.0
140
0.18
141
0.09
142
0.0
143
25.4
144
1.0
145
0.0
146
1.0
147
0.09
 71
     0
 72
     0
 73
     1
 74
     1
 75
     0
 76
     0
 77
     0
 78
     0
170
     0
171
     2
172
     0
173
     0
174
     0
175
     0
176
     0
177
     0
178
     0
270
     2
271
     4
272
     4
273
     2
274
     2
340
11
275
     0
280
     0
281
     0
282
     0
283
     1
284
     0
285
     0
286
     0
287
     3
288
     0
  0
ENDTAB
  0
TABLE
  2
BLOCK_RECORD
  5
1
330
0
100
AcDbSymbolTable
 70
    26
  0
BLOCK_RECORD
  5
1E
102
{ACAD_XDICTIONARY
360
330
102
}
330
1
100
AcDbSymbolTableRecord
100
AcDbBlockTableRecord
  2
*MODEL_SPACE
  0
BLOCK_RECORD
  5
1A
102
{ACAD_XDICTIONARY
360
32E
102
}
330
1
100
AcDbSymbolTableRecord
100
AcDbBlockTableRecord
  2
*PAPER_SPACE
  0
BLOCK_RECORD
  5
3F
330
1
100
AcDbSymbolTableRecord
100
AcDbBlockTableRecord
  2
*D0
  0
BLOCK_RECORD
  5
49
330
1
100
AcDbSymbolTableRecord
100
AcDbBlockTableRecord
  2
*D1
  0
BLOCK_RECORD
  5
53
330
1
100
AcDbSymbolTableRecord
100
AcDbBlockTableRecord
  2
*D2
  0
BLOCK_RECORD
  5
5C
330
1
100
AcDbSymbolTableRecord
100
AcDbBlockTableRecord
  2
*D3
  0
BLOCK_RECORD
  5
67
330
1
100
AcDbSymbolTableRecord
100
AcDbBlockTableRecord
  2
*D4
  0
BLOCK_RECORD
  5
72
330
1
100
AcDbSymbolTableRecord
100
AcDbBlockTableRecord
  2
*D5
  0
BLOCK_RECORD
  5
7B
330
1
100
AcDbSymbolTableRecord
100
AcDbBlockTableRecord
  2
*D6
  0
BLOCK_RECORD
  5
85
330
1
100
AcDbSymbolTableRecord
100
AcDbBlockTableRecord
  2
*D7
  0
BLOCK_RECORD
  5
8F
330
1
100
AcDbSymbolTableRecord
100
AcDbBlockTableRecord
  2
*D8
  0
BLOCK_RECORD
  5
99
330
1
100
AcDbSymbolTableRecord
100
AcDbBlockTableRecord
  2
*D9
  0
BLOCK_RECORD
  5
A3
330
1
100
AcDbSymbolTableRecord
100
AcDbBlockTableRecord
  2
*D10
  0
BLOCK_RECORD
  5
AD
330
1
100
AcDbSymbolTableRecord
100
AcDbBlockTableRecord
  2
*D11
  0
BLOCK_RECORD
  5
B8
330
1
100
AcDbSymbolTableRecord
100
AcDbBlockTableRecord
  2
*D12
  0
BLOCK_RECORD
  5
C1
330
1
100
AcDbSymbolTableRecord
100
AcDbBlockTableRecord
  2
*D13
  0
BLOCK_RECORD
  5
CB
330
1
100
AcDbSymbolTableRecord
100
AcDbBlockTableRecord
  2
*D14
  0
BLOCK_RECORD
  5
D6
330
1
100
AcDbSymbolTableRecord
100
AcDbBlockTableRecord
  2
*D15
  0
BLOCK_RECORD
  5
E0
330
1
100
AcDbSymbolTableRecord
100
AcDbBlockTableRecord
  2
*D16
  0
BLOCK_RECORD
  5
EA
330
1
100
AcDbSymbolTableRecord
100
AcDbBlockTableRecord
  2
*D17
  0
BLOCK_RECORD
  5
F4
330
1
100
AcDbSymbolTableRecord
100
AcDbBlockTableRecord
  2
*D18
  0
BLOCK_RECORD
  5
FE
330
1
100
AcDbSymbolTableRecord
100
AcDbBlockTableRecord
  2
*D19
  0
BLOCK_RECORD
  5
107
330
1
100
AcDbSymbolTableRecord
100
AcDbBlockTableRecord
  2
*D20
  0
BLOCK_RECORD
  5
112
330
1
100
AcDbSymbolTableRecord
100
AcDbBlockTableRecord
  2
FXDIM0000
  0
BLOCK_RECORD
  5
11A
330
1
100
AcDbSymbolTableRecord
100
AcDbBlockTableRecord
  2
FXDIM0001
  0
BLOCK_RECORD
  5
122
330
1
100
AcDbSymbolTableRecord
100
AcDbBlockTableRecord
  2
FXDIM0002
  0
BLOCK_RECORD
  5
333
330
1
100
AcDbSymbolTableRecord
100
AcDbBlockTableRecord
  2
*D24
  0
BLOCK_RECORD
  5
342
330
1
100
AcDbSymbolTableRecord
100
AcDbBlockTableRecord
  2
*D25
  0
ENDTAB
  0
ENDSEC
  0
SECTION
  2
BLOCKS
  0
BLOCK
  5
1F
330
1E
100
AcDbEntity
  8
0
100
AcDbBlockBegin
  2
*MODEL_SPACE
 70
     0
 10
0.0
 20
0.0
 30
0.0
  3
*MODEL_SPACE
  1

  0
ENDBLK
  5
20
330
1E
100
AcDbEntity
  8
0
100
AcDbBlockEnd
  0
BLOCK
  5
1B
330
1A
100
AcDbEntity
 67
     1
  8
0
100
AcDbBlockBegin
  2
*PAPER_SPACE
 70
     0
 10
0.0
 20
0.0
 30
0.0
  3
*PAPER_SPACE
  1

  0
ENDBLK
  5
1C
330
1A
100
AcDbEntity
 67
     1
  8
0
100
AcDbBlockEnd
  0
BLOCK
  5
40
330
3F
100
AcDbEntity
  8
0
100
AcDbBlockBegin
  2
*D0
 70
     1
 10
0.0
 20
0.0
 30
0.0
  3
*D0
  1

  0
TEXT
  5
41
330
3F
100
AcDbEntity
  8
CSLAYER1
 62
     4
100
AcDbText
 10
59.198271
 20
128.308716
 30
0.0
 40
3.2
  1
9
 41
1.499999999999994
 51
15.0
  7
FX_FONT
 72
     5
 11
62.39827099999999
 21
128.308716
 31
0.0
100
AcDbText
  0
LINE
  5
42
330
3F
100
AcDbEntity
  8
CSLAYER1
  6
CONTINUOUS
 62
     4
100
AcDbLine
 10
56.29827299999998
 20
127.8087219999999
 30
0.0
 11
65.298273
 21
127.8087219999999
 31
0.0
  0
LINE
  5
43
330
3F
100
AcDbEntity
  8
CSLAYER1
  6
CONTINUOUS
 62
     4
100
AcDbLine
 10
56.29827299999998
 20
127.8087219999999
 30
0.0
 11
59.19605
 21
128.585179
 31
0.0
  0
LINE
  5
44
330
3F
100
AcDbEntity
  8
CSLAYER1
  6
CONTINUOUS
 62
     4
100
AcDbLine
 10
56.29827299999998
 20
127.8087219999999
 30
0.0
 11
59.19605
 21
127.0322649999999
 31
0.0
  0
LINE
  5
45
330
3F
100
AcDbEntity
  8
CSLAYER1
  6
CONTINUOUS
 62
     4
100
AcDbLine
 10
65.298273
 20
127.8087219999999
 30
0.0
 11
62.40049499999999
 21
128.585179
 31
0.0
  0
LINE
  5
46
330
3F
100
AcDbEntity
  8
CSLAYER1
  6
CONTINUOUS
 62
     4
100
AcDbLine
 10
65.298273
 20
127.8087219999999
 30
0.0
 11
62.40049499999999
 21
127.0322649999999
 31
0.0
  0
LINE
  5
47
330
3F
100
AcDbEntity
  8
CSLAYER1
  6
CONTINUOUS
 62
     4
100
AcDbLine
 10
65.298273
 20
121.792973
 30
0.0
 11
65.298273
 21
128.8087219999999
 31
0.0
  0
ENDBLK
  5
48
330
3F
100
AcDbEntity
  8
0
100
AcDbBlockEnd
  0
BLOCK
  5
4A
330
49
100
AcDbEntity
  8
0
100
AcDbBlockBegin
  2
*D1
 70
     1
 10
0.0
 20
0.0
 30
0.0
  3
*D1
  1

  0
TEXT
  5
4B
330
49
100
AcDbEntity
  8
CSLAYER1
 62
     4
100
AcDbText
 10
104.0982709999999
 20
128.308716
 30
0.0
 40
3.2
  1
84
 41
1.200000000000017
 51
15.0
  7
FX_FONT
 72
     5
 11
110.498271
 21
128.308716
 31
0.0
100
AcDbText
  0
LINE
  5
4C
330
49
100
AcDbEntity
  8
CSLAYER1
  6
CONTINUOUS
 62
     4
100
AcDbLine
 10
65.298273
 20
127.8087219999999
 30
0.0
 11
149.298273
 21
127.8087219999999
 31
0.0
  0
LINE
  5
4D
330
49
100
AcDbEntity
  8
CSLAYER1
  6
CONTINUOUS
 62
     4
100
AcDbLine
 10
65.298273
 20
127.8087219999999
 30
0.0
 11
68.19605
 21
128.585179
 31
0.0
  0
LINE
  5
4E
330
49
100
AcDbEntity
  8
CSLAYER1
  6
CONTINUOUS
 62
     4
100
AcDbLine
 10
65.298273
 20
127.8087219999999
 30
0.0
 11
68.19605
 21
127.0322649999999
 31
0.0
  0
LINE
  5
4F
330
49
100
AcDbEntity
  8
CSLAYER1
  6
CONTINUOUS
 62
     4
100
AcDbLine
 10
149.298273
 20
127.8087219999999
 30
0.0
 11
146.400495
 21
128.585179
 31
0.0
  0
LINE
  5
50
330
49
100
AcDbEntity
  8
CSLAYER1
  6
CONTINUOUS
 62
     4
100
AcDbLine
 10
149.298273
 20
127.8087219999999
 30
0.0
 11
146.400495
 21
127.0322649999999
 31
0.0
  0
LINE
  5
51
330
49
100
AcDbEntity
  8
CSLAYER1
  6
CONTINUOUS
 62
     4
100
AcDbLine
 10
149.298273
 20
121.792973
 30
0.0
 11
149.298273
 21
128.8087219999999
 31
0.0
  0
ENDBLK
  5
52
330
49
100
AcDbEntity
  8
0
100
AcDbBlockEnd
  0
BLOCK
  5
54
330
53
100
AcDbEntity
  8
0
100
AcDbBlockBegin
  2
*D2
 70
     1
 10
0.0
 20
0.0
 30
0.0
  3
*D2
  1

  0
TEXT
  5
55
330
53
100
AcDbEntity
  8
CSLAYER1
 62
     4
100
AcDbText
 10
152.198279
 20
128.308716
 30
0.0
 40
3.2
  1
9
 41
1.499999999999994
 51
15.0
  7
FX_FONT
 72
     5
 11
155.398279
 21
128.308716
 31
0.0
100
AcDbText
  0
LINE
  5
56
330
53
100
AcDbEntity
  8
CSLAYER1
  6
CONTINUOUS
 62
     4
100
AcDbLine
 10
149.298273
 20
127.8087219999999
 30
0.0
 11
158.2982729999999
 21
127.8087219999999
 31
0.0
  0
LINE
  5
57
330
53
100
AcDbEntity
  8
CSLAYER1
  6
CONTINUOUS
 62
     4
100
AcDbLine
 10
149.298273
 20
127.8087219999999
 30
0.0
 11
152.19605
 21
128.585179
 31
0.0
  0
LINE
  5
58
330
53
100
AcDbEntity
  8
CSLAYER1
  6
CONTINUOUS
 62
     4
100
AcDbLine
 10
149.298273
 20
127.8087219999999
 30
0.0
 11
152.19605
 21
127.0322649999999
 31
0.0
  0
LINE
  5
59
330
53
100
AcDbEntity
  8
CSLAYER1
  6
CONTINUOUS
 62
     4
100
AcDbLine
 10
158.2982729999999
 20
127.8087219999999
 30
0.0
 11
155.400495
 21
128.585179
 31
0.0
  0
LINE
  5
5A
330
53
100
AcDbEntity
  8
CSLAYER1
  6
CONTINUOUS
 62
     4
100
AcDbLine
 10
158.2982729999999
 20
127.8087219999999
 30
0.0
 11
155.400495
 21
127.0322649999999
 31
0.0
  0
ENDBLK
  5
5B
330
53
100
AcDbEntity
  8
0
100
AcDbBlockEnd
  0
BLOCK
  5
5D
330
5C
100
AcDbEntity
  8
0
100
AcDbBlockBegin
  2
*D3
 70
     1
 10
0.0
 20
0.0
 30
0.0
  3
*D3
  1

  0
TEXT
  5
5E
330
5C
100
AcDbEntity
  8
CSLAYER1
 62
     4
100
AcDbText
 10
102.4982709999999
 20
134.308716
 30
0.0
 40
3.2
  1
102
 41
1.12500000000001
 51
15.0
  7
FX_FONT
 72
     5
 11
112.098271
 21
134.308716
 31
0.0
100
AcDbText
  0
LINE
  5
5F
330
5C
100
AcDbEntity
  8
CSLAYER1
  6
CONTINUOUS
 62
     4
100
AcDbLine
 10
56.29827299999998
 20
133.808722
 30
0.0
 11
158.2982729999999
 21
133.808722
 31
0.0
  0
LINE
  5
60
330
5C
100
AcDbEntity
  8
CSLAYER1
  6
CONTINUOUS
 62
     4
100
AcDbLine
 10
56.29827299999998
 20
133.808722
 30
0.0
 11
59.19605
 21
134.585179
 31
0.0
  0
LINE
  5
61
330
5C
100
AcDbEntity
  8
CSLAYER1
  6
CONTINUOUS
 62
     4
100
AcDbLine
 10
56.29827299999998
 20
133.808722
 30
0.0
 11
59.19605
 21
133.032265
 31
0.0
  0
LINE
  5
62
330
5C
100
AcDbEntity
  8
CSLAYER1
  6
CONTINUOUS
 62
     4
100
AcDbLine
 10
158.2982729999999
 20
133.808722
 30
0.0
 11
155.400495
 21
134.585179
 31
0.0
  0
LINE
  5
63
330
5C
100
AcDbEntity
  8
CSLAYER1
  6
CONTINUOUS
 62
     4
100
AcDbLine
 10
158.2982729999999
 20
133.808722
 30
0.0
 11
155.400495
 21
133.032265
 31
0.0
  0
LINE
  5
64
330
5C
100
AcDbEntity
  8
CSLAYER1
  6
CONTINUOUS
 62
     4
100
AcDbLine
 10
56.29827299999998
 20
116.90905
 30
0.0
 11
56.29827299999998
 21
134.8087219999999
 31
0.0
  0
LINE
  5
65
330
5C
100
AcDbEntity
  8
CSLAYER1
  6
CONTINUOUS
 62
     4
100
AcDbLine
 10
158.2982729999999
 20
116.90905
 30
0.0
 11
158.2982729999999
 21
134.8087219999999
 31
0.0
  0
ENDBLK
  5
66
330
5C
100
AcDbEntity
  8
0
100
AcDbBlockEnd
  0
BLOCK
  5
68
330
67
100
AcDbEntity
  8
0
100
AcDbBlockBegin
  2
*D4
 70
     1
 10
0.0
 20
0.0
 30
0.0
  3
*D4
  1

  0
TEXT
  5
69
330
67
100
AcDbEntity
  8
CSLAYER1
 62
     4
100
AcDbText
 10
102.4982709999999
 20
256.359344
 30
0.0
 40
3.2
  1
102
 41
1.12500000000001
 51
15.0
  7
FX_FONT
 72
     5
 11
112.098271
 21
256.359344
 31
0.0
100
AcDbText
  0
LINE
  5
6A
330
67
100
AcDbEntity
  8
CSLAYER1
  6
CONTINUOUS
 62
     4
100
AcDbLine
 10
56.29827299999998
 20
255.859337
 30
0.0
 11
158.2982729999999
 21
255.859337
 31
0.0
  0
LINE
  5
6B
330
67
100
AcDbEntity
  8
CSLAYER1
  6
CONTINUOUS
 62
     4
100
AcDbLine
 10
56.29827299999998
 20
255.859337
 30
0.0
 11
59.19605
 21
256.6357939999999
 31
0.0
  0
LINE
  5
6C
330
67
100
AcDbEntity
  8
CSLAYER1
  6
CONTINUOUS
 62
     4
100
AcDbLine
 10
56.29827299999998
 20
255.859337
 30
0.0
 11
59.19605
 21
255.082879
 31
0.0
  0
LINE
  5
6D
330
67
100
AcDbEntity
  8
CSLAYER1
  6
CONTINUOUS
 62
     4
100
AcDbLine
 10
158.2982729999999
 20
255.859337
 30
0.0
 11
155.400495
 21
256.6357939999999
 31
0.0
  0
LINE
  5
6E
330
67
100
AcDbEntity
  8
CSLAYER1
  6
CONTINUOUS
 62
     4
100
AcDbLine
 10
158.2982729999999
 20
255.859337
 30
0.0
 11
155.400495
 21
255.082879
 31
0.0
  0
LINE
  5
6F
330
67
100
AcDbEntity
  8
CSLAYER1
  6
CONTINUOUS
 62
     4
100
AcDbLine
 10
56.29827299999998
 20
160.111995
 30
0.0
 11
56.29827299999998
 21
256.859337
 31
0.0
  0
LINE
  5
70
330
67
100
AcDbEntity
  8
CSLAYER1
  6
CONTINUOUS
 62
     4
100
AcDbLine
 10
158.2982729999999
 20
160.111995
 30
0.0
 11
158.2982729999999
 21
256.859337
 31
0.0
  0
ENDBLK
  5
71
330
67
100
AcDbEntity
  8
0
100
AcDbBlockEnd
  0
BLOCK
  5
73
330
72
100
AcDbEntity
  8
0
100
AcDbBlockBegin
  2
*D5
 70
     1
 10
0.0
 20
0.0
 30
0.0
  3
*D5
  1

  0
TEXT
  5
74
330
72
100
AcDbEntity
  8
CSLAYER1
 62
     4
100
AcDbText
 10
142.5982789999999
 20
250.3593289999999
 30
0.0
 40
3.2
  1
25
 41
1.200000000000017
 51
15.0
  7
FX_FONT
 72
     5
 11
148.998279
 21
250.3593289999999
 31
0.0
100
AcDbText
  0
LINE
  5
75
330
72
100
AcDbEntity
  8
CSLAYER1
  6
CONTINUOUS
 62
     4
100
AcDbLine
 10
133.2982729999999
 20
249.859337
 30
0.0
 11
158.2982729999999
 21
249.859337
 31
0.0
  0
LINE
  5
76
330
72
100
AcDbEntity
  8
CSLAYER1
  6
CONTINUOUS
 62
     4
100
AcDbLine
 10
133.2982729999999
 20
249.859337
 30
0.0
 11
136.19605
 21
250.635794
 31
0.0
  0
LINE
  5
77
330
72
100
AcDbEntity
  8
CSLAYER1
  6
CONTINUOUS
 62
     4
100
AcDbLine
 10
133.2982729999999
 20
249.859337
 30
0.0
 11
136.19605
 21
249.082879
 31
0.0
  0
LINE
  5
78
330
72
100
AcDbEntity
  8
CSLAYER1
  6
CONTINUOUS
 62
     4
100
AcDbLine
 10
158.2982729999999
 20
249.859337
 30
0.0
 11
155.400495
 21
250.635794
 31
0.0
  0
LINE
  5
79
330
72
100
AcDbEntity
  8
CSLAYER1
  6
CONTINUOUS
 62
     4
100
AcDbLine
 10
158.2982729999999
 20
249.859337
 30
0.0
 11
155.400495
 21
249.082879
 31
0.0
  0
ENDBLK
  5
7A
330
72
100
AcDbEntity
  8
0
100
AcDbBlockEnd
  0
BLOCK
  5
7C
330
7B
100
AcDbEntity
  8
0
100
AcDbBlockBegin
  2
*D6
 70
     1
 10
0.0
 20
0.0
 30
0.0
  3
*D6
  1

  0
TEXT
  5
7D
330
7B
100
AcDbEntity
  8
CSLAYER1
 62
     4
100
AcDbText
 10
104.0982709999999
 20
250.3593289999999
 30
0.0
 40
3.2
  1
52
 41
1.200000000000017
 51
15.0
  7
FX_FONT
 72
     5
 11
110.498271
 21
250.3593289999999
 31
0.0
100
AcDbText
  0
LINE
  5
7E
330
7B
100
AcDbEntity
  8
CSLAYER1
  6
CONTINUOUS
 62
     4
100
AcDbLine
 10
81.298273
 20
249.859337
 30
0.0
 11
133.2982729999999
 21
249.859337
 31
0.0
  0
LINE
  5
7F
330
7B
100
AcDbEntity
  8
CSLAYER1
  6
CONTINUOUS
 62
     4
100
AcDbLine
 10
81.298273
 20
249.859337
 30
0.0
 11
84.19605
 21
250.635794
 31
0.0
  0
LINE
  5
80
330
7B
100
AcDbEntity
  8
CSLAYER1
  6
CONTINUOUS
 62
     4
100
AcDbLine
 10
81.298273
 20
249.859337
 30
0.0
 11
84.19605
 21
249.082879
 31
0.0
  0
LINE
  5
81
330
7B
100
AcDbEntity
  8
CSLAYER1
  6
CONTINUOUS
 62
     4
100
AcDbLine
 10
133.2982729999999
 20
249.859337
 30
0.0
 11
130.400495
 21
250.635794
 31
0.0
  0
LINE
  5
82
330
7B
100
AcDbEntity
  8
CSLAYER1
  6
CONTINUOUS
 62
     4
100
AcDbLine
 10
133.2982729999999
 20
249.859337
 30
0.0
 11
130.400495
 21
249.082879
 31
0.0
  0
LINE
  5
83
330
7B
100
AcDbEntity
  8
CSLAYER1
  6
CONTINUOUS
 62
     4
100
AcDbLine
 10
133.2982729999999
 20
224.111995
 30
0.0
 11
133.2982729999999
 21
250.859337
 31
0.0
  0
ENDBLK
  5
84
330
7B
100
AcDbEntity
  8
0
100
AcDbBlockEnd
  0
BLOCK
  5
86
330
85
100
AcDbEntity
  8
0
100
AcDbBlockBegin
  2
*D7
 70
     1
 10
0.0
 20
0.0
 30
0.0
  3
*D7
  1

  0
TEXT
  5
87
330
85
100
AcDbEntity
  8
CSLAYER1
 62
     4
100
AcDbText
 10
65.59827099999999
 20
250.3593289999999
 30
0.0
 40
3.2
  1
25
 41
1.200000000000001
 51
15.0
  7
FX_FONT
 72
     5
 11
71.998271
 21
250.3593289999999
 31
0.0
100
AcDbText
  0
LINE
  5
88
330
85
100
AcDbEntity
  8
CSLAYER1
  6
CONTINUOUS
 62
     4
100
AcDbLine
 10
56.29827299999998
 20
249.859337
 30
0.0
 11
81.298273
 21
249.859337
 31
0.0
  0
LINE
  5
89
330
85
100
AcDbEntity
  8
CSLAYER1
  6
CONTINUOUS
 62
     4
100
AcDbLine
 10
56.29827299999998
 20
249.859337
 30
0.0
 11
59.19605
 21
250.635794
 31
0.0
  0
LINE
  5
8A
330
85
100
AcDbEntity
  8
CSLAYER1
  6
CONTINUOUS
 62
     4
100
AcDbLine
 10
56.29827299999998
 20
249.859337
 30
0.0
 11
59.19605
 21
249.082879
 31
0.0
  0
LINE
  5
8B
330
85
100
AcDbEntity
  8
CSLAYER1
  6
CONTINUOUS
 62
     4
100
AcDbLine
 10
81.298273
 20
249.859337
 30
0.0
 11
78.40049499999998
 21
250.635794
 31
0.0
  0
LINE
  5
8C
330
85
100
AcDbEntity
  8
CSLAYER1
  6
CONTINUOUS
 62
     4
100
AcDbLine
 10
81.298273
 20
249.859337
 30
0.0
 11
78.40049499999998
 21
249.082879
 31
0.0
  0
LINE
  5
8D
330
85
100
AcDbEntity
  8
CSLAYER1
  6
CONTINUOUS
 62
     4
100
AcDbLine
 10
81.298273
 20
224.111995
 30
0.0
 11
81.298273
 21
250.859337
 31
0.0
  0
ENDBLK
  5
8E
330
85
100
AcDbEntity
  8
0
100
AcDbBlockEnd
  0
BLOCK
  5
90
330
8F
100
AcDbEntity
  8
0
100
AcDbBlockBegin
  2
*D8
 70
     1
 10
0.0
 20
0.0
 30
0.0
  3
*D8
  1

  0
TEXT
  5
91
330
8F
100
AcDbEntity
  8
CSLAYER1
 62
     4
100
AcDbText
 10
233.2673279999999
 20
252.303741
 30
0.0
 40
3.2
  1
44.5
 41
1.090909090909089
 51
15.0
  7
FX_FONT
 72
     5
 11
246.0673279999999
 21
252.303741
 31
0.0
100
AcDbText
  0
LINE
  5
92
330
8F
100
AcDbEntity
  8
CSLAYER1
  6
CONTINUOUS
 62
     4
100
AcDbLine
 10
217.417327
 20
251.8037389999999
 30
0.0
 11
261.917327
 21
251.8037389999999
 31
0.0
  0
LINE
  5
93
330
8F
100
AcDbEntity
  8
CSLAYER1
  6
CONTINUOUS
 62
     4
100
AcDbLine
 10
217.417327
 20
251.8037389999999
 30
0.0
 11
220.3151039999999
 21
252.5801959999999
 31
0.0
  0
LINE
  5
94
330
8F
100
AcDbEntity
  8
CSLAYER1
  6
CONTINUOUS
 62
     4
100
AcDbLine
 10
217.417327
 20
251.8037389999999
 30
0.0
 11
220.3151039999999
 21
251.0272819999999
 31
0.0
  0
LINE
  5
95
330
8F
100
AcDbEntity
  8
CSLAYER1
  6
CONTINUOUS
 62
     4
100
AcDbLine
 10
261.917327
 20
251.8037389999999
 30
0.0
 11
259.019549
 21
252.5801959999999
 31
0.0
  0
LINE
  5
96
330
8F
100
AcDbEntity
  8
CSLAYER1
  6
CONTINUOUS
 62
     4
100
AcDbLine
 10
261.917327
 20
251.8037389999999
 30
0.0
 11
259.019549
 21
251.0272819999999
 31
0.0
  0
LINE
  5
97
330
8F
100
AcDbEntity
  8
CSLAYER1
  6
CONTINUOUS
 62
     4
100
AcDbLine
 10
261.917327
 20
194.111995
 30
0.0
 11
261.917327
 21
252.803739
 31
0.0
  0
ENDBLK
  5
98
330
8F
100
AcDbEntity
  8
0
100
AcDbBlockEnd
  0
BLOCK
  5
9A
330
99
100
AcDbEntity
  8
0
100
AcDbBlockBegin
  2
*D9
 70
     1
 10
0.0
 20
0.0
 30
0.0
  3
*D9
  1

  0
TEXT
  5
9B
330
99
100
AcDbEntity
  8
CSLAYER1
 62
     4
100
AcDbText
 10
206.717328
 20
252.303741
 30
0.0
 40
3.2
  1
15
 41
1.199999999999995
 51
15.0
  7
FX_FONT
 72
     5
 11
213.117328
 21
252.303741
 31
0.0
100
AcDbText
  0
LINE
  5
9C
330
99
100
AcDbEntity
  8
CSLAYER1
  6
CONTINUOUS
 62
     4
100
AcDbLine
 10
202.4173269999999
 20
251.8037389999999
 30
0.0
 11
217.417327
 21
251.8037389999999
 31
0.0
  0
LINE
  5
9D
330
99
100
AcDbEntity
  8
CSLAYER1
  6
CONTINUOUS
 62
     4
100
AcDbLine
 10
202.4173269999999
 20
251.8037389999999
 30
0.0
 11
205.3151039999999
 21
252.5801959999999
 31
0.0
  0
LINE
  5
9E
330
99
100
AcDbEntity
  8
CSLAYER1
  6
CONTINUOUS
 62
     4
100
AcDbLine
 10
202.4173269999999
 20
251.8037389999999
 30
0.0
 11
205.3151039999999
 21
251.0272819999999
 31
0.0
  0
LINE
  5
9F
330
99
100
AcDbEntity
  8
CSLAYER1
  6
CONTINUOUS
 62
     4
100
AcDbLine
 10
217.417327
 20
251.8037389999999
 30
0.0
 11
214.519549
 21
252.5801959999999
 31
0.0
  0
LINE
  5
A0
330
99
100
AcDbEntity
  8
CSLAYER1
  6
CONTINUOUS
 62
     4
100
AcDbLine
 10
217.417327
 20
251.8037389999999
 30
0.0
 11
214.519549
 21
251.0272819999999
 31
0.0
  0
LINE
  5
A1
330
99
100
AcDbEntity
  8
CSLAYER1
  6
CONTINUOUS
 62
     4
100
AcDbLine
 10
217.417327
 20
239.111995
 30
0.0
 11
217.417327
 21
252.803739
 31
0.0
  0
ENDBLK
  5
A2
330
99
100
AcDbEntity
  8
0
100
AcDbBlockEnd
  0
BLOCK
  5
A4
330
A3
100
AcDbEntity
  8
0
100
AcDbBlockBegin
  2
*D10
 70
     1
 10
0.0
 20
0.0
 30
0.0
  3
*D10
  1

  0
TEXT
  5
A5
330
A3
100
AcDbEntity
  8
CSLAYER1
 62
     4
100
AcDbText
 10
178.117334
 20
252.303741
 30
0.0
 40
3.2
  1
10.5
 41
1.090909090909091
 51
15.0
  7
FX_FONT
 72
     5
 11
190.917334
 21
252.303741
 31
0.0
100
AcDbText
  0
LINE
  5
A6
330
A3
100
AcDbEntity
  8
CSLAYER1
  6
CONTINUOUS
 62
     4
100
AcDbLine
 10
191.9173269999999
 20
251.8037389999999
 30
0.0
 11
202.4173269999999
 21
251.8037389999999
 31
0.0
  0
LINE
  5
A7
330
A3
100
AcDbEntity
  8
CSLAYER1
  6
CONTINUOUS
 62
     4
100
AcDbLine
 10
191.9173269999999
 20
209.1119949999999
 30
0.0
 11
191.9173269999999
 21
252.803739
 31
0.0
  0
LINE
  5
A8
330
A3
100
AcDbEntity
  8
CSLAYER1
  6
CONTINUOUS
 62
     4
100
AcDbLine
 10
202.4173269999999
 20
239.111995
 30
0.0
 11
202.4173269999999
 21
252.803739
 31
0.0
  0
LINE
  5
A9
330
A3
100
AcDbEntity
  8
CSLAYER1
  6
CONTINUOUS
 62
     4
100
AcDbLine
 10
177.1173259999999
 20
251.8037389999999
 30
0.0
 11
191.9173269999999
 21
251.8037389999999
 31
0.0
  0
LINE
  5
AA
330
A3
100
AcDbEntity
  8
CSLAYER1
  6
CONTINUOUS
 62
     4
100
AcDbLine
 10
191.9173269999999
 20
251.8037389999999
 30
0.0
 11
189.019549
 21
252.5801959999999
 31
0.0
  0
LINE
  5
AB
330
A3
100
AcDbEntity
  8
CSLAYER1
  6
CONTINUOUS
 62
     4
100
AcDbLine
 10
191.9173269999999
 20
251.8037389999999
 30
0.0
 11
189.019549
 21
251.0272819999999
 31
0.0
  0
ENDBLK
  5
AC
330
A3
100
AcDbEntity
  8
0
100
AcDbBlockEnd
  0
BLOCK
  5
AE
330
AD
100
AcDbEntity
  8
0
100
AcDbBlockBegin
  2
*D11
 70
     1
 10
0.0
 20
0.0
 30
0.0
  3
*D11
  1

  0
TEXT
  5
AF
330
AD
100
AcDbEntity
  8
CSLAYER1
 62
     4
100
AcDbText
 10
233.5706319999999
 20
166.543298
 30
0.0
 40
3.2
  1
60%%d
 50
29.99999963095144
 41
1.285714300058147
 51
15.0
  7
FX_FONT
 72
     5
 11
241.8844759999999
 21
171.343298
 31
0.0
100
AcDbText
  0
ARC
  5
B0
330
AD
100
AcDbEntity
  8
CSLAYER1
  6
CONTINUOUS
 62
     4
100
AcDbCircle
 10
209.917327
 20
217.111995
 30
0.0
 40
56.120435
100
AcDbArc
 50
270.0
 51
330.0
  0
LINE
  5
B1
330
AD
100
AcDbEntity
  8
CSLAYER1
  6
CONTINUOUS
 62
     4
100
AcDbLine
 10
209.917327
 20
160.9915589999999
 30
0.0
 11
212.815104
 21
161.7680159999999
 31
0.0
  0
LINE
  5
B2
330
AD
100
AcDbEntity
  8
CSLAYER1
  6
CONTINUOUS
 62
     4
100
AcDbLine
 10
209.917327
 20
160.9915589999999
 30
0.0
 11
212.815104
 21
160.2151019999999
 31
0.0
  0
LINE
  5
B3
330
AD
100
AcDbEntity
  8
CSLAYER1
  6
CONTINUOUS
 62
     4
100
AcDbLine
 10
258.519049
 20
189.051777
 30
0.0
 11
257.742592
 21
186.1539989999999
 31
0.0
  0
LINE
  5
B4
330
AD
100
AcDbEntity
  8
CSLAYER1
  6
CONTINUOUS
 62
     4
100
AcDbLine
 10
258.519049
 20
189.051777
 30
0.0
 11
256.397729
 21
186.9304559999999
 31
0.0
  0
LINE
  5
B5
330
AD
100
AcDbEntity
  8
CSLAYER1
  6
CONTINUOUS
 62
     4
100
AcDbLine
 10
209.917327
 20
161.6200409999999
 30
0.0
 11
209.917327
 21
159.9915589999999
 31
0.0
  0
LINE
  5
B6
330
AD
100
AcDbEntity
  8
CSLAYER1
  6
CONTINUOUS
 62
     4
100
AcDbLine
 10
256.683124
 20
190.111749
 30
0.0
 11
259.3850749999999
 21
188.551777
 31
0.0
  0
ENDBLK
  5
B7
330
AD
100
AcDbEntity
  8
0
100
AcDbBlockEnd
  0
BLOCK
  5
B9
330
B8
100
AcDbEntity
  8
0
100
AcDbBlockBegin
  2
*D12
 70
     1
 10
0.0
 20
0.0
 30
0.0
  3
*D12
  1

  0
TEXT
  5
BA
330
B8
100
AcDbEntity
  8
CSLAYER1
 62
     4
100
AcDbText
 10
98.487562
 20
186.4789599999999
 30
0.0
 40
3.2
  1
%%c36
 50
52.42929665652311
 41
1.125000058768561
 51
15.0
  7
FX_FONT
 72
     5
 11
104.3410659999999
 21
194.087935
 31
0.0
100
AcDbText
  0
LINE
  5
BB
330
B8
100
AcDbEntity
  8
CSLAYER1
  6
CONTINUOUS
 62
     4
100
AcDbLine
 10
96.322953
 20
182.845168
 30
0.0
 11
118.2735929999999
 21
211.378821
 31
0.0
  0
LINE
  5
BC
330
B8
100
AcDbEntity
  8
CSLAYER1
  6
CONTINUOUS
 62
     4
100
AcDbLine
 10
96.322953
 20
182.845168
 30
0.0
 11
97.47442200000001
 21
185.6153869999999
 31
0.0
  0
LINE
  5
BD
330
B8
100
AcDbEntity
  8
CSLAYER1
  6
CONTINUOUS
 62
     4
100
AcDbLine
 10
96.322953
 20
182.845168
 30
0.0
 11
98.705265
 21
184.668513
 31
0.0
  0
LINE
  5
BE
330
B8
100
AcDbEntity
  8
CSLAYER1
  6
CONTINUOUS
 62
     4
100
AcDbLine
 10
118.2735929999999
 20
211.378821
 30
0.0
 11
117.122123
 21
208.6086019999999
 31
0.0
  0
LINE
  5
BF
330
B8
100
AcDbEntity
  8
CSLAYER1
  6
CONTINUOUS
 62
     4
100
AcDbLine
 10
118.2735929999999
 20
211.378821
 30
0.0
 11
115.891281
 21
209.555476
 31
0.0
  0
ENDBLK
  5
C0
330
B8
100
AcDbEntity
  8
0
100
AcDbBlockEnd
  0
BLOCK
  5
C2
330
C1
100
AcDbEntity
  8
0
100
AcDbBlockBegin
  2
*D13
 70
     1
 10
0.0
 20
0.0
 30
0.0
  3
*D13
  1

  0
TEXT
  5
C3
330
C1
100
AcDbEntity
  8
CSLAYER1
 62
     4
100
AcDbText
 10
380.1024439999998
 20
92.47188800000001
 30
0.0
 40
3.2
  1
45%%d
 50
112.5000014414544
 41
1.285714224875603
 51
15.0
  7
FX_FONT
 72
     5
 11
376.428683
 21
101.3411309999999
 31
0.0
100
AcDbText
  0
ARC
  5
C4
330
C1
100
AcDbEntity
  8
CSLAYER1
  6
CONTINUOUS
 62
     4
100
AcDbCircle
 10
266.5659709999999
 20
50.639022
 30
0.0
 40
121.402778
100
AcDbArc
 50
0.0
 51
45.0
  0
LINE
  5
C5
330
C1
100
AcDbEntity
  8
CSLAYER1
  6
CONTINUOUS
 62
     4
100
AcDbLine
 10
387.968749
 20
50.639022
 30
0.0
 11
387.192292
 21
53.536799
 31
0.0
  0
LINE
  5
C6
330
C1
100
AcDbEntity
  8
CSLAYER1
  6
CONTINUOUS
 62
     4
100
AcDbLine
 10
387.968749
 20
50.639022
 30
0.0
 11
388.745206
 21
53.536799
 31
0.0
  0
LINE
  5
C7
330
C1
100
AcDbEntity
  8
CSLAYER1
  6
CONTINUOUS
 62
     4
100
AcDbLine
 10
352.410699
 20
136.4837489999999
 30
0.0
 11
355.008775
 21
134.9837489999998
 31
0.0
  0
LINE
  5
C8
330
C1
100
AcDbEntity
  8
CSLAYER1
  6
CONTINUOUS
 62
     4
100
AcDbLine
 10
352.410699
 20
136.4837489999999
 30
0.0
 11
353.910699
 21
133.885673
 31
0.0
  0
LINE
  5
C9
330
C1
100
AcDbEntity
  8
CSLAYER1
  6
CONTINUOUS
 62
     4
100
AcDbLine
 10
352.2816999999998
 20
50.639022
 30
0.0
 11
388.968749
 21
50.639022
 31
0.0
  0
ENDBLK
  5
CA
330
C1
100
AcDbEntity
  8
0
100
AcDbBlockEnd
  0
BLOCK
  5
CC
330
CB
100
AcDbEntity
  8
0
100
AcDbBlockBegin
  2
*D14
 70
     1
 10
0.0
 20
0.0
 30
0.0
  3
*D14
  1

  0
TEXT
  5
CD
330
CB
100
AcDbEntity
  8
CSLAYER1
 62
     4
100
AcDbText
 10
37.714458
 20
77.70905
 30
0.0
 40
3.2
  1
70
 50
90.0
 41
1.199999999999995
 51
15.0
  7
FX_FONT
 72
     5
 11
37.714458
 21
84.10904999999997
 31
0.0
100
AcDbText
  0
LINE
  5
CE
330
CB
100
AcDbEntity
  8
CSLAYER1
  6
CONTINUOUS
 62
     4
100
AcDbLine
 10
38.214459
 20
45.90905
 30
0.0
 11
38.214459
 21
115.90905
 31
0.0
  0
LINE
  5
CF
330
CB
100
AcDbEntity
  8
CSLAYER1
  6
CONTINUOUS
 62
     4
100
AcDbLine
 10
38.214459
 20
45.90905
 30
0.0
 11
37.438002
 21
48.806827
 31
0.0
  0
LINE
  5
D0
330
CB
100
AcDbEntity
  8
CSLAYER1
  6
CONTINUOUS
 62
     4
100
AcDbLine
 10
38.214459
 20
45.90905
 30
0.0
 11
38.990916
 21
48.806827
 31
0.0
  0
LINE
  5
D1
330
CB
100
AcDbEntity
  8
CSLAYER1
  6
CONTINUOUS
 62
     4
100
AcDbLine
 10
38.214459
 20
115.90905
 30
0.0
 11
37.438002
 21
113.0112719999999
 31
0.0
  0
LINE
  5
D2
330
CB
100
AcDbEntity
  8
CSLAYER1
  6
CONTINUOUS
 62
     4
100
AcDbLine
 10
38.214459
 20
115.90905
 30
0.0
 11
38.990916
 21
113.0112719999999
 31
0.0
  0
LINE
  5
D3
330
CB
100
AcDbEntity
  8
CSLAYER1
  6
CONTINUOUS
 62
     4
100
AcDbLine
 10
55.298273
 20
45.90905
 30
0.0
 11
37.214459
 21
45.90905
 31
0.0
  0
LINE
  5
D4
330
CB
100
AcDbEntity
  8
CSLAYER1
  6
CONTINUOUS
 62
     4
100
AcDbLine
 10
55.298273
 20
115.90905
 30
0.0
 11
37.214459
 21
115.90905
 31
0.0
  0
ENDBLK
  5
D5
330
CB
100
AcDbEntity
  8
0
100
AcDbBlockEnd
  0
BLOCK
  5
D7
330
D6
100
AcDbEntity
  8
0
100
AcDbBlockBegin
  2
*D15
 70
     1
 10
0.0
 20
0.0
 30
0.0
  3
*D15
  1

  0
TEXT
  5
D8
330
D6
100
AcDbEntity
  8
CSLAYER1
 62
     4
100
AcDbText
 10
43.714458
 20
47.80904999999999
 30
0.0
 40
3.2
  1
7
 50
90.0
 41
1.500000000000004
 51
15.0
  7
FX_FONT
 72
     5
 11
43.714458
 21
51.00905
 31
0.0
100
AcDbText
  0
LINE
  5
D9
330
D6
100
AcDbEntity
  8
CSLAYER1
  6
CONTINUOUS
 62
     4
100
AcDbLine
 10
44.21445900000001
 20
45.90905
 30
0.0
 11
44.21445900000001
 21
52.90905
 31
0.0
  0
LINE
  5
DA
330
D6
100
AcDbEntity
  8
CSLAYER1
  6
CONTINUOUS
 62
     4
100
AcDbLine
 10
44.21445900000001
 20
45.90905
 30
0.0
 11
43.438002
 21
48.806827
 31
0.0
  0
LINE
  5
DB
330
D6
100
AcDbEntity
  8
CSLAYER1
  6
CONTINUOUS
 62
     4
100
AcDbLine
 10
44.21445900000001
 20
45.90905
 30
0.0
 11
44.99091599999998
 21
48.806827
 31
0.0
  0
LINE
  5
DC
330
D6
100
AcDbEntity
  8
CSLAYER1
  6
CONTINUOUS
 62
     4
100
AcDbLine
 10
44.21445900000001
 20
52.90905
 30
0.0
 11
43.438002
 21
50.01127199999999
 31
0.0
  0
LINE
  5
DD
330
D6
100
AcDbEntity
  8
CSLAYER1
  6
CONTINUOUS
 62
     4
100
AcDbLine
 10
44.21445900000001
 20
52.90905
 30
0.0
 11
44.99091599999998
 21
50.01127199999999
 31
0.0
  0
LINE
  5
DE
330
D6
100
AcDbEntity
  8
CSLAYER1
  6
CONTINUOUS
 62
     4
100
AcDbLine
 10
64.29827299999999
 20
52.90905
 30
0.0
 11
43.214459
 21
52.90905
 31
0.0
  0
ENDBLK
  5
DF
330
D6
100
AcDbEntity
  8
0
100
AcDbBlockEnd
  0
BLOCK
  5
E1
330
E0
100
AcDbEntity
  8
0
100
AcDbBlockBegin
  2
*D16
 70
     1
 10
0.0
 20
0.0
 30
0.0
  3
*D16
  1

  0
TEXT
  5
E2
330
E0
100
AcDbEntity
  8
CSLAYER1
 62
     4
100
AcDbText
 10
43.714458
 20
55.70904999999999
 30
0.0
 40
3.2
  1
12
 50
90.0
 41
1.200000000000002
 51
15.0
  7
FX_FONT
 72
     5
 11
43.714458
 21
62.10905
 31
0.0
100
AcDbText
  0
LINE
  5
E3
330
E0
100
AcDbEntity
  8
CSLAYER1
  6
CONTINUOUS
 62
     4
100
AcDbLine
 10
44.21445900000001
 20
52.90905
 30
0.0
 11
44.21445900000001
 21
64.90904999999999
 31
0.0
  0
LINE
  5
E4
330
E0
100
AcDbEntity
  8
CSLAYER1
  6
CONTINUOUS
 62
     4
100
AcDbLine
 10
44.21445900000001
 20
52.90905
 30
0.0
 11
43.438002
 21
55.806827
 31
0.0
  0
LINE
  5
E5
330
E0
100
AcDbEntity
  8
CSLAYER1
  6
CONTINUOUS
 62
     4
100
AcDbLine
 10
44.21445900000001
 20
52.90905
 30
0.0
 11
44.99091599999998
 21
55.806827
 31
0.0
  0
LINE
  5
E6
330
E0
100
AcDbEntity
  8
CSLAYER1
  6
CONTINUOUS
 62
     4
100
AcDbLine
 10
44.21445900000001
 20
64.90904999999999
 30
0.0
 11
43.438002
 21
62.011272
 31
0.0
  0
LINE
  5
E7
330
E0
100
AcDbEntity
  8
CSLAYER1
  6
CONTINUOUS
 62
     4
100
AcDbLine
 10
44.21445900000001
 20
64.90904999999999
 30
0.0
 11
44.99091599999998
 21
62.011272
 31
0.0
  0
LINE
  5
E8
330
E0
100
AcDbEntity
  8
CSLAYER1
  6
CONTINUOUS
 62
     4
100
AcDbLine
 10
64.29827299999999
 20
64.90904999999999
 30
0.0
 11
43.214459
 21
64.90904999999999
 31
0.0
  0
ENDBLK
  5
E9
330
E0
100
AcDbEntity
  8
0
100
AcDbBlockEnd
  0
BLOCK
  5
EB
330
EA
100
AcDbEntity
  8
0
100
AcDbBlockBegin
  2
*D17
 70
     1
 10
0.0
 20
0.0
 30
0.0
  3
*D17
  1

  0
TEXT
  5
EC
330
EA
100
AcDbEntity
  8
CSLAYER1
 62
     4
100
AcDbText
 10
43.714458
 20
77.70905
 30
0.0
 40
3.2
  1
32
 50
90.0
 41
1.199999999999995
 51
15.0
  7
FX_FONT
 72
     5
 11
43.714458
 21
84.10904999999997
 31
0.0
100
AcDbText
  0
LINE
  5
ED
330
EA
100
AcDbEntity
  8
CSLAYER1
  6
CONTINUOUS
 62
     4
100
AcDbLine
 10
44.21445900000001
 20
64.90904999999999
 30
0.0
 11
44.21445900000001
 21
96.90905
 31
0.0
  0
LINE
  5
EE
330
EA
100
AcDbEntity
  8
CSLAYER1
  6
CONTINUOUS
 62
     4
100
AcDbLine
 10
44.21445900000001
 20
64.90904999999999
 30
0.0
 11
43.438002
 21
67.80682699999998
 31
0.0
  0
LINE
  5
EF
330
EA
100
AcDbEntity
  8
CSLAYER1
  6
CONTINUOUS
 62
     4
100
AcDbLine
 10
44.21445900000001
 20
64.90904999999999
 30
0.0
 11
44.99091599999998
 21
67.80682699999998
 31
0.0
  0
LINE
  5
F0
330
EA
100
AcDbEntity
  8
CSLAYER1
  6
CONTINUOUS
 62
     4
100
AcDbLine
 10
44.21445900000001
 20
96.90905
 30
0.0
 11
43.438002
 21
94.01127200000001
 31
0.0
  0
LINE
  5
F1
330
EA
100
AcDbEntity
  8
CSLAYER1
  6
CONTINUOUS
 62
     4
100
AcDbLine
 10
44.21445900000001
 20
96.90905
 30
0.0
 11
44.99091599999998
 21
94.01127200000001
 31
0.0
  0
LINE
  5
F2
330
EA
100
AcDbEntity
  8
CSLAYER1
  6
CONTINUOUS
 62
     4
100
AcDbLine
 10
64.29827299999999
 20
96.90905
 30
0.0
 11
43.214459
 21
96.90905
 31
0.0
  0
ENDBLK
  5
F3
330
EA
100
AcDbEntity
  8
0
100
AcDbBlockEnd
  0
BLOCK
  5
F5
330
F4
100
AcDbEntity
  8
0
100
AcDbBlockBegin
  2
*D18
 70
     1
 10
0.0
 20
0.0
 30
0.0
  3
*D18
  1

  0
TEXT
  5
F6
330
F4
100
AcDbEntity
  8
CSLAYER1
 62
     4
100
AcDbText
 10
43.714458
 20
99.70905000000001
 30
0.0
 40
3.2
  1
12
 50
90.0
 41
1.199999999999982
 51
15.0
  7
FX_FONT
 72
     5
 11
43.714458
 21
106.1090499999999
 31
0.0
100
AcDbText
  0
LINE
  5
F7
330
F4
100
AcDbEntity
  8
CSLAYER1
  6
CONTINUOUS
 62
     4
100
AcDbLine
 10
44.21445900000001
 20
96.90905
 30
0.0
 11
44.21445900000001
 21
108.9090499999999
 31
0.0
  0
LINE
  5
F8
330
F4
100
AcDbEntity
  8
CSLAYER1
  6
CONTINUOUS
 62
     4
100
AcDbLine
 10
44.21445900000001
 20
96.90905
 30
0.0
 11
43.438002
 21
99.806827
 31
0.0
  0
LINE
  5
F9
330
F4
100
AcDbEntity
  8
CSLAYER1
  6
CONTINUOUS
 62
     4
100
AcDbLine
 10
44.21445900000001
 20
96.90905
 30
0.0
 11
44.99091599999998
 21
99.806827
 31
0.0
  0
LINE
  5
FA
330
F4
100
AcDbEntity
  8
CSLAYER1
  6
CONTINUOUS
 62
     4
100
AcDbLine
 10
44.21445900000001
 20
108.9090499999999
 30
0.0
 11
43.438002
 21
106.011272
 31
0.0
  0
LINE
  5
FB
330
F4
100
AcDbEntity
  8
CSLAYER1
  6
CONTINUOUS
 62
     4
100
AcDbLine
 10
44.21445900000001
 20
108.9090499999999
 30
0.0
 11
44.99091599999998
 21
106.011272
 31
0.0
  0
LINE
  5
FC
330
F4
100
AcDbEntity
  8
CSLAYER1
  6
CONTINUOUS
 62
     4
100
AcDbLine
 10
64.29827299999999
 20
108.9090499999999
 30
0.0
 11
43.214459
 21
108.9090499999999
 31
0.0
  0
ENDBLK
  5
FD
330
F4
100
AcDbEntity
  8
0
100
AcDbBlockEnd
  0
BLOCK
  5
FF
330
FE
100
AcDbEntity
  8
0
100
AcDbBlockBegin
  2
*D19
 70
     1
 10
0.0
 20
0.0
 30
0.0
  3
*D19
  1

  0
TEXT
  5
100
330
FE
100
AcDbEntity
  8
CSLAYER1
 62
     4
100
AcDbText
 10
43.714458
 20
110.80905
 30
0.0
 40
3.2
  1
7
 50
90.0
 41
1.500000000000001
 51
15.0
  7
FX_FONT
 72
     5
 11
43.714458
 21
114.00905
 31
0.0
100
AcDbText
  0
LINE
  5
101
330
FE
100
AcDbEntity
  8
CSLAYER1
  6
CONTINUOUS
 62
     4
100
AcDbLine
 10
44.21445900000001
 20
108.9090499999999
 30
0.0
 11
44.21445900000001
 21
115.90905
 31
0.0
  0
LINE
  5
102
330
FE
100
AcDbEntity
  8
CSLAYER1
  6
CONTINUOUS
 62
     4
100
AcDbLine
 10
44.21445900000001
 20
108.9090499999999
 30
0.0
 11
43.438002
 21
111.8068269999999
 31
0.0
  0
LINE
  5
103
330
FE
100
AcDbEntity
  8
CSLAYER1
  6
CONTINUOUS
 62
     4
100
AcDbLine
 10
44.21445900000001
 20
108.9090499999999
 30
0.0
 11
44.99091599999998
 21
111.8068269999999
 31
0.0
  0
LINE
  5
104
330
FE
100
AcDbEntity
  8
CSLAYER1
  6
CONTINUOUS
 62
     4
100
AcDbLine
 10
44.21445900000001
 20
115.90905
 30
0.0
 11
43.438002
 21
113.0112719999999
 31
0.0
  0
LINE
  5
105
330
FE
100
AcDbEntity
  8
CSLAYER1
  6
CONTINUOUS
 62
     4
100
AcDbLine
 10
44.21445900000001
 20
115.90905
 30
0.0
 11
44.99091599999998
 21
113.0112719999999
 31
0.0
  0
ENDBLK
  5
106
330
FE
100
AcDbEntity
  8
0
100
AcDbBlockEnd
  0
BLOCK
  5
108
330
107
100
AcDbEntity
  8
0
100
AcDbBlockBegin
  2
*D20
 70
     1
 10
0.0
 20
0.0
 30
0.0
  3
*D20
  1

  0
TEXT
  5
109
330
107
100
AcDbEntity
  8
CSLAYER1
 62
     4
100
AcDbText
 10
69.168204
 20
91.122917
 30
0.0
 40
3.2
  1
6
 41
1.500000000000001
 51
15.0
  7
FX_FONT
 72
     5
 11
72.368204
 21
91.122917
 31
0.0
100
AcDbText
  0
LINE
  5
10A
330
107
100
AcDbEntity
  8
CSLAYER1
  6
CONTINUOUS
 62
     4
100
AcDbLine
 10
62.298273
 20
90.6229
 30
0.0
 11
68.29827299999999
 21
90.6229
 31
0.0
  0
LINE
  5
10B
330
107
100
AcDbEntity
  8
CSLAYER1
  6
CONTINUOUS
 62
     4
100
AcDbLine
 10
62.298273
 20
90.6229
 30
0.0
 11
65.19605
 21
91.399357
 31
0.0
  0
LINE
  5
10C
330
107
100
AcDbEntity
  8
CSLAYER1
  6
CONTINUOUS
 62
     4
100
AcDbLine
 10
62.298273
 20
90.6229
 30
0.0
 11
65.19605
 21
89.84644300000002
 31
0.0
  0
LINE
  5
10D
330
107
100
AcDbEntity
  8
CSLAYER1
  6
CONTINUOUS
 62
     4
100
AcDbLine
 10
68.29827299999999
 20
90.6229
 30
0.0
 11
65.40049499999999
 21
91.399357
 31
0.0
  0
LINE
  5
10E
330
107
100
AcDbEntity
  8
CSLAYER1
  6
CONTINUOUS
 62
     4
100
AcDbLine
 10
68.29827299999999
 20
90.6229
 30
0.0
 11
65.40049499999999
 21
89.84644300000002
 31
0.0
  0
LINE
  5
10F
330
107
100
AcDbEntity
  8
CSLAYER1
  6
CONTINUOUS
 62
     4
100
AcDbLine
 10
62.298273
 20
98.90905
 30
0.0
 11
62.298273
 21
89.62290000000001
 31
0.0
  0
LINE
  5
110
330
107
100
AcDbEntity
  8
CSLAYER1
  6
CONTINUOUS
 62
     4
100
AcDbLine
 10
68.29827299999999
 20
98.90905
 30
0.0
 11
68.29827299999999
 21
89.62290000000001
 31
0.0
  0
ENDBLK
  5
111
330
107
100
AcDbEntity
  8
0
100
AcDbBlockEnd
  0
BLOCK
  5
113
330
112
100
AcDbEntity
  8
0
100
AcDbBlockBegin
  2
FXDIM0000
 70
     0
 10
0.0
 20
0.0
 30
0.0
  3
FXDIM0000
  1

  0
LINE
  5
114
330
112
100
AcDbEntity
  8
CSLAYER1
  6
CONTINUOUS
 62
     4
100
AcDbLine
 10
320.856892
 20
122.749581
 30
0.0
 11
310.6458819999998
 21
151.6275959999999
 31
0.0
  0
CIRCLE
  5
115
330
112
100
AcDbEntity
  8
CSLAYER1
  6
CONTINUOUS
 62
     4
100
AcDbCircle
 10
320.856892
 20
122.749581
 30
0.0
 40
0.3
  0
CIRCLE
  5
116
330
112
100
AcDbEntity
  8
CSLAYER1
  6
CONTINUOUS
 62
     4
100
AcDbCircle
 10
320.856892
 20
122.749581
 30
0.0
 40
0.15
  0
LINE
  5
117
330
112
100
AcDbEntity
  8
CSLAYER1
  6
CONTINUOUS
 62
     4
100
AcDbLine
 10
310.6458819999998
 20
151.6275959999999
 30
0.0
 11
283.045881
 21
151.6275959999999
 31
0.0
  0
TEXT
  5
118
330
112
100
AcDbEntity
  8
CSLAYER1
 62
     4
100
AcDbText
 10
284.045886
 20
152.1275939999999
 30
0.0
 40
3.2
  1
GT-NR10L
 41
1.043478260869561
 51
15.0
  7
FX_FONT
 72
     5
 11
309.6458859999998
 21
152.1275939999999
 31
0.0
100
AcDbText
  0
ENDBLK
  5
119
330
112
100
AcDbEntity
  8
0
100
AcDbBlockEnd
  0
BLOCK
  5
11B
330
11A
100
AcDbEntity
  8
0
100
AcDbBlockBegin
  2
FXDIM0001
 70
     0
 10
0.0
 20
0.0
 30
0.0
  3
FXDIM0001
  1

  0
LINE
  5
11C
330
11A
100
AcDbEntity
  8
CSLAYER1
  6
CONTINUOUS
 62
     4
100
AcDbLine
 10
206.0375549999998
 20
232.346893
 30
0.0
 11
188.6820499999999
 21
240.107669
 31
0.0
  0
LINE
  5
11D
330
11A
100
AcDbEntity
  8
CSLAYER1
  6
CONTINUOUS
 62
     4
100
AcDbLine
 10
206.0375549999998
 20
232.346893
 30
0.0
 11
203.075252
 21
232.820981
 31
0.0
  0
LINE
  5
11E
330
11A
100
AcDbEntity
  8
CSLAYER1
  6
CONTINUOUS
 62
     4
100
AcDbLine
 10
206.0375549999998
 20
232.346893
 30
0.0
 11
203.709169
 21
234.238617
 31
0.0
  0
LINE
  5
11F
330
11A
100
AcDbEntity
  8
CSLAYER1
  6
CONTINUOUS
 62
     4
100
AcDbLine
 10
188.6820499999999
 20
240.107669
 30
0.0
 11
164.282049
 21
240.107669
 31
0.0
  0
TEXT
  5
120
330
11A
100
AcDbEntity
  8
CSLAYER1
 62
     4
100
AcDbText
 10
165.282055
 20
240.607666
 30
0.0
 40
3.2
  1
六角穴付ボルト
 41
0.882352980567227
 51
15.0
  7
FX_FONT
 72
     5
 11
187.682056
 21
240.607666
 31
0.0
100
AcDbText
  0
ENDBLK
  5
121
330
11A
100
AcDbEntity
  8
0
100
AcDbBlockEnd
  0
BLOCK
  5
123
330
122
100
AcDbEntity
  8
0
100
AcDbBlockBegin
  2
FXDIM0002
 70
     0
 10
0.0
 20
0.0
 30
0.0
  3
FXDIM0002
  1

  0
LINE
  5
124
330
122
100
AcDbEntity
  8
CSLAYER1
  6
CONTINUOUS
 62
     4
100
AcDbLine
 10
206.511905
 20
218.6347799999999
 30
0.0
 11
188.6820499999999
 21
226.6076689999999
 31
0.0
  0
LINE
  5
125
330
122
100
AcDbEntity
  8
CSLAYER1
  6
CONTINUOUS
 62
     4
100
AcDbLine
 10
206.511905
 20
218.6347799999999
 30
0.0
 11
203.549602
 21
219.108868
 31
0.0
  0
LINE
  5
126
330
122
100
AcDbEntity
  8
CSLAYER1
  6
CONTINUOUS
 62
     4
100
AcDbLine
 10
206.511905
 20
218.6347799999999
 30
0.0
 11
204.183519
 21
220.526504
 31
0.0
  0
LINE
  5
127
330
122
100
AcDbEntity
  8
CSLAYER1
  6
CONTINUOUS
 62
     4
100
AcDbLine
 10
188.6820499999999
 20
226.6076689999999
 30
0.0
 11
164.282049
 21
226.6076689999999
 31
0.0
  0
TEXT
  5
128
330
122
100
AcDbEntity
  8
CSLAYER1
 62
     4
100
AcDbText
 10
165.282055
 20
227.107666
 30
0.0
 40
3.2
  1
六角穴付ボルト
 41
0.882352980567227
 51
15.0
  7
FX_FONT
 72
     5
 11
187.682056
 21
227.107666
 31
0.0
100
AcDbText
  0
ENDBLK
  5
129
330
122
100
AcDbEntity
  8
0
100
AcDbBlockEnd
  0
BLOCK
  5
340
330
333
100
AcDbEntity
  8
0
100
AcDbBlockBegin
  2
*D24
 70
     1
 10
0.0
 20
0.0
 30
0.0
  3
*D24
  1

  0
LINE
  5
334
330
333
100
AcDbEntity
  8
CSLAYER1
 62
     0
100
AcDbLine
 10
209.917327
 20
162.5575409999999
 30
0.0
 11
209.917327
 21
160.8115597143054
 31
0.0
  0
LINE
  5
335
330
333
100
AcDbEntity
  8
CSLAYER1
 62
     0
100
AcDbLine
 10
255.8712245872987
 20
190.5804989992416
 30
0.0
 11
258.6749338071486
 21
188.9617766740584
 31
0.0
  0
ARC
  5
336
330
333
100
AcDbEntity
  8
CSLAYER1
 62
     0
100
AcDbCircle
 10
209.9173269999999
 20
217.111995
 30
0.0
 40
56.12043528569446
100
AcDbArc
 50
270.1837698635179
 51
299.6303926192411
  0
ARC
  5
337
330
333
100
AcDbEntity
  8
CSLAYER1
 62
     0
100
AcDbCircle
 10
209.9173269999999
 20
217.111995
 30
0.0
 40
56.12043528569446
100
AcDbArc
 50
300.3655221932276
 51
329.8162293337679
  0
SOLID
  5
338
330
333
100
AcDbEntity
  8
CSLAYER1
 62
     0
100
AcDbTrace
 10
210.0973748793519
 20
160.9618484177859
 30
0.0
 11
210.0972786577175
 21
161.0218483406308
 31
0.0
 12
209.917327
 22
160.9915597143055
 32
0.0
 13
209.917327
 23
160.9915597143055
 33
0.0
  0
SOLID
  5
339
330
333
100
AcDbEntity
  8
CSLAYER1
 62
     0
100
AcDbTrace
 10
258.4028426850547
 20
188.9110782839965
 30
0.0
 11
258.454756031225
 21
188.8809949914671
 31
0.0
 12
258.5190492357281
 22
189.0517766762425
 32
0.0
 13
258.5190492357281
 23
189.0517766762425
 33
0.0
  0
MTEXT
  5
33A
330
333
100
AcDbEntity
  8
CSLAYER1
 62
     0
100
AcDbMText
 10
237.9775443023921
 20
168.510272174586
 30
0.0
 40
0.18
 41
0.0
 71
     5
 72
     1
  1
\A1;60°
1001
ACAD
1000
MTEXTBEGIN
1070
    73
1070
     1
1070
    44
1040
1.0
1070
    74
1070
     0
1000
MTEXTEND
  0
POINT
  5
33B
330
333
100
AcDbEntity
  8
DEFPOINTS
 62
     0
100
AcDbPoint
 10
229.1116460736351
 20
164.3760359971021
 30
0.0
  0
POINT
  5
33C
330
333
100
AcDbEntity
  8
DEFPOINTS
 62
     0
100
AcDbPoint
 10
209.917327
 20
217.111995
 30
0.0
  0
POINT
  5
33D
330
333
100
AcDbEntity
  8
DEFPOINTS
 62
     0
100
AcDbPoint
 10
255.8170979999999
 20
190.6117489999999
 30
0.0
  0
POINT
  5
33E
330
333
100
AcDbEntity
  8
DEFPOINTS
 62
     0
100
AcDbPoint
 10
209.917327
 20
217.111995
 30
0.0
  0
POINT
  5
33F
330
333
100
AcDbEntity
  8
DEFPOINTS
 62
     0
100
AcDbPoint
 10
209.9173269999999
 20
162.6200409999999
 30
0.0
  0
ENDBLK
  5
341
330
333
100
AcDbEntity
  8
0
100
AcDbBlockEnd
  0
BLOCK
  5
34E
330
342
100
AcDbEntity
  8
0
100
AcDbBlockBegin
  2
*D25
 70
     1
 10
0.0
 20
0.0
 30
0.0
  3
*D25
  1

  0
LINE
  5
343
330
342
100
AcDbEntity
  8
CSLAYER1
 62
     0
100
AcDbLine
 10
351.3441999999998
 20
50.63902199999998
 30
0.0
 11
388.1487488994546
 21
50.63902200000001
 31
0.0
  0
ARC
  5
344
330
342
100
AcDbEntity
  8
CSLAYER1
 62
     0
100
AcDbCircle
 10
266.5659709999999
 20
50.63902199999998
 30
0.0
 40
121.4027778994545
100
AcDbArc
 50
0.0849506200389325
 51
22.40808045769989
  0
ARC
  5
345
330
342
100
AcDbEntity
  8
CSLAYER1
 62
     0
100
AcDbCircle
 10
266.5659709999999
 20
50.63902199999998
 30
0.0
 40
121.4027778994545
100
AcDbArc
 50
22.59198033728698
 51
44.91504905188751
  0
SOLID
  5
346
330
342
100
AcDbEntity
  8
CSLAYER1
 62
     0
100
AcDbTrace
 10
387.9986154511014
 20
50.81904419055646
 30
0.0
 11
387.9386154675886
 21
50.81899971051988
 31
0.0
 12
387.9687488994546
 22
50.63902200000002
 32
0.0
 13
387.9687488994546
 23
50.63902200000002
 33
0.0
  0
SOLID
  5
347
330
342
100
AcDbEntity
  8
CSLAYER1
 62
     0
100
AcDbTrace
 10
352.5166549038398
 20
136.3351780018542
 30
0.0
 11
352.5591127514311
 21
136.3775729446885
 31
0.0
 12
352.4106989991325
 22
136.4837490160447
 32
0.0
 13
352.4106989991325
 23
136.4837490160447
 33
0.0
  0
MTEXT
  5
348
330
342
100
AcDbEntity
  8
CSLAYER1
 62
     0
100
AcDbMText
 10
378.7275128243305
 20
97.09785342410356
 30
0.0
 40
0.18
 41
0.0
 71
     5
 72
     1
  1
\A1;45°
1001
ACAD
1000
MTEXTBEGIN
1070
    73
1070
     1
1070
    44
1040
1.0
1070
    74
1070
     0
1000
MTEXTEND
  0
POINT
  5
349
330
342
100
AcDbEntity
  8
DEFPOINTS
 62
     0
100
AcDbPoint
 10
383.8320496162913
 20
82.06037282490983
 30
0.0
  0
POINT
  5
34A
330
342
100
AcDbEntity
  8
DEFPOINTS
 62
     0
100
AcDbPoint
 10
281.2816999999999
 20
50.63902199999999
 30
0.0
  0
POINT
  5
34B
330
342
100
AcDbEntity
  8
DEFPOINTS
 62
     0
100
AcDbPoint
 10
353.8875039999998
 20
137.960554
 30
0.0
  0
POINT
  5
34C
330
342
100
AcDbEntity
  8
DEFPOINTS
 62
     0
100
AcDbPoint
 10
266.5659709999999
 20
50.63902199999999
 30
0.0
  0
POINT
  5
34D
330
342
100
AcDbEntity
  8
DEFPOINTS
 62
     0
100
AcDbPoint
 10
351.2817
 20
50.63902199999998
 30
0.0
  0
ENDBLK
  5
34F
330
342
100
AcDbEntity
  8
0
100
AcDbBlockEnd
  0
ENDSEC
  0
SECTION
  2
ENTITIES
  0
POINT
  5
12A
330
1E
100
AcDbEntity
  8
CSLAYER1
 62
     3
100
AcDbPoint
 10
10.0
 20
3.0
 30
0.0
  0
POINT
  5
12B
330
1E
100
AcDbEntity
  8
CSLAYER1
 62
     3
100
AcDbPoint
 10
365.5
 20
20.5
 30
0.0
  0
LINE
  5
12C
330
1E
100
AcDbEntity
  8
CSLAYER1
  6
CENTER
 62
     4
100
AcDbLine
 10
107.2982729999999
 20
242.0341509999999
 30
0.0
 11
107.2982729999999
 21
161.688399
 31
0.0
  0
LINE
  5
12D
330
1E
100
AcDbEntity
  8
CSLAYER1
  6
CONTINUOUS
 62
     3
100
AcDbLine
 10
81.298273
 20
223.111995
 30
0.0
 11
81.298273
 21
159.111995
 31
0.0
  0
LINE
  5
12E
330
1E
100
AcDbEntity
  8
CSLAYER1
  6
CONTINUOUS
 62
     3
100
AcDbLine
 10
81.298273
 20
171.111995
 30
0.0
 11
133.2982729999999
 21
171.111995
 31
0.0
  0
LINE
  5
12F
330
1E
100
AcDbEntity
  8
CSLAYER1
  6
CONTINUOUS
 62
     3
100
AcDbLine
 10
78.29827299999998
 20
223.111995
 30
0.0
 11
96.298273
 21
223.111995
 31
0.0
  0
LINE
  5
130
330
1E
100
AcDbEntity
  8
CSLAYER1
  6
CONTINUOUS
 62
     3
100
AcDbLine
 10
133.2982729999999
 20
223.111995
 30
0.0
 11
133.2982729999999
 21
159.111995
 31
0.0
  0
LINE
  5
131
330
1E
100
AcDbEntity
  8
CSLAYER1
  6
CONTINUOUS
 62
     3
100
AcDbLine
 10
96.298273
 20
238.1119949999999
 30
0.0
 11
106.2982729999999
 21
238.1119949999999
 31
0.0
  0
LINE
  5
132
330
1E
100
AcDbEntity
  8
CSLAYER1
  6
CONTINUOUS
 62
     3
100
AcDbLine
 10
108.2982729999999
 20
238.1119949999999
 30
0.0
 11
108.2982729999999
 21
215.084195
 31
0.0
  0
LINE
  5
133
330
1E
100
AcDbEntity
  8
CSLAYER1
  6
CONTINUOUS
 62
     3
100
AcDbLine
 10
106.2982729999999
 20
238.1119949999999
 30
0.0
 11
106.2982729999999
 21
215.084195
 31
0.0
  0
LINE
  5
134
330
1E
100
AcDbEntity
  8
CSLAYER1
  6
CONTINUOUS
 62
     3
100
AcDbLine
 10
118.2982729999999
 20
238.1119949999999
 30
0.0
 11
118.2982729999999
 21
223.111995
 31
0.0
  0
LINE
  5
135
330
1E
100
AcDbEntity
  8
CSLAYER1
  6
CONTINUOUS
 62
     3
100
AcDbLine
 10
96.298273
 20
238.1119949999999
 30
0.0
 11
96.298273
 21
223.111995
 31
0.0
  0
LINE
  5
136
330
1E
100
AcDbEntity
  8
CSLAYER1
  6
CONTINUOUS
 62
     3
100
AcDbLine
 10
108.2982729999999
 20
238.1119949999999
 30
0.0
 11
118.2982729999999
 21
238.1119949999999
 31
0.0
  0
LINE
  5
137
330
1E
100
AcDbEntity
  8
CSLAYER1
  6
CONTINUOUS
 62
     3
100
AcDbLine
 10
118.2982729999999
 20
223.111995
 30
0.0
 11
136.2982729999999
 21
223.111995
 31
0.0
  0
LINE
  5
138
330
1E
100
AcDbEntity
  8
CSLAYER1
  6
CENTER
 62
     4
100
AcDbLine
 10
92.593291
 20
230.611995
 30
0.0
 11
126.4108659999999
 21
230.611995
 31
0.0
  0
LINE
  5
139
330
1E
100
AcDbEntity
  8
CSLAYER1
  6
DASHED
 62
     4
100
AcDbLine
 10
108.2982729999999
 20
233.311995
 30
0.0
 11
118.2982729999999
 21
233.311995
 31
0.0
  0
LINE
  5
13A
330
1E
100
AcDbEntity
  8
CSLAYER1
  6
DASHED
 62
     4
100
AcDbLine
 10
108.2982729999999
 20
227.911995
 30
0.0
 11
118.2982729999999
 21
227.911995
 31
0.0
  0
LINE
  5
13B
330
1E
100
AcDbEntity
  8
CSLAYER1
  6
CONTINUOUS
 62
     3
100
AcDbLine
 10
124.298273
 20
234.861995
 30
0.0
 11
119.5982729999998
 21
234.861995
 31
0.0
  0
LINE
  5
13C
330
1E
100
AcDbEntity
  8
CSLAYER1
  6
CONTINUOUS
 62
     3
100
AcDbLine
 10
124.5982729999999
 20
234.342379
 30
0.0
 11
124.5982729999999
 21
226.88161
 31
0.0
  0
LINE
  5
13D
330
1E
100
AcDbEntity
  8
CSLAYER1
  6
CONTINUOUS
 62
     3
100
AcDbLine
 10
124.298273
 20
226.361995
 30
0.0
 11
119.5982729999998
 21
226.361995
 31
0.0
  0
LINE
  5
13E
330
1E
100
AcDbEntity
  8
CSLAYER1
  6
CONTINUOUS
 62
     3
100
AcDbLine
 10
124.298273
 20
234.861995
 30
0.0
 11
124.298273
 21
226.361995
 31
0.0
  0
LINE
  5
13F
330
1E
100
AcDbEntity
  8
CSLAYER1
  6
CONTINUOUS
 62
     3
100
AcDbLine
 10
124.298273
 20
226.361995
 30
0.0
 11
124.5982729999999
 21
226.88161
 31
0.0
  0
LINE
  5
140
330
1E
100
AcDbEntity
  8
CSLAYER1
  6
CONTINUOUS
 62
     3
100
AcDbLine
 10
124.298273
 20
234.861995
 30
0.0
 11
124.5982729999999
 21
234.342379
 31
0.0
  0
LINE
  5
141
330
1E
100
AcDbEntity
  8
CSLAYER1
  6
DASHED
 62
     4
100
AcDbLine
 10
118.2982729999999
 20
228.111995
 30
0.0
 11
108.2982729999999
 21
228.111995
 31
0.0
  0
LINE
  5
142
330
1E
100
AcDbEntity
  8
CSLAYER1
  6
DASHED
 62
     4
100
AcDbLine
 10
118.2982729999999
 20
228.511995
 30
0.0
 11
108.2982729999999
 21
228.511995
 31
0.0
  0
LINE
  5
143
330
1E
100
AcDbEntity
  8
CSLAYER1
  6
DASHED
 62
     4
100
AcDbLine
 10
118.2982729999999
 20
233.111995
 30
0.0
 11
108.2982729999999
 21
233.111995
 31
0.0
  0
LINE
  5
144
330
1E
100
AcDbEntity
  8
CSLAYER1
  6
DASHED
 62
     4
100
AcDbLine
 10
118.2982729999999
 20
232.711995
 30
0.0
 11
108.2982729999999
 21
232.711995
 31
0.0
  0
LINE
  5
145
330
1E
100
AcDbEntity
  8
CSLAYER1
  6
DASHED
 62
     4
100
AcDbLine
 10
106.2982729999999
 20
233.111995
 30
0.0
 11
96.298273
 21
233.111995
 31
0.0
  0
LINE
  5
146
330
1E
100
AcDbEntity
  8
CSLAYER1
  6
DASHED
 62
     4
100
AcDbLine
 10
106.2982729999999
 20
232.711995
 30
0.0
 11
96.298273
 21
232.711995
 31
0.0
  0
LINE
  5
147
330
1E
100
AcDbEntity
  8
CSLAYER1
  6
DASHED
 62
     4
100
AcDbLine
 10
106.2982729999999
 20
228.511995
 30
0.0
 11
96.298273
 21
228.511995
 31
0.0
  0
LINE
  5
148
330
1E
100
AcDbEntity
  8
CSLAYER1
  6
DASHED
 62
     4
100
AcDbLine
 10
106.2982729999999
 20
228.111995
 30
0.0
 11
96.298273
 21
228.111995
 31
0.0
  0
LINE
  5
149
330
1E
100
AcDbEntity
  8
CSLAYER1
  6
CONTINUOUS
 62
     3
100
AcDbLine
 10
108.2982729999999
 20
228.111995
 30
0.0
 11
106.2982729999999
 21
228.111995
 31
0.0
  0
LINE
  5
14A
330
1E
100
AcDbEntity
  8
CSLAYER1
  6
CONTINUOUS
 62
     4
100
AcDbLine
 10
108.2982729999999
 20
228.511995
 30
0.0
 11
106.2982729999999
 21
228.511995
 31
0.0
  0
LINE
  5
14B
330
1E
100
AcDbEntity
  8
CSLAYER1
  6
CONTINUOUS
 62
     4
100
AcDbLine
 10
108.2982729999999
 20
232.711995
 30
0.0
 11
106.2982729999999
 21
232.711995
 31
0.0
  0
LINE
  5
14C
330
1E
100
AcDbEntity
  8
CSLAYER1
  6
CONTINUOUS
 62
     3
100
AcDbLine
 10
108.2982729999999
 20
233.111995
 30
0.0
 11
106.2982729999999
 21
233.111995
 31
0.0
  0
LINE
  5
14D
330
1E
100
AcDbEntity
  8
CSLAYER1
  6
DASHED
 62
     4
100
AcDbLine
 10
99.598273
 20
233.111995
 30
0.0
 11
99.598273
 21
228.111995
 31
0.0
  0
LINE
  5
14E
330
1E
100
AcDbEntity
  8
CSLAYER1
  6
CENTER
 62
     4
100
AcDbLine
 10
119.111811
 20
177.111995
 30
0.0
 11
146.4352409999999
 21
177.111995
 31
0.0
  0
LINE
  5
14F
330
1E
100
AcDbEntity
  8
CSLAYER1
  6
CENTER
 62
     4
100
AcDbLine
 10
119.111811
 20
217.111995
 30
0.0
 11
146.4352409999999
 21
217.111995
 31
0.0
  0
LINE
  5
150
330
1E
100
AcDbEntity
  8
CSLAYER1
  6
CENTER
 62
     4
100
AcDbLine
 10
95.484734
 20
177.111995
 30
0.0
 11
68.726252
 21
177.111995
 31
0.0
  0
LINE
  5
151
330
1E
100
AcDbEntity
  8
CSLAYER1
  6
CENTER
 62
     4
100
AcDbLine
 10
95.484734
 20
217.111995
 30
0.0
 11
68.134559
 21
217.111995
 31
0.0
  0
LINE
  5
152
330
1E
100
AcDbEntity
  8
CSLAYER1
  6
DASHED
 62
     4
100
AcDbLine
 10
217.417327
 20
223.111995
 30
0.0
 11
217.417327
 21
180.8801019999999
 31
0.0
  0
LINE
  5
153
330
1E
100
AcDbEntity
  8
CSLAYER1
  6
DASHED
 62
     4
100
AcDbLine
 10
217.417327
 20
171.111995
 30
0.0
 11
202.4173269999999
 21
171.111995
 31
0.0
  0
LINE
  5
154
330
1E
100
AcDbEntity
  8
CSLAYER1
  6
CONTINUOUS
 62
     3
100
AcDbLine
 10
217.417327
 20
238.1119949999999
 30
0.0
 11
202.4173269999999
 21
238.1119949999999
 31
0.0
  0
LINE
  5
155
330
1E
100
AcDbEntity
  8
CSLAYER1
  6
CONTINUOUS
 62
     3
100
AcDbLine
 10
202.4173269999999
 20
223.111995
 30
0.0
 11
207.690221
 21
223.111995
 31
0.0
  0
LINE
  5
156
330
1E
100
AcDbEntity
  8
CSLAYER1
  6
CENTER
 62
     4
100
AcDbLine
 10
223.0612049999999
 20
177.111995
 30
0.0
 11
197.229608
 21
177.111995
 31
0.0
  0
LINE
  5
157
330
1E
100
AcDbEntity
  8
CSLAYER1
  6
CENTER
 62
     4
100
AcDbLine
 10
221.758771
 20
217.111995
 30
0.0
 11
197.6637519999999
 21
217.111995
 31
0.0
  0
LINE
  5
158
330
1E
100
AcDbEntity
  8
CSLAYER1
  6
CENTER
 62
     4
100
AcDbLine
 10
209.917327
 20
162.6200409999999
 30
0.0
 11
209.917327
 21
247.278216
 31
0.0
  0
LINE
  5
159
330
1E
100
AcDbEntity
  8
CSLAYER1
  6
CENTER
 62
     4
100
AcDbLine
 10
220.4563379999999
 20
230.611995
 30
0.0
 11
199.6174029999999
 21
230.611995
 31
0.0
  0
CIRCLE
  5
15A
330
1E
100
AcDbEntity
  8
CSLAYER1
  6
CONTINUOUS
 62
     3
100
AcDbCircle
 10
209.917327
 20
230.611995
 30
0.0
 40
4.25
  0
CIRCLE
  5
15B
330
1E
100
AcDbEntity
  8
CSLAYER1
  6
CONTINUOUS
 62
     3
100
AcDbCircle
 10
209.917327
 20
230.611995
 30
0.0
 40
3.730385
  0
LINE
  5
15C
330
1E
100
AcDbEntity
  8
CSLAYER1
  6
CONTINUOUS
 62
     3
100
AcDbLine
 10
208.7626259999999
 20
228.611995
 30
0.0
 11
211.0720269999999
 21
228.611995
 31
0.0
  0
LINE
  5
15D
330
1E
100
AcDbEntity
  8
CSLAYER1
  6
CONTINUOUS
 62
     3
100
AcDbLine
 10
207.6079249999999
 20
230.611995
 30
0.0
 11
208.7626259999999
 21
228.611995
 31
0.0
  0
LINE
  5
15E
330
1E
100
AcDbEntity
  8
CSLAYER1
  6
CONTINUOUS
 62
     3
100
AcDbLine
 10
208.7626259999999
 20
232.611995
 30
0.0
 11
207.6079249999999
 21
230.611995
 31
0.0
  0
LINE
  5
15F
330
1E
100
AcDbEntity
  8
CSLAYER1
  6
CONTINUOUS
 62
     3
100
AcDbLine
 10
211.0720269999999
 20
232.611995
 30
0.0
 11
208.7626259999999
 21
232.611995
 31
0.0
  0
LINE
  5
160
330
1E
100
AcDbEntity
  8
CSLAYER1
  6
CONTINUOUS
 62
     3
100
AcDbLine
 10
212.2267279999999
 20
230.611995
 30
0.0
 11
211.0720269999999
 21
232.611995
 31
0.0
  0
LINE
  5
161
330
1E
100
AcDbEntity
  8
CSLAYER1
  6
CONTINUOUS
 62
     3
100
AcDbLine
 10
211.0720269999999
 20
228.611995
 30
0.0
 11
212.2267279999999
 21
230.611995
 31
0.0
  0
CIRCLE
  5
162
330
1E
100
AcDbEntity
  8
CSLAYER1
  6
CONTINUOUS
 62
     3
100
AcDbCircle
 10
209.917327
 20
217.111995
 30
0.0
 40
4.25
  0
CIRCLE
  5
163
330
1E
100
AcDbEntity
  8
CSLAYER1
  6
CONTINUOUS
 62
     3
100
AcDbCircle
 10
209.917327
 20
217.111995
 30
0.0
 40
3.730385
  0
LINE
  5
164
330
1E
100
AcDbEntity
  8
CSLAYER1
  6
CONTINUOUS
 62
     3
100
AcDbLine
 10
208.7626259999999
 20
215.111995
 30
0.0
 11
211.0720269999999
 21
215.111995
 31
0.0
  0
LINE
  5
165
330
1E
100
AcDbEntity
  8
CSLAYER1
  6
CONTINUOUS
 62
     3
100
AcDbLine
 10
207.6079249999999
 20
217.111995
 30
0.0
 11
208.7626259999999
 21
215.111995
 31
0.0
  0
LINE
  5
166
330
1E
100
AcDbEntity
  8
CSLAYER1
  6
CONTINUOUS
 62
     3
100
AcDbLine
 10
208.7626259999999
 20
219.111995
 30
0.0
 11
207.6079249999999
 21
217.111995
 31
0.0
  0
LINE
  5
167
330
1E
100
AcDbEntity
  8
CSLAYER1
  6
CONTINUOUS
 62
     3
100
AcDbLine
 10
211.0720269999999
 20
219.111995
 30
0.0
 11
208.7626259999999
 21
219.111995
 31
0.0
  0
LINE
  5
168
330
1E
100
AcDbEntity
  8
CSLAYER1
  6
CONTINUOUS
 62
     3
100
AcDbLine
 10
212.2267279999999
 20
217.111995
 30
0.0
 11
211.0720269999999
 21
219.111995
 31
0.0
  0
LINE
  5
169
330
1E
100
AcDbEntity
  8
CSLAYER1
  6
CONTINUOUS
 62
     3
100
AcDbLine
 10
211.0720269999999
 20
215.111995
 30
0.0
 11
212.2267279999999
 21
217.111995
 31
0.0
  0
CIRCLE
  5
16A
330
1E
100
AcDbEntity
  8
CSLAYER1
  6
CONTINUOUS
 62
     3
100
AcDbCircle
 10
209.917327
 20
177.111995
 30
0.0
 40
4.25
  0
CIRCLE
  5
16B
330
1E
100
AcDbEntity
  8
CSLAYER1
  6
CONTINUOUS
 62
     3
100
AcDbCircle
 10
209.917327
 20
177.111995
 30
0.0
 40
3.730385
  0
LINE
  5
16C
330
1E
100
AcDbEntity
  8
CSLAYER1
  6
CONTINUOUS
 62
     3
100
AcDbLine
 10
208.7626259999999
 20
175.111995
 30
0.0
 11
211.0720269999999
 21
175.111995
 31
0.0
  0
LINE
  5
16D
330
1E
100
AcDbEntity
  8
CSLAYER1
  6
CONTINUOUS
 62
     3
100
AcDbLine
 10
207.6079249999999
 20
177.111995
 30
0.0
 11
208.7626259999999
 21
175.111995
 31
0.0
  0
LINE
  5
16E
330
1E
100
AcDbEntity
  8
CSLAYER1
  6
CONTINUOUS
 62
     3
100
AcDbLine
 10
208.7626259999999
 20
179.111995
 30
0.0
 11
207.6079249999999
 21
177.111995
 31
0.0
  0
LINE
  5
16F
330
1E
100
AcDbEntity
  8
CSLAYER1
  6
CONTINUOUS
 62
     3
100
AcDbLine
 10
211.0720269999999
 20
179.111995
 30
0.0
 11
208.7626259999999
 21
179.111995
 31
0.0
  0
LINE
  5
170
330
1E
100
AcDbEntity
  8
CSLAYER1
  6
CONTINUOUS
 62
     3
100
AcDbLine
 10
212.2267279999999
 20
177.111995
 30
0.0
 11
211.0720269999999
 21
179.111995
 31
0.0
  0
LINE
  5
171
330
1E
100
AcDbEntity
  8
CSLAYER1
  6
CONTINUOUS
 62
     3
100
AcDbLine
 10
211.0720269999999
 20
175.111995
 30
0.0
 11
212.2267279999999
 21
177.111995
 31
0.0
  0
LINE
  5
172
330
1E
100
AcDbEntity
  8
CSLAYER1
  6
CONTINUOUS
 62
     3
100
AcDbLine
 10
136.2982729999999
 20
223.511995
 30
0.0
 11
136.2982729999999
 21
159.111995
 31
0.0
  0
LINE
  5
173
330
1E
100
AcDbEntity
  8
CSLAYER1
  6
CONTINUOUS
 62
     3
100
AcDbLine
 10
136.2982729999999
 20
156.111995
 30
0.0
 11
158.2982729999999
 21
156.111995
 31
0.0
  0
LINE
  5
174
330
1E
100
AcDbEntity
  8
CSLAYER1
  6
CONTINUOUS
 62
     3
100
AcDbLine
 10
136.2982729999999
 20
159.111995
 30
0.0
 11
158.2982729999999
 21
159.111995
 31
0.0
  0
LINE
  5
175
330
1E
100
AcDbEntity
  8
CSLAYER1
  6
CONTINUOUS
 62
     3
100
AcDbLine
 10
158.2982729999999
 20
159.111995
 30
0.0
 11
158.2982729999999
 21
156.111995
 31
0.0
  0
LINE
  5
176
330
1E
100
AcDbEntity
  8
CSLAYER1
  6
CONTINUOUS
 62
     3
100
AcDbLine
 10
191.9173269999999
 20
156.111995
 30
0.0
 11
261.917327
 21
156.111995
 31
0.0
  0
LINE
  5
177
330
1E
100
AcDbEntity
  8
CSLAYER1
  6
CONTINUOUS
 62
     3
100
AcDbLine
 10
191.9173269999999
 20
159.111995
 30
0.0
 11
261.917327
 21
159.111995
 31
0.0
  0
LINE
  5
178
330
1E
100
AcDbEntity
  8
CSLAYER1
  6
CONTINUOUS
 62
     3
100
AcDbLine
 10
191.9173269999999
 20
156.111995
 30
0.0
 11
191.9173269999999
 21
208.111995
 31
0.0
  0
ARC
  5
179
330
1E
100
AcDbEntity
  8
CSLAYER1
  6
CENTER
 62
     4
100
AcDbCircle
 10
209.917327
 20
217.111995
 30
0.0
 40
40.0
100
AcDbArc
 50
270.0
 51
337.1874439999998
  0
LINE
  5
17A
330
1E
100
AcDbEntity
  8
CSLAYER1
  6
CENTER
 62
     4
100
AcDbLine
 10
200.0605629999999
 20
222.8028
 30
0.0
 11
255.8170979999999
 21
190.6117489999999
 31
0.0
  0
ARC
  5
17B
330
1E
100
AcDbEntity
  8
CSLAYER1
  6
DASHED
 62
     4
100
AcDbCircle
 10
209.917327
 20
217.111995
 30
0.0
 40
37.0
100
AcDbArc
 50
274.4846299999999
 51
278.427266
  0
ARC
  5
17C
330
1E
100
AcDbEntity
  8
CSLAYER1
  6
DASHED
 62
     4
100
AcDbCircle
 10
209.917327
 20
217.111995
 30
0.0
 40
43.0
100
AcDbArc
 50
274.159851
 51
277.8162529999999
  0
ARC
  5
17D
330
1E
100
AcDbEntity
  8
CSLAYER1
  6
CONTINUOUS
 62
     3
100
AcDbCircle
 10
244.558343
 20
197.111995
 30
0.0
 40
3.0
100
AcDbArc
 50
330.0
 51
150.0
  0
LINE
  5
17E
330
1E
100
AcDbEntity
  8
CSLAYER1
  6
CONTINUOUS
 62
     3
100
AcDbLine
 10
261.917327
 20
156.111995
 30
0.0
 11
261.917327
 21
193.111995
 31
0.0
  0
LINE
  5
17F
330
1E
100
AcDbEntity
  8
CSLAYER1
  6
CONTINUOUS
 62
     3
100
AcDbLine
 10
202.4173269999999
 20
218.611995
 30
0.0
 11
202.4173269999999
 21
238.1119949999999
 31
0.0
  0
LINE
  5
180
330
1E
100
AcDbEntity
  8
CSLAYER1
  6
CONTINUOUS
 62
     3
100
AcDbLine
 10
217.417327
 20
223.111995
 30
0.0
 11
217.417327
 21
238.1119949999999
 31
0.0
  0
LINE
  5
181
330
1E
100
AcDbEntity
  8
CSLAYER1
  6
DASHED
 62
     4
100
AcDbLine
 10
202.4173269999999
 20
171.111995
 30
0.0
 11
202.4173269999999
 21
218.611995
 31
0.0
  0
LINE
  5
182
330
1E
100
AcDbEntity
  8
CSLAYER1
  6
CONTINUOUS
 62
     3
100
AcDbLine
 10
217.417327
 20
174.7711159999999
 30
0.0
 11
217.417327
 21
180.8801019999999
 31
0.0
  0
LINE
  5
183
330
1E
100
AcDbEntity
  8
CSLAYER1
  6
CONTINUOUS
 62
     3
100
AcDbLine
 10
141.998273
 20
221.361995
 30
0.0
 11
137.2982729999999
 21
221.361995
 31
0.0
  0
LINE
  5
184
330
1E
100
AcDbEntity
  8
CSLAYER1
  6
CONTINUOUS
 62
     3
100
AcDbLine
 10
142.298273
 20
220.8423789999999
 30
0.0
 11
142.298273
 21
213.38161
 31
0.0
  0
LINE
  5
185
330
1E
100
AcDbEntity
  8
CSLAYER1
  6
CONTINUOUS
 62
     3
100
AcDbLine
 10
141.998273
 20
212.861995
 30
0.0
 11
137.2982729999999
 21
212.861995
 31
0.0
  0
LINE
  5
186
330
1E
100
AcDbEntity
  8
CSLAYER1
  6
CONTINUOUS
 62
     3
100
AcDbLine
 10
141.998273
 20
221.361995
 30
0.0
 11
141.998273
 21
212.861995
 31
0.0
  0
LINE
  5
187
330
1E
100
AcDbEntity
  8
CSLAYER1
  6
CONTINUOUS
 62
     3
100
AcDbLine
 10
141.998273
 20
212.861995
 30
0.0
 11
142.298273
 21
213.38161
 31
0.0
  0
LINE
  5
188
330
1E
100
AcDbEntity
  8
CSLAYER1
  6
CONTINUOUS
 62
     3
100
AcDbLine
 10
141.998273
 20
221.361995
 30
0.0
 11
142.298273
 21
220.8423789999999
 31
0.0
  0
LINE
  5
189
330
1E
100
AcDbEntity
  8
CSLAYER1
  6
CONTINUOUS
 62
     3
100
AcDbLine
 10
78.29827299999998
 20
223.511995
 30
0.0
 11
78.29827299999998
 21
159.111995
 31
0.0
  0
LINE
  5
18A
330
1E
100
AcDbEntity
  8
CSLAYER1
  6
CONTINUOUS
 62
     3
100
AcDbLine
 10
78.29827299999998
 20
156.111995
 30
0.0
 11
56.29827299999998
 21
156.111995
 31
0.0
  0
LINE
  5
18B
330
1E
100
AcDbEntity
  8
CSLAYER1
  6
CONTINUOUS
 62
     3
100
AcDbLine
 10
78.29827299999998
 20
159.111995
 30
0.0
 11
56.29827299999998
 21
159.111995
 31
0.0
  0
LINE
  5
18C
330
1E
100
AcDbEntity
  8
CSLAYER1
  6
CONTINUOUS
 62
     3
100
AcDbLine
 10
56.29827299999998
 20
159.111995
 30
0.0
 11
56.29827299999998
 21
156.111995
 31
0.0
  0
LINE
  5
18D
330
1E
100
AcDbEntity
  8
CSLAYER1
  6
CONTINUOUS
 62
     3
100
AcDbLine
 10
56.29827299999998
 20
45.90905
 30
0.0
 11
81.298273
 21
45.90905
 31
0.0
  0
LINE
  5
18E
330
1E
100
AcDbEntity
  8
CSLAYER1
  6
CONTINUOUS
 62
     3
100
AcDbLine
 10
56.29827299999998
 20
115.90905
 30
0.0
 11
81.298273
 21
115.90905
 31
0.0
  0
LINE
  5
18F
330
1E
100
AcDbEntity
  8
CSLAYER1
  6
CONTINUOUS
 62
     3
100
AcDbLine
 10
56.29827299999998
 20
45.90905
 30
0.0
 11
56.29827299999998
 21
115.90905
 31
0.0
  0
LINE
  5
190
330
1E
100
AcDbEntity
  8
CSLAYER1
  6
CONTINUOUS
 62
     3
100
AcDbLine
 10
158.2982729999999
 20
45.90905
 30
0.0
 11
158.2982729999999
 21
115.90905
 31
0.0
  0
LINE
  5
191
330
1E
100
AcDbEntity
  8
CSLAYER1
  6
CONTINUOUS
 62
     3
100
AcDbLine
 10
133.2982729999999
 20
45.90905
 30
0.0
 11
133.2982729999999
 21
115.90905
 31
0.0
  0
LINE
  5
192
330
1E
100
AcDbEntity
  8
CSLAYER1
  6
CONTINUOUS
 62
     3
100
AcDbLine
 10
81.298273
 20
45.90905
 30
0.0
 11
81.298273
 21
115.90905
 31
0.0
  0
LINE
  5
193
330
1E
100
AcDbEntity
  8
CSLAYER1
  6
CONTINUOUS
 62
     3
100
AcDbLine
 10
81.298273
 20
105.40905
 30
0.0
 11
133.2982729999999
 21
105.40905
 31
0.0
  0
LINE
  5
194
330
1E
100
AcDbEntity
  8
CSLAYER1
  6
CONTINUOUS
 62
     3
100
AcDbLine
 10
81.298273
 20
90.40905
 30
0.0
 11
133.2982729999999
 21
90.40905
 31
0.0
  0
LINE
  5
195
330
1E
100
AcDbEntity
  8
CSLAYER1
  6
CONTINUOUS
 62
     3
100
AcDbLine
 10
133.2982729999999
 20
45.90905
 30
0.0
 11
158.2982729999999
 21
45.90905
 31
0.0
  0
LINE
  5
196
330
1E
100
AcDbEntity
  8
CSLAYER1
  6
CONTINUOUS
 62
     3
100
AcDbLine
 10
133.2982729999999
 20
115.90905
 30
0.0
 11
158.2982729999999
 21
115.90905
 31
0.0
  0
LINE
  5
197
330
1E
100
AcDbEntity
  8
CSLAYER1
  6
CENTER
 62
     4
100
AcDbLine
 10
107.2982729999999
 20
37.655291
 30
0.0
 11
107.2982729999999
 21
124.646326
 31
0.0
  0
LINE
  5
198
330
1E
100
AcDbEntity
  8
CSLAYER1
  6
CENTER
 62
     4
100
AcDbLine
 10
149.298273
 20
38.06477499999999
 30
0.0
 11
149.298273
 21
120.792973
 31
0.0
  0
LINE
  5
199
330
1E
100
AcDbEntity
  8
CSLAYER1
  6
DASHED
 62
     4
100
AcDbLine
 10
136.2982729999999
 20
45.90905
 30
0.0
 11
136.2982729999999
 21
115.90905
 31
0.0
  0
LINE
  5
19A
330
1E
100
AcDbEntity
  8
CSLAYER1
  6
CENTER
 62
     4
100
AcDbLine
 10
149.298273
 20
165.069917
 30
0.0
 11
149.298273
 21
152.866545
 31
0.0
  0
LINE
  5
19B
330
1E
100
AcDbEntity
  8
CSLAYER1
  6
CENTER
 62
     4
100
AcDbLine
 10
201.917327
 20
153.4385789999998
 30
0.0
 11
201.917327
 21
165.4512729999999
 31
0.0
  0
LINE
  5
19C
330
1E
100
AcDbEntity
  8
CSLAYER1
  6
CENTER
 62
     4
100
AcDbLine
 10
251.917327
 20
152.866545
 30
0.0
 11
251.917327
 21
165.64195
 31
0.0
  0
LINE
  5
19D
330
1E
100
AcDbEntity
  8
CSLAYER1
  6
CENTER
 62
     4
100
AcDbLine
 10
65.298273
 20
38.06477499999999
 30
0.0
 11
65.298273
 21
120.792973
 31
0.0
  0
LINE
  5
19E
330
1E
100
AcDbEntity
  8
CSLAYER1
  6
DASHED
 62
     4
100
AcDbLine
 10
78.29827299999998
 20
45.90905
 30
0.0
 11
78.29827299999998
 21
115.90905
 31
0.0
  0
LINE
  5
19F
330
1E
100
AcDbEntity
  8
CSLAYER1
  6
CENTER
 62
     4
100
AcDbLine
 10
65.298273
 20
165.069917
 30
0.0
 11
65.298273
 21
152.866545
 31
0.0
  0
LINE
  5
1A0
330
1E
100
AcDbEntity
  8
CSLAYER1
  6
CENTER
 62
     4
100
AcDbLine
 10
237.589495
 20
197.111995
 30
0.0
 11
187.1894949999999
 21
197.111995
 31
0.0
  0
LINE
  5
1A1
330
1E
100
AcDbEntity
  8
CSLAYER1
  6
DASHED
 62
     4
100
AcDbLine
 10
217.417327
 20
174.7711159999999
 30
0.0
 11
217.417327
 21
171.111995
 31
0.0
  0
LINE
  5
1A2
330
1E
100
AcDbEntity
  8
CSLAYER1
  6
CONTINUOUS
 62
     3
100
AcDbLine
 10
231.9173269999999
 20
223.111995
 30
0.0
 11
261.917327
 21
193.111995
 31
0.0
  0
LINE
  5
1A3
330
1E
100
AcDbEntity
  8
CSLAYER1
  6
CENTER
 62
     4
100
AcDbLine
 10
71.201486
 20
197.111995
 30
0.0
 11
143.924574
 21
197.111995
 31
0.0
  0
DIMENSION
  5
1A4
330
1E
100
AcDbEntity
  8
CSLAYER1
 62
     4
100
AcDbDimension
  2
*D0
 10
65.298273
 20
127.8087219999999
 30
0.0
 11
60.798271
 21
128.308716
 31
0.0
100
AcDbAlignedDimension
 13
56.29827299999998
 23
115.90905
 33
0.0
 14
65.298273
 24
120.792973
 34
0.0
100
AcDbRotatedDimension
  0
DIMENSION
  5
1A5
330
1E
100
AcDbEntity
  8
CSLAYER1
 62
     4
100
AcDbDimension
  2
*D1
 10
149.298273
 20
127.8087219999999
 30
0.0
 11
107.298271
 21
128.308716
 31
0.0
 70
     1
100
AcDbAlignedDimension
 13
65.298273
 23
120.792973
 33
0.0
 14
149.298273
 24
120.792973
 34
0.0
  0
DIMENSION
  5
1A6
330
1E
100
AcDbEntity
  8
CSLAYER1
 62
     4
100
AcDbDimension
  2
*D2
 10
158.2982729999999
 20
127.8087219999999
 30
0.0
 11
153.798279
 21
128.308716
 31
0.0
100
AcDbAlignedDimension
 13
149.298273
 23
120.792973
 33
0.0
 14
158.2982729999999
 24
115.90905
 34
0.0
100
AcDbRotatedDimension
  0
DIMENSION
  5
1A7
330
1E
100
AcDbEntity
  8
CSLAYER1
 62
     4
100
AcDbDimension
  2
*D3
 10
158.2982729999999
 20
133.808722
 30
0.0
 11
107.298271
 21
134.308716
 31
0.0
 70
     1
100
AcDbAlignedDimension
 13
56.29827299999998
 23
115.90905
 33
0.0
 14
158.2982729999999
 24
115.90905
 34
0.0
  0
DIMENSION
  5
1A8
330
1E
100
AcDbEntity
  8
CSLAYER1
 62
     4
100
AcDbDimension
  2
*D4
 10
158.2982729999999
 20
255.859337
 30
0.0
 11
107.298271
 21
256.359344
 31
0.0
 70
     1
100
AcDbAlignedDimension
 13
56.29827299999998
 23
159.111995
 33
0.0
 14
158.2982729999999
 24
159.111995
 34
0.0
  0
DIMENSION
  5
1A9
330
1E
100
AcDbEntity
  8
CSLAYER1
 62
     4
100
AcDbDimension
  2
*D5
 10
158.2982729999999
 20
249.859337
 30
0.0
 11
145.798279
 21
250.3593289999999
 31
0.0
100
AcDbAlignedDimension
 13
133.2982729999999
 23
223.111995
 33
0.0
 14
158.2982729999999
 24
158.111995
 34
0.0
100
AcDbRotatedDimension
  0
DIMENSION
  5
1AA
330
1E
100
AcDbEntity
  8
CSLAYER1
 62
     4
100
AcDbDimension
  2
*D6
 10
133.2982729999999
 20
249.859337
 30
0.0
 11
107.298271
 21
250.3593289999999
 31
0.0
 70
     1
100
AcDbAlignedDimension
 13
81.298273
 23
223.111995
 33
0.0
 14
133.2982729999999
 24
223.111995
 34
0.0
  0
DIMENSION
  5
1AB
330
1E
100
AcDbEntity
  8
CSLAYER1
 62
     4
100
AcDbDimension
  2
*D7
 10
81.298273
 20
249.859337
 30
0.0
 11
68.79827099999999
 21
250.3593289999999
 31
0.0
100
AcDbAlignedDimension
 13
56.29827299999998
 23
158.111995
 33
0.0
 14
81.298273
 24
223.111995
 34
0.0
100
AcDbRotatedDimension
  0
DIMENSION
  5
1AC
330
1E
100
AcDbEntity
  8
CSLAYER1
 62
     4
100
AcDbDimension
  2
*D8
 10
261.917327
 20
251.8037389999999
 30
0.0
 11
239.6673279999999
 21
252.303741
 31
0.0
100
AcDbAlignedDimension
 13
217.417327
 23
238.1119949999999
 33
0.0
 14
261.917327
 24
193.111995
 34
0.0
100
AcDbRotatedDimension
  0
DIMENSION
  5
1AD
330
1E
100
AcDbEntity
  8
CSLAYER1
 62
     4
100
AcDbDimension
  2
*D9
 10
217.417327
 20
251.8037389999999
 30
0.0
 11
209.9173279999999
 21
252.303741
 31
0.0
 70
     1
100
AcDbAlignedDimension
 13
202.4173269999999
 23
238.1119949999999
 33
0.0
 14
217.417327
 24
238.1119949999999
 34
0.0
  0
DIMENSION
  5
1AE
330
1E
100
AcDbEntity
  8
CSLAYER1
 62
     4
100
AcDbDimension
  2
*D10
 10
202.4173269999999
 20
251.8037389999999
 30
0.0
 11
184.517334
 21
252.303741
 31
0.0
100
AcDbAlignedDimension
 13
191.9173269999999
 23
208.111995
 33
0.0
 14
202.4173269999999
 24
238.1119949999999
 34
0.0
100
AcDbRotatedDimension
  0
ARC
  5
1B0
330
1E
100
AcDbEntity
  8
CSLAYER1
  6
DASHED
 62
     4
100
AcDbCircle
 10
297.7042
 20
47.836125
 30
0.0
 40
14.0
100
AcDbArc
 50
70.37693399999998
 51
135.0
  0
LINE
  5
1B1
330
1E
100
AcDbEntity
  8
CSLAYER1
  6
DASHED
 62
     4
100
AcDbLine
 10
287.8047049999998
 20
57.73562
 30
0.0
 11
281.2816999999999
 21
51.212615
 31
0.0
  0
LINE
  5
1B2
330
1E
100
AcDbEntity
  8
CSLAYER1
  6
CONTINUOUS
 62
     3
100
AcDbLine
 10
276.2428799999999
 20
46.173795
 30
0.0
 11
273.414453
 21
46.173795
 31
0.0
  0
LINE
  5
1B3
330
1E
100
AcDbEntity
  8
CSLAYER1
  6
CONTINUOUS
 62
     3
100
AcDbLine
 10
273.414453
 20
46.173795
 30
0.0
 11
272.0002399999998
 21
47.58800899999999
 31
0.0
  0
LINE
  5
1B4
330
1E
100
AcDbEntity
  8
CSLAYER1
  6
CONTINUOUS
 62
     3
100
AcDbLine
 10
272.0002399999998
 20
47.58800899999999
 30
0.0
 11
281.2816999999999
 21
56.86946899999998
 31
0.0
  0
LINE
  5
1B5
330
1E
100
AcDbEntity
  8
CSLAYER1
  6
DASHED
 62
     4
100
AcDbLine
 10
289.6779089999999
 20
65.26567800000001
 30
0.0
 11
281.2816999999999
 21
73.66188699999998
 31
0.0
  0
LINE
  5
1B6
330
1E
100
AcDbEntity
  8
CSLAYER1
  6
CONTINUOUS
 62
     3
100
AcDbLine
 10
281.1926279999998
 20
73.75095899999998
 30
0.0
 11
263.514958
 21
56.07329
 31
0.0
  0
LINE
  5
1B7
330
1E
100
AcDbEntity
  8
CSLAYER1
  6
CONTINUOUS
 62
     3
100
AcDbLine
 10
263.514958
 20
56.07329
 30
0.0
 11
262.100745
 21
57.487504
 31
0.0
  0
LINE
  5
1B8
330
1E
100
AcDbEntity
  8
CSLAYER1
  6
CONTINUOUS
 62
     3
100
AcDbLine
 10
262.100745
 20
57.487504
 30
0.0
 11
262.100745
 21
60.31593100000001
 31
0.0
  0
LINE
  5
1B9
330
1E
100
AcDbEntity
  8
CSLAYER1
  6
CONTINUOUS
 62
     3
100
AcDbLine
 10
262.100745
 20
60.31593100000001
 30
0.0
 11
273.662569
 21
71.877755
 31
0.0
  0
ARC
  5
1BA
330
1E
100
AcDbEntity
  8
CSLAYER1
  6
CONTINUOUS
 62
     3
100
AcDbCircle
 10
263.763075
 20
81.77725
 30
0.0
 40
14.0
100
AcDbArc
 50
315.0
 51
19.623066
  0
LINE
  5
1BB
330
1E
100
AcDbEntity
  8
CSLAYER1
  6
CONTINUOUS
 62
     3
100
AcDbLine
 10
276.949987
 20
86.478882
 30
0.0
 11
281.2816999999999
 21
82.14716899999997
 31
0.0
  0
LINE
  5
1BC
330
1E
100
AcDbEntity
  8
CSLAYER1
  6
DASHED
 62
     4
100
AcDbLine
 10
302.405831
 20
61.023037
 30
0.0
 11
311.921508
 21
70.538714
 31
0.0
  0
LINE
  5
1BD
330
1E
100
AcDbEntity
  8
CSLAYER1
  6
CONTINUOUS
 62
     3
100
AcDbLine
 10
349.7819859999998
 20
108.399192
 30
0.0
 11
349.074879
 21
109.1062989999999
 31
0.0
  0
ARC
  5
1BE
330
1E
100
AcDbEntity
  8
CSLAYER1
  6
CONTINUOUS
 62
     3
100
AcDbCircle
 10
350.4890919999998
 20
110.520512
 30
0.0
 40
2.0
100
AcDbArc
 50
135.0
 51
225.0
  0
LINE
  5
1BF
330
1E
100
AcDbEntity
  8
CSLAYER1
  6
CONTINUOUS
 62
     3
100
AcDbLine
 10
349.074879
 20
111.934726
 30
0.0
 11
357.2066069999998
 21
120.066454
 31
0.0
  0
LINE
  5
1C0
330
1E
100
AcDbEntity
  8
CSLAYER1
  6
CONTINUOUS
 62
     3
100
AcDbLine
 10
357.2066069999998
 20
120.066454
 30
0.0
 11
357.2066069999998
 21
122.187774
 31
0.0
  0
LINE
  5
1C1
330
1E
100
AcDbEntity
  8
CSLAYER1
  6
CONTINUOUS
 62
     3
100
AcDbLine
 10
357.2066069999998
 20
122.187774
 30
0.0
 11
338.114724
 21
141.279657
 31
0.0
  0
LINE
  5
1C2
330
1E
100
AcDbEntity
  8
CSLAYER1
  6
CONTINUOUS
 62
     3
100
AcDbLine
 10
338.114724
 20
141.279657
 30
0.0
 11
335.993403
 21
141.279657
 31
0.0
  0
LINE
  5
1C3
330
1E
100
AcDbEntity
  8
CSLAYER1
  6
CONTINUOUS
 62
     3
100
AcDbLine
 10
335.993403
 20
141.279657
 30
0.0
 11
327.8616749999998
 21
133.147929
 31
0.0
  0
ARC
  5
1C4
330
1E
100
AcDbEntity
  8
CSLAYER1
  6
CONTINUOUS
 62
     3
100
AcDbCircle
 10
326.447462
 20
134.562143
 30
0.0
 40
2.0
100
AcDbArc
 50
225.0
 51
315.0
  0
LINE
  5
1C5
330
1E
100
AcDbEntity
  8
CSLAYER1
  6
CONTINUOUS
 62
     3
100
AcDbLine
 10
325.033248
 20
133.147929
 30
0.0
 11
324.326141
 21
133.855036
 31
0.0
  0
LINE
  5
1C6
330
1E
100
AcDbEntity
  8
CSLAYER1
  6
CONTINUOUS
 62
     3
100
AcDbLine
 10
324.326141
 20
133.855036
 30
0.0
 11
308.110127
 21
117.639022
 31
0.0
  0
LINE
  5
1C7
330
1E
100
AcDbEntity
  8
CSLAYER1
  6
CONTINUOUS
 62
     3
100
AcDbLine
 10
269.8789189999999
 20
62.437251
 30
0.0
 11
278.3642009999999
 21
53.95196999999999
 31
0.0
  0
LINE
  5
1C8
330
1E
100
AcDbEntity
  8
CSLAYER1
  6
CONTINUOUS
 62
     3
100
AcDbLine
 10
275.5357739999999
 20
51.123542
 30
0.0
 11
267.050492
 21
59.608824
 31
0.0
  0
LINE
  5
1C9
330
1E
100
AcDbEntity
  8
CSLAYER1
  6
CONTINUOUS
 62
     3
100
AcDbLine
 10
278.655731
 20
48.586646
 30
0.0
 11
278.764895
 21
48.477483
 31
0.0
  0
ARC
  5
1CA
330
1E
100
AcDbEntity
  8
CSLAYER1
  6
CONTINUOUS
 62
     3
100
AcDbCircle
 10
276.345849
 20
53.141894
 30
0.0
 40
5.25438
100
AcDbArc
 50
297.4120459999998
 51
332.587954
  0
LINE
  5
1CB
330
1E
100
AcDbEntity
  8
CSLAYER1
  6
CONTINUOUS
 62
     3
100
AcDbLine
 10
281.01026
 20
50.72284899999999
 30
0.0
 11
280.901097
 21
50.832012
 31
0.0
  0
ARC
  5
1CC
330
1E
100
AcDbEntity
  8
CSLAYER1
  6
CONTINUOUS
 62
     3
100
AcDbCircle
 10
278.799213
 20
55.20740799999999
 30
0.0
 40
5.0
100
AcDbArc
 50
296.2449379999998
 51
299.768541
  0
LINE
  5
1CD
330
1E
100
AcDbEntity
  8
CSLAYER1
  6
DASHED
 62
     4
100
AcDbLine
 10
282.0058009999998
 20
51.37102999999999
 30
0.0
 11
281.2816999999999
 21
50.646929
 31
0.0
  0
LINE
  5
1CE
330
1E
100
AcDbEntity
  8
CSLAYER1
  6
CONTINUOUS
 62
     3
100
AcDbLine
 10
278.116713
 20
47.481943
 30
0.0
 11
277.642212
 21
47.35479999999999
 31
0.0
  0
LINE
  5
1CF
330
1E
100
AcDbEntity
  8
CSLAYER1
  6
CONTINUOUS
 62
     3
100
AcDbLine
 10
277.642212
 20
47.35479999999999
 30
0.0
 11
277.5330489999999
 21
47.46396299999999
 31
0.0
  0
ARC
  5
1D0
330
1E
100
AcDbEntity
  8
CSLAYER1
  6
CONTINUOUS
 62
     3
100
AcDbCircle
 10
274.280335
 20
50.68853
 30
0.0
 40
5.0
100
AcDbArc
 50
320.109864
 51
333.755062
  0
LINE
  5
1D1
330
1E
100
AcDbEntity
  8
CSLAYER1
  6
CONTINUOUS
 62
     3
100
AcDbLine
 10
279.000597
 20
48.36582599999999
 30
0.0
 11
281.0512059999999
 21
46.315216
 31
0.0
  0
LINE
  5
1D2
330
1E
100
AcDbEntity
  8
CSLAYER1
  6
CONTINUOUS
 62
     3
100
AcDbLine
 10
281.0512059999999
 20
46.315216
 30
0.0
 11
281.758313
 21
46.315216
 31
0.0
  0
LINE
  5
1D3
330
1E
100
AcDbEntity
  8
CSLAYER1
  6
CONTINUOUS
 62
     3
100
AcDbLine
 10
281.758313
 20
46.315216
 30
0.0
 11
283.172527
 21
47.72943
 31
0.0
  0
LINE
  5
1D4
330
1E
100
AcDbEntity
  8
CSLAYER1
  6
CONTINUOUS
 62
     3
100
AcDbLine
 10
283.172527
 20
47.72943
 30
0.0
 11
283.172527
 21
48.436537
 31
0.0
  0
LINE
  5
1D5
330
1E
100
AcDbEntity
  8
CSLAYER1
  6
CONTINUOUS
 62
     3
100
AcDbLine
 10
283.172527
 20
48.436537
 30
0.0
 11
281.121917
 21
50.487146
 31
0.0
  0
LINE
  5
1D6
330
1E
100
AcDbEntity
  8
CSLAYER1
  6
DASHED
 62
     4
100
AcDbLine
 10
282.0058009999998
 20
51.37102999999999
 30
0.0
 11
282.132943
 21
51.845531
 31
0.0
  0
LINE
  5
1D7
330
1E
100
AcDbEntity
  8
CSLAYER1
  6
DASHED
 62
     4
100
AcDbLine
 10
282.132943
 20
51.845531
 30
0.0
 11
282.02378
 21
51.954695
 31
0.0
  0
LINE
  5
1D8
330
1E
100
AcDbEntity
  8
CSLAYER1
  6
CONTINUOUS
 62
     3
100
AcDbLine
 10
346.2464519999998
 20
104.8636579999999
 30
0.0
 11
320.790608
 21
130.3195019999999
 31
0.0
  0
LINE
  5
1D9
330
1E
100
AcDbEntity
  8
CSLAYER1
  6
CONTINUOUS
 62
     3
100
AcDbLine
 10
335.993403
 20
141.279657
 30
0.0
 11
357.2066069999998
 21
120.066454
 31
0.0
  0
POLYLINE
  5
1DA
330
1E
100
AcDbEntity
  8
CSLAYER1
  6
CONTINUOUS
 62
     3
100
AcDb2dPolyline
 66
     1
 10
0.0
 20
0.0
 30
0.0
  0
VERTEX
  5
1DB
330
1DA
100
AcDbEntity
  8
CSLAYER1
  6
CONTINUOUS
 62
     3
100
AcDbVertex
100
AcDb2dVertex
 10
333.466608
 20
131.785637
 30
0.0
  0
VERTEX
  5
1DC
330
1DA
100
AcDbEntity
  8
CSLAYER1
  6
CONTINUOUS
 62
     3
100
AcDbVertex
100
AcDb2dVertex
 10
333.225059
 20
131.5212169999999
 30
0.0
  0
VERTEX
  5
1DD
330
1DA
100
AcDbEntity
  8
CSLAYER1
  6
CONTINUOUS
 62
     3
100
AcDbVertex
100
AcDb2dVertex
 10
333.00822
 20
131.2359379999998
 30
0.0
  0
VERTEX
  5
1DE
330
1DA
100
AcDbEntity
  8
CSLAYER1
  6
CONTINUOUS
 62
     3
100
AcDbVertex
100
AcDb2dVertex
 10
332.81774
 20
130.93197
 30
0.0
  0
VERTEX
  5
1DF
330
1DA
100
AcDbEntity
  8
CSLAYER1
  6
CONTINUOUS
 62
     3
100
AcDbVertex
100
AcDb2dVertex
 10
332.655071
 20
130.611629
 30
0.0
  0
VERTEX
  5
1E0
330
1DA
100
AcDbEntity
  8
CSLAYER1
  6
CONTINUOUS
 62
     3
100
AcDbVertex
100
AcDb2dVertex
 10
332.521449
 20
130.27735
 30
0.0
  0
VERTEX
  5
1E1
330
1DA
100
AcDbEntity
  8
CSLAYER1
  6
CONTINUOUS
 62
     3
100
AcDbVertex
100
AcDb2dVertex
 10
332.417892
 20
129.9316799999999
 30
0.0
  0
VERTEX
  5
1E2
330
1DA
100
AcDbEntity
  8
CSLAYER1
  6
CONTINUOUS
 62
     3
100
AcDbVertex
100
AcDb2dVertex
 10
332.345188
 20
129.5772469999999
 30
0.0
  0
VERTEX
  5
1E3
330
1DA
100
AcDbEntity
  8
CSLAYER1
  6
CONTINUOUS
 62
     3
100
AcDbVertex
100
AcDb2dVertex
 10
332.303889
 20
129.2167509999998
 30
0.0
  0
VERTEX
  5
1E4
330
1DA
100
AcDbEntity
  8
CSLAYER1
  6
CONTINUOUS
 62
     3
100
AcDbVertex
100
AcDb2dVertex
 10
332.294312
 20
128.8529339999998
 30
0.0
  0
VERTEX
  5
1E5
330
1DA
100
AcDbEntity
  8
CSLAYER1
  6
CONTINUOUS
 62
     3
100
AcDbVertex
100
AcDb2dVertex
 10
332.316527
 20
128.4885649999999
 30
0.0
  0
VERTEX
  5
1E6
330
1DA
100
AcDbEntity
  8
CSLAYER1
  6
CONTINUOUS
 62
     3
100
AcDbVertex
100
AcDb2dVertex
 10
332.3703669999998
 20
128.126417
 30
0.0
  0
VERTEX
  5
1E7
330
1DA
100
AcDbEntity
  8
CSLAYER1
  6
CONTINUOUS
 62
     3
100
AcDbVertex
100
AcDb2dVertex
 10
332.455421
 20
127.7692469999999
 30
0.0
  0
VERTEX
  5
1E8
330
1DA
100
AcDbEntity
  8
CSLAYER1
  6
CONTINUOUS
 62
     3
100
AcDbVertex
100
AcDb2dVertex
 10
332.571042
 20
127.4197719999999
 30
0.0
  0
VERTEX
  5
1E9
330
1DA
100
AcDbEntity
  8
CSLAYER1
  6
CONTINUOUS
 62
     3
100
AcDbVertex
100
AcDb2dVertex
 10
332.7163509999998
 20
127.0806529999999
 30
0.0
  0
VERTEX
  5
1EA
330
1DA
100
AcDbEntity
  8
CSLAYER1
  6
CONTINUOUS
 62
     3
100
AcDbVertex
100
AcDb2dVertex
 10
332.89024
 20
126.7544699999999
 30
0.0
  0
VERTEX
  5
1EB
330
1DA
100
AcDbEntity
  8
CSLAYER1
  6
CONTINUOUS
 62
     3
100
AcDbVertex
100
AcDb2dVertex
 10
333.091388
 20
126.443706
 30
0.0
  0
VERTEX
  5
1EC
330
1DA
100
AcDbEntity
  8
CSLAYER1
  6
CONTINUOUS
 62
     3
100
AcDbVertex
100
AcDb2dVertex
 10
333.318263
 20
126.150726
 30
0.0
  0
VERTEX
  5
1ED
330
1DA
100
AcDbEntity
  8
CSLAYER1
  6
CONTINUOUS
 62
     3
100
AcDbVertex
100
AcDb2dVertex
 10
333.569138
 20
125.87776
 30
0.0
  0
VERTEX
  5
1EE
330
1DA
100
AcDbEntity
  8
CSLAYER1
  6
CONTINUOUS
 62
     3
100
AcDbVertex
100
AcDb2dVertex
 10
333.842105
 20
125.626885
 30
0.0
  0
VERTEX
  5
1EF
330
1DA
100
AcDbEntity
  8
CSLAYER1
  6
CONTINUOUS
 62
     3
100
AcDbVertex
100
AcDb2dVertex
 10
334.1350849999999
 20
125.40001
 30
0.0
  0
VERTEX
  5
1F0
330
1DA
100
AcDbEntity
  8
CSLAYER1
  6
CONTINUOUS
 62
     3
100
AcDbVertex
100
AcDb2dVertex
 10
334.445848
 20
125.198862
 30
0.0
  0
VERTEX
  5
1F1
330
1DA
100
AcDbEntity
  8
CSLAYER1
  6
CONTINUOUS
 62
     3
100
AcDbVertex
100
AcDb2dVertex
 10
334.772031
 20
125.0249729999999
 30
0.0
  0
VERTEX
  5
1F2
330
1DA
100
AcDbEntity
  8
CSLAYER1
  6
CONTINUOUS
 62
     3
100
AcDbVertex
100
AcDb2dVertex
 10
335.11115
 20
124.8796639999999
 30
0.0
  0
VERTEX
  5
1F3
330
1DA
100
AcDbEntity
  8
CSLAYER1
  6
CONTINUOUS
 62
     3
100
AcDbVertex
100
AcDb2dVertex
 10
335.4606249999998
 20
124.7640429999999
 30
0.0
  0
VERTEX
  5
1F4
330
1DA
100
AcDbEntity
  8
CSLAYER1
  6
CONTINUOUS
 62
     3
100
AcDbVertex
100
AcDb2dVertex
 10
335.817795
 20
124.6789889999998
 30
0.0
  0
VERTEX
  5
1F5
330
1DA
100
AcDbEntity
  8
CSLAYER1
  6
CONTINUOUS
 62
     3
100
AcDbVertex
100
AcDb2dVertex
 10
336.179943
 20
124.6251489999999
 30
0.0
  0
VERTEX
  5
1F6
330
1DA
100
AcDbEntity
  8
CSLAYER1
  6
CONTINUOUS
 62
     3
100
AcDbVertex
100
AcDb2dVertex
 10
336.544312
 20
124.6029339999999
 30
0.0
  0
VERTEX
  5
1F7
330
1DA
100
AcDbEntity
  8
CSLAYER1
  6
CONTINUOUS
 62
     3
100
AcDbVertex
100
AcDb2dVertex
 10
336.908129
 20
124.612511
 30
0.0
  0
VERTEX
  5
1F8
330
1DA
100
AcDbEntity
  8
CSLAYER1
  6
CONTINUOUS
 62
     3
100
AcDbVertex
100
AcDb2dVertex
 10
337.268625
 20
124.65381
 30
0.0
  0
VERTEX
  5
1F9
330
1DA
100
AcDbEntity
  8
CSLAYER1
  6
CONTINUOUS
 62
     3
100
AcDbVertex
100
AcDb2dVertex
 10
337.623058
 20
124.7265139999999
 30
0.0
  0
VERTEX
  5
1FA
330
1DA
100
AcDbEntity
  8
CSLAYER1
  6
CONTINUOUS
 62
     3
100
AcDbVertex
100
AcDb2dVertex
 10
337.968728
 20
124.8300709999998
 30
0.0
  0
VERTEX
  5
1FB
330
1DA
100
AcDbEntity
  8
CSLAYER1
  6
CONTINUOUS
 62
     3
100
AcDbVertex
100
AcDb2dVertex
 10
338.3030069999998
 20
124.9636929999999
 30
0.0
  0
VERTEX
  5
1FC
330
1DA
100
AcDbEntity
  8
CSLAYER1
  6
CONTINUOUS
 62
     3
100
AcDbVertex
100
AcDb2dVertex
 10
338.623348
 20
125.126362
 30
0.0
  0
VERTEX
  5
1FD
330
1DA
100
AcDbEntity
  8
CSLAYER1
  6
CONTINUOUS
 62
     3
100
AcDbVertex
100
AcDb2dVertex
 10
338.927316
 20
125.3168419999999
 30
0.0
  0
VERTEX
  5
1FE
330
1DA
100
AcDbEntity
  8
CSLAYER1
  6
CONTINUOUS
 62
     3
100
AcDbVertex
100
AcDb2dVertex
 10
339.212595
 20
125.5336809999999
 30
0.0
  0
VERTEX
  5
1FF
330
1DA
100
AcDbEntity
  8
CSLAYER1
  6
CONTINUOUS
 62
     3
100
AcDbVertex
100
AcDb2dVertex
 10
339.4770149999998
 20
125.77523
 30
0.0
  0
VERTEX
  5
200
330
1DA
100
AcDbEntity
  8
CSLAYER1
  6
CONTINUOUS
 62
     3
100
AcDbVertex
100
AcDb2dVertex
 10
339.718564
 20
126.0396499999999
 30
0.0
  0
VERTEX
  5
201
330
1DA
100
AcDbEntity
  8
CSLAYER1
  6
CONTINUOUS
 62
     3
100
AcDbVertex
100
AcDb2dVertex
 10
339.9354039999999
 20
126.324929
 30
0.0
  0
VERTEX
  5
202
330
1DA
100
AcDbEntity
  8
CSLAYER1
  6
CONTINUOUS
 62
     3
100
AcDbVertex
100
AcDb2dVertex
 10
340.1258829999998
 20
126.6288969999999
 30
0.0
  0
VERTEX
  5
203
330
1DA
100
AcDbEntity
  8
CSLAYER1
  6
CONTINUOUS
 62
     3
100
AcDbVertex
100
AcDb2dVertex
 10
340.2885519999998
 20
126.9492379999999
 30
0.0
  0
VERTEX
  5
204
330
1DA
100
AcDbEntity
  8
CSLAYER1
  6
CONTINUOUS
 62
     3
100
AcDbVertex
100
AcDb2dVertex
 10
340.422174
 20
127.283517
 30
0.0
  0
VERTEX
  5
205
330
1DA
100
AcDbEntity
  8
CSLAYER1
  6
CONTINUOUS
 62
     3
100
AcDbVertex
100
AcDb2dVertex
 10
340.525731
 20
127.629187
 30
0.0
  0
VERTEX
  5
206
330
1DA
100
AcDbEntity
  8
CSLAYER1
  6
CONTINUOUS
 62
     3
100
AcDbVertex
100
AcDb2dVertex
 10
340.598435
 20
127.98362
 30
0.0
  0
VERTEX
  5
207
330
1DA
100
AcDbEntity
  8
CSLAYER1
  6
CONTINUOUS
 62
     3
100
AcDbVertex
100
AcDb2dVertex
 10
340.6397339999998
 20
128.3441159999999
 30
0.0
  0
VERTEX
  5
208
330
1DA
100
AcDbEntity
  8
CSLAYER1
  6
CONTINUOUS
 62
     3
100
AcDbVertex
100
AcDb2dVertex
 10
340.649312
 20
128.707934
 30
0.0
  0
VERTEX
  5
209
330
1DA
100
AcDbEntity
  8
CSLAYER1
  6
CONTINUOUS
 62
     3
100
AcDbVertex
100
AcDb2dVertex
 10
340.627096
 20
129.072303
 30
0.0
  0
VERTEX
  5
20A
330
1DA
100
AcDbEntity
  8
CSLAYER1
  6
CONTINUOUS
 62
     3
100
AcDbVertex
100
AcDb2dVertex
 10
340.5732569999999
 20
129.43445
 30
0.0
  0
VERTEX
  5
20B
330
1DA
100
AcDbEntity
  8
CSLAYER1
  6
CONTINUOUS
 62
     3
100
AcDbVertex
100
AcDb2dVertex
 10
340.488202
 20
129.7916199999999
 30
0.0
  0
VERTEX
  5
20C
330
1DA
100
AcDbEntity
  8
CSLAYER1
  6
CONTINUOUS
 62
     3
100
AcDbVertex
100
AcDb2dVertex
 10
340.372581
 20
130.141095
 30
0.0
  0
VERTEX
  5
20D
330
1DA
100
AcDbEntity
  8
CSLAYER1
  6
CONTINUOUS
 62
     3
100
AcDbVertex
100
AcDb2dVertex
 10
340.227273
 20
130.4802139999999
 30
0.0
  0
VERTEX
  5
20E
330
1DA
100
AcDbEntity
  8
CSLAYER1
  6
CONTINUOUS
 62
     3
100
AcDbVertex
100
AcDb2dVertex
 10
340.053383
 20
130.806397
 30
0.0
  0
VERTEX
  5
20F
330
1DA
100
AcDbEntity
  8
CSLAYER1
  6
CONTINUOUS
 62
     3
100
AcDbVertex
100
AcDb2dVertex
 10
339.852235
 20
131.117161
 30
0.0
  0
VERTEX
  5
210
330
1DA
100
AcDbEntity
  8
CSLAYER1
  6
CONTINUOUS
 62
     3
100
AcDbVertex
100
AcDb2dVertex
 10
339.62536
 20
131.4101409999999
 30
0.0
  0
VERTEX
  5
211
330
1DA
100
AcDbEntity
  8
CSLAYER1
  6
CONTINUOUS
 62
     3
100
AcDbVertex
100
AcDb2dVertex
 10
339.374485
 20
131.683107
 30
0.0
  0
VERTEX
  5
212
330
1DA
100
AcDbEntity
  8
CSLAYER1
  6
CONTINUOUS
 62
     3
100
AcDbVertex
100
AcDb2dVertex
 10
339.101519
 20
131.933982
 30
0.0
  0
VERTEX
  5
213
330
1DA
100
AcDbEntity
  8
CSLAYER1
  6
CONTINUOUS
 62
     3
100
AcDbVertex
100
AcDb2dVertex
 10
338.808539
 20
132.1608569999999
 30
0.0
  0
VERTEX
  5
214
330
1DA
100
AcDbEntity
  8
CSLAYER1
  6
CONTINUOUS
 62
     3
100
AcDbVertex
100
AcDb2dVertex
 10
338.497775
 20
132.362005
 30
0.0
  0
VERTEX
  5
215
330
1DA
100
AcDbEntity
  8
CSLAYER1
  6
CONTINUOUS
 62
     3
100
AcDbVertex
100
AcDb2dVertex
 10
338.1715919999998
 20
132.5358939999998
 30
0.0
  0
VERTEX
  5
216
330
1DA
100
AcDbEntity
  8
CSLAYER1
  6
CONTINUOUS
 62
     3
100
AcDbVertex
100
AcDb2dVertex
 10
337.832473
 20
132.681203
 30
0.0
  0
VERTEX
  5
217
330
1DA
100
AcDbEntity
  8
CSLAYER1
  6
CONTINUOUS
 62
     3
100
AcDbVertex
100
AcDb2dVertex
 10
337.482999
 20
132.7968239999999
 30
0.0
  0
VERTEX
  5
218
330
1DA
100
AcDbEntity
  8
CSLAYER1
  6
CONTINUOUS
 62
     3
100
AcDbVertex
100
AcDb2dVertex
 10
337.1258279999999
 20
132.8818779999999
 30
0.0
  0
VERTEX
  5
219
330
1DA
100
AcDbEntity
  8
CSLAYER1
  6
CONTINUOUS
 62
     3
100
AcDbVertex
100
AcDb2dVertex
 10
336.763681
 20
132.9357179999999
 30
0.0
  0
VERTEX
  5
21A
330
1DA
100
AcDbEntity
  8
CSLAYER1
  6
CONTINUOUS
 62
     3
100
AcDbVertex
100
AcDb2dVertex
 10
336.3993119999999
 20
132.9579339999999
 30
0.0
  0
VERTEX
  5
21B
330
1DA
100
AcDbEntity
  8
CSLAYER1
  6
CONTINUOUS
 62
     3
100
AcDbVertex
100
AcDb2dVertex
 10
336.0354939999998
 20
132.948356
 30
0.0
  0
VERTEX
  5
21C
330
1DA
100
AcDbEntity
  8
CSLAYER1
  6
CONTINUOUS
 62
     3
100
AcDbVertex
100
AcDb2dVertex
 10
335.674998
 20
132.907057
 30
0.0
  0
VERTEX
  5
21D
330
1DA
100
AcDbEntity
  8
CSLAYER1
  6
CONTINUOUS
 62
     3
100
AcDbVertex
100
AcDb2dVertex
 10
335.320565
 20
132.8343529999999
 30
0.0
  0
VERTEX
  5
21E
330
1DA
100
AcDbEntity
  8
CSLAYER1
  6
CONTINUOUS
 62
     3
100
AcDbVertex
100
AcDb2dVertex
 10
334.9748949999999
 20
132.7307959999999
 30
0.0
  0
VERTEX
  5
21F
330
1DA
100
AcDbEntity
  8
CSLAYER1
  6
CONTINUOUS
 62
     3
100
AcDbVertex
100
AcDb2dVertex
 10
334.640617
 20
132.5971739999999
 30
0.0
  0
VERTEX
  5
220
330
1DA
100
AcDbEntity
  8
CSLAYER1
  6
CONTINUOUS
 62
     3
100
AcDbVertex
100
AcDb2dVertex
 10
334.3202749999998
 20
132.434505
 30
0.0
  0
VERTEX
  5
221
330
1DA
100
AcDbEntity
  8
CSLAYER1
  6
CONTINUOUS
 62
     3
100
AcDbVertex
100
AcDb2dVertex
 10
334.0163079999998
 20
132.2440249999999
 30
0.0
  0
VERTEX
  5
222
330
1DA
100
AcDbEntity
  8
CSLAYER1
  6
CONTINUOUS
 62
     3
100
AcDbVertex
100
AcDb2dVertex
 10
333.731028
 20
132.027186
 30
0.0
  0
VERTEX
  5
223
330
1DA
100
AcDbEntity
  8
CSLAYER1
  6
CONTINUOUS
 62
     3
100
AcDbVertex
100
AcDb2dVertex
 10
333.466608
 20
131.785637
 30
0.0
  0
SEQEND
  5
224
330
1DA
100
AcDbEntity
  8
CSLAYER1
 62
     3
  0
LINE
  5
225
330
1E
100
AcDbEntity
  8
CSLAYER1
  6
CONTINUOUS
 62
     4
100
AcDbLine
 10
279.177373
 20
48.54260299999999
 30
0.0
 11
281.40476
 21
46.315216
 31
0.0
  0
LINE
  5
226
330
1E
100
AcDbEntity
  8
CSLAYER1
  6
CONTINUOUS
 62
     4
100
AcDbLine
 10
281.0512059999999
 20
46.315216
 30
0.0
 11
283.172527
 21
48.436537
 31
0.0
  0
LINE
  5
227
330
1E
100
AcDbEntity
  8
CSLAYER1
  6
CONTINUOUS
 62
     4
100
AcDbLine
 10
283.172527
 20
48.082983
 30
0.0
 11
280.94514
 21
50.31037
 31
0.0
  0
LINE
  5
228
330
1E
100
AcDbEntity
  8
CSLAYER1
  6
CENTER
 62
     4
100
AcDbLine
 10
283.773555
 20
45.714188
 30
0.0
 11
263.960233
 21
65.52750999999999
 31
0.0
  0
LINE
  5
229
330
1E
100
AcDbEntity
  8
CSLAYER1
  6
CENTER
 62
     4
100
AcDbLine
 10
331.2935229999999
 20
123.6021449999999
 30
0.0
 11
341.6112129999999
 21
133.9198349999998
 31
0.0
  0
LINE
  5
22A
330
1E
100
AcDbEntity
  8
CSLAYER1
  6
CENTER
 62
     4
100
AcDbLine
 10
331.539215
 20
133.71303
 30
0.0
 11
341.4983759999998
 21
123.753869
 31
0.0
  0
POLYLINE
  5
22B
330
1E
100
AcDbEntity
  8
CSLAYER1
  6
CONTINUOUS
 62
     4
100
AcDb2dPolyline
 66
     1
 10
0.0
 20
0.0
 30
0.0
  0
VERTEX
  5
22C
330
22B
100
AcDbEntity
  8
CSLAYER1
  6
CONTINUOUS
 62
     4
100
AcDbVertex
100
AcDb2dVertex
 10
333.1130539999998
 20
132.1391909999998
 30
0.0
  0
VERTEX
  5
22D
330
22B
100
AcDbEntity
  8
CSLAYER1
  6
CONTINUOUS
 62
     4
100
AcDbVertex
100
AcDb2dVertex
 10
332.843269
 20
131.843843
 30
0.0
  0
VERTEX
  5
22E
330
22B
100
AcDbEntity
  8
CSLAYER1
  6
CONTINUOUS
 62
     4
100
AcDbVertex
100
AcDb2dVertex
 10
332.601099
 20
131.525182
 30
0.0
  0
VERTEX
  5
22F
330
22B
100
AcDbEntity
  8
CSLAYER1
  6
CONTINUOUS
 62
     4
100
AcDbVertex
100
AcDb2dVertex
 10
332.3883879999999
 20
131.185631
 30
0.0
  0
VERTEX
  5
230
330
22B
100
AcDbEntity
  8
CSLAYER1
  6
CONTINUOUS
 62
     4
100
AcDbVertex
100
AcDb2dVertex
 10
332.2067539999999
 20
130.827775
 30
0.0
  0
VERTEX
  5
231
330
22B
100
AcDbEntity
  8
CSLAYER1
  6
CONTINUOUS
 62
     4
100
AcDbVertex
100
AcDb2dVertex
 10
332.0575799999998
 20
130.454337
 30
0.0
  0
VERTEX
  5
232
330
22B
100
AcDbEntity
  8
CSLAYER1
  6
CONTINUOUS
 62
     4
100
AcDbVertex
100
AcDb2dVertex
 10
331.9419999999999
 20
130.06816
 30
0.0
  0
VERTEX
  5
233
330
22B
100
AcDbEntity
  8
CSLAYER1
  6
CONTINUOUS
 62
     4
100
AcDbVertex
100
AcDb2dVertex
 10
331.860895
 20
129.672183
 30
0.0
  0
VERTEX
  5
234
330
22B
100
AcDbEntity
  8
CSLAYER1
  6
CONTINUOUS
 62
     4
100
AcDbVertex
100
AcDb2dVertex
 10
331.814883
 20
129.2694189999999
 30
0.0
  0
VERTEX
  5
235
330
22B
100
AcDbEntity
  8
CSLAYER1
  6
CONTINUOUS
 62
     4
100
AcDbVertex
100
AcDb2dVertex
 10
331.804312
 20
128.8629339999999
 30
0.0
  0
VERTEX
  5
236
330
22B
100
AcDbEntity
  8
CSLAYER1
  6
CONTINUOUS
 62
     4
100
AcDbVertex
100
AcDb2dVertex
 10
331.8292629999999
 20
128.4558199999999
 30
0.0
  0
VERTEX
  5
237
330
22B
100
AcDbEntity
  8
CSLAYER1
  6
CONTINUOUS
 62
     4
100
AcDbVertex
100
AcDb2dVertex
 10
331.889547
 20
128.0511769999999
 30
0.0
  0
VERTEX
  5
238
330
22B
100
AcDbEntity
  8
CSLAYER1
  6
CONTINUOUS
 62
     4
100
AcDbVertex
100
AcDb2dVertex
 10
331.9847049999999
 20
127.652084
 30
0.0
  0
VERTEX
  5
239
330
22B
100
AcDbEntity
  8
CSLAYER1
  6
CONTINUOUS
 62
     4
100
AcDbVertex
100
AcDb2dVertex
 10
332.1140129999998
 20
127.2615789999999
 30
0.0
  0
VERTEX
  5
23A
330
22B
100
AcDbEntity
  8
CSLAYER1
  6
CONTINUOUS
 62
     4
100
AcDbVertex
100
AcDb2dVertex
 10
332.2764859999998
 20
126.882633
 30
0.0
  0
VERTEX
  5
23B
330
22B
100
AcDbEntity
  8
CSLAYER1
  6
CONTINUOUS
 62
     4
100
AcDbVertex
100
AcDb2dVertex
 10
332.470888
 20
126.518131
 30
0.0
  0
VERTEX
  5
23C
330
22B
100
AcDbEntity
  8
CSLAYER1
  6
CONTINUOUS
 62
     4
100
AcDbVertex
100
AcDb2dVertex
 10
332.6957399999999
 20
126.1708459999999
 30
0.0
  0
VERTEX
  5
23D
330
22B
100
AcDbEntity
  8
CSLAYER1
  6
CONTINUOUS
 62
     4
100
AcDbVertex
100
AcDb2dVertex
 10
332.9493289999998
 20
125.8434209999998
 30
0.0
  0
VERTEX
  5
23E
330
22B
100
AcDbEntity
  8
CSLAYER1
  6
CONTINUOUS
 62
     4
100
AcDbVertex
100
AcDb2dVertex
 10
333.229727
 20
125.538349
 30
0.0
  0
VERTEX
  5
23F
330
22B
100
AcDbEntity
  8
CSLAYER1
  6
CONTINUOUS
 62
     4
100
AcDbVertex
100
AcDb2dVertex
 10
333.534799
 20
125.257951
 30
0.0
  0
VERTEX
  5
240
330
22B
100
AcDbEntity
  8
CSLAYER1
  6
CONTINUOUS
 62
     4
100
AcDbVertex
100
AcDb2dVertex
 10
333.862224
 20
125.004361
 30
0.0
  0
VERTEX
  5
241
330
22B
100
AcDbEntity
  8
CSLAYER1
  6
CONTINUOUS
 62
     4
100
AcDbVertex
100
AcDb2dVertex
 10
334.2095089999999
 20
124.77951
 30
0.0
  0
VERTEX
  5
242
330
22B
100
AcDbEntity
  8
CSLAYER1
  6
CONTINUOUS
 62
     4
100
AcDbVertex
100
AcDb2dVertex
 10
334.5740109999998
 20
124.5851079999999
 30
0.0
  0
VERTEX
  5
243
330
22B
100
AcDbEntity
  8
CSLAYER1
  6
CONTINUOUS
 62
     4
100
AcDbVertex
100
AcDb2dVertex
 10
334.9529569999999
 20
124.422635
 30
0.0
  0
VERTEX
  5
244
330
22B
100
AcDbEntity
  8
CSLAYER1
  6
CONTINUOUS
 62
     4
100
AcDbVertex
100
AcDb2dVertex
 10
335.3434629999998
 20
124.2933269999999
 30
0.0
  0
VERTEX
  5
245
330
22B
100
AcDbEntity
  8
CSLAYER1
  6
CONTINUOUS
 62
     4
100
AcDbVertex
100
AcDb2dVertex
 10
335.7425549999998
 20
124.198169
 30
0.0
  0
VERTEX
  5
246
330
22B
100
AcDbEntity
  8
CSLAYER1
  6
CONTINUOUS
 62
     4
100
AcDbVertex
100
AcDb2dVertex
 10
336.147198
 20
124.137885
 30
0.0
  0
VERTEX
  5
247
330
22B
100
AcDbEntity
  8
CSLAYER1
  6
CONTINUOUS
 62
     4
100
AcDbVertex
100
AcDb2dVertex
 10
336.554312
 20
124.112934
 30
0.0
  0
VERTEX
  5
248
330
22B
100
AcDbEntity
  8
CSLAYER1
  6
CONTINUOUS
 62
     4
100
AcDbVertex
100
AcDb2dVertex
 10
336.960797
 20
124.123504
 30
0.0
  0
VERTEX
  5
249
330
22B
100
AcDbEntity
  8
CSLAYER1
  6
CONTINUOUS
 62
     4
100
AcDbVertex
100
AcDb2dVertex
 10
337.363561
 20
124.169517
 30
0.0
  0
VERTEX
  5
24A
330
22B
100
AcDbEntity
  8
CSLAYER1
  6
CONTINUOUS
 62
     4
100
AcDbVertex
100
AcDb2dVertex
 10
337.7595379999998
 20
124.2506219999998
 30
0.0
  0
VERTEX
  5
24B
330
22B
100
AcDbEntity
  8
CSLAYER1
  6
CONTINUOUS
 62
     4
100
AcDbVertex
100
AcDb2dVertex
 10
338.145715
 20
124.366202
 30
0.0
  0
VERTEX
  5
24C
330
22B
100
AcDbEntity
  8
CSLAYER1
  6
CONTINUOUS
 62
     4
100
AcDbVertex
100
AcDb2dVertex
 10
338.5191529999999
 20
124.5153759999999
 30
0.0
  0
VERTEX
  5
24D
330
22B
100
AcDbEntity
  8
CSLAYER1
  6
CONTINUOUS
 62
     4
100
AcDbVertex
100
AcDb2dVertex
 10
338.8770089999998
 20
124.69701
 30
0.0
  0
VERTEX
  5
24E
330
22B
100
AcDbEntity
  8
CSLAYER1
  6
CONTINUOUS
 62
     4
100
AcDbVertex
100
AcDb2dVertex
 10
339.21656
 20
124.9097209999999
 30
0.0
  0
VERTEX
  5
24F
330
22B
100
AcDbEntity
  8
CSLAYER1
  6
CONTINUOUS
 62
     4
100
AcDbVertex
100
AcDb2dVertex
 10
339.5352209999998
 20
125.1518909999999
 30
0.0
  0
VERTEX
  5
250
330
22B
100
AcDbEntity
  8
CSLAYER1
  6
CONTINUOUS
 62
     4
100
AcDbVertex
100
AcDb2dVertex
 10
339.8305689999999
 20
125.421676
 30
0.0
  0
VERTEX
  5
251
330
22B
100
AcDbEntity
  8
CSLAYER1
  6
CONTINUOUS
 62
     4
100
AcDbVertex
100
AcDb2dVertex
 10
340.100354
 20
125.7170239999999
 30
0.0
  0
VERTEX
  5
252
330
22B
100
AcDbEntity
  8
CSLAYER1
  6
CONTINUOUS
 62
     4
100
AcDbVertex
100
AcDb2dVertex
 10
340.342524
 20
126.035685
 30
0.0
  0
VERTEX
  5
253
330
22B
100
AcDbEntity
  8
CSLAYER1
  6
CONTINUOUS
 62
     4
100
AcDbVertex
100
AcDb2dVertex
 10
340.5552349999998
 20
126.375236
 30
0.0
  0
VERTEX
  5
254
330
22B
100
AcDbEntity
  8
CSLAYER1
  6
CONTINUOUS
 62
     4
100
AcDbVertex
100
AcDb2dVertex
 10
340.736869
 20
126.733092
 30
0.0
  0
VERTEX
  5
255
330
22B
100
AcDbEntity
  8
CSLAYER1
  6
CONTINUOUS
 62
     4
100
AcDbVertex
100
AcDb2dVertex
 10
340.8860439999999
 20
127.10653
 30
0.0
  0
VERTEX
  5
256
330
22B
100
AcDbEntity
  8
CSLAYER1
  6
CONTINUOUS
 62
     4
100
AcDbVertex
100
AcDb2dVertex
 10
341.001623
 20
127.492707
 30
0.0
  0
VERTEX
  5
257
330
22B
100
AcDbEntity
  8
CSLAYER1
  6
CONTINUOUS
 62
     4
100
AcDbVertex
100
AcDb2dVertex
 10
341.0827279999998
 20
127.888684
 30
0.0
  0
VERTEX
  5
258
330
22B
100
AcDbEntity
  8
CSLAYER1
  6
CONTINUOUS
 62
     4
100
AcDbVertex
100
AcDb2dVertex
 10
341.1287409999999
 20
128.291448
 30
0.0
  0
VERTEX
  5
259
330
22B
100
AcDbEntity
  8
CSLAYER1
  6
CONTINUOUS
 62
     4
100
AcDbVertex
100
AcDb2dVertex
 10
341.139312
 20
128.697934
 30
0.0
  0
VERTEX
  5
25A
330
22B
100
AcDbEntity
  8
CSLAYER1
  6
CONTINUOUS
 62
     4
100
AcDbVertex
100
AcDb2dVertex
 10
341.11436
 20
129.1050469999998
 30
0.0
  0
VERTEX
  5
25B
330
22B
100
AcDbEntity
  8
CSLAYER1
  6
CONTINUOUS
 62
     4
100
AcDbVertex
100
AcDb2dVertex
 10
341.0540759999999
 20
129.5096899999998
 30
0.0
  0
VERTEX
  5
25C
330
22B
100
AcDbEntity
  8
CSLAYER1
  6
CONTINUOUS
 62
     4
100
AcDbVertex
100
AcDb2dVertex
 10
340.958918
 20
129.9087829999999
 30
0.0
  0
VERTEX
  5
25D
330
22B
100
AcDbEntity
  8
CSLAYER1
  6
CONTINUOUS
 62
     4
100
AcDbVertex
100
AcDb2dVertex
 10
340.82961
 20
130.2992879999999
 30
0.0
  0
VERTEX
  5
25E
330
22B
100
AcDbEntity
  8
CSLAYER1
  6
CONTINUOUS
 62
     4
100
AcDbVertex
100
AcDb2dVertex
 10
340.667137
 20
130.678234
 30
0.0
  0
VERTEX
  5
25F
330
22B
100
AcDbEntity
  8
CSLAYER1
  6
CONTINUOUS
 62
     4
100
AcDbVertex
100
AcDb2dVertex
 10
340.4727349999999
 20
131.042736
 30
0.0
  0
VERTEX
  5
260
330
22B
100
AcDbEntity
  8
CSLAYER1
  6
CONTINUOUS
 62
     4
100
AcDbVertex
100
AcDb2dVertex
 10
340.247884
 20
131.3900209999999
 30
0.0
  0
VERTEX
  5
261
330
22B
100
AcDbEntity
  8
CSLAYER1
  6
CONTINUOUS
 62
     4
100
AcDbVertex
100
AcDb2dVertex
 10
339.9942939999998
 20
131.7174459999999
 30
0.0
  0
VERTEX
  5
262
330
22B
100
AcDbEntity
  8
CSLAYER1
  6
CONTINUOUS
 62
     4
100
AcDbVertex
100
AcDb2dVertex
 10
339.7138959999998
 20
132.0225179999999
 30
0.0
  0
VERTEX
  5
263
330
22B
100
AcDbEntity
  8
CSLAYER1
  6
CONTINUOUS
 62
     4
100
AcDbVertex
100
AcDb2dVertex
 10
339.408824
 20
132.3029159999999
 30
0.0
  0
VERTEX
  5
264
330
22B
100
AcDbEntity
  8
CSLAYER1
  6
CONTINUOUS
 62
     4
100
AcDbVertex
100
AcDb2dVertex
 10
339.0813999999998
 20
132.556506
 30
0.0
  0
VERTEX
  5
265
330
22B
100
AcDbEntity
  8
CSLAYER1
  6
CONTINUOUS
 62
     4
100
AcDbVertex
100
AcDb2dVertex
 10
338.7341149999998
 20
132.781357
 30
0.0
  0
VERTEX
  5
266
330
22B
100
AcDbEntity
  8
CSLAYER1
  6
CONTINUOUS
 62
     4
100
AcDbVertex
100
AcDb2dVertex
 10
338.369612
 20
132.975759
 30
0.0
  0
VERTEX
  5
267
330
22B
100
AcDbEntity
  8
CSLAYER1
  6
CONTINUOUS
 62
     4
100
AcDbVertex
100
AcDb2dVertex
 10
337.990666
 20
133.138232
 30
0.0
  0
VERTEX
  5
268
330
22B
100
AcDbEntity
  8
CSLAYER1
  6
CONTINUOUS
 62
     4
100
AcDbVertex
100
AcDb2dVertex
 10
337.600161
 20
133.26754
 30
0.0
  0
VERTEX
  5
269
330
22B
100
AcDbEntity
  8
CSLAYER1
  6
CONTINUOUS
 62
     4
100
AcDbVertex
100
AcDb2dVertex
 10
337.201068
 20
133.362698
 30
0.0
  0
VERTEX
  5
26A
330
22B
100
AcDbEntity
  8
CSLAYER1
  6
CONTINUOUS
 62
     4
100
AcDbVertex
100
AcDb2dVertex
 10
336.7964249999999
 20
133.422982
 30
0.0
  0
VERTEX
  5
26B
330
22B
100
AcDbEntity
  8
CSLAYER1
  6
CONTINUOUS
 62
     4
100
AcDbVertex
100
AcDb2dVertex
 10
336.389312
 20
133.447934
 30
0.0
  0
VERTEX
  5
26C
330
22B
100
AcDbEntity
  8
CSLAYER1
  6
CONTINUOUS
 62
     4
100
AcDbVertex
100
AcDb2dVertex
 10
335.982826
 20
133.4373629999998
 30
0.0
  0
VERTEX
  5
26D
330
22B
100
AcDbEntity
  8
CSLAYER1
  6
CONTINUOUS
 62
     4
100
AcDbVertex
100
AcDb2dVertex
 10
335.580062
 20
133.3913499999999
 30
0.0
  0
VERTEX
  5
26E
330
22B
100
AcDbEntity
  8
CSLAYER1
  6
CONTINUOUS
 62
     4
100
AcDbVertex
100
AcDb2dVertex
 10
335.1840849999998
 20
133.310245
 30
0.0
  0
VERTEX
  5
26F
330
22B
100
AcDbEntity
  8
CSLAYER1
  6
CONTINUOUS
 62
     4
100
AcDbVertex
100
AcDb2dVertex
 10
334.7979079999999
 20
133.1946649999999
 30
0.0
  0
VERTEX
  5
270
330
22B
100
AcDbEntity
  8
CSLAYER1
  6
CONTINUOUS
 62
     4
100
AcDbVertex
100
AcDb2dVertex
 10
334.42447
 20
133.045491
 30
0.0
  0
VERTEX
  5
271
330
22B
100
AcDbEntity
  8
CSLAYER1
  6
CONTINUOUS
 62
     4
100
AcDbVertex
100
AcDb2dVertex
 10
334.066615
 20
132.863857
 30
0.0
  0
VERTEX
  5
272
330
22B
100
AcDbEntity
  8
CSLAYER1
  6
CONTINUOUS
 62
     4
100
AcDbVertex
100
AcDb2dVertex
 10
333.727064
 20
132.6511459999998
 30
0.0
  0
VERTEX
  5
273
330
22B
100
AcDbEntity
  8
CSLAYER1
  6
CONTINUOUS
 62
     4
100
AcDbVertex
100
AcDb2dVertex
 10
333.408402
 20
132.4089759999999
 30
0.0
  0
VERTEX
  5
274
330
22B
100
AcDbEntity
  8
CSLAYER1
  6
CONTINUOUS
 62
     4
100
AcDbVertex
100
AcDb2dVertex
 10
333.1130539999998
 20
132.1391909999998
 30
0.0
  0
SEQEND
  5
275
330
22B
100
AcDbEntity
  8
CSLAYER1
 62
     4
  0
ARC
  5
276
330
1E
100
AcDbEntity
  8
CSLAYER1
  6
CONTINUOUS
 62
     3
100
AcDbCircle
 10
107.2982729999999
 20
197.111995
 30
0.0
 40
18.0
100
AcDbArc
 50
93.18473900000004
 51
86.81526099999997
  0
ARC
  5
277
330
1E
100
AcDbEntity
  8
CSLAYER1
  6
CONTINUOUS
 62
     3
100
AcDbCircle
 10
299.2817
 20
71.63902199999998
 30
0.0
 40
3.0
100
AcDbArc
 50
90.0
 51
270.0
  0
LINE
  5
278
330
1E
100
AcDbEntity
  8
CSLAYER1
  6
DASHED
 62
     4
100
AcDbLine
 10
308.110127
 20
117.639022
 30
0.0
 11
281.2816999999999
 21
90.81059399999999
 31
0.0
  0
LINE
  5
279
330
1E
100
AcDbEntity
  8
CSLAYER1
  6
DASHED
 62
     4
100
AcDbLine
 10
281.2816999999999
 20
82.14716899999997
 30
0.0
 11
302.405831
 21
61.023037
 31
0.0
  0
LINE
  5
27A
330
1E
100
AcDbEntity
  8
CSLAYER1
  6
CONTINUOUS
 62
     3
100
AcDbLine
 10
281.2816999999999
 20
73.66188699999998
 30
0.0
 11
281.1926279999998
 21
73.75095899999998
 31
0.0
  0
LINE
  5
27B
330
1E
100
AcDbEntity
  8
CSLAYER1
  6
DASHED
 62
     4
100
AcDbLine
 10
281.2816999999999
 20
56.86946899999998
 30
0.0
 11
289.6779089999999
 21
65.26567800000001
 31
0.0
  0
LINE
  5
27C
330
1E
100
AcDbEntity
  8
CSLAYER1
  6
CONTINUOUS
 62
     3
100
AcDbLine
 10
281.2816999999999
 20
51.212615
 30
0.0
 11
276.2428799999999
 21
46.173795
 31
0.0
  0
ARC
  5
27D
330
1E
100
AcDbEntity
  8
CSLAYER1
  6
DASHED
 62
     4
100
AcDbCircle
 10
278.799213
 20
55.20740799999999
 30
0.0
 40
5.0
100
AcDbArc
 50
299.768541
 51
309.8901359999998
  0
LINE
  5
27E
330
1E
100
AcDbEntity
  8
CSLAYER1
  6
CONTINUOUS
 62
     3
100
AcDbLine
 10
281.2816999999999
 20
50.646929
 30
0.0
 11
278.116713
 21
47.481943
 31
0.0
  0
LINE
  5
27F
330
1E
100
AcDbEntity
  8
CSLAYER1
  6
CONTINUOUS
 62
     3
100
AcDbLine
 10
311.921508
 20
70.538714
 30
0.0
 11
320.8484569999999
 21
79.465663
 31
0.0
  0
LINE
  5
280
330
1E
100
AcDbEntity
  8
CSLAYER1
  6
DASHED
 62
     4
100
AcDbLine
 10
335.5452089999999
 20
94.16241499999999
 30
0.0
 11
340.151758
 21
98.76896399999999
 31
0.0
  0
LINE
  5
281
330
1E
100
AcDbEntity
  8
CSLAYER1
  6
CONTINUOUS
 62
     3
100
AcDbLine
 10
340.151758
 20
98.76896399999999
 30
0.0
 11
349.7819859999998
 21
108.399192
 31
0.0
  0
DIMENSION
  5
282
330
1E
100
AcDbEntity
  8
CSLAYER1
 62
     4
100
AcDbDimension
  2
*D12
 10
118.2735929999999
 20
211.378821
 30
0.0
 11
101.414314
 21
190.2834469999999
 31
0.0
 70
     3
100
AcDbDiametricDimension
 15
96.322953
 25
182.845168
 35
0.0
 40
0.0
  0
TEXT
  5
283
330
1E
100
AcDbEntity
  8
CSLAYER1
 62
     3
100
AcDbText
 10
354.3
 20
18.89999999999998
 30
0.0
 40
3.2
  1
NR10LST
 41
1.049999999999994
  7
FX_FONT
 72
     5
 11
376.6999999999999
 21
18.89999999999998
 31
0.0
100
AcDbText
  0
LINE
  5
284
330
1E
100
AcDbEntity
  8
CSLAYER1
  6
DASHED
 62
     4
100
AcDbLine
 10
303.888302
 20
117.639022
 30
0.0
 11
330.2048169999999
 21
91.322506
 31
0.0
  0
LINE
  5
285
330
1E
100
AcDbEntity
  8
CSLAYER1
  6
DASHED
 62
     4
100
AcDbLine
 10
337.111913
 20
84.41540999999999
 30
0.0
 11
326.505311
 21
73.808809
 31
0.0
  0
LINE
  5
286
330
1E
100
AcDbEntity
  8
CSLAYER1
  6
CONTINUOUS
 62
     3
100
AcDbLine
 10
289.735758
 20
131.7915649999999
 30
0.0
 11
279.1291569999998
 21
121.1849629999999
 31
0.0
  0
LINE
  5
287
330
1E
100
AcDbEntity
  8
CSLAYER1
  6
CONTINUOUS
 62
     3
100
AcDbLine
 10
296.2817
 20
117.639022
 30
0.0
 11
297.054594
 21
117.639022
 31
0.0
  0
LINE
  5
288
330
1E
100
AcDbEntity
  8
CSLAYER1
  6
CENTER
 62
     4
100
AcDbLine
 10
307.654866
 20
120.0121879999999
 30
0.0
 11
290.617115
 21
102.974436
 31
0.0
  0
LINE
  5
289
330
1E
100
AcDbEntity
  8
CSLAYER1
  6
CENTER
 62
     4
100
AcDbLine
 10
337.81333
 20
73.10739100000002
 30
0.0
 11
277.950961
 21
132.9697609999998
 31
0.0
  0
LINE
  5
28A
330
1E
100
AcDbEntity
  8
CSLAYER1
  6
CENTER
 62
     4
100
AcDbLine
 10
297.1879649999999
 20
128.6371699999999
 30
0.0
 11
282.4526119999998
 21
113.9018169999999
 31
0.0
  0
CIRCLE
  5
28B
330
1E
100
AcDbEntity
  8
CSLAYER1
  6
CONTINUOUS
 62
     3
100
AcDbCircle
 10
289.735758
 20
121.1849629999999
 30
0.0
 40
4.25
  0
LINE
  5
28C
330
1E
100
AcDbEntity
  8
CSLAYER1
  6
CONTINUOUS
 62
     3
100
AcDbLine
 10
290.333475
 20
118.954253
 30
0.0
 11
291.966469
 21
120.5872459999999
 31
0.0
  0
LINE
  5
28D
330
1E
100
AcDbEntity
  8
CSLAYER1
  6
CONTINUOUS
 62
     3
100
AcDbLine
 10
288.1027649999998
 20
119.5519699999999
 30
0.0
 11
290.333475
 21
118.954253
 31
0.0
  0
LINE
  5
28E
330
1E
100
AcDbEntity
  8
CSLAYER1
  6
CONTINUOUS
 62
     3
100
AcDbLine
 10
287.505048
 20
121.78268
 30
0.0
 11
288.1027649999998
 21
119.5519699999999
 31
0.0
  0
LINE
  5
28F
330
1E
100
AcDbEntity
  8
CSLAYER1
  6
CONTINUOUS
 62
     3
100
AcDbLine
 10
289.138041
 20
123.415673
 30
0.0
 11
287.505048
 21
121.78268
 31
0.0
  0
LINE
  5
290
330
1E
100
AcDbEntity
  8
CSLAYER1
  6
CONTINUOUS
 62
     3
100
AcDbLine
 10
291.368752
 20
122.817956
 30
0.0
 11
289.138041
 21
123.415673
 31
0.0
  0
LINE
  5
291
330
1E
100
AcDbEntity
  8
CSLAYER1
  6
CONTINUOUS
 62
     3
100
AcDbLine
 10
291.966469
 20
120.5872459999999
 30
0.0
 11
291.368752
 21
122.817956
 31
0.0
  0
CIRCLE
  5
292
330
1E
100
AcDbEntity
  8
CSLAYER1
  6
CONTINUOUS
 62
     3
100
AcDbCircle
 10
299.2817
 20
111.6390219999999
 30
0.0
 40
4.25
  0
CIRCLE
  5
293
330
1E
100
AcDbEntity
  8
CSLAYER1
  6
CONTINUOUS
 62
     3
100
AcDbCircle
 10
299.2817
 20
111.6390219999999
 30
0.0
 40
3.730385
  0
LINE
  5
294
330
1E
100
AcDbEntity
  8
CSLAYER1
  6
CONTINUOUS
 62
     3
100
AcDbLine
 10
299.879417
 20
109.408311
 30
0.0
 11
301.5124099999998
 21
111.041305
 31
0.0
  0
LINE
  5
295
330
1E
100
AcDbEntity
  8
CSLAYER1
  6
CONTINUOUS
 62
     3
100
AcDbLine
 10
297.648707
 20
110.006028
 30
0.0
 11
299.879417
 21
109.408311
 31
0.0
  0
LINE
  5
296
330
1E
100
AcDbEntity
  8
CSLAYER1
  6
CONTINUOUS
 62
     3
100
AcDbLine
 10
297.05099
 20
112.2367389999999
 30
0.0
 11
297.648707
 21
110.006028
 31
0.0
  0
LINE
  5
297
330
1E
100
AcDbEntity
  8
CSLAYER1
  6
CONTINUOUS
 62
     3
100
AcDbLine
 10
298.683983
 20
113.869732
 30
0.0
 11
297.05099
 21
112.2367389999999
 31
0.0
  0
LINE
  5
298
330
1E
100
AcDbEntity
  8
CSLAYER1
  6
CONTINUOUS
 62
     3
100
AcDbLine
 10
300.9146929999999
 20
113.2720149999999
 30
0.0
 11
298.683983
 21
113.869732
 31
0.0
  0
LINE
  5
299
330
1E
100
AcDbEntity
  8
CSLAYER1
  6
CONTINUOUS
 62
     3
100
AcDbLine
 10
301.5124099999998
 20
111.041305
 30
0.0
 11
300.9146929999999
 21
113.2720149999999
 31
0.0
  0
CIRCLE
  5
29A
330
1E
100
AcDbEntity
  8
CSLAYER1
  6
CONTINUOUS
 62
     3
100
AcDbCircle
 10
327.5659709999998
 20
83.35475
 30
0.0
 40
4.25
  0
CIRCLE
  5
29B
330
1E
100
AcDbEntity
  8
CSLAYER1
  6
CONTINUOUS
 62
     3
100
AcDbCircle
 10
327.5659709999998
 20
83.35475
 30
0.0
 40
3.730385
  0
LINE
  5
29C
330
1E
100
AcDbEntity
  8
CSLAYER1
  6
CONTINUOUS
 62
     3
100
AcDbLine
 10
328.1636879999998
 20
81.12404000000003
 30
0.0
 11
329.7966809999998
 21
82.75703299999998
 31
0.0
  0
LINE
  5
29D
330
1E
100
AcDbEntity
  8
CSLAYER1
  6
CONTINUOUS
 62
     3
100
AcDbLine
 10
325.9329779999998
 20
81.721757
 30
0.0
 11
328.1636879999998
 21
81.12404000000003
 31
0.0
  0
LINE
  5
29E
330
1E
100
AcDbEntity
  8
CSLAYER1
  6
CONTINUOUS
 62
     3
100
AcDbLine
 10
325.335261
 20
83.95246699999999
 30
0.0
 11
325.9329779999998
 21
81.721757
 31
0.0
  0
LINE
  5
29F
330
1E
100
AcDbEntity
  8
CSLAYER1
  6
CONTINUOUS
 62
     3
100
AcDbLine
 10
326.968254
 20
85.58545999999997
 30
0.0
 11
325.335261
 21
83.95246699999999
 31
0.0
  0
LINE
  5
2A0
330
1E
100
AcDbEntity
  8
CSLAYER1
  6
CONTINUOUS
 62
     3
100
AcDbLine
 10
329.198964
 20
84.987743
 30
0.0
 11
326.968254
 21
85.58545999999997
 31
0.0
  0
LINE
  5
2A1
330
1E
100
AcDbEntity
  8
CSLAYER1
  6
CONTINUOUS
 62
     3
100
AcDbLine
 10
329.7966809999998
 20
82.75703299999998
 30
0.0
 11
329.198964
 21
84.987743
 31
0.0
  0
LINE
  5
2A2
330
1E
100
AcDbEntity
  8
CSLAYER1
  6
CONTINUOUS
 62
     3
100
AcDbLine
 10
281.2816999999999
 20
50.639022
 30
0.0
 11
351.2817
 21
50.639022
 31
0.0
  0
LINE
  5
2A3
330
1E
100
AcDbEntity
  8
CSLAYER1
  6
CONTINUOUS
 62
     3
100
AcDbLine
 10
281.2816999999999
 20
53.639022
 30
0.0
 11
351.2817
 21
53.639022
 31
0.0
  0
LINE
  5
2A4
330
1E
100
AcDbEntity
  8
CSLAYER1
  6
CONTINUOUS
 62
     3
100
AcDbLine
 10
281.2816999999999
 20
50.639022
 30
0.0
 11
281.2816999999999
 21
102.6390219999999
 31
0.0
  0
ARC
  5
2A5
330
1E
100
AcDbEntity
  8
CSLAYER1
  6
CENTER
 62
     4
100
AcDbCircle
 10
299.2817
 20
111.6390219999999
 30
0.0
 40
40.0
100
AcDbArc
 50
262.4638679999999
 51
337.1874439999998
  0
LINE
  5
2A6
330
1E
100
AcDbEntity
  8
CSLAYER1
  6
CENTER
 62
     4
100
AcDbLine
 10
289.4249359999998
 20
117.329827
 30
0.0
 11
345.181472
 21
85.138776
 31
0.0
  0
ARC
  5
2A7
330
1E
100
AcDbEntity
  8
CSLAYER1
  6
CONTINUOUS
 62
     3
100
AcDbCircle
 10
299.2817
 20
111.6390219999999
 30
0.0
 40
37.0
100
AcDbArc
 50
270.0
 51
306.5727339999999
  0
ARC
  5
2A8
330
1E
100
AcDbEntity
  8
CSLAYER1
  6
CONTINUOUS
 62
     3
100
AcDbCircle
 10
299.2817
 20
111.6390219999999
 30
0.0
 40
43.0
100
AcDbArc
 50
270.0
 51
307.183747
  0
ARC
  5
2A9
330
1E
100
AcDbEntity
  8
CSLAYER1
  6
CONTINUOUS
 62
     3
100
AcDbCircle
 10
333.922716
 20
91.639022
 30
0.0
 40
3.0
100
AcDbArc
 50
330.0
 51
150.0
  0
LINE
  5
2AA
330
1E
100
AcDbEntity
  8
CSLAYER1
  6
CONTINUOUS
 62
     3
100
AcDbLine
 10
351.2817
 20
50.639022
 30
0.0
 11
351.2817
 21
87.639022
 31
0.0
  0
LINE
  5
2AB
330
1E
100
AcDbEntity
  8
CSLAYER1
  6
CONTINUOUS
 62
     3
100
AcDbLine
 10
289.478399
 20
110.8357209999999
 30
0.0
 11
279.1291569999998
 21
121.1849629999999
 31
0.0
  0
LINE
  5
2AC
330
1E
100
AcDbEntity
  8
CSLAYER1
  6
CONTINUOUS
 62
     3
100
AcDbLine
 10
303.888302
 20
117.639022
 30
0.0
 11
289.735758
 21
131.7915649999999
 31
0.0
  0
LINE
  5
2AD
330
1E
100
AcDbEntity
  8
CSLAYER1
  6
DASHED
 62
     4
100
AcDbLine
 10
326.505311
 20
73.808809
 30
0.0
 11
323.917922
 21
76.396198
 31
0.0
  0
LINE
  5
2AE
330
1E
100
AcDbEntity
  8
CSLAYER1
  6
CONTINUOUS
 62
     3
100
AcDbLine
 10
334.5245229999998
 20
87.00279999999997
 30
0.0
 11
330.2048169999999
 21
91.322506
 31
0.0
  0
LINE
  5
2AF
330
1E
100
AcDbEntity
  8
CSLAYER1
  6
CENTER
 62
     4
100
AcDbLine
 10
291.2817
 20
47.965606
 30
0.0
 11
291.2817
 21
59.9783
 31
0.0
  0
LINE
  5
2B0
330
1E
100
AcDbEntity
  8
CSLAYER1
  6
CENTER
 62
     4
100
AcDbLine
 10
341.2816999999999
 20
47.39357199999999
 30
0.0
 11
341.2816999999999
 21
60.16897700000001
 31
0.0
  0
LINE
  5
2B1
330
1E
100
AcDbEntity
  8
CSLAYER1
  6
CENTER
 62
     4
100
AcDbLine
 10
353.8875039999998
 20
137.960554
 30
0.0
 11
264.74265
 21
48.81569999999999
 31
0.0
  0
LINE
  5
2B2
330
1E
100
AcDbEntity
  8
CSLAYER1
  6
DASHED
 62
     4
100
AcDbLine
 10
334.5245229999998
 20
87.00279999999997
 30
0.0
 11
337.111913
 21
84.41540999999999
 31
0.0
  0
LINE
  5
2B3
330
1E
100
AcDbEntity
  8
CSLAYER1
  6
CONTINUOUS
 62
     3
100
AcDbLine
 10
321.2817
 20
117.639022
 30
0.0
 11
351.2817
 21
87.639022
 31
0.0
  0
LINE
  5
2B4
330
1E
100
AcDbEntity
  8
CSLAYER1
  6
CENTER
 62
     4
100
AcDbLine
 10
299.2817
 20
120.4099899999999
 30
0.0
 11
299.2817
 21
62.20679
 31
0.0
  0
LINE
  5
2B5
330
1E
100
AcDbEntity
  8
CSLAYER1
  6
CONTINUOUS
 62
     3
100
AcDbLine
 10
323.917922
 20
76.396198
 30
0.0
 11
319.598216
 21
80.71590400000003
 31
0.0
  0
LINE
  5
2B6
330
1E
100
AcDbEntity
  8
CSLAYER1
  6
DASHED
 62
     4
100
AcDbLine
 10
319.598216
 20
80.71590400000003
 30
0.0
 11
289.478399
 21
110.8357209999999
 31
0.0
  0
LINE
  5
2B7
330
1E
100
AcDbEntity
  8
CSLAYER1
  6
CONTINUOUS
 62
     3
100
AcDbLine
 10
276.949987
 20
86.478882
 30
0.0
 11
281.2816999999999
 21
90.81059399999999
 31
0.0
  0
LINE
  5
2B8
330
1E
100
AcDbEntity
  8
CSLAYER1
  6
CONTINUOUS
 62
     3
100
AcDbLine
 10
300.34236
 20
121.1849629999999
 30
0.0
 11
296.796419
 21
117.639022
 31
0.0
  0
LINE
  5
2B9
330
1E
100
AcDbEntity
  8
CSLAYER1
  6
DASHED
 62
     4
100
AcDbLine
 10
296.796419
 20
117.639022
 30
0.0
 11
289.735758
 21
110.578361
 31
0.0
  0
CIRCLE
  5
2BA
330
1E
100
AcDbEntity
  8
CSLAYER1
  6
CONTINUOUS
 62
     3
100
AcDbCircle
 10
289.735758
 20
121.1849629999999
 30
0.0
 40
3.730385
  0
LINE
  5
2BB
330
1E
100
AcDbEntity
  8
CSLAYER1
  6
CONTINUOUS
 62
     3
100
AcDbLine
 10
331.455059
 20
90.07226499999999
 30
0.0
 11
335.5452089999999
 21
94.16241499999999
 31
0.0
  0
LINE
  5
2BC
330
1E
100
AcDbEntity
  8
CSLAYER1
  6
DASHED
 62
     4
100
AcDbLine
 10
320.8484569999999
 20
79.465663
 30
0.0
 11
331.455059
 21
90.07226499999999
 31
0.0
  0
ARC
  5
2BD
330
1E
100
AcDbEntity
  8
CSLAYER1
  6
DASHED
 62
     4
100
AcDbCircle
 10
299.2817
 20
111.6390219999999
 30
0.0
 40
37.0
100
AcDbArc
 50
319.48463
 51
323.427266
  0
ARC
  5
2BE
330
1E
100
AcDbEntity
  8
CSLAYER1
  6
DASHED
 62
     4
100
AcDbCircle
 10
299.2817
 20
111.6390219999999
 30
0.0
 40
43.0
100
AcDbArc
 50
319.1598509999999
 51
322.8162529999999
  0
LINE
  5
2C0
330
1E
100
AcDbEntity
  8
CSLAYER1
  6
CONTINUOUS
 62
     3
100
AcDbLine
 10
281.2816999999999
 20
102.6390219999999
 30
0.0
 11
294.302117
 21
115.659438
 31
0.0
  0
LINE
  5
2C1
330
1E
100
AcDbEntity
  8
CSLAYER1
  6
CONTINUOUS
 62
     3
100
AcDbLine
 10
191.9173269999999
 20
208.111995
 30
0.0
 11
204.9377429999999
 21
221.132411
 31
0.0
  0
LINE
  5
2C2
330
1E
100
AcDbEntity
  8
CSLAYER1
  6
CONTINUOUS
 62
     3
100
AcDbLine
 10
136.2982729999999
 20
208.111995
 30
0.0
 11
133.2982729999999
 21
208.111995
 31
0.0
  0
LINE
  5
2C3
330
1E
100
AcDbEntity
  8
CSLAYER1
  6
CONTINUOUS
 62
     3
100
AcDbLine
 10
81.298273
 20
208.111995
 30
0.0
 11
78.29827299999998
 21
208.111995
 31
0.0
  0
LINE
  5
2C4
330
1E
100
AcDbEntity
  8
CSLAYER1
  6
CENTER
 62
     4
100
AcDbLine
 10
71.01553100000002
 20
105.9090499999999
 30
0.0
 11
60.44822299999999
 21
105.9090499999999
 31
0.0
  0
LINE
  5
2C5
330
1E
100
AcDbEntity
  8
CSLAYER1
  6
CENTER
 62
     4
100
AcDbLine
 10
71.01553100000002
 20
99.90904999999999
 30
0.0
 11
59.90631
 21
99.90904999999999
 31
0.0
  0
ARC
  5
2C6
330
1E
100
AcDbEntity
  8
CSLAYER1
  6
CONTINUOUS
 62
     3
100
AcDbCircle
 10
65.298273
 20
99.90904999999999
 30
0.0
 40
3.0
100
AcDbArc
 50
180.0
 51
0.0
  0
LINE
  5
2C7
330
1E
100
AcDbEntity
  8
CSLAYER1
  6
CONTINUOUS
 62
     3
100
AcDbLine
 10
68.29827299999999
 20
105.9090499999999
 30
0.0
 11
68.29827299999999
 21
99.90904999999999
 31
0.0
  0
LINE
  5
2C8
330
1E
100
AcDbEntity
  8
CSLAYER1
  6
CONTINUOUS
 62
     3
100
AcDbLine
 10
62.298273
 20
105.9090499999999
 30
0.0
 11
62.298273
 21
99.90904999999999
 31
0.0
  0
LINE
  5
2C9
330
1E
100
AcDbEntity
  8
CSLAYER1
  6
CENTER
 62
     4
100
AcDbLine
 10
71.01553100000002
 20
61.90905
 30
0.0
 11
60.44822299999999
 21
61.90905
 31
0.0
  0
ARC
  5
2CA
330
1E
100
AcDbEntity
  8
CSLAYER1
  6
CONTINUOUS
 62
     3
100
AcDbCircle
 10
65.298273
 20
61.90905
 30
0.0
 40
3.0
100
AcDbArc
 50
0.0
 51
180.0
  0
LINE
  5
2CB
330
1E
100
AcDbEntity
  8
CSLAYER1
  6
CENTER
 62
     4
100
AcDbLine
 10
71.01553100000002
 20
55.90905
 30
0.0
 11
59.90631
 21
55.90905
 31
0.0
  0
ARC
  5
2CC
330
1E
100
AcDbEntity
  8
CSLAYER1
  6
CONTINUOUS
 62
     3
100
AcDbCircle
 10
65.298273
 20
55.90905
 30
0.0
 40
3.0
100
AcDbArc
 50
180.0
 51
0.0
  0
LINE
  5
2CD
330
1E
100
AcDbEntity
  8
CSLAYER1
  6
CONTINUOUS
 62
     3
100
AcDbLine
 10
68.29827299999999
 20
61.90905
 30
0.0
 11
68.29827299999999
 21
55.90905
 31
0.0
  0
LINE
  5
2CE
330
1E
100
AcDbEntity
  8
CSLAYER1
  6
CONTINUOUS
 62
     3
100
AcDbLine
 10
62.298273
 20
61.90905
 30
0.0
 11
62.298273
 21
55.90905
 31
0.0
  0
DIMENSION
  5
2CF
330
1E
100
AcDbEntity
  8
CSLAYER1
 62
     4
100
AcDbDimension
  2
*D14
 10
38.214459
 20
115.90905
 30
0.0
 11
37.714458
 21
80.90904999999997
 31
0.0
 70
     1
100
AcDbAlignedDimension
 13
56.29827299999998
 23
45.90905
 33
0.0
 14
56.29827299999998
 24
115.90905
 34
0.0
  0
DIMENSION
  5
2D0
330
1E
100
AcDbEntity
  8
CSLAYER1
 62
     4
100
AcDbDimension
  2
*D15
 10
44.21445900000001
 20
52.90905
 30
0.0
 11
43.714458
 21
49.40905
 31
0.0
100
AcDbAlignedDimension
 13
56.29827299999998
 23
45.90905
 33
0.0
 14
65.298273
 24
52.90905
 34
0.0
 50
90.0
100
AcDbRotatedDimension
  0
DIMENSION
  5
2D1
330
1E
100
AcDbEntity
  8
CSLAYER1
 62
     4
100
AcDbDimension
  2
*D16
 10
44.21445900000001
 20
64.90904999999999
 30
0.0
 11
43.714458
 21
58.90905
 31
0.0
 70
     1
100
AcDbAlignedDimension
 13
65.298273
 23
52.90905
 33
0.0
 14
65.298273
 24
64.90904999999999
 34
0.0
  0
DIMENSION
  5
2D2
330
1E
100
AcDbEntity
  8
CSLAYER1
 62
     4
100
AcDbDimension
  2
*D17
 10
44.21445900000001
 20
96.90905
 30
0.0
 11
43.714458
 21
80.90904999999997
 31
0.0
 70
     1
100
AcDbAlignedDimension
 13
65.298273
 23
64.90904999999999
 33
0.0
 14
65.298273
 24
96.90905
 34
0.0
  0
DIMENSION
  5
2D3
330
1E
100
AcDbEntity
  8
CSLAYER1
 62
     4
100
AcDbDimension
  2
*D18
 10
44.21445900000001
 20
108.9090499999999
 30
0.0
 11
43.714458
 21
102.9090499999999
 31
0.0
 70
     1
100
AcDbAlignedDimension
 13
65.298273
 23
96.90905
 33
0.0
 14
65.298273
 24
108.9090499999999
 34
0.0
  0
DIMENSION
  5
2D4
330
1E
100
AcDbEntity
  8
CSLAYER1
 62
     4
100
AcDbDimension
  2
*D19
 10
44.21445900000001
 20
115.90905
 30
0.0
 11
43.714458
 21
112.4090499999999
 31
0.0
100
AcDbAlignedDimension
 13
65.298273
 23
108.9090499999999
 33
0.0
 14
56.29827299999998
 24
115.90905
 34
0.0
 50
90.0
100
AcDbRotatedDimension
  0
ARC
  5
2D5
330
1E
100
AcDbEntity
  8
CSLAYER1
  6
CONTINUOUS
 62
     3
100
AcDbCircle
 10
65.298273
 20
105.9090499999999
 30
0.0
 40
3.0
100
AcDbArc
 50
0.0
 51
180.0
  0
DIMENSION
  5
2D6
330
1E
100
AcDbEntity
  8
CSLAYER1
 62
     4
100
AcDbDimension
  2
*D20
 10
68.29827299999999
 20
90.6229
 30
0.0
 11
70.76820399999999
 21
91.122917
 31
0.0
 70
     1
 52
270.0
100
AcDbAlignedDimension
 13
62.298273
 23
99.90904999999999
 33
0.0
 14
68.29827299999999
 24
99.90904999999999
 34
0.0
  0
LINE
  5
2D7
330
1E
100
AcDbEntity
  8
CSLAYER1
  6
CENTER
 62
     4
100
AcDbLine
 10
143.5810139999999
 20
105.9090499999999
 30
0.0
 11
154.148322
 21
105.9090499999999
 31
0.0
  0
LINE
  5
2D8
330
1E
100
AcDbEntity
  8
CSLAYER1
  6
CENTER
 62
     4
100
AcDbLine
 10
143.5810139999999
 20
99.90904999999999
 30
0.0
 11
154.690235
 21
99.90904999999999
 31
0.0
  0
ARC
  5
2D9
330
1E
100
AcDbEntity
  8
CSLAYER1
  6
CONTINUOUS
 62
     3
100
AcDbCircle
 10
149.298273
 20
99.90904999999999
 30
0.0
 40
3.0
100
AcDbArc
 50
180.0
 51
0.0
  0
LINE
  5
2DA
330
1E
100
AcDbEntity
  8
CSLAYER1
  6
CONTINUOUS
 62
     3
100
AcDbLine
 10
146.298273
 20
105.9090499999999
 30
0.0
 11
146.298273
 21
99.90904999999999
 31
0.0
  0
LINE
  5
2DB
330
1E
100
AcDbEntity
  8
CSLAYER1
  6
CONTINUOUS
 62
     3
100
AcDbLine
 10
152.298273
 20
105.9090499999999
 30
0.0
 11
152.298273
 21
99.90904999999999
 31
0.0
  0
LINE
  5
2DC
330
1E
100
AcDbEntity
  8
CSLAYER1
  6
CENTER
 62
     4
100
AcDbLine
 10
143.5810139999999
 20
61.90905
 30
0.0
 11
154.148322
 21
61.90905
 31
0.0
  0
ARC
  5
2DD
330
1E
100
AcDbEntity
  8
CSLAYER1
  6
CONTINUOUS
 62
     3
100
AcDbCircle
 10
149.298273
 20
61.90905
 30
0.0
 40
3.0
100
AcDbArc
 50
0.0
 51
180.0
  0
LINE
  5
2DE
330
1E
100
AcDbEntity
  8
CSLAYER1
  6
CENTER
 62
     4
100
AcDbLine
 10
143.5810139999999
 20
55.90905
 30
0.0
 11
154.690235
 21
55.90905
 31
0.0
  0
ARC
  5
2DF
330
1E
100
AcDbEntity
  8
CSLAYER1
  6
CONTINUOUS
 62
     3
100
AcDbCircle
 10
149.298273
 20
55.90905
 30
0.0
 40
3.0
100
AcDbArc
 50
180.0
 51
0.0
  0
LINE
  5
2E0
330
1E
100
AcDbEntity
  8
CSLAYER1
  6
CONTINUOUS
 62
     3
100
AcDbLine
 10
146.298273
 20
61.90905
 30
0.0
 11
146.298273
 21
55.90905
 31
0.0
  0
LINE
  5
2E1
330
1E
100
AcDbEntity
  8
CSLAYER1
  6
CONTINUOUS
 62
     3
100
AcDbLine
 10
152.298273
 20
61.90905
 30
0.0
 11
152.298273
 21
55.90905
 31
0.0
  0
ARC
  5
2E2
330
1E
100
AcDbEntity
  8
CSLAYER1
  6
CONTINUOUS
 62
     3
100
AcDbCircle
 10
149.298273
 20
105.9090499999999
 30
0.0
 40
3.0
100
AcDbArc
 50
0.0
 51
180.0
  0
LINE
  5
2E3
330
1E
100
AcDbEntity
  8
CSLAYER1
  6
CENTER
 62
     4
100
AcDbLine
 10
207.917327
 20
153.913833
 30
0.0
 11
207.917327
 21
165.5180089999998
 31
0.0
  0
LINE
  5
2E4
330
1E
100
AcDbEntity
  8
CSLAYER1
  6
CENTER
 62
     4
100
AcDbLine
 10
245.9173269999999
 20
152.872432
 30
0.0
 11
245.9173269999999
 21
164.0302949999998
 31
0.0
  0
LINE
  5
2E5
330
1E
100
AcDbEntity
  8
CSLAYER1
  6
CENTER
 62
     4
100
AcDbLine
 10
297.2817
 20
48.44086
 30
0.0
 11
297.2817
 21
60.045037
 31
0.0
  0
LINE
  5
2E6
330
1E
100
AcDbEntity
  8
CSLAYER1
  6
CENTER
 62
     4
100
AcDbLine
 10
335.2816999999999
 20
47.399459
 30
0.0
 11
335.2816999999999
 21
58.557322
 31
0.0
  0
INSERT
  5
2E7
330
1E
100
AcDbEntity
  8
CSLAYER1
100
AcDbBlockReference
  2
FXDIM0000
 10
0.0
 20
0.0
 30
0.0
  0
ARC
  5
2E8
330
1E
100
AcDbEntity
  8
CSLAYER1
  6
CONTINUOUS
 62
     3
100
AcDbCircle
 10
78.29827299999998
 20
159.111995
 30
0.0
 40
3.0
100
AcDbArc
 50
270.0
 51
0.0
  0
ARC
  5
2E9
330
1E
100
AcDbEntity
  8
CSLAYER1
  6
CONTINUOUS
 62
     3
100
AcDbCircle
 10
136.2982729999999
 20
159.111995
 30
0.0
 40
3.0
100
AcDbArc
 50
180.0
 51
270.0
  0
INSERT
  5
2EA
330
1E
100
AcDbEntity
  8
CSLAYER1
100
AcDbBlockReference
  2
FXDIM0001
 10
0.0
 20
0.0
 30
0.0
  0
INSERT
  5
2EB
330
1E
100
AcDbEntity
  8
CSLAYER1
100
AcDbBlockReference
  2
FXDIM0002
 10
0.0
 20
0.0
 30
0.0
  0
TEXT
  5
2EC
330
1E
100
AcDbEntity
  8
CSLAYER1
 62
     4
100
AcDbText
 10
164.94599
 20
235.8498229999999
 30
0.0
 40
3.2
  1
M5X0.8
 41
1.05882352941176
 51
15.0
  7
FX_FONT
 72
     5
 11
184.1459899999999
 21
235.8498229999999
 31
0.0
100
AcDbText
  0
TEXT
  5
2ED
330
1E
100
AcDbEntity
  8
CSLAYER1
 62
     4
100
AcDbText
 10
164.7756709999999
 20
222.0543819999999
 30
0.0
 40
3.2
  1
M5X0.8
 41
1.058823584558829
 51
15.0
  7
FX_FONT
 72
     5
 11
183.975672
 21
222.0543819999999
 31
0.0
100
AcDbText
  0
LINE
  5
2EE
330
1E
100
AcDbEntity
  8
CSLAYER1
  6
CONTINUOUS
 62
     3
100
AcDbLine
 10
137.2982729999999
 20
223.511995
 30
0.0
 11
137.2982729999999
 21
210.711995
 31
0.0
  0
LINE
  5
2EF
330
1E
100
AcDbEntity
  8
CSLAYER1
  6
CONTINUOUS
 62
     3
100
AcDbLine
 10
136.2982729999999
 20
223.511995
 30
0.0
 11
137.2982729999999
 21
223.511995
 31
0.0
  0
LINE
  5
2F0
330
1E
100
AcDbEntity
  8
CSLAYER1
  6
CONTINUOUS
 62
     3
100
AcDbLine
 10
136.2982729999999
 20
210.711995
 30
0.0
 11
137.2982729999999
 21
210.711995
 31
0.0
  0
LINE
  5
2F1
330
1E
100
AcDbEntity
  8
CSLAYER1
  6
CONTINUOUS
 62
     3
100
AcDbLine
 10
141.998273
 20
181.361995
 30
0.0
 11
137.2982729999999
 21
181.361995
 31
0.0
  0
LINE
  5
2F2
330
1E
100
AcDbEntity
  8
CSLAYER1
  6
CONTINUOUS
 62
     3
100
AcDbLine
 10
142.298273
 20
180.8423789999999
 30
0.0
 11
142.298273
 21
173.38161
 31
0.0
  0
LINE
  5
2F3
330
1E
100
AcDbEntity
  8
CSLAYER1
  6
CONTINUOUS
 62
     3
100
AcDbLine
 10
141.998273
 20
172.861995
 30
0.0
 11
137.2982729999999
 21
172.861995
 31
0.0
  0
LINE
  5
2F4
330
1E
100
AcDbEntity
  8
CSLAYER1
  6
CONTINUOUS
 62
     3
100
AcDbLine
 10
141.998273
 20
181.361995
 30
0.0
 11
141.998273
 21
172.861995
 31
0.0
  0
LINE
  5
2F5
330
1E
100
AcDbEntity
  8
CSLAYER1
  6
CONTINUOUS
 62
     3
100
AcDbLine
 10
141.998273
 20
172.861995
 30
0.0
 11
142.298273
 21
173.38161
 31
0.0
  0
LINE
  5
2F6
330
1E
100
AcDbEntity
  8
CSLAYER1
  6
CONTINUOUS
 62
     3
100
AcDbLine
 10
141.998273
 20
181.361995
 30
0.0
 11
142.298273
 21
180.8423789999999
 31
0.0
  0
LINE
  5
2F7
330
1E
100
AcDbEntity
  8
CSLAYER1
  6
CONTINUOUS
 62
     3
100
AcDbLine
 10
137.2982729999999
 20
183.5119949999999
 30
0.0
 11
137.2982729999999
 21
170.711995
 31
0.0
  0
LINE
  5
2F8
330
1E
100
AcDbEntity
  8
CSLAYER1
  6
CONTINUOUS
 62
     3
100
AcDbLine
 10
136.2982729999999
 20
183.5119949999999
 30
0.0
 11
137.2982729999999
 21
183.5119949999999
 31
0.0
  0
LINE
  5
2F9
330
1E
100
AcDbEntity
  8
CSLAYER1
  6
CONTINUOUS
 62
     3
100
AcDbLine
 10
136.2982729999999
 20
170.711995
 30
0.0
 11
137.2982729999999
 21
170.711995
 31
0.0
  0
LINE
  5
2FA
330
1E
100
AcDbEntity
  8
CSLAYER1
  6
CONTINUOUS
 62
     3
100
AcDbLine
 10
72.59827299999997
 20
221.361995
 30
0.0
 11
77.298273
 21
221.361995
 31
0.0
  0
LINE
  5
2FB
330
1E
100
AcDbEntity
  8
CSLAYER1
  6
CONTINUOUS
 62
     3
100
AcDbLine
 10
72.298273
 20
220.8423789999999
 30
0.0
 11
72.298273
 21
213.38161
 31
0.0
  0
LINE
  5
2FC
330
1E
100
AcDbEntity
  8
CSLAYER1
  6
CONTINUOUS
 62
     3
100
AcDbLine
 10
72.59827299999997
 20
212.861995
 30
0.0
 11
77.298273
 21
212.861995
 31
0.0
  0
LINE
  5
2FD
330
1E
100
AcDbEntity
  8
CSLAYER1
  6
CONTINUOUS
 62
     3
100
AcDbLine
 10
72.59827299999997
 20
221.361995
 30
0.0
 11
72.59827299999997
 21
212.861995
 31
0.0
  0
LINE
  5
2FE
330
1E
100
AcDbEntity
  8
CSLAYER1
  6
CONTINUOUS
 62
     3
100
AcDbLine
 10
72.59827299999997
 20
212.861995
 30
0.0
 11
72.298273
 21
213.38161
 31
0.0
  0
LINE
  5
2FF
330
1E
100
AcDbEntity
  8
CSLAYER1
  6
CONTINUOUS
 62
     3
100
AcDbLine
 10
72.59827299999997
 20
221.361995
 30
0.0
 11
72.298273
 21
220.8423789999999
 31
0.0
  0
LINE
  5
300
330
1E
100
AcDbEntity
  8
CSLAYER1
  6
CONTINUOUS
 62
     3
100
AcDbLine
 10
77.298273
 20
223.511995
 30
0.0
 11
77.298273
 21
210.711995
 31
0.0
  0
LINE
  5
301
330
1E
100
AcDbEntity
  8
CSLAYER1
  6
CONTINUOUS
 62
     3
100
AcDbLine
 10
78.29827299999998
 20
223.511995
 30
0.0
 11
77.298273
 21
223.511995
 31
0.0
  0
LINE
  5
302
330
1E
100
AcDbEntity
  8
CSLAYER1
  6
CONTINUOUS
 62
     3
100
AcDbLine
 10
78.29827299999998
 20
210.711995
 30
0.0
 11
77.298273
 21
210.711995
 31
0.0
  0
LINE
  5
303
330
1E
100
AcDbEntity
  8
CSLAYER1
  6
CONTINUOUS
 62
     3
100
AcDbLine
 10
72.59827299999997
 20
181.361995
 30
0.0
 11
77.298273
 21
181.361995
 31
0.0
  0
LINE
  5
304
330
1E
100
AcDbEntity
  8
CSLAYER1
  6
CONTINUOUS
 62
     3
100
AcDbLine
 10
72.298273
 20
180.8423789999999
 30
0.0
 11
72.298273
 21
173.38161
 31
0.0
  0
LINE
  5
305
330
1E
100
AcDbEntity
  8
CSLAYER1
  6
CONTINUOUS
 62
     3
100
AcDbLine
 10
72.59827299999997
 20
172.861995
 30
0.0
 11
77.298273
 21
172.861995
 31
0.0
  0
LINE
  5
306
330
1E
100
AcDbEntity
  8
CSLAYER1
  6
CONTINUOUS
 62
     3
100
AcDbLine
 10
72.59827299999997
 20
181.361995
 30
0.0
 11
72.59827299999997
 21
172.861995
 31
0.0
  0
LINE
  5
307
330
1E
100
AcDbEntity
  8
CSLAYER1
  6
CONTINUOUS
 62
     3
100
AcDbLine
 10
72.59827299999997
 20
172.861995
 30
0.0
 11
72.298273
 21
173.38161
 31
0.0
  0
LINE
  5
308
330
1E
100
AcDbEntity
  8
CSLAYER1
  6
CONTINUOUS
 62
     3
100
AcDbLine
 10
72.59827299999997
 20
181.361995
 30
0.0
 11
72.298273
 21
180.8423789999999
 31
0.0
  0
LINE
  5
309
330
1E
100
AcDbEntity
  8
CSLAYER1
  6
CONTINUOUS
 62
     3
100
AcDbLine
 10
77.298273
 20
183.5119949999999
 30
0.0
 11
77.298273
 21
170.711995
 31
0.0
  0
LINE
  5
30A
330
1E
100
AcDbEntity
  8
CSLAYER1
  6
CONTINUOUS
 62
     3
100
AcDbLine
 10
78.29827299999998
 20
183.5119949999999
 30
0.0
 11
77.298273
 21
183.5119949999999
 31
0.0
  0
LINE
  5
30B
330
1E
100
AcDbEntity
  8
CSLAYER1
  6
CONTINUOUS
 62
     3
100
AcDbLine
 10
78.29827299999998
 20
170.711995
 30
0.0
 11
77.298273
 21
170.711995
 31
0.0
  0
LINE
  5
30C
330
1E
100
AcDbEntity
  8
CSLAYER1
  6
CONTINUOUS
 62
     3
100
AcDbLine
 10
119.5982729999998
 20
234.961995
 30
0.0
 11
119.5982729999998
 21
226.261995
 31
0.0
  0
LINE
  5
30D
330
1E
100
AcDbEntity
  8
CSLAYER1
  6
CONTINUOUS
 62
     3
100
AcDbLine
 10
118.2982729999999
 20
234.961995
 30
0.0
 11
119.5982729999998
 21
234.961995
 31
0.0
  0
LINE
  5
30E
330
1E
100
AcDbEntity
  8
CSLAYER1
  6
CONTINUOUS
 62
     3
100
AcDbLine
 10
118.2982729999999
 20
226.261995
 30
0.0
 11
119.5982729999998
 21
226.261995
 31
0.0
  0
CIRCLE
  5
30F
330
1E
100
AcDbEntity
  8
CSLAYER1
  6
CONTINUOUS
 62
     3
100
AcDbCircle
 10
209.917327
 20
217.111995
 30
0.0
 40
6.4
  0
CIRCLE
  5
310
330
1E
100
AcDbEntity
  8
CSLAYER1
  6
CONTINUOUS
 62
     3
100
AcDbCircle
 10
209.917327
 20
230.611995
 30
0.0
 40
4.349999999999998
  0
LINE
  5
311
330
1E
100
AcDbEntity
  8
CSLAYER1
  6
CONTINUOUS
 62
     3
100
AcDbLine
 10
212.144432
 20
223.111995
 30
0.0
 11
231.9173269999999
 21
223.111995
 31
0.0
  0
LINE
  5
312
330
1E
100
AcDbEntity
  8
CSLAYER1
  6
DASHED
 62
     4
100
AcDbLine
 10
207.690221
 20
223.111995
 30
0.0
 11
212.144432
 21
223.111995
 31
0.0
  0
CIRCLE
  5
313
330
1E
100
AcDbEntity
  8
CSLAYER1
  6
CONTINUOUS
 62
     3
100
AcDbCircle
 10
209.917327
 20
177.111995
 30
0.0
 40
6.4
  0
ARC
  5
314
330
1E
100
AcDbEntity
  8
CSLAYER1
  6
CONTINUOUS
 62
     3
100
AcDbCircle
 10
209.917327
 20
217.111995
 30
0.0
 40
37.0
100
AcDbArc
 50
278.427266
 51
330.0
  0
ARC
  5
315
330
1E
100
AcDbEntity
  8
CSLAYER1
  6
CONTINUOUS
 62
     3
100
AcDbCircle
 10
209.917327
 20
217.111995
 30
0.0
 40
43.0
100
AcDbArc
 50
277.8162529999999
 51
330.0
  0
CIRCLE
  5
316
330
1E
100
AcDbEntity
  8
CSLAYER1
  6
CONTINUOUS
 62
     3
100
AcDbCircle
 10
299.2817
 20
111.6390219999999
 30
0.0
 40
6.4
  0
CIRCLE
  5
317
330
1E
100
AcDbEntity
  8
CSLAYER1
  6
CONTINUOUS
 62
     3
100
AcDbCircle
 10
289.735758
 20
121.1849629999999
 30
0.0
 40
4.349999999999998
  0
CIRCLE
  5
318
330
1E
100
AcDbEntity
  8
CSLAYER1
  6
CONTINUOUS
 62
     3
100
AcDbCircle
 10
327.5659709999998
 20
83.35475
 30
0.0
 40
6.4
  0
ARC
  5
319
330
1E
100
AcDbEntity
  8
CSLAYER1
  6
CONTINUOUS
 62
     3
100
AcDbCircle
 10
299.2817
 20
111.6390219999999
 30
0.0
 40
37.0
100
AcDbArc
 50
323.427266
 51
330.0
  0
ARC
  5
31A
330
1E
100
AcDbEntity
  8
CSLAYER1
  6
CONTINUOUS
 62
     3
100
AcDbCircle
 10
299.2817
 20
111.6390219999999
 30
0.0
 40
43.0
100
AcDbArc
 50
322.8162529999999
 51
330.0
  0
ARC
  5
31B
330
1E
100
AcDbEntity
  8
CSLAYER1
  6
DASHED
 62
     4
100
AcDbCircle
 10
299.2817
 20
111.6390219999999
 30
0.0
 40
43.0
100
AcDbArc
 50
307.183747
 51
310.8401489999998
  0
ARC
  5
31C
330
1E
100
AcDbEntity
  8
CSLAYER1
  6
DASHED
 62
     4
100
AcDbCircle
 10
299.2817
 20
111.6390219999999
 30
0.0
 40
37.0
100
AcDbArc
 50
306.5727339999999
 51
310.51537
  0
LINE
  5
31D
330
1E
100
AcDbEntity
  8
CSLAYER1
  6
CONTINUOUS
 62
     3
100
AcDbLine
 10
301.508806
 20
117.639022
 30
0.0
 11
321.2817
 21
117.639022
 31
0.0
  0
LINE
  5
31E
330
1E
100
AcDbEntity
  8
CSLAYER1
  6
DASHED
 62
     4
100
AcDbLine
 10
297.054594
 20
117.639022
 30
0.0
 11
301.508806
 21
117.639022
 31
0.0
  0
LINE
  5
31F
330
1E
100
AcDbEntity
  8
CSLAYER1
  6
CONTINUOUS
 62
     3
100
AcDbLine
 10
205.89691
 20
222.0915779999999
 30
0.0
 11
206.9173269999999
 21
223.111995
 31
0.0
  0
LINE
  5
320
330
1E
100
AcDbEntity
  8
CSLAYER1
  6
DOT
 62
     4
100
AcDbLine
 10
204.9377429999999
 20
221.132411
 30
0.0
 11
205.89691
 21
222.0915779999999
 31
0.0
  0
LINE
  5
321
330
1E
100
AcDbEntity
  8
CSLAYER1
  6
CONTINUOUS
 62
     3
100
AcDbLine
 10
295.2612829999998
 20
116.618605
 30
0.0
 11
296.2817
 21
117.639022
 31
0.0
  0
LINE
  5
322
330
1E
100
AcDbEntity
  8
CSLAYER1
  6
DOT
 62
     4
100
AcDbLine
 10
294.302117
 20
115.659438
 30
0.0
 11
295.2612829999998
 21
116.618605
 31
0.0
  0
LINE
  5
323
330
1E
100
AcDbEntity
  8
CSLAYER1
  6
DOT
 62
     3
100
AcDbLine
 10
10.0
 20
3.0
 30
0.0
 11
395.0
 21
3.0
 31
0.0
  0
LINE
  5
324
330
1E
100
AcDbEntity
  8
CSLAYER1
  6
DOT
 62
     3
100
AcDbLine
 10
395.0
 20
3.0
 30
0.0
 11
395.0
 21
275.0
 31
0.0
  0
LINE
  5
325
330
1E
100
AcDbEntity
  8
CSLAYER1
  6
DOT
 62
     3
100
AcDbLine
 10
395.0
 20
275.0
 30
0.0
 11
10.0
 21
275.0
 31
0.0
  0
LINE
  5
326
330
1E
100
AcDbEntity
  8
CSLAYER1
  6
DOT
 62
     3
100
AcDbLine
 10
10.0
 20
275.0
 30
0.0
 11
10.0
 21
3.0
 31
0.0
  0
ENDSEC
  0
SECTION
  2
OBJECTS
  0
DICTIONARY
  5
C
330
0
100
AcDbDictionary
  3
ACAD_GROUP
350
D
  3
ACAD_LAYOUT
350
19
  3
ACAD_MLINESTYLE
350
16
  3
ACAD_PLOTSETTINGS
350
18
1001
ACAD
1000
TREAT_AS_HARD
1070
     0
1000
TREAT_AS_HARD
1070
     0
  0
DICTIONARY
  5
330
330
1E
100
AcDbDictionary
  3
ACAD_LAYOUTSELFREF
350
35D
1001
ACAD
1000
TREAT_AS_HARD
1070
     0
  0
DICTIONARY
  5
32E
330
1A
100
AcDbDictionary
  3
ACAD_LAYOUTSELFREF
350
35C
1001
ACAD
1000
TREAT_AS_HARD
1070
     0
  0
DICTIONARY
  5
D
102
{ACAD_REACTORS
330
C
102
}
330
C
100
AcDbDictionary
1001
ACAD
1000
TREAT_AS_HARD
1070
     0
1000
TREAT_AS_HARD
1070
     0
  0
DICTIONARY
  5
19
102
{ACAD_REACTORS
330
C
102
}
330
C
100
AcDbDictionary
1001
ACAD
1000
TREAT_AS_HARD
1070
     0
1000
TREAT_AS_HARD
1070
     0
  0
DICTIONARY
  5
16
102
{ACAD_REACTORS
330
C
102
}
330
C
100
AcDbDictionary
  3
STANDARD
350
17
1001
ACAD
1000
TREAT_AS_HARD
1070
     0
1000
TREAT_AS_HARD
1070
     0
  0
DICTIONARY
  5
18
102
{ACAD_REACTORS
330
C
102
}
330
C
100
AcDbDictionary
1001
ACAD
1000
TREAT_AS_HARD
1070
     0
1000
TREAT_AS_HARD
1070
     0
  0
XRECORD
  5
35D
102
{ACAD_REACTORS
330
330
102
}
330
330
100
AcDbXrecord
340
1E
  0
XRECORD
  5
35C
102
{ACAD_REACTORS
330
32E
102
}
330
32E
100
AcDbXrecord
340
1A
  0
MLINESTYLE
  5
17
102
{ACAD_REACTORS
330
16
102
}
330
16
100
AcDbMlineStyle
  2
STANDARD
 70
     0
  3

 62
   256
 51
90.0
 52
90.0
 71
     2
 49
0.5
 62
   256
  6
BYLAYER
 49
-0.5
 62
   256
  6
BYLAYER
  0
ENDSEC
  0
EOF
