  0
SECTION
  2
HEADER
  9
$ACADVER
  1
AC1012
  9
$DWGCODEPAGE
  3
dos932
  9
$INSBASE
 10
0.0
 20
0.0
 30
0.0
  9
$EXTMIN
 10
17.99560646758834
 20
12.99737619491918
 30
-0.0000000349181948
  9
$EXTMAX
 10
403.0297861143829
 20
285.0222937683834
 30
0.0000000814935747
  9
$LIMMIN
 10
0.0
 20
0.0
  9
$LIMMAX
 10
420.0
 20
297.0
  9
$ORTHOMODE
 70
     0
  9
$REGENMODE
 70
     1
  9
$FILLMODE
 70
     1
  9
$QTEXTMODE
 70
     0
  9
$MIRRTEXT
 70
     1
  9
$DRAGMODE
 70
     2
  9
$LTSCALE
 40
15.0
  9
$OSMODE
 70
    37
  9
$ATTMODE
 70
     1
  9
$TEXTSIZE
 40
0.2
  9
$TRACEWID
 40
0.05
  9
$TEXTSTYLE
  7
GOTHIC
  9
$CLAYER
  8
CSLAYER1
  9
$CELTYPE
  6
BYLAYER
  9
$CECOLOR
 62
   256
  9
$CELTSCALE
 40
1.0
  9
$DELOBJ
 70
     1
  9
$DISPSILH
 70
     0
  9
$DIMSCALE
 40
1.0
  9
$DIMASZ
 40
0.18
  9
$DIMEXO
 40
0.0625
  9
$DIMDLI
 40
0.38
  9
$DIMRND
 40
0.0
  9
$DIMDLE
 40
0.0
  9
$DIMEXE
 40
0.18
  9
$DIMTP
 40
0.0
  9
$DIMTM
 40
0.0
  9
$DIMTXT
 40
0.18
  9
$DIMCEN
 40
0.09
  9
$DIMTSZ
 40
0.0
  9
$DIMTOL
 70
     0
  9
$DIMLIM
 70
     0
  9
$DIMTIH
 70
     1
  9
$DIMTOH
 70
     1
  9
$DIMSE1
 70
     0
  9
$DIMSE2
 70
     0
  9
$DIMTAD
 70
     0
  9
$DIMZIN
 70
     0
  9
$DIMBLK
  1

  9
$DIMASO
 70
     1
  9
$DIMSHO
 70
     1
  9
$DIMPOST
  1

  9
$DIMAPOST
  1

  9
$DIMALT
 70
     0
  9
$DIMALTD
 70
     2
  9
$DIMALTF
 40
25.4
  9
$DIMLFAC
 40
1.0
  9
$DIMTOFL
 70
     0
  9
$DIMTVP
 40
0.0
  9
$DIMTIX
 70
     0
  9
$DIMSOXD
 70
     0
  9
$DIMSAH
 70
     0
  9
$DIMBLK1
  1

  9
$DIMBLK2
  1

  9
$DIMSTYLE
  2
STANDARD
  9
$DIMCLRD
 70
     0
  9
$DIMCLRE
 70
     0
  9
$DIMCLRT
 70
     0
  9
$DIMTFAC
 40
1.0
  9
$DIMGAP
 40
0.09
  9
$DIMJUST
 70
     0
  9
$DIMSD1
 70
     0
  9
$DIMSD2
 70
     0
  9
$DIMTOLJ
 70
     1
  9
$DIMTZIN
 70
     0
  9
$DIMALTZ
 70
     0
  9
$DIMALTTZ
 70
     0
  9
$DIMFIT
 70
     3
  9
$DIMUPT
 70
     0
  9
$DIMUNIT
 70
     2
  9
$DIMDEC
 70
     4
  9
$DIMTDEC
 70
     4
  9
$DIMALTU
 70
     2
  9
$DIMALTTD
 70
     2
  9
$DIMTXSTY
  7
STANDARD
  9
$DIMAUNIT
 70
     0
  9
$LUNITS
 70
     2
  9
$LUPREC
 70
     4
  9
$SKETCHINC
 40
0.1
  9
$FILLETRAD
 40
0.0
  9
$AUNITS
 70
     0
  9
$AUPREC
 70
     0
  9
$MENU
  1
ACAD
  9
$ELEVATION
 40
0.0
  9
$PELEVATION
 40
0.0
  9
$THICKNESS
 40
0.0
  9
$LIMCHECK
 70
     0
  9
$BLIPMODE
 70
     1
  9
$CHAMFERA
 40
0.0
  9
$CHAMFERB
 40
0.0
  9
$CHAMFERC
 40
0.0
  9
$CHAMFERD
 40
0.0
  9
$SKPOLY
 70
     0
  9
$TDCREATE
 40
2453483.000000000
  9
$TDUPDATE
 40
2453516.763223217
  9
$TDINDWG
 40
0.0014866319
  9
$TDUSRTIMER
 40
0.0014864005
  9
$USRTIMER
 70
     1
  9
$ANGBASE
 50
0.0
  9
$ANGDIR
 70
     0
  9
$PDMODE
 70
     0
  9
$PDSIZE
 40
0.0
  9
$PLINEWID
 40
0.0
  9
$COORDS
 70
     0
  9
$SPLFRAME
 70
     0
  9
$SPLINETYPE
 70
     6
  9
$SPLINESEGS
 70
     8
  9
$ATTDIA
 70
     0
  9
$ATTREQ
 70
     1
  9
$HANDLING
 70
-16383
  9
$HANDSEED
  5
66F
  9
$SURFTAB1
 70
     6
  9
$SURFTAB2
 70
     6
  9
$SURFTYPE
 70
     6
  9
$SURFU
 70
     6
  9
$SURFV
 70
     6
  9
$UCSNAME
  2

  9
$UCSORG
 10
0.0
 20
0.0
 30
0.0
  9
$UCSXDIR
 10
1.0
 20
0.0
 30
0.0
  9
$UCSYDIR
 10
0.0
 20
1.0
 30
0.0
  9
$PUCSNAME
  2

  9
$PUCSORG
 10
0.0
 20
0.0
 30
0.0
  9
$PUCSXDIR
 10
1.0
 20
0.0
 30
0.0
  9
$PUCSYDIR
 10
0.0
 20
1.0
 30
0.0
  9
$USERI1
 70
     0
  9
$USERI2
 70
     0
  9
$USERI3
 70
     0
  9
$USERI4
 70
     0
  9
$USERI5
 70
     0
  9
$USERR1
 40
0.0
  9
$USERR2
 40
0.0
  9
$USERR3
 40
0.0
  9
$USERR4
 40
0.0
  9
$USERR5
 40
0.0
  9
$WORLDVIEW
 70
     1
  9
$SHADEDGE
 70
     3
  9
$SHADEDIF
 70
    70
  9
$TILEMODE
 70
     1
  9
$MAXACTVP
 70
    64
  9
$PINSBASE
 10
0.0
 20
0.0
 30
0.0
  9
$PLIMCHECK
 70
     0
  9
$PEXTMIN
 10
1.000000000000000E+20
 20
1.000000000000000E+20
 30
1.000000000000000E+20
  9
$PEXTMAX
 10
-1.000000000000000E+20
 20
-1.000000000000000E+20
 30
-1.000000000000000E+20
  9
$PLIMMIN
 10
0.0
 20
0.0
  9
$PLIMMAX
 10
12.0
 20
9.0
  9
$UNITMODE
 70
     0
  9
$VISRETAIN
 70
     1
  9
$PLINEGEN
 70
     0
  9
$PSLTSCALE
 70
     1
  9
$TREEDEPTH
 70
  3020
  9
$PICKSTYLE
 70
     3
  9
$CMLSTYLE
  2
STANDARD
  9
$CMLJUST
 70
     0
  9
$CMLSCALE
 40
1.0
  9
$SAVEIMAGES
 70
     1
  0
ENDSEC
  0
SECTION
  2
CLASSES
  0
CLASS
  1
ACDBDICTIONARYWDFLT
  2
AcDbDictionaryWithDefault
  3
AutoCAD 2000
 90
    32768
280
     0
281
     0
  0
CLASS
  1
ACDBPLACEHOLDER
  2
AcDbPlaceHolder
  3
AutoCAD 2000
 90
    32768
280
     0
281
     0
  0
CLASS
  1
LAYOUT
  2
AcDbLayout
  3
AutoCAD 2000
 90
    32768
280
     0
281
     0
  0
CLASS
  1
DICTIONARYVAR
  2
AcDbDictionaryVar
  3
AutoCAD 2000
 90
    32768
280
     0
281
     0
  0
CLASS
  1
LONG_TRANSACTION
  2
AcDbLongTransaction
  3
AutoCAD 2000
 90
    32768
280
     0
281
     0
  0
CLASS
  1
LWPOLYLINE
  2
AcDbPolyline
  3
AutoCAD 2000
 90
    32768
280
     0
281
     1
  0
CLASS
  1
HATCH
  2
AcDbHatch
  3
AutoCAD 2000
 90
    32768
280
     0
281
     1
  0
CLASS
  1
XRECORD
  2
AcDbXrecord
  3
AutoCAD 2000
 90
    32768
280
     0
281
     0
  0
CLASS
  1
LONG_TRANSACTION
  2
AcDbLongTransaction
  3
AutoCAD 2000
 90
    32768
280
     0
281
     0
  0
CLASS
  1
LWPOLYLINE
  2
AcDbPolyline
  3
AutoCAD 2000
 90
    32768
280
     0
281
     1
  0
CLASS
  1
HATCH
  2
AcDbHatch
  3
AutoCAD 2000
 90
    32768
280
     0
281
     1
  0
CLASS
  1
XRECORD
  2
AcDbXrecord
  3
AutoCAD 2000
 90
    32768
280
     0
281
     0
  0
CLASS
  1
LONG_TRANSACTION
  2
AcDbLongTransaction
  3
AutoCAD 2000
 90
    32768
280
     0
281
     0
  0
CLASS
  1
LWPOLYLINE
  2
AcDbPolyline
  3
AutoCAD 2000
 90
    32768
280
     0
281
     1
  0
CLASS
  1
HATCH
  2
AcDbHatch
  3
AutoCAD 2000
 90
    32768
280
     0
281
     1
  0
CLASS
  1
XRECORD
  2
AcDbXrecord
  3
AutoCAD 2000
 90
    32768
280
     0
281
     0
  0
ENDSEC
  0
SECTION
  2
TABLES
  0
TABLE
  2
VPORT
  5
8
330
0
100
AcDbSymbolTable
 70
     2
  0
VPORT
  5
66C
330
8
100
AcDbSymbolTableRecord
100
AcDbViewportTableRecord
  2
*ACTIVE
 70
     0
 10
0.0
 20
0.0
 11
1.0
 21
1.0
 12
210.5126962909856
 22
149.0098349816513
 13
0.0
 23
0.0
 14
1.0
 24
1.0
 15
0.0
 25
0.0
 16
0.0
 26
0.0
 36
1.0
 17
0.0
 27
0.0
 37
0.0
 40
274.0676578806492
 41
1.510025062656641
 42
50.0
 43
0.0
 44
0.0
 50
0.0
 51
0.0
 71
     0
 72
   100
 73
     1
 74
     1
 75
     0
 76
     0
 77
     0
 78
     0
  0
ENDTAB
  0
TABLE
  2
LTYPE
  5
5
330
0
100
AcDbSymbolTable
 70
     4
  0
LTYPE
  5
13
330
5
100
AcDbSymbolTableRecord
100
AcDbLinetypeTableRecord
  2
BYBLOCK
 70
     0
  3

 72
    65
 73
     0
 40
0.0
  0
LTYPE
  5
14
330
5
100
AcDbSymbolTableRecord
100
AcDbLinetypeTableRecord
  2
BYLAYER
 70
     0
  3

 72
    65
 73
     0
 40
0.0
  0
LTYPE
  5
15
330
5
100
AcDbSymbolTableRecord
100
AcDbLinetypeTableRecord
  2
CONTINUOUS
 70
     0
  3
Solid line
 72
    65
 73
     0
 40
0.0
  0
LTYPE
  5
23
330
5
100
AcDbSymbolTableRecord
100
AcDbLinetypeTableRecord
  2
DASHED
 70
     0
  3
__ __ __ __ __ __ __ __ __ __ __ __ __ __ __
 72
    65
 73
     2
 40
0.75
 49
0.5
 74
     0
 49
-0.25
 74
     0
  0
LTYPE
  5
25
330
5
100
AcDbSymbolTableRecord
100
AcDbLinetypeTableRecord
  2
DOT
 70
     0
  3
...............................................
 72
    65
 73
     2
 40
0.25
 49
0.0
 74
     0
 49
-0.25
 74
     0
  0
LTYPE
  5
28
330
5
100
AcDbSymbolTableRecord
100
AcDbLinetypeTableRecord
  2
CENTER
 70
     0
  3
____ _ ____ _ ____ _ ____ _ ____ _ ____ _ ____ 
 72
    65
 73
     4
 40
2.0
 49
1.25
 74
     0
 49
-0.25
 74
     0
 49
0.25
 74
     0
 49
-0.25
 74
     0
  0
ENDTAB
  0
TABLE
  2
LAYER
  5
2
330
0
100
AcDbSymbolTable
 70
     3
  0
LAYER
  5
10
330
2
100
AcDbSymbolTableRecord
100
AcDbLayerTableRecord
  2
0
 70
     0
 62
     7
  6
CONTINUOUS
  0
LAYER
  5
22
330
2
100
AcDbSymbolTableRecord
100
AcDbLayerTableRecord
  2
CSLAYER1
 70
     0
 62
     7
  6
CONTINUOUS
  0
LAYER
  5
620
330
2
100
AcDbSymbolTableRecord
100
AcDbLayerTableRecord
  2
DEFPOINTS
 70
     0
 62
     7
  6
CONTINUOUS
  0
ENDTAB
  0
TABLE
  2
STYLE
  5
3
330
0
100
AcDbSymbolTable
 70
     3
  0
STYLE
  5
11
330
3
100
AcDbSymbolTableRecord
100
AcDbTextStyleTableRecord
  2
STANDARD
 70
     0
 40
0.0
 41
1.0
 50
0.0
 71
     0
 42
0.2
  3
txt
  4
extfont.shx
  0
STYLE
  5
3A
330
3
100
AcDbSymbolTableRecord
100
AcDbTextStyleTableRecord
  2
FX_FONT
 70
     0
 40
1.0
 41
1.0
 50
0.0
 71
     0
 42
1.0
  3
monotxt
  4
bigfont
  0
STYLE
  5
618
330
3
100
AcDbSymbolTableRecord
100
AcDbTextStyleTableRecord
  2
GOTHIC
 70
     0
 40
0.0
 41
1.0
 50
0.0
 71
     0
 42
0.2
  3
txt.shx
  4
extfont.shx
  0
ENDTAB
  0
TABLE
  2
VIEW
  5
6
330
0
100
AcDbSymbolTable
 70
     0
  0
ENDTAB
  0
TABLE
  2
UCS
  5
7
330
0
100
AcDbSymbolTable
 70
     0
  0
ENDTAB
  0
TABLE
  2
APPID
  5
9
330
0
100
AcDbSymbolTable
 70
     1
  0
APPID
  5
12
330
9
100
AcDbSymbolTableRecord
100
AcDbRegAppTableRecord
  2
ACAD
 70
     0
  0
ENDTAB
  0
TABLE
  2
DIMSTYLE
  5
A
330
0
100
AcDbSymbolTable
 70
     1
  0
DIMSTYLE
105
615
330
A
100
AcDbSymbolTableRecord
100
AcDbDimStyleTableRecord
  2
STANDARD
 70
     0
  3

  4

  5

  6

  7

 40
1.0
 41
0.18
 42
0.0625
 43
0.38
 44
0.18
 45
0.0
 46
0.0
 47
0.0
 48
0.0
140
0.18
141
0.09
142
0.0
143
25.4
144
1.0
145
0.0
146
1.0
147
0.09
 71
     0
 72
     0
 73
     1
 74
     1
 75
     0
 76
     0
 77
     0
 78
     0
170
     0
171
     2
172
     0
173
     0
174
     0
175
     0
176
     0
177
     0
178
     0
270
     2
271
     4
272
     4
273
     2
274
     2
340
11
275
     0
280
     0
281
     0
282
     0
283
     1
284
     0
285
     0
286
     0
287
     3
288
     0
  0
ENDTAB
  0
TABLE
  2
BLOCK_RECORD
  5
1
330
0
100
AcDbSymbolTable
 70
    55
  0
BLOCK_RECORD
  5
1E
102
{ACAD_XDICTIONARY
360
61E
102
}
330
1
100
AcDbSymbolTableRecord
100
AcDbBlockTableRecord
  2
*MODEL_SPACE
  0
BLOCK_RECORD
  5
1A
102
{ACAD_XDICTIONARY
360
61C
102
}
330
1
100
AcDbSymbolTableRecord
100
AcDbBlockTableRecord
  2
*PAPER_SPACE
  0
BLOCK_RECORD
  5
3F
330
1
100
AcDbSymbolTableRecord
100
AcDbBlockTableRecord
  2
*D0
  0
BLOCK_RECORD
  5
49
330
1
100
AcDbSymbolTableRecord
100
AcDbBlockTableRecord
  2
*D1
  0
BLOCK_RECORD
  5
54
330
1
100
AcDbSymbolTableRecord
100
AcDbBlockTableRecord
  2
*D2
  0
BLOCK_RECORD
  5
5E
330
1
100
AcDbSymbolTableRecord
100
AcDbBlockTableRecord
  2
*D3
  0
BLOCK_RECORD
  5
68
330
1
100
AcDbSymbolTableRecord
100
AcDbBlockTableRecord
  2
*D4
  0
BLOCK_RECORD
  5
73
330
1
100
AcDbSymbolTableRecord
100
AcDbBlockTableRecord
  2
*D5
  0
BLOCK_RECORD
  5
7E
330
1
100
AcDbSymbolTableRecord
100
AcDbBlockTableRecord
  2
*D6
  0
BLOCK_RECORD
  5
88
330
1
100
AcDbSymbolTableRecord
100
AcDbBlockTableRecord
  2
*D7
  0
BLOCK_RECORD
  5
92
330
1
100
AcDbSymbolTableRecord
100
AcDbBlockTableRecord
  2
*D8
  0
BLOCK_RECORD
  5
9D
330
1
100
AcDbSymbolTableRecord
100
AcDbBlockTableRecord
  2
*D9
  0
BLOCK_RECORD
  5
A6
330
1
100
AcDbSymbolTableRecord
100
AcDbBlockTableRecord
  2
*D10
  0
BLOCK_RECORD
  5
B1
330
1
100
AcDbSymbolTableRecord
100
AcDbBlockTableRecord
  2
*D11
  0
BLOCK_RECORD
  5
BB
330
1
100
AcDbSymbolTableRecord
100
AcDbBlockTableRecord
  2
*D12
  0
BLOCK_RECORD
  5
C6
330
1
100
AcDbSymbolTableRecord
100
AcDbBlockTableRecord
  2
*D13
  0
BLOCK_RECORD
  5
D1
330
1
100
AcDbSymbolTableRecord
100
AcDbBlockTableRecord
  2
*D14
  0
BLOCK_RECORD
  5
DB
330
1
100
AcDbSymbolTableRecord
100
AcDbBlockTableRecord
  2
*D15
  0
BLOCK_RECORD
  5
E5
330
1
100
AcDbSymbolTableRecord
100
AcDbBlockTableRecord
  2
*D16
  0
BLOCK_RECORD
  5
EF
330
1
100
AcDbSymbolTableRecord
100
AcDbBlockTableRecord
  2
*D17
  0
BLOCK_RECORD
  5
F8
330
1
100
AcDbSymbolTableRecord
100
AcDbBlockTableRecord
  2
*D18
  0
BLOCK_RECORD
  5
103
330
1
100
AcDbSymbolTableRecord
100
AcDbBlockTableRecord
  2
*D19
  0
BLOCK_RECORD
  5
10E
330
1
100
AcDbSymbolTableRecord
100
AcDbBlockTableRecord
  2
*D20
  0
BLOCK_RECORD
  5
117
330
1
100
AcDbSymbolTableRecord
100
AcDbBlockTableRecord
  2
*D21
  0
BLOCK_RECORD
  5
120
330
1
100
AcDbSymbolTableRecord
100
AcDbBlockTableRecord
  2
FXDIM0000
  0
BLOCK_RECORD
  5
128
330
1
100
AcDbSymbolTableRecord
100
AcDbBlockTableRecord
  2
*D23
  0
BLOCK_RECORD
  5
131
330
1
100
AcDbSymbolTableRecord
100
AcDbBlockTableRecord
  2
*D24
  0
BLOCK_RECORD
  5
13A
330
1
100
AcDbSymbolTableRecord
100
AcDbBlockTableRecord
  2
FXDIM0001
  0
BLOCK_RECORD
  5
13E
330
1
100
AcDbSymbolTableRecord
100
AcDbBlockTableRecord
  2
*D26
  0
BLOCK_RECORD
  5
148
330
1
100
AcDbSymbolTableRecord
100
AcDbBlockTableRecord
  2
*D27
  0
BLOCK_RECORD
  5
152
330
1
100
AcDbSymbolTableRecord
100
AcDbBlockTableRecord
  2
*D28
  0
BLOCK_RECORD
  5
15C
330
1
100
AcDbSymbolTableRecord
100
AcDbBlockTableRecord
  2
*D29
  0
BLOCK_RECORD
  5
166
330
1
100
AcDbSymbolTableRecord
100
AcDbBlockTableRecord
  2
*D30
  0
BLOCK_RECORD
  5
170
330
1
100
AcDbSymbolTableRecord
100
AcDbBlockTableRecord
  2
*D31
  0
BLOCK_RECORD
  5
17B
330
1
100
AcDbSymbolTableRecord
100
AcDbBlockTableRecord
  2
*D32
  0
BLOCK_RECORD
  5
184
330
1
100
AcDbSymbolTableRecord
100
AcDbBlockTableRecord
  2
*D33
  0
BLOCK_RECORD
  5
18F
330
1
100
AcDbSymbolTableRecord
100
AcDbBlockTableRecord
  2
*D34
  0
BLOCK_RECORD
  5
19A
330
1
100
AcDbSymbolTableRecord
100
AcDbBlockTableRecord
  2
*D35
  0
BLOCK_RECORD
  5
1A6
330
1
100
AcDbSymbolTableRecord
100
AcDbBlockTableRecord
  2
*D36
  0
BLOCK_RECORD
  5
1B1
330
1
100
AcDbSymbolTableRecord
100
AcDbBlockTableRecord
  2
*D37
  0
BLOCK_RECORD
  5
1BB
330
1
100
AcDbSymbolTableRecord
100
AcDbBlockTableRecord
  2
*D38
  0
BLOCK_RECORD
  5
1C4
330
1
100
AcDbSymbolTableRecord
100
AcDbBlockTableRecord
  2
*D39
  0
BLOCK_RECORD
  5
1CF
330
1
100
AcDbSymbolTableRecord
100
AcDbBlockTableRecord
  2
*D40
  0
BLOCK_RECORD
  5
1DC
330
1
100
AcDbSymbolTableRecord
100
AcDbBlockTableRecord
  2
*D41
  0
BLOCK_RECORD
  5
1E8
330
1
100
AcDbSymbolTableRecord
100
AcDbBlockTableRecord
  2
FXDIM0002
  0
BLOCK_RECORD
  5
1F0
330
1
100
AcDbSymbolTableRecord
100
AcDbBlockTableRecord
  2
FXDIM0003
  0
BLOCK_RECORD
  5
1F8
330
1
100
AcDbSymbolTableRecord
100
AcDbBlockTableRecord
  2
FXDIM0004
  0
BLOCK_RECORD
  5
200
330
1
100
AcDbSymbolTableRecord
100
AcDbBlockTableRecord
  2
FXDIM0005
  0
BLOCK_RECORD
  5
208
330
1
100
AcDbSymbolTableRecord
100
AcDbBlockTableRecord
  2
BLKF0000
  0
BLOCK_RECORD
  5
216
330
1
100
AcDbSymbolTableRecord
100
AcDbBlockTableRecord
  2
BLKF0001
  0
BLOCK_RECORD
  5
22E
330
1
100
AcDbSymbolTableRecord
100
AcDbBlockTableRecord
  2
BLKF0002
  0
BLOCK_RECORD
  5
236
330
1
100
AcDbSymbolTableRecord
100
AcDbBlockTableRecord
  2
BLKF0003
  0
BLOCK_RECORD
  5
244
330
1
100
AcDbSymbolTableRecord
100
AcDbBlockTableRecord
  2
BLKF0004
  0
BLOCK_RECORD
  5
262
330
1
100
AcDbSymbolTableRecord
100
AcDbBlockTableRecord
  2
BLKF0005
  0
BLOCK_RECORD
  5
621
330
1
100
AcDbSymbolTableRecord
100
AcDbBlockTableRecord
  2
*D52
  0
BLOCK_RECORD
  5
62F
330
1
100
AcDbSymbolTableRecord
100
AcDbBlockTableRecord
  2
*D53
  0
BLOCK_RECORD
  5
63C
330
1
100
AcDbSymbolTableRecord
100
AcDbBlockTableRecord
  2
*D54
  0
ENDTAB
  0
ENDSEC
  0
SECTION
  2
BLOCKS
  0
BLOCK
  5
1F
330
1E
100
AcDbEntity
  8
0
100
AcDbBlockBegin
  2
*MODEL_SPACE
 70
     0
 10
0.0
 20
0.0
 30
0.0
  3
*MODEL_SPACE
  1

  0
ENDBLK
  5
20
330
1E
100
AcDbEntity
  8
0
100
AcDbBlockEnd
  0
BLOCK
  5
1B
330
1A
100
AcDbEntity
 67
     1
  8
0
100
AcDbBlockBegin
  2
*PAPER_SPACE
 70
     0
 10
0.0
 20
0.0
 30
0.0
  3
*PAPER_SPACE
  1

  0
ENDBLK
  5
1C
330
1A
100
AcDbEntity
 67
     1
  8
0
100
AcDbBlockEnd
  0
BLOCK
  5
40
330
3F
100
AcDbEntity
  8
0
100
AcDbBlockBegin
  2
*D0
 70
     1
 10
0.0
 20
0.0
 30
0.0
  3
*D0
  1

  0
TEXT
  5
41
330
3F
100
AcDbEntity
  8
CSLAYER1
 62
     4
100
AcDbText
 10
194.361435
 20
203.428574
 30
0.0
 40
2.5
  1
15
 50
90.0
 41
1.199999999999952
 51
15.0
  7
FX_FONT
 72
     5
 11
194.361435
 21
208.4285739999998
 31
0.0
100
AcDbText
  0
LINE
  5
42
330
3F
100
AcDbEntity
  8
CSLAYER1
  6
CONTINUOUS
 62
     4
100
AcDbLine
 10
207.133437
 20
213.4285709999999
 30
0.0
 11
193.861429
 21
213.4285709999999
 31
0.0
  0
LINE
  5
43
330
3F
100
AcDbEntity
  8
CSLAYER1
  6
CONTINUOUS
 62
     4
100
AcDbLine
 10
194.861429
 20
198.428571
 30
0.0
 11
194.861429
 21
213.4285709999999
 31
0.0
  0
LINE
  5
44
330
3F
100
AcDbEntity
  8
CSLAYER1
  6
CONTINUOUS
 62
     4
100
AcDbLine
 10
194.861429
 20
198.428571
 30
0.0
 11
194.0849709999999
 21
201.3263489999999
 31
0.0
  0
LINE
  5
45
330
3F
100
AcDbEntity
  8
CSLAYER1
  6
CONTINUOUS
 62
     4
100
AcDbLine
 10
194.861429
 20
198.428571
 30
0.0
 11
195.637886
 21
201.3263489999999
 31
0.0
  0
LINE
  5
46
330
3F
100
AcDbEntity
  8
CSLAYER1
  6
CONTINUOUS
 62
     4
100
AcDbLine
 10
194.861429
 20
213.4285709999999
 30
0.0
 11
194.0849709999999
 21
210.5307939999999
 31
0.0
  0
LINE
  5
47
330
3F
100
AcDbEntity
  8
CSLAYER1
  6
CONTINUOUS
 62
     4
100
AcDbLine
 10
194.861429
 20
213.4285709999999
 30
0.0
 11
195.637886
 21
210.5307939999999
 31
0.0
  0
ENDBLK
  5
48
330
3F
100
AcDbEntity
  8
0
100
AcDbBlockEnd
  0
BLOCK
  5
4A
330
49
100
AcDbEntity
  8
0
100
AcDbBlockBegin
  2
*D1
 70
     1
 10
0.0
 20
0.0
 30
0.0
  3
*D1
  1

  0
TEXT
  5
4B
330
49
100
AcDbEntity
  8
CSLAYER1
 62
     4
100
AcDbText
 10
225.552002
 20
16.18604099999998
 30
0.0
 40
2.5
  1
60.5
 41
1.090909090909091
 51
15.0
  7
FX_FONT
 72
     5
 11
235.552002
 21
16.18604099999998
 31
0.0
100
AcDbText
  0
LINE
  5
4C
330
49
100
AcDbEntity
  8
CSLAYER1
  6
CONTINUOUS
 62
     4
100
AcDbLine
 10
200.3019999999999
 20
15.686041
 30
0.0
 11
260.802
 21
15.686041
 31
0.0
  0
LINE
  5
4D
330
49
100
AcDbEntity
  8
CSLAYER1
  6
CONTINUOUS
 62
     4
100
AcDbLine
 10
200.3019999999999
 20
15.686041
 30
0.0
 11
203.199777
 21
16.462498
 31
0.0
  0
LINE
  5
4E
330
49
100
AcDbEntity
  8
CSLAYER1
  6
CONTINUOUS
 62
     4
100
AcDbLine
 10
200.3019999999999
 20
15.686041
 30
0.0
 11
203.199777
 21
14.909584
 31
0.0
  0
LINE
  5
4F
330
49
100
AcDbEntity
  8
CSLAYER1
  6
CONTINUOUS
 62
     4
100
AcDbLine
 10
260.802
 20
15.686041
 30
0.0
 11
257.904223
 21
16.462498
 31
0.0
  0
LINE
  5
50
330
49
100
AcDbEntity
  8
CSLAYER1
  6
CONTINUOUS
 62
     4
100
AcDbLine
 10
260.802
 20
15.686041
 30
0.0
 11
257.904223
 21
14.909584
 31
0.0
  0
LINE
  5
51
330
49
100
AcDbEntity
  8
CSLAYER1
  6
CONTINUOUS
 62
     4
100
AcDbLine
 10
200.3019999999999
 20
71.42857099999997
 30
0.0
 11
200.3019999999999
 21
14.686041
 31
0.0
  0
LINE
  5
52
330
49
100
AcDbEntity
  8
CSLAYER1
  6
CONTINUOUS
 62
     4
100
AcDbLine
 10
260.802
 20
71.42857099999997
 30
0.0
 11
260.802
 21
14.686041
 31
0.0
  0
ENDBLK
  5
53
330
49
100
AcDbEntity
  8
0
100
AcDbBlockEnd
  0
BLOCK
  5
55
330
54
100
AcDbEntity
  8
0
100
AcDbBlockBegin
  2
*D2
 70
     1
 10
0.0
 20
0.0
 30
0.0
  3
*D2
  1

  0
TEXT
  5
56
330
54
100
AcDbEntity
  8
CSLAYER1
 62
     4
100
AcDbText
 10
206.552002
 20
22.18604099999998
 30
0.0
 40
2.5
  1
22.5
 41
1.090909090909091
 51
15.0
  7
FX_FONT
 72
     5
 11
216.552002
 21
22.18604099999998
 31
0.0
100
AcDbText
  0
LINE
  5
57
330
54
100
AcDbEntity
  8
CSLAYER1
  6
CONTINUOUS
 62
     4
100
AcDbLine
 10
222.8019999999999
 20
29.368571
 30
0.0
 11
222.8019999999999
 21
20.68604099999999
 31
0.0
  0
LINE
  5
58
330
54
100
AcDbEntity
  8
CSLAYER1
  6
CONTINUOUS
 62
     4
100
AcDbLine
 10
200.3019999999999
 20
21.686041
 30
0.0
 11
222.8019999999999
 21
21.686041
 31
0.0
  0
LINE
  5
59
330
54
100
AcDbEntity
  8
CSLAYER1
  6
CONTINUOUS
 62
     4
100
AcDbLine
 10
200.3019999999999
 20
21.686041
 30
0.0
 11
203.199777
 21
22.462498
 31
0.0
  0
LINE
  5
5A
330
54
100
AcDbEntity
  8
CSLAYER1
  6
CONTINUOUS
 62
     4
100
AcDbLine
 10
200.3019999999999
 20
21.686041
 30
0.0
 11
203.199777
 21
20.90958399999998
 31
0.0
  0
LINE
  5
5B
330
54
100
AcDbEntity
  8
CSLAYER1
  6
CONTINUOUS
 62
     4
100
AcDbLine
 10
222.8019999999999
 20
21.686041
 30
0.0
 11
219.9042229999999
 21
22.462498
 31
0.0
  0
LINE
  5
5C
330
54
100
AcDbEntity
  8
CSLAYER1
  6
CONTINUOUS
 62
     4
100
AcDbLine
 10
222.8019999999999
 20
21.686041
 30
0.0
 11
219.9042229999999
 21
20.90958399999998
 31
0.0
  0
ENDBLK
  5
5D
330
54
100
AcDbEntity
  8
0
100
AcDbBlockEnd
  0
BLOCK
  5
5F
330
5E
100
AcDbEntity
  8
0
100
AcDbBlockBegin
  2
*D3
 70
     1
 10
0.0
 20
0.0
 30
0.0
  3
*D3
  1

  0
TEXT
  5
60
330
5E
100
AcDbEntity
  8
CSLAYER1
 62
     4
100
AcDbText
 10
117.8914259999999
 20
230.279999
 30
0.0
 40
2.5
  1
8
 41
1.5
 51
15.0
  7
FX_FONT
 72
     5
 11
120.3914259999999
 21
230.279999
 31
0.0
100
AcDbText
  0
LINE
  5
61
330
5E
100
AcDbEntity
  8
CSLAYER1
  6
CONTINUOUS
 62
     4
100
AcDbLine
 10
123.141429
 20
214.428571
 30
0.0
 11
123.141429
 21
230.7799999999999
 31
0.0
  0
LINE
  5
62
330
5E
100
AcDbEntity
  8
CSLAYER1
  6
CONTINUOUS
 62
     4
100
AcDbLine
 10
115.1414289999999
 20
229.78
 30
0.0
 11
123.141429
 21
229.78
 31
0.0
  0
LINE
  5
63
330
5E
100
AcDbEntity
  8
CSLAYER1
  6
CONTINUOUS
 62
     4
100
AcDbLine
 10
115.1414289999999
 20
229.78
 30
0.0
 11
118.039206
 21
230.556457
 31
0.0
  0
LINE
  5
64
330
5E
100
AcDbEntity
  8
CSLAYER1
  6
CONTINUOUS
 62
     4
100
AcDbLine
 10
115.1414289999999
 20
229.78
 30
0.0
 11
118.039206
 21
229.003543
 31
0.0
  0
LINE
  5
65
330
5E
100
AcDbEntity
  8
CSLAYER1
  6
CONTINUOUS
 62
     4
100
AcDbLine
 10
123.141429
 20
229.78
 30
0.0
 11
120.243651
 21
230.556457
 31
0.0
  0
LINE
  5
66
330
5E
100
AcDbEntity
  8
CSLAYER1
  6
CONTINUOUS
 62
     4
100
AcDbLine
 10
123.141429
 20
229.78
 30
0.0
 11
120.243651
 21
229.003543
 31
0.0
  0
ENDBLK
  5
67
330
5E
100
AcDbEntity
  8
0
100
AcDbBlockEnd
  0
BLOCK
  5
69
330
68
100
AcDbEntity
  8
0
100
AcDbBlockBegin
  2
*D4
 70
     1
 10
0.0
 20
0.0
 30
0.0
  3
*D4
  1

  0
TEXT
  5
6A
330
68
100
AcDbEntity
  8
CSLAYER1
 62
     4
100
AcDbText
 10
116.641426
 20
28.48471299999999
 30
0.0
 40
2.5
  1
40
 41
1.199999999999999
 51
15.0
  7
FX_FONT
 72
     5
 11
121.641426
 21
28.48471299999999
 31
0.0
100
AcDbText
  0
LINE
  5
6B
330
68
100
AcDbEntity
  8
CSLAYER1
  6
CONTINUOUS
 62
     4
100
AcDbLine
 10
99.14142900000001
 20
38.428571
 30
0.0
 11
99.14142900000001
 21
26.984713
 31
0.0
  0
LINE
  5
6C
330
68
100
AcDbEntity
  8
CSLAYER1
  6
CONTINUOUS
 62
     4
100
AcDbLine
 10
139.141429
 20
38.428571
 30
0.0
 11
139.141429
 21
26.984713
 31
0.0
  0
LINE
  5
6D
330
68
100
AcDbEntity
  8
CSLAYER1
  6
CONTINUOUS
 62
     4
100
AcDbLine
 10
99.14142900000001
 20
27.984713
 30
0.0
 11
139.141429
 21
27.984713
 31
0.0
  0
LINE
  5
6E
330
68
100
AcDbEntity
  8
CSLAYER1
  6
CONTINUOUS
 62
     4
100
AcDbLine
 10
99.14142900000001
 20
27.984713
 30
0.0
 11
102.039206
 21
28.76117
 31
0.0
  0
LINE
  5
6F
330
68
100
AcDbEntity
  8
CSLAYER1
  6
CONTINUOUS
 62
     4
100
AcDbLine
 10
99.14142900000001
 20
27.984713
 30
0.0
 11
102.039206
 21
27.20825599999999
 31
0.0
  0
LINE
  5
70
330
68
100
AcDbEntity
  8
CSLAYER1
  6
CONTINUOUS
 62
     4
100
AcDbLine
 10
139.141429
 20
27.984713
 30
0.0
 11
136.2436509999999
 21
28.76117
 31
0.0
  0
LINE
  5
71
330
68
100
AcDbEntity
  8
CSLAYER1
  6
CONTINUOUS
 62
     4
100
AcDbLine
 10
139.141429
 20
27.984713
 30
0.0
 11
136.2436509999999
 21
27.20825599999999
 31
0.0
  0
ENDBLK
  5
72
330
68
100
AcDbEntity
  8
0
100
AcDbBlockEnd
  0
BLOCK
  5
74
330
73
100
AcDbEntity
  8
0
100
AcDbBlockBegin
  2
*D5
 70
     1
 10
0.0
 20
0.0
 30
0.0
  3
*D5
  1

  0
TEXT
  5
75
330
73
100
AcDbEntity
  8
CSLAYER1
 62
     4
100
AcDbText
 10
104.641434
 20
235.884659
 30
0.0
 40
2.5
  1
16
 41
1.199999999999999
 51
15.0
  7
FX_FONT
 72
     5
 11
109.641434
 21
235.884659
 31
0.0
100
AcDbText
  0
LINE
  5
76
330
73
100
AcDbEntity
  8
CSLAYER1
  6
CONTINUOUS
 62
     4
100
AcDbLine
 10
99.14142900000001
 20
164.428571
 30
0.0
 11
99.14142900000001
 21
236.384658
 31
0.0
  0
LINE
  5
77
330
73
100
AcDbEntity
  8
CSLAYER1
  6
CONTINUOUS
 62
     4
100
AcDbLine
 10
115.1414289999999
 20
214.428571
 30
0.0
 11
115.1414289999999
 21
236.384658
 31
0.0
  0
LINE
  5
78
330
73
100
AcDbEntity
  8
CSLAYER1
  6
CONTINUOUS
 62
     4
100
AcDbLine
 10
99.14142900000001
 20
235.3846579999999
 30
0.0
 11
115.1414289999999
 21
235.3846579999999
 31
0.0
  0
LINE
  5
79
330
73
100
AcDbEntity
  8
CSLAYER1
  6
CONTINUOUS
 62
     4
100
AcDbLine
 10
99.14142900000001
 20
235.3846579999999
 30
0.0
 11
102.039206
 21
236.161116
 31
0.0
  0
LINE
  5
7A
330
73
100
AcDbEntity
  8
CSLAYER1
  6
CONTINUOUS
 62
     4
100
AcDbLine
 10
99.14142900000001
 20
235.3846579999999
 30
0.0
 11
102.039206
 21
234.6082009999999
 31
0.0
  0
LINE
  5
7B
330
73
100
AcDbEntity
  8
CSLAYER1
  6
CONTINUOUS
 62
     4
100
AcDbLine
 10
115.1414289999999
 20
235.3846579999999
 30
0.0
 11
112.2436509999999
 21
236.161116
 31
0.0
  0
LINE
  5
7C
330
73
100
AcDbEntity
  8
CSLAYER1
  6
CONTINUOUS
 62
     4
100
AcDbLine
 10
115.1414289999999
 20
235.3846579999999
 30
0.0
 11
112.2436509999999
 21
234.6082009999999
 31
0.0
  0
ENDBLK
  5
7D
330
73
100
AcDbEntity
  8
0
100
AcDbBlockEnd
  0
BLOCK
  5
7F
330
7E
100
AcDbEntity
  8
0
100
AcDbBlockBegin
  2
*D6
 70
     1
 10
0.0
 20
0.0
 30
0.0
  3
*D6
  1

  0
TEXT
  5
80
330
7E
100
AcDbEntity
  8
CSLAYER1
 62
     4
100
AcDbText
 10
124.6414259999999
 20
235.884659
 30
0.0
 40
2.5
  1
24
 41
1.199999999999999
 51
15.0
  7
FX_FONT
 72
     5
 11
129.6414259999999
 21
235.884659
 31
0.0
100
AcDbText
  0
LINE
  5
81
330
7E
100
AcDbEntity
  8
CSLAYER1
  6
CONTINUOUS
 62
     4
100
AcDbLine
 10
139.141429
 20
118.9285709999999
 30
0.0
 11
139.141429
 21
236.384658
 31
0.0
  0
LINE
  5
82
330
7E
100
AcDbEntity
  8
CSLAYER1
  6
CONTINUOUS
 62
     4
100
AcDbLine
 10
115.1414289999999
 20
235.3846579999999
 30
0.0
 11
139.141429
 21
235.3846579999999
 31
0.0
  0
LINE
  5
83
330
7E
100
AcDbEntity
  8
CSLAYER1
  6
CONTINUOUS
 62
     4
100
AcDbLine
 10
115.1414289999999
 20
235.3846579999999
 30
0.0
 11
118.039206
 21
236.161116
 31
0.0
  0
LINE
  5
84
330
7E
100
AcDbEntity
  8
CSLAYER1
  6
CONTINUOUS
 62
     4
100
AcDbLine
 10
115.1414289999999
 20
235.3846579999999
 30
0.0
 11
118.039206
 21
234.6082009999999
 31
0.0
  0
LINE
  5
85
330
7E
100
AcDbEntity
  8
CSLAYER1
  6
CONTINUOUS
 62
     4
100
AcDbLine
 10
139.141429
 20
235.3846579999999
 30
0.0
 11
136.2436509999999
 21
236.161116
 31
0.0
  0
LINE
  5
86
330
7E
100
AcDbEntity
  8
CSLAYER1
  6
CONTINUOUS
 62
     4
100
AcDbLine
 10
139.141429
 20
235.3846579999999
 30
0.0
 11
136.2436509999999
 21
234.6082009999999
 31
0.0
  0
ENDBLK
  5
87
330
7E
100
AcDbEntity
  8
0
100
AcDbBlockEnd
  0
BLOCK
  5
89
330
88
100
AcDbEntity
  8
0
100
AcDbBlockBegin
  2
*D7
 70
     1
 10
0.0
 20
0.0
 30
0.0
  3
*D7
  1

  0
TEXT
  5
8A
330
88
100
AcDbEntity
  8
CSLAYER1
 62
     4
100
AcDbText
 10
194.361435
 20
191.178574
 30
0.0
 40
2.5
  1
8
 50
90.0
 41
1.499999999999948
 51
15.0
  7
FX_FONT
 72
     5
 11
194.361435
 21
193.6785739999999
 31
0.0
100
AcDbText
  0
LINE
  5
8B
330
88
100
AcDbEntity
  8
CSLAYER1
  6
CONTINUOUS
 62
     4
100
AcDbLine
 10
207.133437
 20
196.428571
 30
0.0
 11
193.861429
 21
196.428571
 31
0.0
  0
LINE
  5
8C
330
88
100
AcDbEntity
  8
CSLAYER1
  6
CONTINUOUS
 62
     4
100
AcDbLine
 10
194.861429
 20
188.428571
 30
0.0
 11
194.861429
 21
196.428571
 31
0.0
  0
LINE
  5
8D
330
88
100
AcDbEntity
  8
CSLAYER1
  6
CONTINUOUS
 62
     4
100
AcDbLine
 10
194.861429
 20
188.428571
 30
0.0
 11
194.0849709999999
 21
191.326349
 31
0.0
  0
LINE
  5
8E
330
88
100
AcDbEntity
  8
CSLAYER1
  6
CONTINUOUS
 62
     4
100
AcDbLine
 10
194.861429
 20
188.428571
 30
0.0
 11
195.637886
 21
191.326349
 31
0.0
  0
LINE
  5
8F
330
88
100
AcDbEntity
  8
CSLAYER1
  6
CONTINUOUS
 62
     4
100
AcDbLine
 10
194.861429
 20
196.428571
 30
0.0
 11
194.0849709999999
 21
193.5307939999999
 31
0.0
  0
LINE
  5
90
330
88
100
AcDbEntity
  8
CSLAYER1
  6
CONTINUOUS
 62
     4
100
AcDbLine
 10
194.861429
 20
196.428571
 30
0.0
 11
195.637886
 21
193.5307939999999
 31
0.0
  0
ENDBLK
  5
91
330
88
100
AcDbEntity
  8
0
100
AcDbBlockEnd
  0
BLOCK
  5
93
330
92
100
AcDbEntity
  8
0
100
AcDbBlockBegin
  2
*D8
 70
     1
 10
0.0
 20
0.0
 30
0.0
  3
*D8
  1

  0
TEXT
  5
94
330
92
100
AcDbEntity
  8
CSLAYER1
 62
     4
100
AcDbText
 10
187.8998409999999
 20
204.555649
 30
0.0
 40
2.5
  1
2
 50
90.0
 41
1.499999999999965
 51
15.0
  7
FX_FONT
 72
     5
 11
187.8998409999999
 21
207.0556489999999
 31
0.0
100
AcDbText
  0
LINE
  5
95
330
92
100
AcDbEntity
  8
CSLAYER1
  6
CONTINUOUS
 62
     4
100
AcDbLine
 10
209.5319219999999
 20
198.428571
 30
0.0
 11
193.861429
 21
198.428571
 31
0.0
  0
LINE
  5
96
330
92
100
AcDbEntity
  8
CSLAYER1
  6
CONTINUOUS
 62
     4
100
AcDbLine
 10
194.861429
 20
196.428571
 30
0.0
 11
194.861429
 21
198.428571
 31
0.0
  0
LINE
  5
97
330
92
100
AcDbEntity
  8
CSLAYER1
  6
CONTINUOUS
 62
     4
100
AcDbLine
 10
194.861429
 20
198.428571
 30
0.0
 11
194.861429
 21
201.428571
 31
0.0
  0
LINE
  5
98
330
92
100
AcDbEntity
  8
CSLAYER1
  6
CONTINUOUS
 62
     4
100
AcDbLine
 10
194.861429
 20
198.428571
 30
0.0
 11
194.0849709999999
 21
201.3263489999999
 31
0.0
  0
LINE
  5
99
330
92
100
AcDbEntity
  8
CSLAYER1
  6
CONTINUOUS
 62
     4
100
AcDbLine
 10
194.861429
 20
198.428571
 30
0.0
 11
195.637886
 21
201.3263489999999
 31
0.0
  0
LINE
  5
9A
330
92
100
AcDbEntity
  8
CSLAYER1
  6
CONTINUOUS
 62
     4
100
AcDbLine
 10
194.861429
 20
197.428571
 30
0.0
 11
188.3998469999999
 21
203.555643
 31
0.0
  0
LINE
  5
9B
330
92
100
AcDbEntity
  8
CSLAYER1
  6
CONTINUOUS
 62
     4
100
AcDbLine
 10
188.3998469999999
 20
203.555643
 30
0.0
 11
188.3998469999999
 21
208.055643
 31
0.0
  0
ENDBLK
  5
9C
330
92
100
AcDbEntity
  8
0
100
AcDbBlockEnd
  0
BLOCK
  5
9E
330
9D
100
AcDbEntity
  8
0
100
AcDbBlockBegin
  2
*D9
 70
     1
 10
0.0
 20
0.0
 30
0.0
  3
*D9
  1

  0
TEXT
  5
9F
330
9D
100
AcDbEntity
  8
CSLAYER1
 62
     4
100
AcDbText
 10
220.1608279999999
 20
190.9285739999999
 30
0.0
 40
2.5
  1
10
 50
90.0
 41
1.20000000000002
 51
15.0
  7
FX_FONT
 72
     5
 11
220.1608279999999
 21
195.928574
 31
0.0
100
AcDbText
  0
LINE
  5
A0
330
9D
100
AcDbEntity
  8
CSLAYER1
  6
CONTINUOUS
 62
     4
100
AcDbLine
 10
220.6608299999999
 20
188.428571
 30
0.0
 11
220.6608299999999
 21
198.428571
 31
0.0
  0
LINE
  5
A1
330
9D
100
AcDbEntity
  8
CSLAYER1
  6
CONTINUOUS
 62
     4
100
AcDbLine
 10
220.6608299999999
 20
188.428571
 30
0.0
 11
219.884373
 21
191.326349
 31
0.0
  0
LINE
  5
A2
330
9D
100
AcDbEntity
  8
CSLAYER1
  6
CONTINUOUS
 62
     4
100
AcDbLine
 10
220.6608299999999
 20
188.428571
 30
0.0
 11
221.437287
 21
191.326349
 31
0.0
  0
LINE
  5
A3
330
9D
100
AcDbEntity
  8
CSLAYER1
  6
CONTINUOUS
 62
     4
100
AcDbLine
 10
220.6608299999999
 20
198.428571
 30
0.0
 11
219.884373
 21
195.5307939999999
 31
0.0
  0
LINE
  5
A4
330
9D
100
AcDbEntity
  8
CSLAYER1
  6
CONTINUOUS
 62
     4
100
AcDbLine
 10
220.6608299999999
 20
198.428571
 30
0.0
 11
221.437287
 21
195.5307939999999
 31
0.0
  0
ENDBLK
  5
A5
330
9D
100
AcDbEntity
  8
0
100
AcDbBlockEnd
  0
BLOCK
  5
A7
330
A6
100
AcDbEntity
  8
0
100
AcDbBlockBegin
  2
*D10
 70
     1
 10
0.0
 20
0.0
 30
0.0
  3
*D10
  1

  0
TEXT
  5
A8
330
A6
100
AcDbEntity
  8
CSLAYER1
 62
     4
100
AcDbText
 10
210.302002
 20
31.32636599999999
 30
0.0
 40
2.5
  1
20
 41
1.199999999999999
 51
15.0
  7
FX_FONT
 72
     5
 11
215.302002
 21
31.32636599999999
 31
0.0
100
AcDbText
  0
LINE
  5
A9
330
A6
100
AcDbEntity
  8
CSLAYER1
  6
CONTINUOUS
 62
     4
100
AcDbLine
 10
202.802
 20
38.428571
 30
0.0
 11
202.802
 21
29.826367
 31
0.0
  0
LINE
  5
AA
330
A6
100
AcDbEntity
  8
CSLAYER1
  6
CONTINUOUS
 62
     4
100
AcDbLine
 10
222.8019999999999
 20
31.368571
 30
0.0
 11
222.8019999999999
 21
31.82636699999999
 31
0.0
  0
LINE
  5
AB
330
A6
100
AcDbEntity
  8
CSLAYER1
  6
CONTINUOUS
 62
     4
100
AcDbLine
 10
202.802
 20
30.826367
 30
0.0
 11
222.8019999999999
 21
30.826367
 31
0.0
  0
LINE
  5
AC
330
A6
100
AcDbEntity
  8
CSLAYER1
  6
CONTINUOUS
 62
     4
100
AcDbLine
 10
202.802
 20
30.826367
 30
0.0
 11
205.699777
 21
31.60282399999999
 31
0.0
  0
LINE
  5
AD
330
A6
100
AcDbEntity
  8
CSLAYER1
  6
CONTINUOUS
 62
     4
100
AcDbLine
 10
202.802
 20
30.826367
 30
0.0
 11
205.699777
 21
30.04990999999999
 31
0.0
  0
LINE
  5
AE
330
A6
100
AcDbEntity
  8
CSLAYER1
  6
CONTINUOUS
 62
     4
100
AcDbLine
 10
222.8019999999999
 20
30.826367
 30
0.0
 11
219.9042229999999
 21
31.60282399999999
 31
0.0
  0
LINE
  5
AF
330
A6
100
AcDbEntity
  8
CSLAYER1
  6
CONTINUOUS
 62
     4
100
AcDbLine
 10
222.8019999999999
 20
30.826367
 30
0.0
 11
219.9042229999999
 21
30.04990999999999
 31
0.0
  0
ENDBLK
  5
B0
330
A6
100
AcDbEntity
  8
0
100
AcDbBlockEnd
  0
BLOCK
  5
B2
330
B1
100
AcDbEntity
  8
0
100
AcDbBlockBegin
  2
*D11
 70
     1
 10
0.0
 20
0.0
 30
0.0
  3
*D11
  1

  0
TEXT
  5
B3
330
B1
100
AcDbEntity
  8
CSLAYER1
 62
     4
100
AcDbText
 10
230.302002
 20
31.32636599999999
 30
0.0
 40
2.5
  1
20
 41
1.199999999999999
 51
15.0
  7
FX_FONT
 72
     5
 11
235.302002
 21
31.32636599999999
 31
0.0
100
AcDbText
  0
LINE
  5
B4
330
B1
100
AcDbEntity
  8
CSLAYER1
  6
CONTINUOUS
 62
     4
100
AcDbLine
 10
242.802
 20
38.428571
 30
0.0
 11
242.802
 21
29.826367
 31
0.0
  0
LINE
  5
B5
330
B1
100
AcDbEntity
  8
CSLAYER1
  6
CONTINUOUS
 62
     4
100
AcDbLine
 10
222.8019999999999
 20
30.826367
 30
0.0
 11
242.802
 21
30.826367
 31
0.0
  0
LINE
  5
B6
330
B1
100
AcDbEntity
  8
CSLAYER1
  6
CONTINUOUS
 62
     4
100
AcDbLine
 10
222.8019999999999
 20
30.826367
 30
0.0
 11
225.699777
 21
31.60282399999999
 31
0.0
  0
LINE
  5
B7
330
B1
100
AcDbEntity
  8
CSLAYER1
  6
CONTINUOUS
 62
     4
100
AcDbLine
 10
222.8019999999999
 20
30.826367
 30
0.0
 11
225.699777
 21
30.04990999999999
 31
0.0
  0
LINE
  5
B8
330
B1
100
AcDbEntity
  8
CSLAYER1
  6
CONTINUOUS
 62
     4
100
AcDbLine
 10
242.802
 20
30.826367
 30
0.0
 11
239.904223
 21
31.60282399999999
 31
0.0
  0
LINE
  5
B9
330
B1
100
AcDbEntity
  8
CSLAYER1
  6
CONTINUOUS
 62
     4
100
AcDbLine
 10
242.802
 20
30.826367
 30
0.0
 11
239.904223
 21
30.04990999999999
 31
0.0
  0
ENDBLK
  5
BA
330
B1
100
AcDbEntity
  8
0
100
AcDbBlockEnd
  0
BLOCK
  5
BC
330
BB
100
AcDbEntity
  8
0
100
AcDbBlockBegin
  2
*D12
 70
     1
 10
0.0
 20
0.0
 30
0.0
  3
*D12
  1

  0
TEXT
  5
BD
330
BB
100
AcDbEntity
  8
CSLAYER1
 62
     4
100
AcDbText
 10
225.552002
 20
278.832855
 30
0.0
 40
2.5
  1
60.5
 41
1.090909090909091
 51
15.0
  7
FX_FONT
 72
     5
 11
235.552002
 21
278.832855
 31
0.0
100
AcDbText
  0
LINE
  5
BE
330
BB
100
AcDbEntity
  8
CSLAYER1
  6
CONTINUOUS
 62
     4
100
AcDbLine
 10
200.3019999999999
 20
274.565714
 30
0.0
 11
200.3019999999999
 21
279.3328569999999
 31
0.0
  0
LINE
  5
BF
330
BB
100
AcDbEntity
  8
CSLAYER1
  6
CONTINUOUS
 62
     4
100
AcDbLine
 10
260.802
 20
274.565714
 30
0.0
 11
260.802
 21
279.3328569999999
 31
0.0
  0
LINE
  5
C0
330
BB
100
AcDbEntity
  8
CSLAYER1
  6
CONTINUOUS
 62
     4
100
AcDbLine
 10
200.3019999999999
 20
278.332857
 30
0.0
 11
260.802
 21
278.332857
 31
0.0
  0
LINE
  5
C1
330
BB
100
AcDbEntity
  8
CSLAYER1
  6
CONTINUOUS
 62
     4
100
AcDbLine
 10
200.3019999999999
 20
278.332857
 30
0.0
 11
203.199777
 21
279.109314
 31
0.0
  0
LINE
  5
C2
330
BB
100
AcDbEntity
  8
CSLAYER1
  6
CONTINUOUS
 62
     4
100
AcDbLine
 10
200.3019999999999
 20
278.332857
 30
0.0
 11
203.199777
 21
277.5564
 31
0.0
  0
LINE
  5
C3
330
BB
100
AcDbEntity
  8
CSLAYER1
  6
CONTINUOUS
 62
     4
100
AcDbLine
 10
260.802
 20
278.332857
 30
0.0
 11
257.904223
 21
279.109314
 31
0.0
  0
LINE
  5
C4
330
BB
100
AcDbEntity
  8
CSLAYER1
  6
CONTINUOUS
 62
     4
100
AcDbLine
 10
260.802
 20
278.332857
 30
0.0
 11
257.904223
 21
277.5564
 31
0.0
  0
ENDBLK
  5
C5
330
BB
100
AcDbEntity
  8
0
100
AcDbBlockEnd
  0
BLOCK
  5
C7
330
C6
100
AcDbEntity
  8
0
100
AcDbBlockBegin
  2
*D13
 70
     1
 10
0.0
 20
0.0
 30
0.0
  3
*D13
  1

  0
TEXT
  5
C8
330
C6
100
AcDbEntity
  8
CSLAYER1
 62
     4
100
AcDbText
 10
279.5469359999998
 20
120.4285739999999
 30
0.0
 40
2.5
  1
173.5
 50
90.0
 41
1.071428571428572
 51
15.0
  7
FX_FONT
 72
     5
 11
279.5469359999998
 21
132.9285739999999
 31
0.0
100
AcDbText
  0
LINE
  5
C9
330
C6
100
AcDbEntity
  8
CSLAYER1
  6
CONTINUOUS
 62
     4
100
AcDbLine
 10
243.8019999999999
 20
39.928571
 30
0.0
 11
281.046931
 21
39.928571
 31
0.0
  0
LINE
  5
CA
330
C6
100
AcDbEntity
  8
CSLAYER1
  6
CONTINUOUS
 62
     4
100
AcDbLine
 10
246.802
 20
213.4285709999999
 30
0.0
 11
281.046931
 21
213.4285709999999
 31
0.0
  0
LINE
  5
CB
330
C6
100
AcDbEntity
  8
CSLAYER1
  6
CONTINUOUS
 62
     4
100
AcDbLine
 10
280.046931
 20
39.928571
 30
0.0
 11
280.046931
 21
213.4285709999999
 31
0.0
  0
LINE
  5
CC
330
C6
100
AcDbEntity
  8
CSLAYER1
  6
CONTINUOUS
 62
     4
100
AcDbLine
 10
280.046931
 20
39.928571
 30
0.0
 11
279.270473
 21
42.826349
 31
0.0
  0
LINE
  5
CD
330
C6
100
AcDbEntity
  8
CSLAYER1
  6
CONTINUOUS
 62
     4
100
AcDbLine
 10
280.046931
 20
39.928571
 30
0.0
 11
280.8233879999999
 21
42.826349
 31
0.0
  0
LINE
  5
CE
330
C6
100
AcDbEntity
  8
CSLAYER1
  6
CONTINUOUS
 62
     4
100
AcDbLine
 10
280.046931
 20
213.4285709999999
 30
0.0
 11
279.270473
 21
210.5307939999999
 31
0.0
  0
LINE
  5
CF
330
C6
100
AcDbEntity
  8
CSLAYER1
  6
CONTINUOUS
 62
     4
100
AcDbLine
 10
280.046931
 20
213.4285709999999
 30
0.0
 11
280.8233879999999
 21
210.5307939999999
 31
0.0
  0
ENDBLK
  5
D0
330
C6
100
AcDbEntity
  8
0
100
AcDbBlockEnd
  0
BLOCK
  5
D2
330
D1
100
AcDbEntity
  8
0
100
AcDbBlockBegin
  2
*D14
 70
     1
 10
0.0
 20
0.0
 30
0.0
  3
*D14
  1

  0
TEXT
  5
D3
330
D1
100
AcDbEntity
  8
CSLAYER1
 62
     4
100
AcDbText
 10
273.5469359999999
 20
51.17857
 30
0.0
 40
2.5
  1
32.5
 50
90.0
 41
1.090909090909089
 51
15.0
  7
FX_FONT
 72
     5
 11
273.5469359999999
 21
61.17856999999999
 31
0.0
100
AcDbText
  0
LINE
  5
D4
330
D1
100
AcDbEntity
  8
CSLAYER1
  6
CONTINUOUS
 62
     4
100
AcDbLine
 10
261.802
 20
72.42857099999998
 30
0.0
 11
275.046931
 21
72.42857099999998
 31
0.0
  0
LINE
  5
D5
330
D1
100
AcDbEntity
  8
CSLAYER1
  6
CONTINUOUS
 62
     4
100
AcDbLine
 10
274.046931
 20
39.928571
 30
0.0
 11
274.046931
 21
72.42857099999998
 31
0.0
  0
LINE
  5
D6
330
D1
100
AcDbEntity
  8
CSLAYER1
  6
CONTINUOUS
 62
     4
100
AcDbLine
 10
274.046931
 20
39.928571
 30
0.0
 11
273.270473
 21
42.826349
 31
0.0
  0
LINE
  5
D7
330
D1
100
AcDbEntity
  8
CSLAYER1
  6
CONTINUOUS
 62
     4
100
AcDbLine
 10
274.046931
 20
39.928571
 30
0.0
 11
274.8233879999999
 21
42.826349
 31
0.0
  0
LINE
  5
D8
330
D1
100
AcDbEntity
  8
CSLAYER1
  6
CONTINUOUS
 62
     4
100
AcDbLine
 10
274.046931
 20
72.42857099999998
 30
0.0
 11
273.270473
 21
69.530794
 31
0.0
  0
LINE
  5
D9
330
D1
100
AcDbEntity
  8
CSLAYER1
  6
CONTINUOUS
 62
     4
100
AcDbLine
 10
274.046931
 20
72.42857099999998
 30
0.0
 11
274.8233879999999
 21
69.530794
 31
0.0
  0
ENDBLK
  5
DA
330
D1
100
AcDbEntity
  8
0
100
AcDbBlockEnd
  0
BLOCK
  5
DC
330
DB
100
AcDbEntity
  8
0
100
AcDbBlockBegin
  2
*D15
 70
     1
 10
0.0
 20
0.0
 30
0.0
  3
*D15
  1

  0
TEXT
  5
DD
330
DB
100
AcDbEntity
  8
CSLAYER1
 62
     4
100
AcDbText
 10
273.5469359999999
 20
97.928574
 30
0.0
 40
2.5
  1
56
 50
90.0
 41
1.199999999999976
 51
15.0
  7
FX_FONT
 72
     5
 11
273.5469359999999
 21
102.9285739999999
 31
0.0
100
AcDbText
  0
LINE
  5
DE
330
DB
100
AcDbEntity
  8
CSLAYER1
  6
CONTINUOUS
 62
     4
100
AcDbLine
 10
261.802
 20
128.428571
 30
0.0
 11
275.046931
 21
128.428571
 31
0.0
  0
LINE
  5
DF
330
DB
100
AcDbEntity
  8
CSLAYER1
  6
CONTINUOUS
 62
     4
100
AcDbLine
 10
274.046931
 20
72.42857099999998
 30
0.0
 11
274.046931
 21
128.428571
 31
0.0
  0
LINE
  5
E0
330
DB
100
AcDbEntity
  8
CSLAYER1
  6
CONTINUOUS
 62
     4
100
AcDbLine
 10
274.046931
 20
72.42857099999998
 30
0.0
 11
273.270473
 21
75.32634899999997
 31
0.0
  0
LINE
  5
E1
330
DB
100
AcDbEntity
  8
CSLAYER1
  6
CONTINUOUS
 62
     4
100
AcDbLine
 10
274.046931
 20
72.42857099999998
 30
0.0
 11
274.8233879999999
 21
75.32634899999997
 31
0.0
  0
LINE
  5
E2
330
DB
100
AcDbEntity
  8
CSLAYER1
  6
CONTINUOUS
 62
     4
100
AcDbLine
 10
274.046931
 20
128.428571
 30
0.0
 11
273.270473
 21
125.530794
 31
0.0
  0
LINE
  5
E3
330
DB
100
AcDbEntity
  8
CSLAYER1
  6
CONTINUOUS
 62
     4
100
AcDbLine
 10
274.046931
 20
128.428571
 30
0.0
 11
274.8233879999999
 21
125.530794
 31
0.0
  0
ENDBLK
  5
E4
330
DB
100
AcDbEntity
  8
0
100
AcDbBlockEnd
  0
BLOCK
  5
E6
330
E5
100
AcDbEntity
  8
0
100
AcDbBlockBegin
  2
*D16
 70
     1
 10
0.0
 20
0.0
 30
0.0
  3
*D16
  1

  0
TEXT
  5
E7
330
E5
100
AcDbEntity
  8
CSLAYER1
 62
     4
100
AcDbText
 10
273.5469359999999
 20
143.4285739999999
 30
0.0
 40
2.5
  1
35
 50
90.0
 41
1.199999999999999
 51
15.0
  7
FX_FONT
 72
     5
 11
273.5469359999999
 21
148.4285739999999
 31
0.0
100
AcDbText
  0
LINE
  5
E8
330
E5
100
AcDbEntity
  8
CSLAYER1
  6
CONTINUOUS
 62
     4
100
AcDbLine
 10
261.802
 20
163.428571
 30
0.0
 11
275.046931
 21
163.428571
 31
0.0
  0
LINE
  5
E9
330
E5
100
AcDbEntity
  8
CSLAYER1
  6
CONTINUOUS
 62
     4
100
AcDbLine
 10
274.046931
 20
128.428571
 30
0.0
 11
274.046931
 21
163.428571
 31
0.0
  0
LINE
  5
EA
330
E5
100
AcDbEntity
  8
CSLAYER1
  6
CONTINUOUS
 62
     4
100
AcDbLine
 10
274.046931
 20
128.428571
 30
0.0
 11
273.270473
 21
131.3263489999999
 31
0.0
  0
LINE
  5
EB
330
E5
100
AcDbEntity
  8
CSLAYER1
  6
CONTINUOUS
 62
     4
100
AcDbLine
 10
274.046931
 20
128.428571
 30
0.0
 11
274.8233879999999
 21
131.3263489999999
 31
0.0
  0
LINE
  5
EC
330
E5
100
AcDbEntity
  8
CSLAYER1
  6
CONTINUOUS
 62
     4
100
AcDbLine
 10
274.046931
 20
163.428571
 30
0.0
 11
273.270473
 21
160.5307939999998
 31
0.0
  0
LINE
  5
ED
330
E5
100
AcDbEntity
  8
CSLAYER1
  6
CONTINUOUS
 62
     4
100
AcDbLine
 10
274.046931
 20
163.428571
 30
0.0
 11
274.8233879999999
 21
160.5307939999998
 31
0.0
  0
ENDBLK
  5
EE
330
E5
100
AcDbEntity
  8
0
100
AcDbBlockEnd
  0
BLOCK
  5
F0
330
EF
100
AcDbEntity
  8
0
100
AcDbBlockBegin
  2
*D17
 70
     1
 10
0.0
 20
0.0
 30
0.0
  3
*D17
  1

  0
TEXT
  5
F1
330
EF
100
AcDbEntity
  8
CSLAYER1
 62
     4
100
AcDbText
 10
273.5469359999999
 20
180.460327
 30
0.0
 40
2.5
  1
50
 50
90.0
 41
1.199999999999999
 51
15.0
  7
FX_FONT
 72
     5
 11
273.5469359999999
 21
185.460327
 31
0.0
100
AcDbText
  0
LINE
  5
F2
330
EF
100
AcDbEntity
  8
CSLAYER1
  6
CONTINUOUS
 62
     4
100
AcDbLine
 10
274.046931
 20
163.428571
 30
0.0
 11
274.046931
 21
213.4285709999999
 31
0.0
  0
LINE
  5
F3
330
EF
100
AcDbEntity
  8
CSLAYER1
  6
CONTINUOUS
 62
     4
100
AcDbLine
 10
274.046931
 20
163.428571
 30
0.0
 11
273.270473
 21
166.326349
 31
0.0
  0
LINE
  5
F4
330
EF
100
AcDbEntity
  8
CSLAYER1
  6
CONTINUOUS
 62
     4
100
AcDbLine
 10
274.046931
 20
163.428571
 30
0.0
 11
274.8233879999999
 21
166.326349
 31
0.0
  0
LINE
  5
F5
330
EF
100
AcDbEntity
  8
CSLAYER1
  6
CONTINUOUS
 62
     4
100
AcDbLine
 10
274.046931
 20
213.4285709999999
 30
0.0
 11
273.270473
 21
210.5307939999999
 31
0.0
  0
LINE
  5
F6
330
EF
100
AcDbEntity
  8
CSLAYER1
  6
CONTINUOUS
 62
     4
100
AcDbLine
 10
274.046931
 20
213.4285709999999
 30
0.0
 11
274.8233879999999
 21
210.5307939999999
 31
0.0
  0
ENDBLK
  5
F7
330
EF
100
AcDbEntity
  8
0
100
AcDbBlockEnd
  0
BLOCK
  5
F9
330
F8
100
AcDbEntity
  8
0
100
AcDbBlockBegin
  2
*D18
 70
     1
 10
0.0
 20
0.0
 30
0.0
  3
*D18
  1

  0
TEXT
  5
FA
330
F8
100
AcDbEntity
  8
CSLAYER1
 62
     4
100
AcDbText
 10
179.5997159999999
 20
251.06572
 30
0.0
 40
2.5
  1
40
 50
90.0
 41
1.199999999999993
 51
15.0
  7
FX_FONT
 72
     5
 11
179.5997159999999
 21
256.06572
 31
0.0
100
AcDbText
  0
LINE
  5
FB
330
F8
100
AcDbEntity
  8
CSLAYER1
  6
CONTINUOUS
 62
     4
100
AcDbLine
 10
199.3019999999999
 20
233.565714
 30
0.0
 11
179.0997139999999
 21
233.565714
 31
0.0
  0
LINE
  5
FC
330
F8
100
AcDbEntity
  8
CSLAYER1
  6
CONTINUOUS
 62
     4
100
AcDbLine
 10
199.3019999999999
 20
273.565714
 30
0.0
 11
179.0997139999999
 21
273.565714
 31
0.0
  0
LINE
  5
FD
330
F8
100
AcDbEntity
  8
CSLAYER1
  6
CONTINUOUS
 62
     4
100
AcDbLine
 10
180.0997139999999
 20
233.565714
 30
0.0
 11
180.0997139999999
 21
273.565714
 31
0.0
  0
LINE
  5
FE
330
F8
100
AcDbEntity
  8
CSLAYER1
  6
CONTINUOUS
 62
     4
100
AcDbLine
 10
180.0997139999999
 20
233.565714
 30
0.0
 11
179.323257
 21
236.4634919999999
 31
0.0
  0
LINE
  5
FF
330
F8
100
AcDbEntity
  8
CSLAYER1
  6
CONTINUOUS
 62
     4
100
AcDbLine
 10
180.0997139999999
 20
233.565714
 30
0.0
 11
180.8761709999999
 21
236.4634919999999
 31
0.0
  0
LINE
  5
100
330
F8
100
AcDbEntity
  8
CSLAYER1
  6
CONTINUOUS
 62
     4
100
AcDbLine
 10
180.0997139999999
 20
273.565714
 30
0.0
 11
179.323257
 21
270.6679369999999
 31
0.0
  0
LINE
  5
101
330
F8
100
AcDbEntity
  8
CSLAYER1
  6
CONTINUOUS
 62
     4
100
AcDbLine
 10
180.0997139999999
 20
273.565714
 30
0.0
 11
180.8761709999999
 21
270.6679369999999
 31
0.0
  0
ENDBLK
  5
102
330
F8
100
AcDbEntity
  8
0
100
AcDbBlockEnd
  0
BLOCK
  5
104
330
103
100
AcDbEntity
  8
0
100
AcDbBlockBegin
  2
*D19
 70
     1
 10
0.0
 20
0.0
 30
0.0
  3
*D19
  1

  0
TEXT
  5
105
330
103
100
AcDbEntity
  8
CSLAYER1
 62
     4
100
AcDbText
 10
191.599716
 20
252.31572
 30
0.0
 40
2.5
  1
8
 50
90.0
 41
1.5
 51
15.0
  7
FX_FONT
 72
     5
 11
191.599716
 21
254.81572
 31
0.0
100
AcDbText
  0
LINE
  5
106
330
103
100
AcDbEntity
  8
CSLAYER1
  6
CONTINUOUS
 62
     4
100
AcDbLine
 10
197.069523
 20
249.565714
 30
0.0
 11
191.0997139999999
 21
249.565714
 31
0.0
  0
LINE
  5
107
330
103
100
AcDbEntity
  8
CSLAYER1
  6
CONTINUOUS
 62
     4
100
AcDbLine
 10
197.069523
 20
257.565714
 30
0.0
 11
191.0997139999999
 21
257.565714
 31
0.0
  0
LINE
  5
108
330
103
100
AcDbEntity
  8
CSLAYER1
  6
CONTINUOUS
 62
     4
100
AcDbLine
 10
192.0997139999999
 20
249.565714
 30
0.0
 11
192.0997139999999
 21
257.565714
 31
0.0
  0
LINE
  5
109
330
103
100
AcDbEntity
  8
CSLAYER1
  6
CONTINUOUS
 62
     4
100
AcDbLine
 10
192.0997139999999
 20
249.565714
 30
0.0
 11
191.323257
 21
252.463492
 31
0.0
  0
LINE
  5
10A
330
103
100
AcDbEntity
  8
CSLAYER1
  6
CONTINUOUS
 62
     4
100
AcDbLine
 10
192.0997139999999
 20
249.565714
 30
0.0
 11
192.876171
 21
252.463492
 31
0.0
  0
LINE
  5
10B
330
103
100
AcDbEntity
  8
CSLAYER1
  6
CONTINUOUS
 62
     4
100
AcDbLine
 10
192.0997139999999
 20
257.565714
 30
0.0
 11
191.323257
 21
254.667937
 31
0.0
  0
LINE
  5
10C
330
103
100
AcDbEntity
  8
CSLAYER1
  6
CONTINUOUS
 62
     4
100
AcDbLine
 10
192.0997139999999
 20
257.565714
 30
0.0
 11
192.876171
 21
254.667937
 31
0.0
  0
ENDBLK
  5
10D
330
103
100
AcDbEntity
  8
0
100
AcDbBlockEnd
  0
BLOCK
  5
10F
330
10E
100
AcDbEntity
  8
0
100
AcDbBlockBegin
  2
*D20
 70
     1
 10
0.0
 20
0.0
 30
0.0
  3
*D20
  1

  0
TEXT
  5
110
330
10E
100
AcDbEntity
  8
CSLAYER1
 62
     4
100
AcDbText
 10
191.599716
 20
260.315735
 30
0.0
 40
2.5
  1
8
 50
90.0
 41
1.5
 51
15.0
  7
FX_FONT
 72
     5
 11
191.599716
 21
262.815735
 31
0.0
100
AcDbText
  0
LINE
  5
111
330
10E
100
AcDbEntity
  8
CSLAYER1
  6
CONTINUOUS
 62
     4
100
AcDbLine
 10
192.0997139999999
 20
257.565714
 30
0.0
 11
192.0997139999999
 21
265.565714
 31
0.0
  0
LINE
  5
112
330
10E
100
AcDbEntity
  8
CSLAYER1
  6
CONTINUOUS
 62
     4
100
AcDbLine
 10
192.0997139999999
 20
257.565714
 30
0.0
 11
191.323257
 21
260.4634919999999
 31
0.0
  0
LINE
  5
113
330
10E
100
AcDbEntity
  8
CSLAYER1
  6
CONTINUOUS
 62
     4
100
AcDbLine
 10
192.0997139999999
 20
257.565714
 30
0.0
 11
192.876171
 21
260.4634919999999
 31
0.0
  0
LINE
  5
114
330
10E
100
AcDbEntity
  8
CSLAYER1
  6
CONTINUOUS
 62
     4
100
AcDbLine
 10
192.0997139999999
 20
265.565714
 30
0.0
 11
191.323257
 21
262.667937
 31
0.0
  0
LINE
  5
115
330
10E
100
AcDbEntity
  8
CSLAYER1
  6
CONTINUOUS
 62
     4
100
AcDbLine
 10
192.0997139999999
 20
265.565714
 30
0.0
 11
192.876171
 21
262.667937
 31
0.0
  0
ENDBLK
  5
116
330
10E
100
AcDbEntity
  8
0
100
AcDbBlockEnd
  0
BLOCK
  5
118
330
117
100
AcDbEntity
  8
0
100
AcDbBlockBegin
  2
*D21
 70
     1
 10
0.0
 20
0.0
 30
0.0
  3
*D21
  1

  0
TEXT
  5
119
330
117
100
AcDbEntity
  8
CSLAYER1
 62
     4
100
AcDbText
 10
191.599716
 20
268.3157039999999
 30
0.0
 40
2.5
  1
8
 50
90.0
 41
1.5
 51
15.0
  7
FX_FONT
 72
     5
 11
191.599716
 21
270.8157039999999
 31
0.0
100
AcDbText
  0
LINE
  5
11A
330
117
100
AcDbEntity
  8
CSLAYER1
  6
CONTINUOUS
 62
     4
100
AcDbLine
 10
192.0997139999999
 20
265.565714
 30
0.0
 11
192.0997139999999
 21
273.565714
 31
0.0
  0
LINE
  5
11B
330
117
100
AcDbEntity
  8
CSLAYER1
  6
CONTINUOUS
 62
     4
100
AcDbLine
 10
192.0997139999999
 20
265.565714
 30
0.0
 11
191.323257
 21
268.4634919999999
 31
0.0
  0
LINE
  5
11C
330
117
100
AcDbEntity
  8
CSLAYER1
  6
CONTINUOUS
 62
     4
100
AcDbLine
 10
192.0997139999999
 20
265.565714
 30
0.0
 11
192.876171
 21
268.4634919999999
 31
0.0
  0
LINE
  5
11D
330
117
100
AcDbEntity
  8
CSLAYER1
  6
CONTINUOUS
 62
     4
100
AcDbLine
 10
192.0997139999999
 20
273.565714
 30
0.0
 11
191.323257
 21
270.6679369999999
 31
0.0
  0
LINE
  5
11E
330
117
100
AcDbEntity
  8
CSLAYER1
  6
CONTINUOUS
 62
     4
100
AcDbLine
 10
192.0997139999999
 20
273.565714
 30
0.0
 11
192.876171
 21
270.6679369999999
 31
0.0
  0
ENDBLK
  5
11F
330
117
100
AcDbEntity
  8
0
100
AcDbBlockEnd
  0
BLOCK
  5
121
330
120
100
AcDbEntity
  8
0
100
AcDbBlockBegin
  2
FXDIM0000
 70
     0
 10
0.0
 20
0.0
 30
0.0
  3
FXDIM0000
  1

  0
LINE
  5
122
330
120
100
AcDbEntity
  8
CSLAYER1
  6
CONTINUOUS
 62
     4
100
AcDbLine
 10
220.122641
 20
259.2792819999999
 30
0.0
 11
217.143655
 21
268.797143
 31
0.0
  0
CIRCLE
  5
123
330
120
100
AcDbEntity
  8
CSLAYER1
  6
CONTINUOUS
 62
     4
100
AcDbCircle
 10
220.122641
 20
259.2792819999999
 30
0.0
 40
0.3
  0
CIRCLE
  5
124
330
120
100
AcDbEntity
  8
CSLAYER1
  6
CONTINUOUS
 62
     4
100
AcDbCircle
 10
220.122641
 20
259.2792819999999
 30
0.0
 40
0.15
  0
LINE
  5
125
330
120
100
AcDbEntity
  8
CSLAYER1
  6
CONTINUOUS
 62
     4
100
AcDbLine
 10
217.143655
 20
268.797143
 30
0.0
 11
207.6436549999999
 21
268.797143
 31
0.0
  0
TEXT
  5
126
330
120
100
AcDbEntity
  8
CSLAYER1
 62
     4
100
AcDbText
 10
208.643661
 20
269.29715
 30
0.0
 40
2.5
  1
切刃部
 41
0.8999999999999895
 51
15.0
  7
FX_FONT
 72
     5
 11
216.1436609999999
 21
269.29715
 31
0.0
100
AcDbText
  0
ENDBLK
  5
127
330
120
100
AcDbEntity
  8
0
100
AcDbBlockEnd
  0
BLOCK
  5
129
330
128
100
AcDbEntity
  8
0
100
AcDbBlockBegin
  2
*D23
 70
     1
 10
0.0
 20
0.0
 30
0.0
  3
*D23
  1

  0
TEXT
  5
12A
330
128
100
AcDbEntity
  8
CSLAYER1
 62
     4
100
AcDbText
 10
96.391457
 20
183.1236719999999
 30
0.0
 40
2.5
  1
4
 41
1.5
 51
15.0
  7
FX_FONT
 72
     5
 11
98.891457
 21
183.1236719999999
 31
0.0
100
AcDbText
  0
LINE
  5
12B
330
128
100
AcDbEntity
  8
CSLAYER1
  6
CONTINUOUS
 62
     4
100
AcDbLine
 10
103.141429
 20
153.4285709999998
 30
0.0
 11
103.141429
 21
183.6236729999999
 31
0.0
  0
LINE
  5
12C
330
128
100
AcDbEntity
  8
CSLAYER1
  6
CONTINUOUS
 62
     4
100
AcDbLine
 10
99.14142900000001
 20
182.6236729999999
 30
0.0
 11
103.141429
 21
182.6236729999999
 31
0.0
  0
LINE
  5
12D
330
128
100
AcDbEntity
  8
CSLAYER1
  6
CONTINUOUS
 62
     4
100
AcDbLine
 10
96.141429
 20
182.6236729999999
 30
0.0
 11
99.14142900000001
 21
182.6236729999999
 31
0.0
  0
LINE
  5
12E
330
128
100
AcDbEntity
  8
CSLAYER1
  6
CONTINUOUS
 62
     4
100
AcDbLine
 10
99.14142900000001
 20
182.6236729999999
 30
0.0
 11
96.243651
 21
183.400131
 31
0.0
  0
LINE
  5
12F
330
128
100
AcDbEntity
  8
CSLAYER1
  6
CONTINUOUS
 62
     4
100
AcDbLine
 10
99.14142900000001
 20
182.6236729999999
 30
0.0
 11
96.243651
 21
181.8472159999999
 31
0.0
  0
ENDBLK
  5
130
330
128
100
AcDbEntity
  8
0
100
AcDbBlockEnd
  0
BLOCK
  5
132
330
131
100
AcDbEntity
  8
0
100
AcDbBlockBegin
  2
*D24
 70
     1
 10
0.0
 20
0.0
 30
0.0
  3
*D24
  1

  0
TEXT
  5
133
330
131
100
AcDbEntity
  8
CSLAYER1
 62
     4
100
AcDbText
 10
106.641457
 20
183.1236719999999
 30
0.0
 40
2.5
  1
12
 41
1.199999999999999
 51
15.0
  7
FX_FONT
 72
     5
 11
111.641457
 21
183.1236719999999
 31
0.0
100
AcDbText
  0
LINE
  5
134
330
131
100
AcDbEntity
  8
CSLAYER1
  6
CONTINUOUS
 62
     4
100
AcDbLine
 10
103.141429
 20
182.6236729999999
 30
0.0
 11
115.1414289999999
 21
182.6236729999999
 31
0.0
  0
LINE
  5
135
330
131
100
AcDbEntity
  8
CSLAYER1
  6
CONTINUOUS
 62
     4
100
AcDbLine
 10
103.141429
 20
182.6236729999999
 30
0.0
 11
106.039206
 21
183.400131
 31
0.0
  0
LINE
  5
136
330
131
100
AcDbEntity
  8
CSLAYER1
  6
CONTINUOUS
 62
     4
100
AcDbLine
 10
103.141429
 20
182.6236729999999
 30
0.0
 11
106.039206
 21
181.8472159999999
 31
0.0
  0
LINE
  5
137
330
131
100
AcDbEntity
  8
CSLAYER1
  6
CONTINUOUS
 62
     4
100
AcDbLine
 10
115.1414289999999
 20
182.6236729999999
 30
0.0
 11
112.2436509999999
 21
183.400131
 31
0.0
  0
LINE
  5
138
330
131
100
AcDbEntity
  8
CSLAYER1
  6
CONTINUOUS
 62
     4
100
AcDbLine
 10
115.1414289999999
 20
182.6236729999999
 30
0.0
 11
112.2436509999999
 21
181.8472159999999
 31
0.0
  0
ENDBLK
  5
139
330
131
100
AcDbEntity
  8
0
100
AcDbBlockEnd
  0
BLOCK
  5
13B
330
13A
100
AcDbEntity
  8
0
100
AcDbBlockBegin
  2
FXDIM0001
 70
     0
 10
0.0
 20
0.0
 30
0.0
  3
FXDIM0001
  1

  0
LINE
  5
13C
330
13A
100
AcDbEntity
  8
CSLAYER1
  6
CONTINUOUS
 62
     4
100
AcDbLine
 10
95.515714
 20
125.9285709999999
 30
0.0
 11
76.264286
 21
125.9285709999999
 31
0.0
  0
ENDBLK
  5
13D
330
13A
100
AcDbEntity
  8
0
100
AcDbBlockEnd
  0
BLOCK
  5
13F
330
13E
100
AcDbEntity
  8
0
100
AcDbBlockBegin
  2
*D26
 70
     1
 10
0.0
 20
0.0
 30
0.0
  3
*D26
  1

  0
TEXT
  5
140
330
13E
100
AcDbEntity
  8
CSLAYER1
 62
     4
100
AcDbText
 10
76.764282
 20
133.428574
 30
0.0
 40
2.5
  1
20
 50
90.0
 41
1.199999999999979
 51
15.0
  7
FX_FONT
 72
     5
 11
76.764282
 21
138.4285739999999
 31
0.0
100
AcDbText
  0
LINE
  5
141
330
13E
100
AcDbEntity
  8
CSLAYER1
  6
CONTINUOUS
 62
     4
100
AcDbLine
 10
95.515714
 20
145.928571
 30
0.0
 11
76.264286
 21
145.928571
 31
0.0
  0
LINE
  5
142
330
13E
100
AcDbEntity
  8
CSLAYER1
  6
CONTINUOUS
 62
     4
100
AcDbLine
 10
77.264286
 20
125.9285709999999
 30
0.0
 11
77.264286
 21
145.928571
 31
0.0
  0
LINE
  5
143
330
13E
100
AcDbEntity
  8
CSLAYER1
  6
CONTINUOUS
 62
     4
100
AcDbLine
 10
77.264286
 20
125.9285709999999
 30
0.0
 11
76.487829
 21
128.826349
 31
0.0
  0
LINE
  5
144
330
13E
100
AcDbEntity
  8
CSLAYER1
  6
CONTINUOUS
 62
     4
100
AcDbLine
 10
77.264286
 20
125.9285709999999
 30
0.0
 11
78.040743
 21
128.826349
 31
0.0
  0
LINE
  5
145
330
13E
100
AcDbEntity
  8
CSLAYER1
  6
CONTINUOUS
 62
     4
100
AcDbLine
 10
77.264286
 20
145.928571
 30
0.0
 11
76.487829
 21
143.0307939999998
 31
0.0
  0
LINE
  5
146
330
13E
100
AcDbEntity
  8
CSLAYER1
  6
CONTINUOUS
 62
     4
100
AcDbLine
 10
77.264286
 20
145.928571
 30
0.0
 11
78.040743
 21
143.0307939999998
 31
0.0
  0
ENDBLK
  5
147
330
13E
100
AcDbEntity
  8
0
100
AcDbBlockEnd
  0
BLOCK
  5
149
330
148
100
AcDbEntity
  8
0
100
AcDbBlockBegin
  2
*D27
 70
     1
 10
0.0
 20
0.0
 30
0.0
  3
*D27
  1

  0
TEXT
  5
14A
330
148
100
AcDbEntity
  8
CSLAYER1
 62
     4
100
AcDbText
 10
76.764282
 20
149.6785739999999
 30
0.0
 40
2.5
  1
17.5
 50
90.0
 41
1.0909090909091
 51
15.0
  7
FX_FONT
 72
     5
 11
76.764282
 21
159.678574
 31
0.0
100
AcDbText
  0
LINE
  5
14B
330
148
100
AcDbEntity
  8
CSLAYER1
  6
CONTINUOUS
 62
     4
100
AcDbLine
 10
77.264286
 20
145.928571
 30
0.0
 11
77.264286
 21
163.428571
 31
0.0
  0
LINE
  5
14C
330
148
100
AcDbEntity
  8
CSLAYER1
  6
CONTINUOUS
 62
     4
100
AcDbLine
 10
77.264286
 20
145.928571
 30
0.0
 11
76.487829
 21
148.826349
 31
0.0
  0
LINE
  5
14D
330
148
100
AcDbEntity
  8
CSLAYER1
  6
CONTINUOUS
 62
     4
100
AcDbLine
 10
77.264286
 20
145.928571
 30
0.0
 11
78.040743
 21
148.826349
 31
0.0
  0
LINE
  5
14E
330
148
100
AcDbEntity
  8
CSLAYER1
  6
CONTINUOUS
 62
     4
100
AcDbLine
 10
77.264286
 20
163.428571
 30
0.0
 11
76.487829
 21
160.5307939999998
 31
0.0
  0
LINE
  5
14F
330
148
100
AcDbEntity
  8
CSLAYER1
  6
CONTINUOUS
 62
     4
100
AcDbLine
 10
77.264286
 20
163.428571
 30
0.0
 11
78.040743
 21
160.5307939999998
 31
0.0
  0
LINE
  5
150
330
148
100
AcDbEntity
  8
CSLAYER1
  6
CONTINUOUS
 62
     4
100
AcDbLine
 10
98.141429
 20
163.428571
 30
0.0
 11
76.264286
 21
163.428571
 31
0.0
  0
ENDBLK
  5
151
330
148
100
AcDbEntity
  8
0
100
AcDbBlockEnd
  0
BLOCK
  5
153
330
152
100
AcDbEntity
  8
0
100
AcDbBlockBegin
  2
*D28
 70
     1
 10
0.0
 20
0.0
 30
0.0
  3
*D28
  1

  0
TEXT
  5
154
330
152
100
AcDbEntity
  8
CSLAYER1
 62
     4
100
AcDbText
 10
76.764282
 20
178.428574
 30
0.0
 40
2.5
  1
35
 50
90.0
 41
1.199999999999999
 51
15.0
  7
FX_FONT
 72
     5
 11
76.764282
 21
183.428574
 31
0.0
100
AcDbText
  0
LINE
  5
155
330
152
100
AcDbEntity
  8
CSLAYER1
  6
CONTINUOUS
 62
     4
100
AcDbLine
 10
115.1414289999999
 20
198.428571
 30
0.0
 11
76.264286
 21
198.428571
 31
0.0
  0
LINE
  5
156
330
152
100
AcDbEntity
  8
CSLAYER1
  6
CONTINUOUS
 62
     4
100
AcDbLine
 10
77.264286
 20
163.428571
 30
0.0
 11
77.264286
 21
198.428571
 31
0.0
  0
LINE
  5
157
330
152
100
AcDbEntity
  8
CSLAYER1
  6
CONTINUOUS
 62
     4
100
AcDbLine
 10
77.264286
 20
163.428571
 30
0.0
 11
76.487829
 21
166.326349
 31
0.0
  0
LINE
  5
158
330
152
100
AcDbEntity
  8
CSLAYER1
  6
CONTINUOUS
 62
     4
100
AcDbLine
 10
77.264286
 20
163.428571
 30
0.0
 11
78.040743
 21
166.326349
 31
0.0
  0
LINE
  5
159
330
152
100
AcDbEntity
  8
CSLAYER1
  6
CONTINUOUS
 62
     4
100
AcDbLine
 10
77.264286
 20
198.428571
 30
0.0
 11
76.487829
 21
195.5307939999999
 31
0.0
  0
LINE
  5
15A
330
152
100
AcDbEntity
  8
CSLAYER1
  6
CONTINUOUS
 62
     4
100
AcDbLine
 10
77.264286
 20
198.428571
 30
0.0
 11
78.040743
 21
195.5307939999999
 31
0.0
  0
ENDBLK
  5
15B
330
152
100
AcDbEntity
  8
0
100
AcDbBlockEnd
  0
BLOCK
  5
15D
330
15C
100
AcDbEntity
  8
0
100
AcDbBlockBegin
  2
*D29
 70
     1
 10
0.0
 20
0.0
 30
0.0
  3
*D29
  1

  0
TEXT
  5
15E
330
15C
100
AcDbEntity
  8
CSLAYER1
 62
     4
100
AcDbText
 10
76.764282
 20
80.428574
 30
0.0
 40
2.5
  1
86
 50
90.0
 41
1.199999999999999
 51
15.0
  7
FX_FONT
 72
     5
 11
76.764282
 21
85.428574
 31
0.0
100
AcDbText
  0
LINE
  5
15F
330
15C
100
AcDbEntity
  8
CSLAYER1
  6
CONTINUOUS
 62
     4
100
AcDbLine
 10
77.264286
 20
39.928571
 30
0.0
 11
77.264286
 21
125.9285709999999
 31
0.0
  0
LINE
  5
160
330
15C
100
AcDbEntity
  8
CSLAYER1
  6
CONTINUOUS
 62
     4
100
AcDbLine
 10
77.264286
 20
39.928571
 30
0.0
 11
76.487829
 21
42.826349
 31
0.0
  0
LINE
  5
161
330
15C
100
AcDbEntity
  8
CSLAYER1
  6
CONTINUOUS
 62
     4
100
AcDbLine
 10
77.264286
 20
39.928571
 30
0.0
 11
78.040743
 21
42.826349
 31
0.0
  0
LINE
  5
162
330
15C
100
AcDbEntity
  8
CSLAYER1
  6
CONTINUOUS
 62
     4
100
AcDbLine
 10
77.264286
 20
125.9285709999999
 30
0.0
 11
76.487829
 21
123.030794
 31
0.0
  0
LINE
  5
163
330
15C
100
AcDbEntity
  8
CSLAYER1
  6
CONTINUOUS
 62
     4
100
AcDbLine
 10
77.264286
 20
125.9285709999999
 30
0.0
 11
78.040743
 21
123.030794
 31
0.0
  0
LINE
  5
164
330
15C
100
AcDbEntity
  8
CSLAYER1
  6
CONTINUOUS
 62
     4
100
AcDbLine
 10
98.141429
 20
39.928571
 30
0.0
 11
76.264286
 21
39.928571
 31
0.0
  0
ENDBLK
  5
165
330
15C
100
AcDbEntity
  8
0
100
AcDbBlockEnd
  0
BLOCK
  5
167
330
166
100
AcDbEntity
  8
0
100
AcDbBlockBegin
  2
*D30
 70
     1
 10
0.0
 20
0.0
 30
0.0
  3
*D30
  1

  0
TEXT
  5
168
330
166
100
AcDbEntity
  8
CSLAYER1
 62
     4
100
AcDbText
 10
321.995728
 20
59.243999
 30
0.0
 40
2.5
  1
40
 41
1.199999999999958
 51
15.0
  7
FX_FONT
 72
     5
 11
326.9957279999998
 21
59.243999
 31
0.0
100
AcDbText
  0
LINE
  5
169
330
166
100
AcDbEntity
  8
CSLAYER1
  6
CONTINUOUS
 62
     4
100
AcDbLine
 10
304.495714
 20
59.266286
 30
0.0
 11
304.495714
 21
57.74399999999999
 31
0.0
  0
LINE
  5
16A
330
166
100
AcDbEntity
  8
CSLAYER1
  6
CONTINUOUS
 62
     4
100
AcDbLine
 10
304.495714
 20
58.744
 30
0.0
 11
344.495714
 21
58.744
 31
0.0
  0
LINE
  5
16B
330
166
100
AcDbEntity
  8
CSLAYER1
  6
CONTINUOUS
 62
     4
100
AcDbLine
 10
304.495714
 20
58.744
 30
0.0
 11
307.3934919999998
 21
59.52045699999999
 31
0.0
  0
LINE
  5
16C
330
166
100
AcDbEntity
  8
CSLAYER1
  6
CONTINUOUS
 62
     4
100
AcDbLine
 10
304.495714
 20
58.744
 30
0.0
 11
307.3934919999998
 21
57.967543
 31
0.0
  0
LINE
  5
16D
330
166
100
AcDbEntity
  8
CSLAYER1
  6
CONTINUOUS
 62
     4
100
AcDbLine
 10
344.495714
 20
58.744
 30
0.0
 11
341.597937
 21
59.52045699999999
 31
0.0
  0
LINE
  5
16E
330
166
100
AcDbEntity
  8
CSLAYER1
  6
CONTINUOUS
 62
     4
100
AcDbLine
 10
344.495714
 20
58.744
 30
0.0
 11
341.597937
 21
57.967543
 31
0.0
  0
ENDBLK
  5
16F
330
166
100
AcDbEntity
  8
0
100
AcDbBlockEnd
  0
BLOCK
  5
171
330
170
100
AcDbEntity
  8
0
100
AcDbBlockBegin
  2
*D31
 70
     1
 10
0.0
 20
0.0
 30
0.0
  3
*D31
  1

  0
TEXT
  5
172
330
170
100
AcDbEntity
  8
CSLAYER1
 62
     4
100
AcDbText
 10
194.361435
 20
179.928574
 30
0.0
 40
2.5
  1
12
 50
90.0
 41
1.199999999999999
 51
15.0
  7
FX_FONT
 72
     5
 11
194.361435
 21
184.928574
 31
0.0
100
AcDbText
  0
LINE
  5
173
330
170
100
AcDbEntity
  8
CSLAYER1
  6
CONTINUOUS
 62
     4
100
AcDbLine
 10
194.861429
 20
176.428571
 30
0.0
 11
194.861429
 21
188.428571
 31
0.0
  0
LINE
  5
174
330
170
100
AcDbEntity
  8
CSLAYER1
  6
CONTINUOUS
 62
     4
100
AcDbLine
 10
194.861429
 20
176.428571
 30
0.0
 11
194.0849709999999
 21
179.326349
 31
0.0
  0
LINE
  5
175
330
170
100
AcDbEntity
  8
CSLAYER1
  6
CONTINUOUS
 62
     4
100
AcDbLine
 10
194.861429
 20
176.428571
 30
0.0
 11
195.637886
 21
179.326349
 31
0.0
  0
LINE
  5
176
330
170
100
AcDbEntity
  8
CSLAYER1
  6
CONTINUOUS
 62
     4
100
AcDbLine
 10
194.861429
 20
188.428571
 30
0.0
 11
194.0849709999999
 21
185.5307939999999
 31
0.0
  0
LINE
  5
177
330
170
100
AcDbEntity
  8
CSLAYER1
  6
CONTINUOUS
 62
     4
100
AcDbLine
 10
194.861429
 20
188.428571
 30
0.0
 11
195.637886
 21
185.5307939999999
 31
0.0
  0
LINE
  5
178
330
170
100
AcDbEntity
  8
CSLAYER1
  6
CONTINUOUS
 62
     4
100
AcDbLine
 10
197.3019999999999
 20
176.428571
 30
0.0
 11
193.861429
 21
176.428571
 31
0.0
  0
LINE
  5
179
330
170
100
AcDbEntity
  8
CSLAYER1
  6
CONTINUOUS
 62
     4
100
AcDbLine
 10
209.600857
 20
188.428571
 30
0.0
 11
193.861429
 21
188.428571
 31
0.0
  0
ENDBLK
  5
17A
330
170
100
AcDbEntity
  8
0
100
AcDbBlockEnd
  0
BLOCK
  5
17C
330
17B
100
AcDbEntity
  8
0
100
AcDbBlockBegin
  2
*D32
 70
     1
 10
0.0
 20
0.0
 30
0.0
  3
*D32
  1

  0
TEXT
  5
17D
330
17B
100
AcDbEntity
  8
CSLAYER1
 62
     4
100
AcDbText
 10
217.302002
 20
181.5525969999999
 30
0.0
 40
2.5
  1
19
 41
1.199999999999999
 51
15.0
  7
FX_FONT
 72
     5
 11
222.302002
 21
181.5525969999999
 31
0.0
100
AcDbText
  0
LINE
  5
17E
330
17B
100
AcDbEntity
  8
CSLAYER1
  6
CONTINUOUS
 62
     4
100
AcDbLine
 10
210.3019999999999
 20
181.052604
 30
0.0
 11
229.3019999999999
 21
181.052604
 31
0.0
  0
LINE
  5
17F
330
17B
100
AcDbEntity
  8
CSLAYER1
  6
CONTINUOUS
 62
     4
100
AcDbLine
 10
210.3019999999999
 20
181.052604
 30
0.0
 11
213.199777
 21
181.829061
 31
0.0
  0
LINE
  5
180
330
17B
100
AcDbEntity
  8
CSLAYER1
  6
CONTINUOUS
 62
     4
100
AcDbLine
 10
210.3019999999999
 20
181.052604
 30
0.0
 11
213.199777
 21
180.276147
 31
0.0
  0
LINE
  5
181
330
17B
100
AcDbEntity
  8
CSLAYER1
  6
CONTINUOUS
 62
     4
100
AcDbLine
 10
229.3019999999999
 20
181.052604
 30
0.0
 11
226.404223
 21
181.829061
 31
0.0
  0
LINE
  5
182
330
17B
100
AcDbEntity
  8
CSLAYER1
  6
CONTINUOUS
 62
     4
100
AcDbLine
 10
229.3019999999999
 20
181.052604
 30
0.0
 11
226.404223
 21
180.276147
 31
0.0
  0
ENDBLK
  5
183
330
17B
100
AcDbEntity
  8
0
100
AcDbBlockEnd
  0
BLOCK
  5
185
330
184
100
AcDbEntity
  8
0
100
AcDbBlockBegin
  2
*D33
 70
     1
 10
0.0
 20
0.0
 30
0.0
  3
*D33
  1

  0
TEXT
  5
186
330
184
100
AcDbEntity
  8
CSLAYER1
 62
     4
100
AcDbText
 10
185.590759
 20
251.56572
 30
0.0
 40
2.5
  1
23
 50
90.0
 41
1.199999999999979
 51
15.0
  7
FX_FONT
 72
     5
 11
185.590759
 21
256.5657199999999
 31
0.0
100
AcDbText
  0
LINE
  5
187
330
184
100
AcDbEntity
  8
CSLAYER1
  6
CONTINUOUS
 62
     4
100
AcDbLine
 10
205.8019999999999
 20
242.565714
 30
0.0
 11
185.0907579999999
 21
242.565714
 31
0.0
  0
LINE
  5
188
330
184
100
AcDbEntity
  8
CSLAYER1
  6
CONTINUOUS
 62
     4
100
AcDbLine
 10
199.3019999999999
 20
265.565714
 30
0.0
 11
185.0907579999999
 21
265.565714
 31
0.0
  0
LINE
  5
189
330
184
100
AcDbEntity
  8
CSLAYER1
  6
CONTINUOUS
 62
     4
100
AcDbLine
 10
186.0907579999999
 20
242.565714
 30
0.0
 11
186.0907579999999
 21
265.565714
 31
0.0
  0
LINE
  5
18A
330
184
100
AcDbEntity
  8
CSLAYER1
  6
CONTINUOUS
 62
     4
100
AcDbLine
 10
186.0907579999999
 20
242.565714
 30
0.0
 11
185.314301
 21
245.463492
 31
0.0
  0
LINE
  5
18B
330
184
100
AcDbEntity
  8
CSLAYER1
  6
CONTINUOUS
 62
     4
100
AcDbLine
 10
186.0907579999999
 20
242.565714
 30
0.0
 11
186.8672159999999
 21
245.463492
 31
0.0
  0
LINE
  5
18C
330
184
100
AcDbEntity
  8
CSLAYER1
  6
CONTINUOUS
 62
     4
100
AcDbLine
 10
186.0907579999999
 20
265.565714
 30
0.0
 11
185.314301
 21
262.667937
 31
0.0
  0
LINE
  5
18D
330
184
100
AcDbEntity
  8
CSLAYER1
  6
CONTINUOUS
 62
     4
100
AcDbLine
 10
186.0907579999999
 20
265.565714
 30
0.0
 11
186.8672159999999
 21
262.667937
 31
0.0
  0
ENDBLK
  5
18E
330
184
100
AcDbEntity
  8
0
100
AcDbBlockEnd
  0
BLOCK
  5
190
330
18F
100
AcDbEntity
  8
0
100
AcDbBlockBegin
  2
*D34
 70
     1
 10
0.0
 20
0.0
 30
0.0
  3
*D34
  1

  0
TEXT
  5
191
330
18F
100
AcDbEntity
  8
CSLAYER1
 62
     4
100
AcDbText
 10
26.56417299999999
 20
146.609787
 30
0.0
 40
2.5
  1
(5.5)
 50
90.0
 41
1.153846153846153
 51
15.0
  7
FX_FONT
 72
     5
 11
26.56417299999999
 21
159.109787
 31
0.0
100
AcDbText
  0
LINE
  5
192
330
18F
100
AcDbEntity
  8
CSLAYER1
  6
CONTINUOUS
 62
     4
100
AcDbLine
 10
27.06416799999999
 20
139.10979
 30
0.0
 11
27.06416799999999
 21
166.60979
 31
0.0
  0
LINE
  5
193
330
18F
100
AcDbEntity
  8
CSLAYER1
  6
CONTINUOUS
 62
     4
100
AcDbLine
 10
27.06416799999999
 20
139.10979
 30
0.0
 11
26.28770999999999
 21
142.0075669999999
 31
0.0
  0
LINE
  5
194
330
18F
100
AcDbEntity
  8
CSLAYER1
  6
CONTINUOUS
 62
     4
100
AcDbLine
 10
27.06416799999999
 20
139.10979
 30
0.0
 11
27.840625
 21
142.0075669999999
 31
0.0
  0
LINE
  5
195
330
18F
100
AcDbEntity
  8
CSLAYER1
  6
CONTINUOUS
 62
     4
100
AcDbLine
 10
27.06416799999999
 20
166.60979
 30
0.0
 11
26.28770999999999
 21
163.712012
 31
0.0
  0
LINE
  5
196
330
18F
100
AcDbEntity
  8
CSLAYER1
  6
CONTINUOUS
 62
     4
100
AcDbLine
 10
27.06416799999999
 20
166.60979
 30
0.0
 11
27.840625
 21
163.712012
 31
0.0
  0
LINE
  5
197
330
18F
100
AcDbEntity
  8
CSLAYER1
  6
CONTINUOUS
 62
     4
100
AcDbLine
 10
42.502602
 20
139.10979
 30
0.0
 11
26.06416799999999
 21
139.10979
 31
0.0
  0
LINE
  5
198
330
18F
100
AcDbEntity
  8
CSLAYER1
  6
CONTINUOUS
 62
     4
100
AcDbLine
 10
42.502602
 20
166.60979
 30
0.0
 11
26.06416799999999
 21
166.60979
 31
0.0
  0
ENDBLK
  5
199
330
18F
100
AcDbEntity
  8
0
100
AcDbBlockEnd
  0
BLOCK
  5
19B
330
19A
100
AcDbEntity
  8
0
100
AcDbBlockBegin
  2
*D35
 70
     1
 10
0.0
 20
0.0
 30
0.0
  3
*D35
  1

  0
TEXT
  5
19C
330
19A
100
AcDbEntity
  8
CSLAYER1
 62
     4
100
AcDbText
 10
32.34843099999999
 20
148.836273
 30
0.0
 40
2.5
  1
(0.5)
 50
90.0
 41
1.153846153846153
 51
15.0
  7
FX_FONT
 72
     5
 11
32.34843099999999
 21
161.336273
 31
0.0
100
AcDbText
  0
LINE
  5
19D
330
19A
100
AcDbEntity
  8
CSLAYER1
  6
CONTINUOUS
 62
     4
100
AcDbLine
 10
33.064168
 20
164.10979
 30
0.0
 11
33.064168
 21
166.60979
 31
0.0
  0
LINE
  5
19E
330
19A
100
AcDbEntity
  8
CSLAYER1
  6
CONTINUOUS
 62
     4
100
AcDbLine
 10
42.502602
 20
164.10979
 30
0.0
 11
32.064168
 21
164.10979
 31
0.0
  0
LINE
  5
19F
330
19A
100
AcDbEntity
  8
CSLAYER1
  6
CONTINUOUS
 62
     4
100
AcDbLine
 10
33.064168
 20
161.10979
 30
0.0
 11
33.064168
 21
164.10979
 31
0.0
  0
LINE
  5
1A0
330
19A
100
AcDbEntity
  8
CSLAYER1
  6
CONTINUOUS
 62
     4
100
AcDbLine
 10
33.064168
 20
164.10979
 30
0.0
 11
32.28771
 21
161.212012
 31
0.0
  0
LINE
  5
1A1
330
19A
100
AcDbEntity
  8
CSLAYER1
  6
CONTINUOUS
 62
     4
100
AcDbLine
 10
33.064168
 20
164.10979
 30
0.0
 11
33.840625
 21
161.212012
 31
0.0
  0
LINE
  5
1A2
330
19A
100
AcDbEntity
  8
CSLAYER1
  6
CONTINUOUS
 62
     4
100
AcDbLine
 10
33.064168
 20
166.60979
 30
0.0
 11
33.064168
 21
169.60979
 31
0.0
  0
LINE
  5
1A3
330
19A
100
AcDbEntity
  8
CSLAYER1
  6
CONTINUOUS
 62
     4
100
AcDbLine
 10
33.064168
 20
166.60979
 30
0.0
 11
32.28771
 21
169.507567
 31
0.0
  0
LINE
  5
1A4
330
19A
100
AcDbEntity
  8
CSLAYER1
  6
CONTINUOUS
 62
     4
100
AcDbLine
 10
33.064168
 20
166.60979
 30
0.0
 11
33.840625
 21
169.507567
 31
0.0
  0
ENDBLK
  5
1A5
330
19A
100
AcDbEntity
  8
0
100
AcDbBlockEnd
  0
BLOCK
  5
1A7
330
1A6
100
AcDbEntity
  8
0
100
AcDbBlockBegin
  2
*D36
 70
     1
 10
0.0
 20
0.0
 30
0.0
  3
*D36
  1

  0
TEXT
  5
1A8
330
1A6
100
AcDbEntity
  8
CSLAYER1
 62
     4
100
AcDbText
 10
55.319511
 20
157.859787
 30
0.0
 40
2.5
  1
(2)
 50
90.0
 41
1.285714285714285
 51
15.0
  7
FX_FONT
 72
     5
 11
55.319511
 21
165.359787
 31
0.0
100
AcDbText
  0
LINE
  5
1A9
330
1A6
100
AcDbEntity
  8
CSLAYER1
  6
CONTINUOUS
 62
     4
100
AcDbLine
 10
55.819513
 20
156.60979
 30
0.0
 11
55.819513
 21
166.60979
 31
0.0
  0
LINE
  5
1AA
330
1A6
100
AcDbEntity
  8
CSLAYER1
  6
CONTINUOUS
 62
     4
100
AcDbLine
 10
55.819513
 20
156.60979
 30
0.0
 11
55.04305600000001
 21
159.5075669999999
 31
0.0
  0
LINE
  5
1AB
330
1A6
100
AcDbEntity
  8
CSLAYER1
  6
CONTINUOUS
 62
     4
100
AcDbLine
 10
55.819513
 20
156.60979
 30
0.0
 11
56.59596999999997
 21
159.5075669999999
 31
0.0
  0
LINE
  5
1AC
330
1A6
100
AcDbEntity
  8
CSLAYER1
  6
CONTINUOUS
 62
     4
100
AcDbLine
 10
55.819513
 20
166.60979
 30
0.0
 11
55.04305600000001
 21
163.712012
 31
0.0
  0
LINE
  5
1AD
330
1A6
100
AcDbEntity
  8
CSLAYER1
  6
CONTINUOUS
 62
     4
100
AcDbLine
 10
55.819513
 20
166.60979
 30
0.0
 11
56.59596999999997
 21
163.712012
 31
0.0
  0
LINE
  5
1AE
330
1A6
100
AcDbEntity
  8
CSLAYER1
  6
CONTINUOUS
 62
     4
100
AcDbLine
 10
49.819696
 20
156.60979
 30
0.0
 11
56.819513
 21
156.60979
 31
0.0
  0
LINE
  5
1AF
330
1A6
100
AcDbEntity
  8
CSLAYER1
  6
CONTINUOUS
 62
     4
100
AcDbLine
 10
44.502602
 20
166.60979
 30
0.0
 11
56.819513
 21
166.60979
 31
0.0
  0
ENDBLK
  5
1B0
330
1A6
100
AcDbEntity
  8
0
100
AcDbBlockEnd
  0
BLOCK
  5
1B2
330
1B1
100
AcDbEntity
  8
0
100
AcDbBlockBegin
  2
*D37
 70
     1
 10
0.0
 20
0.0
 30
0.0
  3
*D37
  1

  0
TEXT
  5
1B3
330
1B1
100
AcDbEntity
  8
CSLAYER1
 62
     4
100
AcDbText
 10
48.309427
 20
131.829792
 30
0.0
 40
2.5
  1
28%%d
 50
14.00000570619311
 41
1.285714326991411
 51
15.0
  7
FX_FONT
 72
     5
 11
55.58664499999999
 21
133.6442069999999
 31
0.0
100
AcDbText
  0
ARC
  5
1B4
330
1B1
100
AcDbEntity
  8
CSLAYER1
  6
CONTINUOUS
 62
     4
100
AcDbCircle
 10
43.502602
 20
166.60979
 30
0.0
 40
35.409756
100
AcDbArc
 50
270.0
 51
298.0
  0
LINE
  5
1B5
330
1B1
100
AcDbEntity
  8
CSLAYER1
  6
CONTINUOUS
 62
     4
100
AcDbLine
 10
43.502602
 20
131.200034
 30
0.0
 11
46.400379
 21
131.9764909999999
 31
0.0
  0
LINE
  5
1B6
330
1B1
100
AcDbEntity
  8
CSLAYER1
  6
CONTINUOUS
 62
     4
100
AcDbLine
 10
43.502602
 20
131.200034
 30
0.0
 11
46.400379
 21
130.423576
 31
0.0
  0
LINE
  5
1B7
330
1B1
100
AcDbEntity
  8
CSLAYER1
  6
CONTINUOUS
 62
     4
100
AcDbLine
 10
60.12647499999999
 20
135.344831
 30
0.0
 11
57.932414
 21
133.298836
 31
0.0
  0
LINE
  5
1B8
330
1B1
100
AcDbEntity
  8
CSLAYER1
  6
CONTINUOUS
 62
     4
100
AcDbLine
 10
60.12647499999999
 20
135.344831
 30
0.0
 11
57.20336500000001
 21
134.669978
 31
0.0
  0
LINE
  5
1B9
330
1B1
100
AcDbEntity
  8
CSLAYER1
  6
CONTINUOUS
 62
     4
100
AcDbLine
 10
49.28916799999999
 20
155.7268419999997
 30
0.0
 11
60.59594699999999
 21
134.4618829999999
 31
0.0
  0
ENDBLK
  5
1BA
330
1B1
100
AcDbEntity
  8
0
100
AcDbBlockEnd
  0
BLOCK
  5
1BC
330
1BB
100
AcDbEntity
  8
0
100
AcDbBlockBegin
  2
*D38
 70
     1
 10
0.0
 20
0.0
 30
0.0
  3
*D38
  1

  0
TEXT
  5
1BD
330
1BB
100
AcDbEntity
  8
CSLAYER1
 62
     4
100
AcDbText
 10
45.762011
 20
136.809253
 30
0.0
 40
2.5
  1
20%%d
 50
10.00000521762978
 41
1.285714280667515
 51
15.0
  7
FX_FONT
 72
     5
 11
53.14806899999999
 21
138.1116149999999
 31
0.0
100
AcDbText
  0
ARC
  5
1BE
330
1BB
100
AcDbEntity
  8
CSLAYER1
  6
CONTINUOUS
 62
     4
100
AcDbCircle
 10
43.502602
 20
171.218387
 30
0.0
 40
34.77872599999999
100
AcDbArc
 50
270.0
 51
290.0
  0
LINE
  5
1BF
330
1BB
100
AcDbEntity
  8
CSLAYER1
  6
CONTINUOUS
 62
     4
100
AcDbLine
 10
43.502602
 20
136.439661
 30
0.0
 11
46.400379
 21
137.2161179999999
 31
0.0
  0
LINE
  5
1C0
330
1BB
100
AcDbEntity
  8
CSLAYER1
  6
CONTINUOUS
 62
     4
100
AcDbLine
 10
43.502602
 20
136.439661
 30
0.0
 11
46.400379
 21
135.663203
 31
0.0
  0
LINE
  5
1C1
330
1BB
100
AcDbEntity
  8
CSLAYER1
  6
CONTINUOUS
 62
     4
100
AcDbLine
 10
55.397627
 20
138.5370739999999
 30
0.0
 11
52.940171
 21
136.8163449999999
 31
0.0
  0
LINE
  5
1C2
330
1BB
100
AcDbEntity
  8
CSLAYER1
  6
CONTINUOUS
 62
     4
100
AcDbLine
 10
55.397627
 20
138.5370739999999
 30
0.0
 11
52.409043
 21
138.275607
 31
0.0
  0
ENDBLK
  5
1C3
330
1BB
100
AcDbEntity
  8
0
100
AcDbBlockEnd
  0
BLOCK
  5
1C5
330
1C4
100
AcDbEntity
  8
0
100
AcDbBlockBegin
  2
*D39
 70
     1
 10
0.0
 20
0.0
 30
0.0
  3
*D39
  1

  0
TEXT
  5
1C6
330
1C4
100
AcDbEntity
  8
CSLAYER1
 62
     4
100
AcDbText
 10
45.34019699999999
 20
144.782412
 30
0.0
 40
2.5
  1
3%%d
 50
1.500002848200528
 41
1.500000114527818
 51
15.0
  7
FX_FONT
 72
     5
 11
50.338484
 21
144.9132969999999
 31
0.0
100
AcDbText
  0
ARC
  5
1C7
330
1C4
100
AcDbEntity
  8
CSLAYER1
  6
CONTINUOUS
 62
     4
100
AcDbCircle
 10
43.502602
 20
164.10979
 30
0.0
 40
20.746309
100
AcDbArc
 50
270.0
 51
273.0
  0
ARC
  5
1C8
330
1C4
100
AcDbEntity
  8
CSLAYER1
  6
CONTINUOUS
 62
     4
100
AcDbCircle
 10
43.502602
 20
164.10979
 30
0.0
 40
20.746309
100
AcDbArc
 50
261.6856489999999
 51
270.0
  0
LINE
  5
1C9
330
1C4
100
AcDbEntity
  8
CSLAYER1
  6
CONTINUOUS
 62
     4
100
AcDbLine
 10
43.502602
 20
143.363481
 30
0.0
 11
40.604824
 21
144.139938
 31
0.0
  0
LINE
  5
1CA
330
1C4
100
AcDbEntity
  8
CSLAYER1
  6
CONTINUOUS
 62
     4
100
AcDbLine
 10
43.502602
 20
143.363481
 30
0.0
 11
40.604824
 21
142.5870239999999
 31
0.0
  0
ARC
  5
1CB
330
1C4
100
AcDbEntity
  8
CSLAYER1
  6
CONTINUOUS
 62
     4
100
AcDbCircle
 10
43.502602
 20
164.10979
 30
0.0
 40
20.746309
100
AcDbArc
 50
273.0
 51
281.3143509999999
  0
LINE
  5
1CC
330
1C4
100
AcDbEntity
  8
CSLAYER1
  6
CONTINUOUS
 62
     4
100
AcDbLine
 10
44.58838
 20
143.3919129999999
 30
0.0
 11
47.441549
 21
144.3189639999999
 31
0.0
  0
LINE
  5
1CD
330
1C4
100
AcDbEntity
  8
CSLAYER1
  6
CONTINUOUS
 62
     4
100
AcDbLine
 10
44.58838
 20
143.3919129999999
 30
0.0
 11
47.522823
 21
142.768178
 31
0.0
  0
ENDBLK
  5
1CE
330
1C4
100
AcDbEntity
  8
0
100
AcDbBlockEnd
  0
BLOCK
  5
1D0
330
1CF
100
AcDbEntity
  8
0
100
AcDbBlockBegin
  2
*D40
 70
     1
 10
0.0
 20
0.0
 30
0.0
  3
*D40
  1

  0
TEXT
  5
1D1
330
1CF
100
AcDbEntity
  8
CSLAYER1
 62
     4
100
AcDbText
 10
47.101078
 20
180.588318
 30
0.0
 40
2.5
  1
0.15
 41
1.090909090909091
 51
15.0
  7
FX_FONT
 72
     5
 11
57.101078
 21
180.588318
 31
0.0
100
AcDbText
  0
LINE
  5
1D2
330
1CF
100
AcDbEntity
  8
CSLAYER1
  6
CONTINUOUS
 62
     4
100
AcDbLine
 10
42.752602
 20
180.146223
 30
0.0
 11
43.502602
 21
180.146223
 31
0.0
  0
LINE
  5
1D3
330
1CF
100
AcDbEntity
  8
CSLAYER1
  6
CONTINUOUS
 62
     4
100
AcDbLine
 10
42.752602
 20
187.091606
 30
0.0
 11
42.752602
 21
179.146223
 31
0.0
  0
LINE
  5
1D4
330
1CF
100
AcDbEntity
  8
CSLAYER1
  6
CONTINUOUS
 62
     4
100
AcDbLine
 10
43.502602
 20
167.60979
 30
0.0
 11
43.502602
 21
181.146223
 31
0.0
  0
LINE
  5
1D5
330
1CF
100
AcDbEntity
  8
CSLAYER1
  6
CONTINUOUS
 62
     4
100
AcDbLine
 10
39.752602
 20
180.146223
 30
0.0
 11
42.752602
 21
180.146223
 31
0.0
  0
LINE
  5
1D6
330
1CF
100
AcDbEntity
  8
CSLAYER1
  6
CONTINUOUS
 62
     4
100
AcDbLine
 10
42.752602
 20
180.146223
 30
0.0
 11
39.854824
 21
180.92268
 31
0.0
  0
LINE
  5
1D7
330
1CF
100
AcDbEntity
  8
CSLAYER1
  6
CONTINUOUS
 62
     4
100
AcDbLine
 10
42.752602
 20
180.146223
 30
0.0
 11
39.854824
 21
179.369766
 31
0.0
  0
LINE
  5
1D8
330
1CF
100
AcDbEntity
  8
CSLAYER1
  6
CONTINUOUS
 62
     4
100
AcDbLine
 10
43.502602
 20
180.146223
 30
0.0
 11
46.502602
 21
180.146223
 31
0.0
  0
LINE
  5
1D9
330
1CF
100
AcDbEntity
  8
CSLAYER1
  6
CONTINUOUS
 62
     4
100
AcDbLine
 10
43.502602
 20
180.146223
 30
0.0
 11
46.400379
 21
180.92268
 31
0.0
  0
LINE
  5
1DA
330
1CF
100
AcDbEntity
  8
CSLAYER1
  6
CONTINUOUS
 62
     4
100
AcDbLine
 10
43.502602
 20
180.146223
 30
0.0
 11
46.400379
 21
179.369766
 31
0.0
  0
ENDBLK
  5
1DB
330
1CF
100
AcDbEntity
  8
0
100
AcDbBlockEnd
  0
BLOCK
  5
1DD
330
1DC
100
AcDbEntity
  8
0
100
AcDbBlockBegin
  2
*D41
 70
     1
 10
0.0
 20
0.0
 30
0.0
  3
*D41
  1

  0
TEXT
  5
1DE
330
1DC
100
AcDbEntity
  8
CSLAYER1
 62
     4
100
AcDbText
 10
32.435806
 20
200.8139649999999
 30
0.0
 40
2.5
  1
0.5
 41
1.124999999999998
 51
15.0
  7
FX_FONT
 72
     5
 11
39.93580599999999
 21
200.8139649999999
 31
0.0
100
AcDbText
  0
LINE
  5
1DF
330
1DC
100
AcDbEntity
  8
CSLAYER1
  6
CONTINUOUS
 62
     4
100
AcDbLine
 10
42.752602
 20
200.150831
 30
0.0
 11
45.252602
 21
200.150831
 31
0.0
  0
LINE
  5
1E0
330
1DC
100
AcDbEntity
  8
CSLAYER1
  6
CONTINUOUS
 62
     4
100
AcDbLine
 10
45.252602
 20
189.091606
 30
0.0
 11
45.252602
 21
201.1508309999999
 31
0.0
  0
LINE
  5
1E1
330
1DC
100
AcDbEntity
  8
CSLAYER1
  6
CONTINUOUS
 62
     4
100
AcDbLine
 10
39.752602
 20
200.150831
 30
0.0
 11
42.752602
 21
200.150831
 31
0.0
  0
LINE
  5
1E2
330
1DC
100
AcDbEntity
  8
CSLAYER1
  6
CONTINUOUS
 62
     4
100
AcDbLine
 10
42.752602
 20
200.150831
 30
0.0
 11
39.854824
 21
200.9272879999999
 31
0.0
  0
LINE
  5
1E3
330
1DC
100
AcDbEntity
  8
CSLAYER1
  6
CONTINUOUS
 62
     4
100
AcDbLine
 10
42.752602
 20
200.150831
 30
0.0
 11
39.854824
 21
199.374374
 31
0.0
  0
LINE
  5
1E4
330
1DC
100
AcDbEntity
  8
CSLAYER1
  6
CONTINUOUS
 62
     4
100
AcDbLine
 10
45.252602
 20
200.150831
 30
0.0
 11
48.252602
 21
200.150831
 31
0.0
  0
LINE
  5
1E5
330
1DC
100
AcDbEntity
  8
CSLAYER1
  6
CONTINUOUS
 62
     4
100
AcDbLine
 10
45.252602
 20
200.150831
 30
0.0
 11
48.150379
 21
200.9272879999999
 31
0.0
  0
LINE
  5
1E6
330
1DC
100
AcDbEntity
  8
CSLAYER1
  6
CONTINUOUS
 62
     4
100
AcDbLine
 10
45.252602
 20
200.150831
 30
0.0
 11
48.150379
 21
199.374374
 31
0.0
  0
ENDBLK
  5
1E7
330
1DC
100
AcDbEntity
  8
0
100
AcDbBlockEnd
  0
BLOCK
  5
1E9
330
1E8
100
AcDbEntity
  8
0
100
AcDbBlockBegin
  2
FXDIM0002
 70
     0
 10
0.0
 20
0.0
 30
0.0
  3
FXDIM0002
  1

  0
LINE
  5
1EA
330
1E8
100
AcDbEntity
  8
CSLAYER1
  6
CONTINUOUS
 62
     4
100
AcDbLine
 10
243.477172
 20
197.417452
 30
0.0
 11
265.185475
 21
216.9789399999999
 31
0.0
  0
CIRCLE
  5
1EB
330
1E8
100
AcDbEntity
  8
CSLAYER1
  6
CONTINUOUS
 62
     4
100
AcDbCircle
 10
243.477172
 20
197.417452
 30
0.0
 40
0.3
  0
CIRCLE
  5
1EC
330
1E8
100
AcDbEntity
  8
CSLAYER1
  6
CONTINUOUS
 62
     4
100
AcDbCircle
 10
243.477172
 20
197.417452
 30
0.0
 40
0.15
  0
LINE
  5
1ED
330
1E8
100
AcDbEntity
  8
CSLAYER1
  6
CONTINUOUS
 62
     4
100
AcDbLine
 10
265.185475
 20
216.9789399999999
 30
0.0
 11
292.1854749999998
 21
216.9789399999999
 31
0.0
  0
TEXT
  5
1EE
330
1E8
100
AcDbEntity
  8
CSLAYER1
 62
     4
100
AcDbText
 10
266.1854859999999
 20
217.478943
 30
0.0
 40
2.5
  1
テフロンコーティング
 41
0.8522727272727278
 51
15.0
  7
FX_FONT
 72
     5
 11
291.1854859999999
 21
217.478943
 31
0.0
100
AcDbText
  0
ENDBLK
  5
1EF
330
1E8
100
AcDbEntity
  8
0
100
AcDbBlockEnd
  0
BLOCK
  5
1F1
330
1F0
100
AcDbEntity
  8
0
100
AcDbBlockBegin
  2
FXDIM0003
 70
     0
 10
0.0
 20
0.0
 30
0.0
  3
FXDIM0003
  1

  0
LINE
  5
1F2
330
1F0
100
AcDbEntity
  8
CSLAYER1
  6
CONTINUOUS
 62
     4
100
AcDbLine
 10
121.188497
 20
43.993472
 30
0.0
 11
141.516309
 21
29.74264699999999
 31
0.0
  0
LINE
  5
1F3
330
1F0
100
AcDbEntity
  8
CSLAYER1
  6
CONTINUOUS
 62
     4
100
AcDbLine
 10
121.188497
 20
43.993472
 30
0.0
 11
124.0069949999997
 21
42.965818
 31
0.0
  0
LINE
  5
1F4
330
1F0
100
AcDbEntity
  8
CSLAYER1
  6
CONTINUOUS
 62
     4
100
AcDbLine
 10
121.188497
 20
43.993472
 30
0.0
 11
123.11556
 21
41.694249
 31
0.0
  0
LINE
  5
1F5
330
1F0
100
AcDbEntity
  8
CSLAYER1
  6
CONTINUOUS
 62
     4
100
AcDbLine
 10
141.516309
 20
29.74264699999999
 30
0.0
 11
163.5163089999998
 21
29.74264699999999
 31
0.0
  0
TEXT
  5
1F6
330
1F0
100
AcDbEntity
  8
CSLAYER1
 62
     4
100
AcDbText
 10
142.516312
 20
30.24264699999999
 30
0.0
 40
2.5
  1
2-M5X0.8
 41
1.043478260869564
 51
15.0
  7
FX_FONT
 72
     5
 11
162.516312
 21
30.24264699999999
 31
0.0
100
AcDbText
  0
ENDBLK
  5
1F7
330
1F0
100
AcDbEntity
  8
0
100
AcDbBlockEnd
  0
BLOCK
  5
1F9
330
1F8
100
AcDbEntity
  8
0
100
AcDbBlockBegin
  2
FXDIM0004
 70
     0
 10
0.0
 20
0.0
 30
0.0
  3
FXDIM0004
  1

  0
LINE
  5
1FA
330
1F8
100
AcDbEntity
  8
CSLAYER1
  6
CONTINUOUS
 62
     4
100
AcDbLine
 10
341.990561
 20
123.9247169999997
 30
0.0
 11
363.163406
 21
101.940469
 31
0.0
  0
LINE
  5
1FB
330
1F8
100
AcDbEntity
  8
CSLAYER1
  6
CONTINUOUS
 62
     4
100
AcDbLine
 10
341.990561
 20
123.9247169999997
 30
0.0
 11
344.559981
 21
122.376144
 31
0.0
  0
LINE
  5
1FC
330
1F8
100
AcDbEntity
  8
CSLAYER1
  6
CONTINUOUS
 62
     4
100
AcDbLine
 10
341.990561
 20
123.9247169999997
 30
0.0
 11
343.441458
 21
121.2989029999999
 31
0.0
  0
LINE
  5
1FD
330
1F8
100
AcDbEntity
  8
CSLAYER1
  6
CONTINUOUS
 62
     4
100
AcDbLine
 10
363.163406
 20
101.940469
 30
0.0
 11
397.633554
 21
101.940469
 31
0.0
  0
TEXT
  5
1FE
330
1F8
100
AcDbEntity
  8
CSLAYER1
 62
     4
100
AcDbText
 10
364.1633909999998
 20
102.440468
 30
0.0
 40
2.5
  1
4-M5X0.8 深サ12
 41
1.02631578947369
 51
15.0
  7
FX_FONT
 72
     5
 11
396.663391
 21
102.440468
 31
0.0
100
AcDbText
  0
ENDBLK
  5
1FF
330
1F8
100
AcDbEntity
  8
0
100
AcDbBlockEnd
  0
BLOCK
  5
201
330
200
100
AcDbEntity
  8
0
100
AcDbBlockBegin
  2
FXDIM0005
 70
     0
 10
0.0
 20
0.0
 30
0.0
  3
FXDIM0005
  1

  0
LINE
  5
202
330
200
100
AcDbEntity
  8
CSLAYER1
  6
CONTINUOUS
 62
     4
100
AcDbLine
 10
310.113829
 20
46.861378
 30
0.0
 11
302.305314
 21
27.82812299999999
 31
0.0
  0
CIRCLE
  5
203
330
200
100
AcDbEntity
  8
CSLAYER1
  6
CONTINUOUS
 62
     4
100
AcDbCircle
 10
310.113829
 20
46.861378
 30
0.0
 40
0.3
  0
CIRCLE
  5
204
330
200
100
AcDbEntity
  8
CSLAYER1
  6
CONTINUOUS
 62
     4
100
AcDbCircle
 10
310.113829
 20
46.861378
 30
0.0
 40
0.15
  0
LINE
  5
205
330
200
100
AcDbEntity
  8
CSLAYER1
  6
CONTINUOUS
 62
     4
100
AcDbLine
 10
302.305314
 20
27.82812299999999
 30
0.0
 11
351.805314
 21
27.82812299999999
 31
0.0
  0
TEXT
  5
206
330
200
100
AcDbEntity
  8
CSLAYER1
 62
     4
100
AcDbText
 10
303.3052979999999
 20
28.328131
 30
0.0
 40
2.5
  1
薄形シリンダー(エアーハイドロタイプ)
 41
0.8742331288343553
 51
15.0
  7
FX_FONT
 72
     5
 11
350.8052979999998
 21
28.328131
 31
0.0
100
AcDbText
  0
ENDBLK
  5
207
330
200
100
AcDbEntity
  8
0
100
AcDbBlockEnd
  0
BLOCK
  5
209
330
208
100
AcDbEntity
  8
0
100
AcDbBlockBegin
  2
BLKF0000
 70
     0
 10
0.0
 20
0.0
 30
0.0
  3
BLKF0000
  1

  0
LINE
  5
20A
330
208
100
AcDbEntity
  8
CSLAYER1
  6
CONTINUOUS
 62
     4
100
AcDbLine
 10
249.387786
 20
193.428571
 30
0.0
 11
250.802
 21
194.842785
 31
0.0
  0
LINE
  5
20B
330
208
100
AcDbEntity
  8
CSLAYER1
  6
CONTINUOUS
 62
     4
100
AcDbLine
 10
247.9735729999999
 20
193.428571
 30
0.0
 11
250.802
 21
196.256999
 31
0.0
  0
LINE
  5
20C
330
208
100
AcDbEntity
  8
CSLAYER1
  6
CONTINUOUS
 62
     4
100
AcDbLine
 10
246.5593589999999
 20
193.428571
 30
0.0
 11
250.802
 21
197.671212
 31
0.0
  0
LINE
  5
20D
330
208
100
AcDbEntity
  8
CSLAYER1
  6
CONTINUOUS
 62
     4
100
AcDbLine
 10
245.1451459999999
 20
193.428571
 30
0.0
 11
250.802
 21
199.085426
 31
0.0
  0
LINE
  5
20E
330
208
100
AcDbEntity
  8
CSLAYER1
  6
CONTINUOUS
 62
     4
100
AcDbLine
 10
243.730932
 20
193.428571
 30
0.0
 11
250.802
 21
200.499639
 31
0.0
  0
LINE
  5
20F
330
208
100
AcDbEntity
  8
CSLAYER1
  6
CONTINUOUS
 62
     4
100
AcDbLine
 10
242.316719
 20
193.428571
 30
0.0
 11
249.507872
 21
200.619725
 31
0.0
  0
LINE
  5
210
330
208
100
AcDbEntity
  8
CSLAYER1
  6
CONTINUOUS
 62
     4
100
AcDbLine
 10
240.9025049999999
 20
193.428571
 30
0.0
 11
248.0118019999999
 21
200.537868
 31
0.0
  0
LINE
  5
211
330
208
100
AcDbEntity
  8
CSLAYER1
  6
CONTINUOUS
 62
     4
100
AcDbLine
 10
239.488292
 20
193.428571
 30
0.0
 11
246.5157319999999
 21
200.456012
 31
0.0
  0
LINE
  5
212
330
208
100
AcDbEntity
  8
CSLAYER1
  6
CONTINUOUS
 62
     4
100
AcDbLine
 10
238.286085
 20
193.640579
 30
0.0
 11
245.019662
 21
200.3741549999999
 31
0.0
  0
LINE
  5
213
330
208
100
AcDbEntity
  8
CSLAYER1
  6
CONTINUOUS
 62
     4
100
AcDbLine
 10
237.7403509999999
 20
194.509058
 30
0.0
 11
241.130478
 21
197.899185
 31
0.0
  0
LINE
  5
214
330
208
100
AcDbEntity
  8
CSLAYER1
  6
CONTINUOUS
 62
     4
100
AcDbLine
 10
238.1500959999999
 20
196.3330159999999
 30
0.0
 11
238.908142
 21
197.0910629999999
 31
0.0
  0
ENDBLK
  5
215
330
208
100
AcDbEntity
  8
0
100
AcDbBlockEnd
  0
BLOCK
  5
217
330
216
100
AcDbEntity
  8
0
100
AcDbBlockBegin
  2
BLKF0001
 70
     0
 10
0.0
 20
0.0
 30
0.0
  3
BLKF0001
  1

  0
LINE
  5
218
330
216
100
AcDbEntity
  8
CSLAYER1
  6
CONTINUOUS
 62
     4
100
AcDbLine
 10
236.3877859999999
 20
173.38276
 30
0.0
 11
237.8019999999999
 21
174.796973
 31
0.0
  0
LINE
  5
219
330
216
100
AcDbEntity
  8
CSLAYER1
  6
CONTINUOUS
 62
     4
100
AcDbLine
 10
234.9735729999999
 20
173.38276
 30
0.0
 11
237.8019999999999
 21
176.211187
 31
0.0
  0
LINE
  5
21A
330
216
100
AcDbEntity
  8
CSLAYER1
  6
CONTINUOUS
 62
     4
100
AcDbLine
 10
233.5593589999999
 20
173.38276
 30
0.0
 11
236.6051709999999
 21
176.428571
 31
0.0
  0
LINE
  5
21B
330
216
100
AcDbEntity
  8
CSLAYER1
  6
CONTINUOUS
 62
     4
100
AcDbLine
 10
232.145146
 20
173.38276
 30
0.0
 11
235.190957
 21
176.428571
 31
0.0
  0
LINE
  5
21C
330
216
100
AcDbEntity
  8
CSLAYER1
  6
CONTINUOUS
 62
     4
100
AcDbLine
 10
230.7309319999998
 20
173.38276
 30
0.0
 11
233.7767439999999
 21
176.428571
 31
0.0
  0
LINE
  5
21D
330
216
100
AcDbEntity
  8
CSLAYER1
  6
CONTINUOUS
 62
     4
100
AcDbLine
 10
229.316719
 20
173.38276
 30
0.0
 11
232.3625299999999
 21
176.428571
 31
0.0
  0
LINE
  5
21E
330
216
100
AcDbEntity
  8
CSLAYER1
  6
CONTINUOUS
 62
     4
100
AcDbLine
 10
227.9025049999999
 20
173.38276
 30
0.0
 11
230.948317
 21
176.428571
 31
0.0
  0
LINE
  5
21F
330
216
100
AcDbEntity
  8
CSLAYER1
  6
CONTINUOUS
 62
     4
100
AcDbLine
 10
226.488292
 20
173.38276
 30
0.0
 11
229.720533
 21
176.615001
 31
0.0
  0
LINE
  5
220
330
216
100
AcDbEntity
  8
CSLAYER1
  6
CONTINUOUS
 62
     4
100
AcDbLine
 10
225.074078
 20
173.38276
 30
0.0
 11
229.3019999999999
 21
177.610682
 31
0.0
  0
LINE
  5
221
330
216
100
AcDbEntity
  8
CSLAYER1
  6
CONTINUOUS
 62
     4
100
AcDbLine
 10
223.6598639999999
 20
173.38276
 30
0.0
 11
229.3019999999999
 21
179.0248949999999
 31
0.0
  0
LINE
  5
222
330
216
100
AcDbEntity
  8
CSLAYER1
  6
CONTINUOUS
 62
     4
100
AcDbLine
 10
222.2456509999999
 20
173.38276
 30
0.0
 11
228.8138229999999
 21
179.950932
 31
0.0
  0
LINE
  5
223
330
216
100
AcDbEntity
  8
CSLAYER1
  6
CONTINUOUS
 62
     4
100
AcDbLine
 10
220.831437
 20
173.38276
 30
0.0
 11
227.0223249999999
 21
179.5736479999999
 31
0.0
  0
LINE
  5
224
330
216
100
AcDbEntity
  8
CSLAYER1
  6
CONTINUOUS
 62
     4
100
AcDbLine
 10
219.417224
 20
173.38276
 30
0.0
 11
225.2308269999999
 21
179.1963629999999
 31
0.0
  0
LINE
  5
225
330
216
100
AcDbEntity
  8
CSLAYER1
  6
CONTINUOUS
 62
     4
100
AcDbLine
 10
218.00301
 20
173.38276
 30
0.0
 11
223.4393279999999
 21
178.8190779999999
 31
0.0
  0
LINE
  5
226
330
216
100
AcDbEntity
  8
CSLAYER1
  6
CONTINUOUS
 62
     4
100
AcDbLine
 10
216.588797
 20
173.38276
 30
0.0
 11
221.6478299999999
 21
178.441793
 31
0.0
  0
LINE
  5
227
330
216
100
AcDbEntity
  8
CSLAYER1
  6
CONTINUOUS
 62
     4
100
AcDbLine
 10
215.174583
 20
173.38276
 30
0.0
 11
219.9047919999999
 21
178.112969
 31
0.0
  0
LINE
  5
228
330
216
100
AcDbEntity
  8
CSLAYER1
  6
CONTINUOUS
 62
     4
100
AcDbLine
 10
213.760369
 20
173.38276
 30
0.0
 11
218.537201
 21
178.1595909999999
 31
0.0
  0
LINE
  5
229
330
216
100
AcDbEntity
  8
CSLAYER1
  6
CONTINUOUS
 62
     4
100
AcDbLine
 10
212.3461559999999
 20
173.38276
 30
0.0
 11
217.16961
 21
178.2062139999999
 31
0.0
  0
LINE
  5
22A
330
216
100
AcDbEntity
  8
CSLAYER1
  6
CONTINUOUS
 62
     4
100
AcDbLine
 10
210.9319419999999
 20
173.38276
 30
0.0
 11
215.802019
 21
178.252836
 31
0.0
  0
LINE
  5
22B
330
216
100
AcDbEntity
  8
CSLAYER1
  6
CONTINUOUS
 62
     4
100
AcDbLine
 10
211.327287
 20
175.192318
 30
0.0
 11
214.4344279999998
 21
178.299458
 31
0.0
  0
LINE
  5
22C
330
216
100
AcDbEntity
  8
CSLAYER1
  6
CONTINUOUS
 62
     4
100
AcDbLine
 10
212.7756619999999
 20
178.054906
 30
0.0
 11
213.066836
 21
178.346081
 31
0.0
  0
ENDBLK
  5
22D
330
216
100
AcDbEntity
  8
0
100
AcDbBlockEnd
  0
BLOCK
  5
22F
330
22E
100
AcDbEntity
  8
0
100
AcDbBlockBegin
  2
BLKF0002
 70
     0
 10
0.0
 20
0.0
 30
0.0
  3
BLKF0002
  1

  0
LINE
  5
230
330
22E
100
AcDbEntity
  8
CSLAYER1
  6
CONTINUOUS
 62
     3
100
AcDbLine
 10
203.8019999999999
 20
131.3285709999999
 30
0.0
 11
203.8019999999999
 21
134.5285709999999
 31
0.0
  0
LINE
  5
231
330
22E
100
AcDbEntity
  8
CSLAYER1
  6
CONTINUOUS
 62
     3
100
AcDbLine
 10
203.8019999999999
 20
134.5285709999999
 30
0.0
 11
204.102
 21
134.8285709999997
 31
0.0
  0
LINE
  5
232
330
22E
100
AcDbEntity
  8
CSLAYER1
  6
CONTINUOUS
 62
     4
100
AcDbLine
 10
203.8019999999999
 20
131.3285709999999
 30
0.0
 11
204.102
 21
131.3285709999999
 31
0.0
  0
LINE
  5
233
330
22E
100
AcDbEntity
  8
CSLAYER1
  6
CONTINUOUS
 62
     4
100
AcDbLine
 10
203.8019999999999
 20
134.5285709999999
 30
0.0
 11
204.102
 21
134.5285709999999
 31
0.0
  0
LINE
  5
234
330
22E
100
AcDbEntity
  8
CSLAYER1
  6
CONTINUOUS
 62
     3
100
AcDbLine
 10
204.102
 20
131.028571
 30
0.0
 11
203.8019999999999
 21
131.3285709999999
 31
0.0
  0
ENDBLK
  5
235
330
22E
100
AcDbEntity
  8
0
100
AcDbBlockEnd
  0
BLOCK
  5
237
330
236
100
AcDbEntity
  8
0
100
AcDbBlockBegin
  2
BLKF0003
 70
     0
 10
0.0
 20
0.0
 30
0.0
  3
BLKF0003
  1

  0
LINE
  5
238
330
236
100
AcDbEntity
  8
CSLAYER1
  6
DOT
 62
     4
100
AcDbLine
 10
119.1414289999999
 20
153.8871199999999
 30
0.0
 11
119.1414289999999
 21
163.970023
 31
0.0
  0
LINE
  5
239
330
236
100
AcDbEntity
  8
CSLAYER1
  6
CENTER
 62
     4
100
AcDbLine
 10
124.18288
 20
158.928571
 30
0.0
 11
114.099977
 21
158.928571
 31
0.0
  0
LINE
  5
23A
330
236
100
AcDbEntity
  8
CSLAYER1
  6
DASHED
 62
     4
100
AcDbLine
 10
119.1414289999999
 20
162.970023
 30
0.0
 11
115.641429
 21
160.9492969999999
 31
0.0
  0
LINE
  5
23B
330
236
100
AcDbEntity
  8
CSLAYER1
  6
DASHED
 62
     4
100
AcDbLine
 10
115.641429
 20
160.9492969999999
 30
0.0
 11
115.641429
 21
156.907845
 31
0.0
  0
LINE
  5
23C
330
236
100
AcDbEntity
  8
CSLAYER1
  6
DASHED
 62
     4
100
AcDbLine
 10
115.641429
 20
156.907845
 30
0.0
 11
119.1414289999999
 21
154.8871199999998
 31
0.0
  0
LINE
  5
23D
330
236
100
AcDbEntity
  8
CSLAYER1
  6
DASHED
 62
     4
100
AcDbLine
 10
119.1414289999999
 20
154.8871199999998
 30
0.0
 11
122.641429
 21
156.907845
 31
0.0
  0
LINE
  5
23E
330
236
100
AcDbEntity
  8
CSLAYER1
  6
DASHED
 62
     4
100
AcDbLine
 10
122.641429
 20
156.907845
 30
0.0
 11
122.641429
 21
160.9492969999999
 31
0.0
  0
LINE
  5
23F
330
236
100
AcDbEntity
  8
CSLAYER1
  6
DASHED
 62
     4
100
AcDbLine
 10
122.641429
 20
160.9492969999999
 30
0.0
 11
119.1414289999999
 21
162.970023
 31
0.0
  0
CIRCLE
  5
240
330
236
100
AcDbEntity
  8
CSLAYER1
  6
DASHED
 62
     4
100
AcDbCircle
 10
119.1414289999999
 20
158.928571
 30
0.0
 40
3.399999999999999
  0
CIRCLE
  5
241
330
236
100
AcDbEntity
  8
CSLAYER1
  6
DASHED
 62
     4
100
AcDbCircle
 10
119.1414289999999
 20
158.928571
 30
0.0
 40
1.6
  0
CIRCLE
  5
242
330
236
100
AcDbEntity
  8
CSLAYER1
  6
DASHED
 62
     4
100
AcDbCircle
 10
119.1414289999999
 20
158.928571
 30
0.0
 40
2.0
  0
ENDBLK
  5
243
330
236
100
AcDbEntity
  8
0
100
AcDbBlockEnd
  0
BLOCK
  5
245
330
244
100
AcDbEntity
  8
0
100
AcDbBlockBegin
  2
BLKF0004
 70
     0
 10
0.0
 20
0.0
 30
0.0
  3
BLKF0004
  1

  0
LINE
  5
246
330
244
100
AcDbEntity
  8
CSLAYER1
  6
CONTINUOUS
 62
     4
100
AcDbLine
 10
119.1414289999999
 20
127.8871199999999
 30
0.0
 11
119.1414289999999
 21
137.970023
 31
0.0
  0
LINE
  5
247
330
244
100
AcDbEntity
  8
CSLAYER1
  6
CENTER
 62
     4
100
AcDbLine
 10
124.18288
 20
132.928571
 30
0.0
 11
114.099977
 21
132.928571
 31
0.0
  0
LINE
  5
248
330
244
100
AcDbEntity
  8
CSLAYER1
  6
DASHED
 62
     4
100
AcDbLine
 10
119.1414289999999
 20
136.970023
 30
0.0
 11
118.1414289999999
 21
136.3926729999999
 31
0.0
  0
LINE
  5
249
330
244
100
AcDbEntity
  8
CSLAYER1
  6
CONTINUOUS
 62
     3
100
AcDbLine
 10
115.641429
 20
134.949297
 30
0.0
 11
115.641429
 21
130.907845
 31
0.0
  0
LINE
  5
24A
330
244
100
AcDbEntity
  8
CSLAYER1
  6
CONTINUOUS
 62
     3
100
AcDbLine
 10
115.641429
 20
130.907845
 30
0.0
 11
118.1414289999999
 21
129.46447
 31
0.0
  0
LINE
  5
24B
330
244
100
AcDbEntity
  8
CSLAYER1
  6
DASHED
 62
     4
100
AcDbLine
 10
119.1414289999999
 20
128.8871199999997
 30
0.0
 11
120.1414289999999
 21
129.46447
 31
0.0
  0
LINE
  5
24C
330
244
100
AcDbEntity
  8
CSLAYER1
  6
CONTINUOUS
 62
     3
100
AcDbLine
 10
122.641429
 20
130.907845
 30
0.0
 11
122.641429
 21
134.949297
 31
0.0
  0
LINE
  5
24D
330
244
100
AcDbEntity
  8
CSLAYER1
  6
CONTINUOUS
 62
     3
100
AcDbLine
 10
122.641429
 20
134.949297
 30
0.0
 11
120.1414289999999
 21
136.3926729999999
 31
0.0
  0
ARC
  5
24E
330
244
100
AcDbEntity
  8
CSLAYER1
  6
CONTINUOUS
 62
     3
100
AcDbCircle
 10
119.1414289999999
 20
132.928571
 30
0.0
 40
3.399999999999999
100
AcDbArc
 50
0.0
 51
72.895365
  0
ARC
  5
24F
330
244
100
AcDbEntity
  8
CSLAYER1
  6
CONTINUOUS
 62
     4
100
AcDbCircle
 10
119.1414289999999
 20
132.928571
 30
0.0
 40
1.6
100
AcDbArc
 50
0.0
 51
51.317813
  0
ARC
  5
250
330
244
100
AcDbEntity
  8
CSLAYER1
  6
CONTINUOUS
 62
     3
100
AcDbCircle
 10
119.1414289999999
 20
132.928571
 30
0.0
 40
2.0
100
AcDbArc
 50
0.0
 51
60.0
  0
LINE
  5
251
330
244
100
AcDbEntity
  8
CSLAYER1
  6
DASHED
 62
     4
100
AcDbLine
 10
120.1414289999999
 20
136.3926729999999
 30
0.0
 11
119.1414289999999
 21
136.970023
 31
0.0
  0
ARC
  5
252
330
244
100
AcDbEntity
  8
CSLAYER1
  6
DASHED
 62
     4
100
AcDbCircle
 10
119.1414289999999
 20
132.928571
 30
0.0
 40
3.399999999999999
100
AcDbArc
 50
72.895365
 51
107.104635
  0
ARC
  5
253
330
244
100
AcDbEntity
  8
CSLAYER1
  6
CONTINUOUS
 62
     3
100
AcDbCircle
 10
119.1414289999999
 20
132.928571
 30
0.0
 40
3.399999999999999
100
AcDbArc
 50
107.104635
 51
252.895365
  0
LINE
  5
254
330
244
100
AcDbEntity
  8
CSLAYER1
  6
CONTINUOUS
 62
     3
100
AcDbLine
 10
118.1414289999999
 20
136.3926729999999
 30
0.0
 11
115.641429
 21
134.949297
 31
0.0
  0
ARC
  5
255
330
244
100
AcDbEntity
  8
CSLAYER1
  6
DASHED
 62
     4
100
AcDbCircle
 10
119.1414289999999
 20
132.928571
 30
0.0
 40
3.399999999999999
100
AcDbArc
 50
252.895365
 51
287.104635
  0
LINE
  5
256
330
244
100
AcDbEntity
  8
CSLAYER1
  6
CONTINUOUS
 62
     3
100
AcDbLine
 10
120.1414289999999
 20
129.46447
 30
0.0
 11
122.641429
 21
130.907845
 31
0.0
  0
ARC
  5
257
330
244
100
AcDbEntity
  8
CSLAYER1
  6
CONTINUOUS
 62
     3
100
AcDbCircle
 10
119.1414289999999
 20
132.928571
 30
0.0
 40
3.399999999999999
100
AcDbArc
 50
287.104635
 51
0.0
  0
ARC
  5
258
330
244
100
AcDbEntity
  8
CSLAYER1
  6
CONTINUOUS
 62
     3
100
AcDbCircle
 10
119.1414289999999
 20
132.928571
 30
0.0
 40
2.0
100
AcDbArc
 50
300.0
 51
0.0
  0
ARC
  5
259
330
244
100
AcDbEntity
  8
CSLAYER1
  6
DASHED
 62
     4
100
AcDbCircle
 10
119.1414289999999
 20
132.928571
 30
0.0
 40
2.0
100
AcDbArc
 50
239.9999999999999
 51
300.0
  0
ARC
  5
25A
330
244
100
AcDbEntity
  8
CSLAYER1
  6
DASHED
 62
     4
100
AcDbCircle
 10
119.1414289999999
 20
132.928571
 30
0.0
 40
1.6
100
AcDbArc
 50
231.317813
 51
308.682187
  0
ARC
  5
25B
330
244
100
AcDbEntity
  8
CSLAYER1
  6
CONTINUOUS
 62
     4
100
AcDbCircle
 10
119.1414289999999
 20
132.928571
 30
0.0
 40
1.6
100
AcDbArc
 50
308.682187
 51
0.0
  0
ARC
  5
25C
330
244
100
AcDbEntity
  8
CSLAYER1
  6
DASHED
 62
     4
100
AcDbCircle
 10
119.1414289999999
 20
132.928571
 30
0.0
 40
1.6
100
AcDbArc
 50
51.317813
 51
128.682187
  0
ARC
  5
25D
330
244
100
AcDbEntity
  8
CSLAYER1
  6
CONTINUOUS
 62
     4
100
AcDbCircle
 10
119.1414289999999
 20
132.928571
 30
0.0
 40
1.6
100
AcDbArc
 50
128.682187
 51
231.317813
  0
ARC
  5
25E
330
244
100
AcDbEntity
  8
CSLAYER1
  6
CONTINUOUS
 62
     3
100
AcDbCircle
 10
119.1414289999999
 20
132.928571
 30
0.0
 40
2.0
100
AcDbArc
 50
119.9999999999999
 51
239.9999999999999
  0
ARC
  5
25F
330
244
100
AcDbEntity
  8
CSLAYER1
  6
DASHED
 62
     4
100
AcDbCircle
 10
119.1414289999999
 20
132.928571
 30
0.0
 40
2.0
100
AcDbArc
 50
60.0
 51
119.9999999999999
  0
LINE
  5
260
330
244
100
AcDbEntity
  8
CSLAYER1
  6
DASHED
 62
     4
100
AcDbLine
 10
118.1414289999999
 20
129.46447
 30
0.0
 11
119.1414289999999
 21
128.8871199999997
 31
0.0
  0
ENDBLK
  5
261
330
244
100
AcDbEntity
  8
0
100
AcDbBlockEnd
  0
BLOCK
  5
263
330
262
100
AcDbEntity
  8
0
100
AcDbBlockBegin
  2
BLKF0005
 70
     0
 10
0.0
 20
0.0
 30
0.0
  3
BLKF0005
  1

  0
LINE
  5
264
330
262
100
AcDbEntity
  8
CSLAYER1
  6
CONTINUOUS
 62
     3
100
AcDbLine
 10
203.8019999999999
 20
157.3285709999999
 30
0.0
 11
203.8019999999999
 21
160.5285709999999
 31
0.0
  0
LINE
  5
265
330
262
100
AcDbEntity
  8
CSLAYER1
  6
CONTINUOUS
 62
     3
100
AcDbLine
 10
203.8019999999999
 20
160.5285709999999
 30
0.0
 11
204.102
 21
160.8285709999998
 31
0.0
  0
LINE
  5
266
330
262
100
AcDbEntity
  8
CSLAYER1
  6
CONTINUOUS
 62
     4
100
AcDbLine
 10
203.8019999999999
 20
157.3285709999999
 30
0.0
 11
204.102
 21
157.3285709999999
 31
0.0
  0
LINE
  5
267
330
262
100
AcDbEntity
  8
CSLAYER1
  6
CONTINUOUS
 62
     4
100
AcDbLine
 10
203.8019999999999
 20
160.5285709999999
 30
0.0
 11
204.102
 21
160.5285709999999
 31
0.0
  0
LINE
  5
268
330
262
100
AcDbEntity
  8
CSLAYER1
  6
CONTINUOUS
 62
     3
100
AcDbLine
 10
204.102
 20
157.028571
 30
0.0
 11
203.8019999999999
 21
157.3285709999999
 31
0.0
  0
ENDBLK
  5
269
330
262
100
AcDbEntity
  8
0
100
AcDbBlockEnd
  0
BLOCK
  5
62D
330
621
100
AcDbEntity
  8
0
100
AcDbBlockBegin
  2
*D52
 70
     1
 10
0.0
 20
0.0
 30
0.0
  3
*D52
  1

  0
LINE
  5
622
330
621
100
AcDbEntity
  8
CSLAYER1
 62
     0
100
AcDbLine
 10
48.84903797131197
 20
156.5546057747219
 30
0.0
 11
60.21097959802257
 21
135.185900187214
 31
0.0
  0
ARC
  5
623
330
621
100
AcDbEntity
  8
CSLAYER1
 62
     0
100
AcDbCircle
 10
43.50260200000001
 20
166.6097899999999
 30
0.0
 40
35.40975601102395
100
AcDbArc
 50
270.2912545179149
 51
283.3704906879601
  0
ARC
  5
624
330
621
100
AcDbEntity
  8
CSLAYER1
 62
     0
100
AcDbCircle
 10
43.50260200000001
 20
166.6097899999999
 30
0.0
 40
35.40975601102395
100
AcDbArc
 50
284.6312371831881
 51
297.7087440678431
  0
SOLID
  5
625
330
621
100
AcDbEntity
  8
CSLAYER1
 62
     0
100
AcDbTrace
 10
43.68267766876257
 20
131.1704915869119
 30
0.0
 11
43.68252516841777
 21
131.2304913931087
 31
0.0
 12
43.50260199999998
 22
131.2000339889759
 32
0.0
 13
43.50260199999998
 23
131.2000339889759
 33
0.0
  0
SOLID
  5
626
330
621
100
AcDbEntity
  8
CSLAYER1
 62
     0
100
AcDbTrace
 10
59.95331310565225
 20
135.2872542408938
 30
0.0
 11
59.98134665731253
 21
135.2342059611732
 31
0.0
 12
60.12647472064402
 22
135.3448307560144
 32
0.0
 13
60.12647472064402
 23
135.3448307560144
 33
0.0
  0
MTEXT
  5
627
330
621
100
AcDbEntity
  8
CSLAYER1
 62
     0
100
AcDbMText
 10
52.0689968728772
 20
132.2518549683047
 30
0.0
 40
0.18
 41
0.0
 71
     5
 72
     1
  1
\A1;28°
1001
ACAD
1000
MTEXTBEGIN
1070
    73
1070
     1
1070
    44
1040
1.0
1070
    74
1070
     0
1000
MTEXTEND
1000
MTEXTBEGIN
1070
    73
1070
     1
1070
    44
1040
1.0
1070
    74
1070
     0
1000
MTEXTEND
  0
POINT
  5
628
330
621
100
AcDbEntity
  8
DEFPOINTS
 62
     0
100
AcDbPoint
 10
49.24528240005794
 20
131.6688048595801
 30
0.0
  0
POINT
  5
629
330
621
100
AcDbEntity
  8
DEFPOINTS
 62
     0
100
AcDbPoint
 10
43.50260200000001
 20
139.10979
 30
0.0
  0
POINT
  5
62A
330
621
100
AcDbEntity
  8
DEFPOINTS
 62
     0
100
AcDbPoint
 10
48.819696
 20
156.60979
 30
0.0
  0
POINT
  5
62B
330
621
100
AcDbEntity
  8
DEFPOINTS
 62
     0
100
AcDbPoint
 10
43.502602
 20
166.60979
 30
0.0
  0
POINT
  5
62C
330
621
100
AcDbEntity
  8
DEFPOINTS
 62
     0
100
AcDbPoint
 10
43.50260200000001
 20
128.485475
 30
0.0
  0
ENDBLK
  5
62E
330
621
100
AcDbEntity
  8
0
100
AcDbBlockEnd
  0
BLOCK
  5
63A
330
62F
100
AcDbEntity
  8
0
100
AcDbBlockBegin
  2
*D53
 70
     1
 10
0.0
 20
0.0
 30
0.0
  3
*D53
  1

  0
ARC
  5
630
330
62F
100
AcDbEntity
  8
CSLAYER1
 62
     0
100
AcDbCircle
 10
43.502602
 20
171.2183853602074
 30
0.0
 40
34.77872431252407
100
AcDbArc
 50
270.2965391062193
 51
279.393309958881
  0
ARC
  5
631
330
62F
100
AcDbEntity
  8
CSLAYER1
 62
     0
100
AcDbCircle
 10
43.502602
 20
171.2183853602074
 30
0.0
 40
34.77872431252407
100
AcDbArc
 50
280.6078253860576
 51
289.7034613247673
  0
SOLID
  5
632
330
62F
100
AcDbEntity
  8
CSLAYER1
 62
     0
100
AcDbTrace
 10
43.6826790309701
 20
136.4101269501519
 30
0.0
 11
43.6825237636305
 21
136.4701267492522
 31
0.0
 12
43.50260199999998
 22
136.439661047683
 32
0.0
 13
43.50260199999998
 23
136.439661047683
 33
0.0
  0
SOLID
  5
633
330
62F
100
AcDbEntity
  8
CSLAYER1
 62
     0
100
AcDbTrace
 10
55.21813548291477
 20
138.504166379074
 30
0.0
 11
55.23851071965371
 21
138.4477319062064
 31
0.0
 12
55.39762651988674
 22
138.5370748528569
 32
0.0
 13
55.39762651988674
 23
138.5370748528569
 33
0.0
  0
MTEXT
  5
634
330
62F
100
AcDbEntity
  8
CSLAYER1
 62
     0
100
AcDbMText
 10
49.54186422726834
 20
136.9680280400735
 30
0.0
 40
0.18
 41
0.0
 71
     5
 72
     1
  1
\A1;20°
1001
ACAD
1000
MTEXTBEGIN
1070
    73
1070
     1
1070
    44
1040
1.0
1070
    74
1070
     0
1000
MTEXTEND
1000
MTEXTBEGIN
1070
    73
1070
     1
1070
    44
1040
1.0
1070
    74
1070
     0
1000
MTEXTEND
  0
POINT
  5
635
330
62F
100
AcDbEntity
  8
DEFPOINTS
 62
     0
100
AcDbPoint
 10
47.54016554161274
 20
136.6748223497999
 30
0.0
  0
POINT
  5
636
330
62F
100
AcDbEntity
  8
DEFPOINTS
 62
     0
100
AcDbPoint
 10
43.502602
 20
139.10979
 30
0.0
  0
POINT
  5
637
330
62F
100
AcDbEntity
  8
DEFPOINTS
 62
     0
100
AcDbPoint
 10
58.26345500000001
 20
130.663276
 30
0.0
  0
POINT
  5
638
330
62F
100
AcDbEntity
  8
DEFPOINTS
 62
     0
100
AcDbPoint
 10
48.81969599999999
 20
156.60979
 30
0.0
  0
POINT
  5
639
330
62F
100
AcDbEntity
  8
DEFPOINTS
 62
     0
100
AcDbPoint
 10
43.50260200000001
 20
128.485475
 30
0.0
  0
ENDBLK
  5
63B
330
62F
100
AcDbEntity
  8
0
100
AcDbBlockEnd
  0
BLOCK
  5
647
330
63C
100
AcDbEntity
  8
0
100
AcDbBlockBegin
  2
*D54
 70
     1
 10
0.0
 20
0.0
 30
0.0
  3
*D54
  1

  0
ARC
  5
657
330
63C
100
AcDbEntity
  8
CSLAYER1
 62
     0
100
AcDbCircle
 10
43.50260199999999
 20
164.1097899999999
 30
0.0
 40
20.74630824067813
100
AcDbArc
 50
269.0057727340237
 51
269.5028863670117
  0
ARC
  5
658
330
63C
100
AcDbEntity
  8
CSLAYER1
 62
     0
100
AcDbCircle
 10
43.50260199999999
 20
164.1097899999999
 30
0.0
 40
20.74630824067813
100
AcDbArc
 50
273.4971140617383
 51
273.9942276947264
  0
SOLID
  5
659
330
63C
100
AcDbEntity
  8
CSLAYER1
 62
     0
100
AcDbTrace
 10
43.32273383738114
 20
143.3942623388505
 30
0.0
 11
43.32247355010799
 21
143.3342629034321
 31
0.0
 12
43.50260199999998
 22
143.3634817593218
 32
0.0
 13
43.50260199999998
 23
143.3634817593218
 33
0.0
  0
SOLID
  5
65A
330
63C
100
AcDbEntity
  8
CSLAYER1
 62
     0
100
AcDbTrace
 10
44.76979082234355
 20
143.3721622454274
 30
0.0
 11
44.76639076351013
 21
143.4320658312961
 31
0.0
 12
44.58838003532071
 22
143.3919138618614
 32
0.0
 13
44.58838003532071
 23
143.3919138618614
 33
0.0
  0
MTEXT
  5
65B
330
63C
100
AcDbEntity
  8
CSLAYER1
 62
     0
100
AcDbMText
 10
44.04567711599218
 20
143.3705910030371
 30
0.0
 40
0.18
 41
0.0
 71
     5
 72
     1
  1
\A1;3°
1001
ACAD
1000
MTEXTBEGIN
1070
    73
1070
     1
1070
    44
1040
1.0
1070
    74
1070
     0
1000
MTEXTEND
  0
POINT
  5
65C
330
63C
100
AcDbEntity
  8
DEFPOINTS
 62
     0
100
AcDbPoint
 10
43.86467505523049
 20
143.3666415234569
 30
0.0
  0
POINT
  5
65D
330
63C
100
AcDbEntity
  8
DEFPOINTS
 62
     0
100
AcDbPoint
 10
43.502602
 20
164.1097899999999
 30
0.0
  0
POINT
  5
65E
330
63C
100
AcDbEntity
  8
DEFPOINTS
 62
     0
100
AcDbPoint
 10
44.78303999999999
 20
139.6775809999999
 30
0.0
  0
POINT
  5
65F
330
63C
100
AcDbEntity
  8
DEFPOINTS
 62
     0
100
AcDbPoint
 10
43.502602
 20
164.1097899999999
 30
0.0
  0
POINT
  5
660
330
63C
100
AcDbEntity
  8
DEFPOINTS
 62
     0
100
AcDbPoint
 10
43.502602
 20
142.3589819999998
 30
0.0
  0
ENDBLK
  5
648
330
63C
100
AcDbEntity
  8
0
100
AcDbBlockEnd
  0
ENDSEC
  0
SECTION
  2
ENTITIES
  0
LINE
  5
26A
330
1E
100
AcDbEntity
  8
CSLAYER1
  6
CONTINUOUS
 62
     3
100
AcDbLine
 10
99.14142900000001
 20
39.928571
 30
0.0
 11
99.14142900000001
 21
163.428571
 31
0.0
  0
LINE
  5
26B
330
1E
100
AcDbEntity
  8
CSLAYER1
  6
CONTINUOUS
 62
     3
100
AcDbLine
 10
99.14142900000001
 20
163.428571
 30
0.0
 11
130.141429
 21
163.428571
 31
0.0
  0
LINE
  5
26C
330
1E
100
AcDbEntity
  8
CSLAYER1
  6
CONTINUOUS
 62
     3
100
AcDbLine
 10
130.141429
 20
163.428571
 30
0.0
 11
130.141429
 21
128.428571
 31
0.0
  0
LINE
  5
26D
330
1E
100
AcDbEntity
  8
CSLAYER1
  6
CONTINUOUS
 62
     3
100
AcDbLine
 10
130.141429
 20
128.428571
 30
0.0
 11
107.141429
 21
128.428571
 31
0.0
  0
LINE
  5
26E
330
1E
100
AcDbEntity
  8
CSLAYER1
  6
CONTINUOUS
 62
     3
100
AcDbLine
 10
107.6414289999999
 20
128.428571
 30
0.0
 11
107.6414289999999
 21
127.228571
 31
0.0
  0
LINE
  5
26F
330
1E
100
AcDbEntity
  8
CSLAYER1
  6
CONTINUOUS
 62
     3
100
AcDbLine
 10
107.6414289999999
 20
127.228571
 30
0.0
 11
122.641429
 21
127.228571
 31
0.0
  0
LINE
  5
270
330
1E
100
AcDbEntity
  8
CSLAYER1
  6
CONTINUOUS
 62
     3
100
AcDbLine
 10
122.641429
 20
127.228571
 30
0.0
 11
122.641429
 21
128.428571
 31
0.0
  0
LINE
  5
271
330
1E
100
AcDbEntity
  8
CSLAYER1
  6
CONTINUOUS
 62
     3
100
AcDbLine
 10
123.141429
 20
126.9285709999999
 30
0.0
 11
123.141429
 21
213.4285709999999
 31
0.0
  0
LINE
  5
272
330
1E
100
AcDbEntity
  8
CSLAYER1
  6
CONTINUOUS
 62
     3
100
AcDbLine
 10
123.141429
 20
213.4285709999999
 30
0.0
 11
115.1414289999999
 21
213.4285709999999
 31
0.0
  0
LINE
  5
273
330
1E
100
AcDbEntity
  8
CSLAYER1
  6
CONTINUOUS
 62
     3
100
AcDbLine
 10
115.1414289999999
 20
213.4285709999999
 30
0.0
 11
115.1414289999999
 21
164.6285709999999
 31
0.0
  0
LINE
  5
274
330
1E
100
AcDbEntity
  8
CSLAYER1
  6
CONTINUOUS
 62
     3
100
AcDbLine
 10
115.1414289999999
 20
165.428571
 30
0.0
 11
123.141429
 21
165.428571
 31
0.0
  0
LINE
  5
275
330
1E
100
AcDbEntity
  8
CSLAYER1
  6
CONTINUOUS
 62
     3
100
AcDbLine
 10
122.641429
 20
164.6285709999999
 30
0.0
 11
107.6414289999999
 21
164.6285709999999
 31
0.0
  0
LINE
  5
276
330
1E
100
AcDbEntity
  8
CSLAYER1
  6
CONTINUOUS
 62
     3
100
AcDbLine
 10
107.6414289999999
 20
164.6285709999999
 30
0.0
 11
107.6414289999999
 21
163.428571
 31
0.0
  0
LINE
  5
277
330
1E
100
AcDbEntity
  8
CSLAYER1
  6
CONTINUOUS
 62
     3
100
AcDbLine
 10
107.141429
 20
163.428571
 30
0.0
 11
107.141429
 21
80.42857099999997
 31
0.0
  0
LINE
  5
278
330
1E
100
AcDbEntity
  8
CSLAYER1
  6
CONTINUOUS
 62
     3
100
AcDbLine
 10
99.14142900000001
 20
80.42857099999997
 30
0.0
 11
139.141429
 21
80.42857099999997
 31
0.0
  0
LINE
  5
279
330
1E
100
AcDbEntity
  8
CSLAYER1
  6
CONTINUOUS
 62
     3
100
AcDbLine
 10
139.141429
 20
72.42857099999998
 30
0.0
 11
99.14142900000001
 21
72.42857099999998
 31
0.0
  0
LINE
  5
27A
330
1E
100
AcDbEntity
  8
CSLAYER1
  6
CONTINUOUS
 62
     3
100
AcDbLine
 10
99.541429
 20
72.42857099999998
 30
0.0
 11
99.541429
 21
39.928571
 31
0.0
  0
LINE
  5
27B
330
1E
100
AcDbEntity
  8
CSLAYER1
  6
CONTINUOUS
 62
     3
100
AcDbLine
 10
99.14142900000001
 20
39.928571
 30
0.0
 11
139.141429
 21
39.928571
 31
0.0
  0
LINE
  5
27C
330
1E
100
AcDbEntity
  8
CSLAYER1
  6
CONTINUOUS
 62
     3
100
AcDbLine
 10
139.141429
 20
39.928571
 30
0.0
 11
139.141429
 21
118.4285709999999
 31
0.0
  0
LINE
  5
27D
330
1E
100
AcDbEntity
  8
CSLAYER1
  6
CONTINUOUS
 62
     3
100
AcDbLine
 10
139.141429
 20
118.4285709999999
 30
0.0
 11
128.741429
 21
118.4285709999999
 31
0.0
  0
LINE
  5
27E
330
1E
100
AcDbEntity
  8
CSLAYER1
  6
CONTINUOUS
 62
     3
100
AcDbLine
 10
128.741429
 20
126.9285709999999
 30
0.0
 11
128.741429
 21
80.42857099999997
 31
0.0
  0
LINE
  5
27F
330
1E
100
AcDbEntity
  8
CSLAYER1
  6
CONTINUOUS
 62
     3
100
AcDbLine
 10
128.141429
 20
72.42857099999998
 30
0.0
 11
128.141429
 21
39.928571
 31
0.0
  0
LINE
  5
280
330
1E
100
AcDbEntity
  8
CSLAYER1
  6
CONTINUOUS
 62
     3
100
AcDbLine
 10
124.141429
 20
39.928571
 30
0.0
 11
124.141429
 21
72.42857099999998
 31
0.0
  0
LINE
  5
281
330
1E
100
AcDbEntity
  8
CSLAYER1
  6
CONTINUOUS
 62
     3
100
AcDbLine
 10
114.1414289999999
 20
72.42857099999998
 30
0.0
 11
114.1414289999999
 21
39.928571
 31
0.0
  0
CIRCLE
  5
282
330
1E
100
AcDbEntity
  8
CSLAYER1
  6
CONTINUOUS
 62
     3
100
AcDbCircle
 10
119.1414289999999
 20
45.428571
 30
0.0
 40
2.1
  0
CIRCLE
  5
283
330
1E
100
AcDbEntity
  8
CSLAYER1
  6
CONTINUOUS
 62
     3
100
AcDbCircle
 10
119.1414289999999
 20
61.428571
 30
0.0
 40
2.1
  0
LINE
  5
284
330
1E
100
AcDbEntity
  8
CSLAYER1
  6
CONTINUOUS
 62
     3
100
AcDbLine
 10
138.741429
 20
72.42857099999998
 30
0.0
 11
138.741429
 21
39.928571
 31
0.0
  0
LINE
  5
285
330
1E
100
AcDbEntity
  8
CSLAYER1
  6
CONTINUOUS
 62
     3
100
AcDbLine
 10
202.802
 20
39.928571
 30
0.0
 11
202.802
 21
72.42857099999998
 31
0.0
  0
LINE
  5
286
330
1E
100
AcDbEntity
  8
CSLAYER1
  6
CONTINUOUS
 62
     3
100
AcDbLine
 10
203.202
 20
72.42857099999998
 30
0.0
 11
203.202
 21
39.928571
 31
0.0
  0
LINE
  5
287
330
1E
100
AcDbEntity
  8
CSLAYER1
  6
CONTINUOUS
 62
     3
100
AcDbLine
 10
202.802
 20
39.928571
 30
0.0
 11
242.802
 21
39.928571
 31
0.0
  0
LINE
  5
288
330
1E
100
AcDbEntity
  8
CSLAYER1
  6
CONTINUOUS
 62
     3
100
AcDbLine
 10
242.802
 20
39.928571
 30
0.0
 11
242.802
 21
72.42857099999998
 31
0.0
  0
LINE
  5
289
330
1E
100
AcDbEntity
  8
CSLAYER1
  6
CONTINUOUS
 62
     3
100
AcDbLine
 10
242.402
 20
72.42857099999998
 30
0.0
 11
242.402
 21
39.928571
 31
0.0
  0
LINE
  5
28A
330
1E
100
AcDbEntity
  8
CSLAYER1
  6
CONTINUOUS
 62
     3
100
AcDbLine
 10
231.802
 20
39.928571
 30
0.0
 11
231.802
 21
72.42857099999998
 31
0.0
  0
LINE
  5
28B
330
1E
100
AcDbEntity
  8
CSLAYER1
  6
CONTINUOUS
 62
     3
100
AcDbLine
 10
236.402
 20
80.42857099999997
 30
0.0
 11
236.402
 21
126.9285709999999
 31
0.0
  0
LINE
  5
28C
330
1E
100
AcDbEntity
  8
CSLAYER1
  6
CONTINUOUS
 62
     3
100
AcDbLine
 10
238.302
 20
127.228571
 30
0.0
 11
238.302
 21
128.428571
 31
0.0
  0
LINE
  5
28D
330
1E
100
AcDbEntity
  8
CSLAYER1
  6
CONTINUOUS
 62
     3
100
AcDbLine
 10
245.8019999999999
 20
126.9285709999999
 30
0.0
 11
209.202
 21
126.9285709999999
 31
0.0
  0
LINE
  5
28E
330
1E
100
AcDbEntity
  8
CSLAYER1
  6
CONTINUOUS
 62
     3
100
AcDbLine
 10
209.202
 20
126.9285709999999
 30
0.0
 11
209.202
 21
80.42857099999997
 31
0.0
  0
LINE
  5
28F
330
1E
100
AcDbEntity
  8
CSLAYER1
  6
CONTINUOUS
 62
     3
100
AcDbLine
 10
200.3019999999999
 20
80.42857099999997
 30
0.0
 11
260.802
 21
80.42857099999997
 31
0.0
  0
LINE
  5
290
330
1E
100
AcDbEntity
  8
CSLAYER1
  6
CONTINUOUS
 62
     3
100
AcDbLine
 10
252.802
 20
80.42857099999997
 30
0.0
 11
252.802
 21
118.4285709999999
 31
0.0
  0
LINE
  5
291
330
1E
100
AcDbEntity
  8
CSLAYER1
  6
CONTINUOUS
 62
     3
100
AcDbLine
 10
252.802
 20
118.4285709999999
 30
0.0
 11
260.802
 21
118.4285709999999
 31
0.0
  0
ARC
  5
292
330
1E
100
AcDbEntity
  8
CSLAYER1
  6
CONTINUOUS
 62
     3
100
AcDbCircle
 10
258.9816809999999
 20
126.468478
 30
0.0
 40
1.0
100
AcDbArc
 50
286.2570279999999
 51
355.0
  0
LINE
  5
293
330
1E
100
AcDbEntity
  8
CSLAYER1
  6
CONTINUOUS
 62
     3
100
AcDbLine
 10
259.977875
 20
126.381323
 30
0.0
 11
260.052
 21
127.228571
 31
0.0
  0
LINE
  5
294
330
1E
100
AcDbEntity
  8
CSLAYER1
  6
CONTINUOUS
 62
     3
100
AcDbLine
 10
260.302
 20
127.228571
 30
0.0
 11
228.302
 21
127.228571
 31
0.0
  0
LINE
  5
295
330
1E
100
AcDbEntity
  8
CSLAYER1
  6
CONTINUOUS
 62
     3
100
AcDbLine
 10
228.302
 20
126.9285709999999
 30
0.0
 11
228.302
 21
128.428571
 31
0.0
  0
LINE
  5
296
330
1E
100
AcDbEntity
  8
CSLAYER1
  6
CONTINUOUS
 62
     3
100
AcDbLine
 10
228.8019999999999
 20
128.428571
 30
0.0
 11
228.8019999999999
 21
127.228571
 31
0.0
  0
LINE
  5
297
330
1E
100
AcDbEntity
  8
CSLAYER1
  6
CONTINUOUS
 62
     3
100
AcDbLine
 10
225.552
 20
134.3408579999999
 30
0.0
 11
222.8019999999999
 21
132.7531449999999
 31
0.0
  0
LINE
  5
298
330
1E
100
AcDbEntity
  8
CSLAYER1
  6
CONTINUOUS
 62
     3
100
AcDbLine
 10
222.8019999999999
 20
132.7531449999999
 30
0.0
 11
220.052
 21
134.3408579999999
 31
0.0
  0
LINE
  5
299
330
1E
100
AcDbEntity
  8
CSLAYER1
  6
CONTINUOUS
 62
     3
100
AcDbLine
 10
220.052
 20
134.3408579999999
 30
0.0
 11
220.052
 21
137.516285
 31
0.0
  0
LINE
  5
29A
330
1E
100
AcDbEntity
  8
CSLAYER1
  6
CONTINUOUS
 62
     3
100
AcDbLine
 10
220.052
 20
137.516285
 30
0.0
 11
222.8019999999999
 21
139.1039979999999
 31
0.0
  0
LINE
  5
29B
330
1E
100
AcDbEntity
  8
CSLAYER1
  6
CONTINUOUS
 62
     3
100
AcDbLine
 10
222.8019999999999
 20
139.1039979999999
 30
0.0
 11
225.552
 21
137.516285
 31
0.0
  0
LINE
  5
29C
330
1E
100
AcDbEntity
  8
CSLAYER1
  6
CONTINUOUS
 62
     3
100
AcDbLine
 10
225.552
 20
137.516285
 30
0.0
 11
225.552
 21
134.3408579999999
 31
0.0
  0
CIRCLE
  5
29D
330
1E
100
AcDbEntity
  8
CSLAYER1
  6
CONTINUOUS
 62
     3
100
AcDbCircle
 10
222.8019999999999
 20
135.9285709999997
 30
0.0
 40
2.75
  0
CIRCLE
  5
29E
330
1E
100
AcDbEntity
  8
CSLAYER1
  6
CONTINUOUS
 62
     3
100
AcDbCircle
 10
222.8019999999999
 20
135.9285709999997
 30
0.0
 40
1.5
  0
LINE
  5
29F
330
1E
100
AcDbEntity
  8
CSLAYER1
  6
CONTINUOUS
 62
     3
100
AcDbLine
 10
222.8019999999999
 20
152.7531449999998
 30
0.0
 11
225.552
 21
154.3408579999999
 31
0.0
  0
LINE
  5
2A0
330
1E
100
AcDbEntity
  8
CSLAYER1
  6
CONTINUOUS
 62
     3
100
AcDbLine
 10
225.552
 20
154.3408579999999
 30
0.0
 11
225.552
 21
157.516285
 31
0.0
  0
LINE
  5
2A1
330
1E
100
AcDbEntity
  8
CSLAYER1
  6
CONTINUOUS
 62
     3
100
AcDbLine
 10
225.552
 20
157.516285
 30
0.0
 11
222.8019999999999
 21
159.1039979999998
 31
0.0
  0
LINE
  5
2A2
330
1E
100
AcDbEntity
  8
CSLAYER1
  6
CONTINUOUS
 62
     3
100
AcDbLine
 10
222.8019999999999
 20
159.1039979999998
 30
0.0
 11
220.052
 21
157.516285
 31
0.0
  0
LINE
  5
2A3
330
1E
100
AcDbEntity
  8
CSLAYER1
  6
CONTINUOUS
 62
     3
100
AcDbLine
 10
220.052
 20
157.516285
 30
0.0
 11
220.052
 21
154.3408579999999
 31
0.0
  0
LINE
  5
2A4
330
1E
100
AcDbEntity
  8
CSLAYER1
  6
CONTINUOUS
 62
     3
100
AcDbLine
 10
220.052
 20
154.3408579999999
 30
0.0
 11
222.8019999999999
 21
152.7531449999998
 31
0.0
  0
CIRCLE
  5
2A5
330
1E
100
AcDbEntity
  8
CSLAYER1
  6
CONTINUOUS
 62
     3
100
AcDbCircle
 10
222.8019999999999
 20
155.928571
 30
0.0
 40
1.5
  0
CIRCLE
  5
2A6
330
1E
100
AcDbEntity
  8
CSLAYER1
  6
CONTINUOUS
 62
     3
100
AcDbCircle
 10
222.8019999999999
 20
155.928571
 30
0.0
 40
2.75
  0
LINE
  5
2A7
330
1E
100
AcDbEntity
  8
CSLAYER1
  6
CONTINUOUS
 62
     3
100
AcDbLine
 10
256.002
 20
154.179127
 30
0.0
 11
256.002
 21
152.6780159999999
 31
0.0
  0
LINE
  5
2A8
330
1E
100
AcDbEntity
  8
CSLAYER1
  6
CONTINUOUS
 62
     3
100
AcDbLine
 10
256.002
 20
152.6780159999999
 30
0.0
 11
257.302
 21
151.927461
 31
0.0
  0
LINE
  5
2A9
330
1E
100
AcDbEntity
  8
CSLAYER1
  6
CONTINUOUS
 62
     3
100
AcDbLine
 10
257.302
 20
151.927461
 30
0.0
 11
258.6019999999999
 21
152.6780159999999
 31
0.0
  0
LINE
  5
2AA
330
1E
100
AcDbEntity
  8
CSLAYER1
  6
CONTINUOUS
 62
     3
100
AcDbLine
 10
258.6019999999999
 20
152.6780159999999
 30
0.0
 11
258.6019999999999
 21
154.179127
 31
0.0
  0
LINE
  5
2AB
330
1E
100
AcDbEntity
  8
CSLAYER1
  6
CONTINUOUS
 62
     3
100
AcDbLine
 10
258.6019999999999
 20
154.179127
 30
0.0
 11
257.302
 21
154.929682
 31
0.0
  0
LINE
  5
2AC
330
1E
100
AcDbEntity
  8
CSLAYER1
  6
CONTINUOUS
 62
     3
100
AcDbLine
 10
257.302
 20
154.929682
 30
0.0
 11
256.002
 21
154.179127
 31
0.0
  0
CIRCLE
  5
2AD
330
1E
100
AcDbEntity
  8
CSLAYER1
  6
CONTINUOUS
 62
     3
100
AcDbCircle
 10
257.302
 20
153.4285709999998
 30
0.0
 40
2.75
  0
LINE
  5
2AE
330
1E
100
AcDbEntity
  8
CSLAYER1
  6
CONTINUOUS
 62
     3
100
AcDbLine
 10
258.6019999999999
 20
139.1791269999999
 30
0.0
 11
257.302
 21
139.929682
 31
0.0
  0
LINE
  5
2AF
330
1E
100
AcDbEntity
  8
CSLAYER1
  6
CONTINUOUS
 62
     3
100
AcDbLine
 10
257.302
 20
139.929682
 30
0.0
 11
256.002
 21
139.1791269999999
 31
0.0
  0
LINE
  5
2B0
330
1E
100
AcDbEntity
  8
CSLAYER1
  6
CONTINUOUS
 62
     3
100
AcDbLine
 10
256.002
 20
139.1791269999999
 30
0.0
 11
256.002
 21
137.6780159999997
 31
0.0
  0
LINE
  5
2B1
330
1E
100
AcDbEntity
  8
CSLAYER1
  6
CONTINUOUS
 62
     3
100
AcDbLine
 10
256.002
 20
137.6780159999997
 30
0.0
 11
257.302
 21
136.927461
 31
0.0
  0
LINE
  5
2B2
330
1E
100
AcDbEntity
  8
CSLAYER1
  6
CONTINUOUS
 62
     3
100
AcDbLine
 10
257.302
 20
136.927461
 30
0.0
 11
258.6019999999999
 21
137.6780159999997
 31
0.0
  0
LINE
  5
2B3
330
1E
100
AcDbEntity
  8
CSLAYER1
  6
CONTINUOUS
 62
     3
100
AcDbLine
 10
258.6019999999999
 20
137.6780159999997
 30
0.0
 11
258.6019999999999
 21
139.1791269999999
 31
0.0
  0
CIRCLE
  5
2B4
330
1E
100
AcDbEntity
  8
CSLAYER1
  6
CONTINUOUS
 62
     3
100
AcDbCircle
 10
257.302
 20
138.428571
 30
0.0
 40
2.75
  0
LINE
  5
2B5
330
1E
100
AcDbEntity
  8
CSLAYER1
  6
CONTINUOUS
 62
     3
100
AcDbLine
 10
260.302
 20
128.428571
 30
0.0
 11
207.302
 21
128.428571
 31
0.0
  0
LINE
  5
2B6
330
1E
100
AcDbEntity
  8
CSLAYER1
  6
CONTINUOUS
 62
     3
100
AcDbLine
 10
207.302
 20
127.228571
 30
0.0
 11
207.302
 21
164.6285709999999
 31
0.0
  0
LINE
  5
2B7
330
1E
100
AcDbEntity
  8
CSLAYER1
  6
CONTINUOUS
 62
     3
100
AcDbLine
 10
207.302
 20
164.6285709999999
 30
0.0
 11
217.302
 21
164.6285709999999
 31
0.0
  0
ARC
  5
2B8
330
1E
100
AcDbEntity
  8
CSLAYER1
  6
CONTINUOUS
 62
     3
100
AcDbCircle
 10
216.3019999999999
 20
164.428571
 30
0.0
 40
1.0
100
AcDbArc
 50
0.0
 51
90.0
  0
LINE
  5
2B9
330
1E
100
AcDbEntity
  8
CSLAYER1
  6
CONTINUOUS
 62
     3
100
AcDbLine
 10
216.3019999999999
 20
165.428571
 30
0.0
 11
198.3019999999999
 21
165.428571
 31
0.0
  0
LINE
  5
2BA
330
1E
100
AcDbEntity
  8
CSLAYER1
  6
CONTINUOUS
 62
     3
100
AcDbLine
 10
198.3019999999999
 20
165.428571
 30
0.0
 11
198.3019999999999
 21
176.428571
 31
0.0
  0
LINE
  5
2BB
330
1E
100
AcDbEntity
  8
CSLAYER1
  6
CONTINUOUS
 62
     3
100
AcDbLine
 10
198.3019999999999
 20
176.428571
 30
0.0
 11
237.8019999999999
 21
176.428571
 31
0.0
  0
LINE
  5
2BC
330
1E
100
AcDbEntity
  8
CSLAYER1
  6
CONTINUOUS
 62
     3
100
AcDbLine
 10
237.8019999999999
 20
176.428571
 30
0.0
 11
237.8019999999999
 21
165.428571
 31
0.0
  0
LINE
  5
2BD
330
1E
100
AcDbEntity
  8
CSLAYER1
  6
CONTINUOUS
 62
     3
100
AcDbLine
 10
237.8019999999999
 20
165.428571
 30
0.0
 11
229.3019999999999
 21
165.428571
 31
0.0
  0
ARC
  5
2BE
330
1E
100
AcDbEntity
  8
CSLAYER1
  6
CONTINUOUS
 62
     3
100
AcDbCircle
 10
229.3019999999999
 20
164.428571
 30
0.0
 40
1.0
100
AcDbArc
 50
90.0
 51
180.0
  0
LINE
  5
2BF
330
1E
100
AcDbEntity
  8
CSLAYER1
  6
CONTINUOUS
 62
     3
100
AcDbLine
 10
228.302
 20
164.428571
 30
0.0
 11
228.302
 21
163.428571
 31
0.0
  0
LINE
  5
2C0
330
1E
100
AcDbEntity
  8
CSLAYER1
  6
CONTINUOUS
 62
     3
100
AcDbLine
 10
228.8019999999999
 20
163.428571
 30
0.0
 11
228.8019999999999
 21
164.6285709999999
 31
0.0
  0
LINE
  5
2C1
330
1E
100
AcDbEntity
  8
CSLAYER1
  6
CONTINUOUS
 62
     3
100
AcDbLine
 10
228.302
 20
164.6285709999999
 30
0.0
 11
238.802
 21
164.6285709999999
 31
0.0
  0
LINE
  5
2C2
330
1E
100
AcDbEntity
  8
CSLAYER1
  6
CONTINUOUS
 62
     3
100
AcDbLine
 10
238.302
 20
164.6285709999999
 30
0.0
 11
238.302
 21
163.428571
 31
0.0
  0
LINE
  5
2C3
330
1E
100
AcDbEntity
  8
CSLAYER1
  6
CONTINUOUS
 62
     3
100
AcDbLine
 10
238.802
 20
163.428571
 30
0.0
 11
238.802
 21
191.428571
 31
0.0
  0
ARC
  5
2C4
330
1E
100
AcDbEntity
  8
CSLAYER1
  6
CONTINUOUS
 62
     3
100
AcDbCircle
 10
233.8019999999999
 20
191.428571
 30
0.0
 40
5.0
100
AcDbArc
 50
0.0
 51
90.0
  0
LINE
  5
2C5
330
1E
100
AcDbEntity
  8
CSLAYER1
  6
CONTINUOUS
 62
     3
100
AcDbLine
 10
233.8019999999999
 20
196.428571
 30
0.0
 11
230.9567009999999
 21
196.428571
 31
0.0
  0
LINE
  5
2C6
330
1E
100
AcDbEntity
  8
CSLAYER1
  6
CONTINUOUS
 62
     3
100
AcDbLine
 10
230.9567009999999
 20
196.428571
 30
0.0
 11
229.802
 21
198.428571
 31
0.0
  0
LINE
  5
2C7
330
1E
100
AcDbEntity
  8
CSLAYER1
  6
CONTINUOUS
 62
     3
100
AcDbLine
 10
229.802
 20
198.428571
 30
0.0
 11
209.8019999999999
 21
198.428571
 31
0.0
  0
LINE
  5
2C8
330
1E
100
AcDbEntity
  8
CSLAYER1
  6
CONTINUOUS
 62
     3
100
AcDbLine
 10
209.8019999999999
 20
198.428571
 30
0.0
 11
208.6472989999999
 21
196.428571
 31
0.0
  0
LINE
  5
2C9
330
1E
100
AcDbEntity
  8
CSLAYER1
  6
CONTINUOUS
 62
     3
100
AcDbLine
 10
208.6472989999999
 20
196.428571
 30
0.0
 11
207.8019999999999
 21
196.428571
 31
0.0
  0
LINE
  5
2CA
330
1E
100
AcDbEntity
  8
CSLAYER1
  6
CONTINUOUS
 62
     3
100
AcDbLine
 10
207.8019999999999
 20
196.428571
 30
0.0
 11
207.8019999999999
 21
213.4285709999999
 31
0.0
  0
LINE
  5
2CB
330
1E
100
AcDbEntity
  8
CSLAYER1
  6
CONTINUOUS
 62
     3
100
AcDbLine
 10
207.8019999999999
 20
213.4285709999999
 30
0.0
 11
245.8019999999999
 21
213.4285709999999
 31
0.0
  0
LINE
  5
2CC
330
1E
100
AcDbEntity
  8
CSLAYER1
  6
CONTINUOUS
 62
     3
100
AcDbLine
 10
245.8019999999999
 20
213.4285709999999
 30
0.0
 11
250.802
 21
208.428571
 31
0.0
  0
LINE
  5
2CD
330
1E
100
AcDbEntity
  8
CSLAYER1
  6
CONTINUOUS
 62
     3
100
AcDbLine
 10
250.802
 20
208.428571
 30
0.0
 11
250.802
 21
163.428571
 31
0.0
  0
LINE
  5
2CE
330
1E
100
AcDbEntity
  8
CSLAYER1
  6
CONTINUOUS
 62
     3
100
AcDbLine
 10
251.302
 20
163.428571
 30
0.0
 11
251.302
 21
164.6285709999999
 31
0.0
  0
LINE
  5
2CF
330
1E
100
AcDbEntity
  8
CSLAYER1
  6
CONTINUOUS
 62
     3
100
AcDbLine
 10
250.802
 20
164.6285709999999
 30
0.0
 11
260.302
 21
164.6285709999999
 31
0.0
  0
LINE
  5
2D0
330
1E
100
AcDbEntity
  8
CSLAYER1
  6
CONTINUOUS
 62
     3
100
AcDbLine
 10
260.302
 20
164.6285709999999
 30
0.0
 11
260.302
 21
127.228571
 31
0.0
  0
ARC
  5
2D1
330
1E
100
AcDbEntity
  8
CSLAYER1
  6
CONTINUOUS
 62
     3
100
AcDbCircle
 10
257.302
 20
132.2285709999997
 30
0.0
 40
7.0
100
AcDbArc
 50
253.7429719999999
 51
286.2570279999999
  0
ARC
  5
2D2
330
1E
100
AcDbEntity
  8
CSLAYER1
  6
CONTINUOUS
 62
     3
100
AcDbCircle
 10
255.622319
 20
126.468478
 30
0.0
 40
1.0
100
AcDbArc
 50
185.0
 51
253.7429719999999
  0
LINE
  5
2D3
330
1E
100
AcDbEntity
  8
CSLAYER1
  6
CONTINUOUS
 62
     3
100
AcDbLine
 10
254.626125
 20
126.381323
 30
0.0
 11
254.5519999999999
 21
127.228571
 31
0.0
  0
LINE
  5
2D4
330
1E
100
AcDbEntity
  8
CSLAYER1
  6
CONTINUOUS
 62
     3
100
AcDbLine
 10
251.302
 20
127.228571
 30
0.0
 11
251.302
 21
128.428571
 31
0.0
  0
LINE
  5
2D5
330
1E
100
AcDbEntity
  8
CSLAYER1
  6
CONTINUOUS
 62
     3
100
AcDbLine
 10
245.8019999999999
 20
126.9285709999999
 30
0.0
 11
245.8019999999999
 21
80.42857099999997
 31
0.0
  0
LINE
  5
2D6
330
1E
100
AcDbEntity
  8
CSLAYER1
  6
CONTINUOUS
 62
     3
100
AcDbLine
 10
260.802
 20
72.42857099999998
 30
0.0
 11
200.3019999999999
 21
72.42857099999998
 31
0.0
  0
LINE
  5
2D7
330
1E
100
AcDbEntity
  8
CSLAYER1
  6
CONTINUOUS
 62
     3
100
AcDbLine
 10
200.3019999999999
 20
72.42857099999998
 30
0.0
 11
200.3019999999999
 21
163.428571
 31
0.0
  0
LINE
  5
2D8
330
1E
100
AcDbEntity
  8
CSLAYER1
  6
CONTINUOUS
 62
     3
100
AcDbLine
 10
200.3019999999999
 20
163.428571
 30
0.0
 11
260.802
 21
163.428571
 31
0.0
  0
LINE
  5
2D9
330
1E
100
AcDbEntity
  8
CSLAYER1
  6
CONTINUOUS
 62
     3
100
AcDbLine
 10
260.802
 20
163.428571
 30
0.0
 11
260.802
 21
72.42857099999998
 31
0.0
  0
LINE
  5
2DA
330
1E
100
AcDbEntity
  8
CSLAYER1
  6
CONTINUOUS
 62
     3
100
AcDbLine
 10
304.495714
 20
72.42857099999998
 30
0.0
 11
344.495714
 21
72.42857099999998
 31
0.0
  0
LINE
  5
2DB
330
1E
100
AcDbEntity
  8
CSLAYER1
  6
CONTINUOUS
 62
     3
100
AcDbLine
 10
344.1225549999998
 20
72.42857099999998
 30
0.0
 11
344.1225549999998
 21
39.928571
 31
0.0
  0
LINE
  5
2DC
330
1E
100
AcDbEntity
  8
CSLAYER1
  6
CONTINUOUS
 62
     3
100
AcDbLine
 10
344.495714
 20
39.928571
 30
0.0
 11
304.495714
 21
39.928571
 31
0.0
  0
LINE
  5
2DD
330
1E
100
AcDbEntity
  8
CSLAYER1
  6
CONTINUOUS
 62
     3
100
AcDbLine
 10
304.495714
 20
39.928571
 30
0.0
 11
304.495714
 21
118.4285709999999
 31
0.0
  0
LINE
  5
2DE
330
1E
100
AcDbEntity
  8
CSLAYER1
  6
CONTINUOUS
 62
     3
100
AcDbLine
 10
304.495714
 20
118.4285709999999
 30
0.0
 11
336.495714
 21
118.4285709999999
 31
0.0
  0
LINE
  5
2DF
330
1E
100
AcDbEntity
  8
CSLAYER1
  6
CONTINUOUS
 62
     3
100
AcDbLine
 10
335.895714
 20
118.4285709999999
 30
0.0
 11
335.895714
 21
126.9285709999999
 31
0.0
  0
LINE
  5
2E0
330
1E
100
AcDbEntity
  8
CSLAYER1
  6
CONTINUOUS
 62
     3
100
AcDbLine
 10
335.995714
 20
127.228571
 30
0.0
 11
320.995714
 21
127.228571
 31
0.0
  0
LINE
  5
2E1
330
1E
100
AcDbEntity
  8
CSLAYER1
  6
CONTINUOUS
 62
     3
100
AcDbLine
 10
320.995714
 20
127.228571
 30
0.0
 11
320.995714
 21
128.428571
 31
0.0
  0
LINE
  5
2E2
330
1E
100
AcDbEntity
  8
CSLAYER1
  6
CONTINUOUS
 62
     3
100
AcDbLine
 10
320.495714
 20
126.9285709999999
 30
0.0
 11
320.495714
 21
213.4285709999999
 31
0.0
  0
LINE
  5
2E3
330
1E
100
AcDbEntity
  8
CSLAYER1
  6
CONTINUOUS
 62
     3
100
AcDbLine
 10
320.495714
 20
213.4285709999999
 30
0.0
 11
328.495714
 21
213.4285709999999
 31
0.0
  0
LINE
  5
2E4
330
1E
100
AcDbEntity
  8
CSLAYER1
  6
CONTINUOUS
 62
     3
100
AcDbLine
 10
328.495714
 20
213.4285709999999
 30
0.0
 11
328.495714
 21
164.6285709999999
 31
0.0
  0
LINE
  5
2E5
330
1E
100
AcDbEntity
  8
CSLAYER1
  6
CONTINUOUS
 62
     3
100
AcDbLine
 10
329.745714
 20
164.6285709999999
 30
0.0
 11
329.819839
 21
165.47582
 31
0.0
  0
ARC
  5
2E6
330
1E
100
AcDbEntity
  8
CSLAYER1
  6
CONTINUOUS
 62
     3
100
AcDbCircle
 10
330.816034
 20
165.388665
 30
0.0
 40
1.0
100
AcDbArc
 50
106.257028
 51
175.0
  0
ARC
  5
2E7
330
1E
100
AcDbEntity
  8
CSLAYER1
  6
CONTINUOUS
 62
     3
100
AcDbCircle
 10
332.495714
 20
159.628571
 30
0.0
 40
7.0
100
AcDbArc
 50
73.742972
 51
106.257028
  0
ARC
  5
2E8
330
1E
100
AcDbEntity
  8
CSLAYER1
  6
CONTINUOUS
 62
     3
100
AcDbCircle
 10
334.175395
 20
165.388665
 30
0.0
 40
1.0
100
AcDbArc
 50
5.0
 51
73.742972
  0
LINE
  5
2E9
330
1E
100
AcDbEntity
  8
CSLAYER1
  6
CONTINUOUS
 62
     3
100
AcDbLine
 10
335.1715899999998
 20
165.47582
 30
0.0
 11
335.245714
 21
164.6285709999999
 31
0.0
  0
LINE
  5
2EA
330
1E
100
AcDbEntity
  8
CSLAYER1
  6
CONTINUOUS
 62
     3
100
AcDbLine
 10
335.995714
 20
164.6285709999999
 30
0.0
 11
320.995714
 21
164.6285709999999
 31
0.0
  0
LINE
  5
2EB
330
1E
100
AcDbEntity
  8
CSLAYER1
  6
CONTINUOUS
 62
     3
100
AcDbLine
 10
320.995714
 20
164.6285709999999
 30
0.0
 11
320.995714
 21
163.428571
 31
0.0
  0
LINE
  5
2EC
330
1E
100
AcDbEntity
  8
CSLAYER1
  6
CONTINUOUS
 62
     3
100
AcDbLine
 10
317.495714
 20
163.428571
 30
0.0
 11
317.495714
 21
128.428571
 31
0.0
  0
LINE
  5
2ED
330
1E
100
AcDbEntity
  8
CSLAYER1
  6
CONTINUOUS
 62
     3
100
AcDbLine
 10
314.895714
 20
126.9285709999999
 30
0.0
 11
314.895714
 21
118.4285709999999
 31
0.0
  0
LINE
  5
2EE
330
1E
100
AcDbEntity
  8
CSLAYER1
  6
CONTINUOUS
 62
     3
100
AcDbLine
 10
314.895714
 20
126.9285709999999
 30
0.0
 11
336.495714
 21
126.9285709999999
 31
0.0
  0
LINE
  5
2EF
330
1E
100
AcDbEntity
  8
CSLAYER1
  6
CONTINUOUS
 62
     3
100
AcDbLine
 10
335.995714
 20
127.228571
 30
0.0
 11
335.995714
 21
128.428571
 31
0.0
  0
LINE
  5
2F0
330
1E
100
AcDbEntity
  8
CSLAYER1
  6
CONTINUOUS
 62
     3
100
AcDbLine
 10
336.495714
 20
128.428571
 30
0.0
 11
313.495714
 21
128.428571
 31
0.0
  0
LINE
  5
2F1
330
1E
100
AcDbEntity
  8
CSLAYER1
  6
CONTINUOUS
 62
     3
100
AcDbLine
 10
313.495714
 20
128.428571
 30
0.0
 11
313.495714
 21
163.428571
 31
0.0
  0
LINE
  5
2F2
330
1E
100
AcDbEntity
  8
CSLAYER1
  6
CONTINUOUS
 62
     3
100
AcDbLine
 10
313.495714
 20
163.428571
 30
0.0
 11
344.495714
 21
163.428571
 31
0.0
  0
LINE
  5
2F3
330
1E
100
AcDbEntity
  8
CSLAYER1
  6
CONTINUOUS
 62
     3
100
AcDbLine
 10
344.495714
 20
163.428571
 30
0.0
 11
344.495714
 21
39.928571
 31
0.0
  0
LINE
  5
2F4
330
1E
100
AcDbEntity
  8
CSLAYER1
  6
CONTINUOUS
 62
     3
100
AcDbLine
 10
333.495714
 20
39.928571
 30
0.0
 11
333.495714
 21
72.42857099999998
 31
0.0
  0
LINE
  5
2F5
330
1E
100
AcDbEntity
  8
CSLAYER1
  6
CONTINUOUS
 62
     3
100
AcDbLine
 10
336.495714
 20
80.42857099999997
 30
0.0
 11
336.495714
 21
163.428571
 31
0.0
  0
LINE
  5
2F6
330
1E
100
AcDbEntity
  8
CSLAYER1
  6
CONTINUOUS
 62
     3
100
AcDbLine
 10
335.995714
 20
163.428571
 30
0.0
 11
335.995714
 21
164.6285709999999
 31
0.0
  0
LINE
  5
2F7
330
1E
100
AcDbEntity
  8
CSLAYER1
  6
CONTINUOUS
 62
     3
100
AcDbLine
 10
323.918364
 20
202.428571
 30
0.0
 11
323.341014
 21
203.428571
 31
0.0
  0
LINE
  5
2F8
330
1E
100
AcDbEntity
  8
CSLAYER1
  6
CONTINUOUS
 62
     3
100
AcDbLine
 10
323.341014
 20
203.428571
 30
0.0
 11
323.918364
 21
204.428571
 31
0.0
  0
LINE
  5
2F9
330
1E
100
AcDbEntity
  8
CSLAYER1
  6
CONTINUOUS
 62
     3
100
AcDbLine
 10
323.918364
 20
204.428571
 30
0.0
 11
325.0730649999998
 21
204.428571
 31
0.0
  0
LINE
  5
2FA
330
1E
100
AcDbEntity
  8
CSLAYER1
  6
CONTINUOUS
 62
     3
100
AcDbLine
 10
325.0730649999998
 20
204.428571
 30
0.0
 11
325.650415
 21
203.428571
 31
0.0
  0
LINE
  5
2FB
330
1E
100
AcDbEntity
  8
CSLAYER1
  6
CONTINUOUS
 62
     3
100
AcDbLine
 10
325.650415
 20
203.428571
 30
0.0
 11
325.0730649999998
 21
202.428571
 31
0.0
  0
LINE
  5
2FC
330
1E
100
AcDbEntity
  8
CSLAYER1
  6
CONTINUOUS
 62
     3
100
AcDbLine
 10
325.0730649999998
 20
202.428571
 30
0.0
 11
323.918364
 21
202.428571
 31
0.0
  0
CIRCLE
  5
2FD
330
1E
100
AcDbEntity
  8
CSLAYER1
  6
CONTINUOUS
 62
     3
100
AcDbCircle
 10
324.495714
 20
203.428571
 30
0.0
 40
2.0
  0
LINE
  5
2FE
330
1E
100
AcDbEntity
  8
CSLAYER1
  6
CONTINUOUS
 62
     3
100
AcDbLine
 10
260.802
 20
265.565714
 30
0.0
 11
200.3019999999999
 21
265.565714
 31
0.0
  0
LINE
  5
2FF
330
1E
100
AcDbEntity
  8
CSLAYER1
  6
CONTINUOUS
 62
     3
100
AcDbLine
 10
206.8019999999999
 20
265.565714
 30
0.0
 11
206.8019999999999
 21
257.565714
 31
0.0
  0
LINE
  5
300
330
1E
100
AcDbEntity
  8
CSLAYER1
  6
CONTINUOUS
 62
     3
100
AcDbLine
 10
207.8019999999999
 20
257.565714
 30
0.0
 11
207.8019999999999
 21
249.565714
 31
0.0
  0
LINE
  5
301
330
1E
100
AcDbEntity
  8
CSLAYER1
  6
CONTINUOUS
 62
     3
100
AcDbLine
 10
206.8019999999999
 20
249.565714
 30
0.0
 11
206.8019999999999
 21
242.565714
 31
0.0
  0
LINE
  5
302
330
1E
100
AcDbEntity
  8
CSLAYER1
  6
CONTINUOUS
 62
     3
100
AcDbLine
 10
206.8019999999999
 20
242.565714
 30
0.0
 11
260.302
 21
242.565714
 31
0.0
  0
LINE
  5
303
330
1E
100
AcDbEntity
  8
CSLAYER1
  6
CONTINUOUS
 62
     3
100
AcDbLine
 10
260.302
 20
242.565714
 30
0.0
 11
260.302
 21
265.565714
 31
0.0
  0
LINE
  5
304
330
1E
100
AcDbEntity
  8
CSLAYER1
  6
CONTINUOUS
 62
     3
100
AcDbLine
 10
260.802
 20
273.565714
 30
0.0
 11
260.802
 21
233.565714
 31
0.0
  0
LINE
  5
305
330
1E
100
AcDbEntity
  8
CSLAYER1
  6
CONTINUOUS
 62
     3
100
AcDbLine
 10
260.802
 20
233.565714
 30
0.0
 11
200.3019999999999
 21
233.565714
 31
0.0
  0
LINE
  5
306
330
1E
100
AcDbEntity
  8
CSLAYER1
  6
CONTINUOUS
 62
     3
100
AcDbLine
 10
200.3019999999999
 20
233.565714
 30
0.0
 11
200.3019999999999
 21
249.565714
 31
0.0
  0
LINE
  5
307
330
1E
100
AcDbEntity
  8
CSLAYER1
  6
CONTINUOUS
 62
     3
100
AcDbLine
 10
198.3019999999999
 20
249.565714
 30
0.0
 11
209.8019999999999
 21
249.565714
 31
0.0
  0
LINE
  5
308
330
1E
100
AcDbEntity
  8
CSLAYER1
  6
CONTINUOUS
 62
     3
100
AcDbLine
 10
209.8019999999999
 20
249.565714
 30
0.0
 11
209.8019999999999
 21
251.565714
 31
0.0
  0
LINE
  5
309
330
1E
100
AcDbEntity
  8
CSLAYER1
  6
CONTINUOUS
 62
     3
100
AcDbLine
 10
209.8019999999999
 20
251.565714
 30
0.0
 11
229.802
 21
251.565714
 31
0.0
  0
LINE
  5
30A
330
1E
100
AcDbEntity
  8
CSLAYER1
  6
CONTINUOUS
 62
     3
100
AcDbLine
 10
229.802
 20
251.565714
 30
0.0
 11
229.802
 21
249.565714
 31
0.0
  0
LINE
  5
30B
330
1E
100
AcDbEntity
  8
CSLAYER1
  6
CONTINUOUS
 62
     3
100
AcDbLine
 10
229.802
 20
249.565714
 30
0.0
 11
250.802
 21
249.565714
 31
0.0
  0
LINE
  5
30C
330
1E
100
AcDbEntity
  8
CSLAYER1
  6
CONTINUOUS
 62
     3
100
AcDbLine
 10
250.802
 20
249.565714
 30
0.0
 11
250.802
 21
257.565714
 31
0.0
  0
LINE
  5
30D
330
1E
100
AcDbEntity
  8
CSLAYER1
  6
CONTINUOUS
 62
     3
100
AcDbLine
 10
250.802
 20
257.565714
 30
0.0
 11
198.3019999999999
 21
257.565714
 31
0.0
  0
LINE
  5
30E
330
1E
100
AcDbEntity
  8
CSLAYER1
  6
CONTINUOUS
 62
     3
100
AcDbLine
 10
198.3019999999999
 20
257.565714
 30
0.0
 11
198.3019999999999
 21
249.565714
 31
0.0
  0
LINE
  5
30F
330
1E
100
AcDbEntity
  8
CSLAYER1
  6
CONTINUOUS
 62
     3
100
AcDbLine
 10
200.802592
 20
252.700714
 30
0.0
 11
200.303184
 21
253.565714
 31
0.0
  0
LINE
  5
310
330
1E
100
AcDbEntity
  8
CSLAYER1
  6
CONTINUOUS
 62
     3
100
AcDbLine
 10
200.303184
 20
253.565714
 30
0.0
 11
200.802592
 21
254.430714
 31
0.0
  0
LINE
  5
311
330
1E
100
AcDbEntity
  8
CSLAYER1
  6
CONTINUOUS
 62
     3
100
AcDbLine
 10
200.802592
 20
254.430714
 30
0.0
 11
201.8014079999999
 21
254.430714
 31
0.0
  0
LINE
  5
312
330
1E
100
AcDbEntity
  8
CSLAYER1
  6
CONTINUOUS
 62
     3
100
AcDbLine
 10
201.8014079999999
 20
254.430714
 30
0.0
 11
202.3008159999998
 21
253.565714
 31
0.0
  0
LINE
  5
313
330
1E
100
AcDbEntity
  8
CSLAYER1
  6
CONTINUOUS
 62
     3
100
AcDbLine
 10
202.3008159999998
 20
253.565714
 30
0.0
 11
201.8014079999999
 21
252.700714
 31
0.0
  0
LINE
  5
314
330
1E
100
AcDbEntity
  8
CSLAYER1
  6
CONTINUOUS
 62
     3
100
AcDbLine
 10
201.8014079999999
 20
252.700714
 30
0.0
 11
200.802592
 21
252.700714
 31
0.0
  0
CIRCLE
  5
315
330
1E
100
AcDbEntity
  8
CSLAYER1
  6
CONTINUOUS
 62
     3
100
AcDbCircle
 10
201.302
 20
253.565714
 30
0.0
 40
1.5
  0
LINE
  5
316
330
1E
100
AcDbEntity
  8
CSLAYER1
  6
CONTINUOUS
 62
     3
100
AcDbLine
 10
200.3019999999999
 20
257.565714
 30
0.0
 11
200.3019999999999
 21
273.565714
 31
0.0
  0
LINE
  5
317
330
1E
100
AcDbEntity
  8
CSLAYER1
  6
CONTINUOUS
 62
     3
100
AcDbLine
 10
200.3019999999999
 20
273.565714
 30
0.0
 11
260.802
 21
273.565714
 31
0.0
  0
LINE
  5
318
330
1E
100
AcDbEntity
  8
CSLAYER1
  6
CONTINUOUS
 62
     3
100
AcDbLine
 10
260.052
 20
242.565714
 30
0.0
 11
260.052
 21
239.565714
 31
0.0
  0
ARC
  5
319
330
1E
100
AcDbEntity
  8
CSLAYER1
  6
CONTINUOUS
 62
     3
100
AcDbCircle
 10
259.552
 20
239.565714
 30
0.0
 40
0.5
100
AcDbArc
 50
270.0
 51
0.0
  0
LINE
  5
31A
330
1E
100
AcDbEntity
  8
CSLAYER1
  6
CONTINUOUS
 62
     3
100
AcDbLine
 10
259.552
 20
239.065714
 30
0.0
 11
255.052
 21
239.065714
 31
0.0
  0
ARC
  5
31B
330
1E
100
AcDbEntity
  8
CSLAYER1
  6
CONTINUOUS
 62
     3
100
AcDbCircle
 10
255.052
 20
239.565714
 30
0.0
 40
0.5
100
AcDbArc
 50
180.0
 51
270.0
  0
LINE
  5
31C
330
1E
100
AcDbEntity
  8
CSLAYER1
  6
CONTINUOUS
 62
     3
100
AcDbLine
 10
254.5519999999999
 20
239.565714
 30
0.0
 11
254.5519999999999
 21
242.565714
 31
0.0
  0
LINE
  5
31D
330
1E
100
AcDbEntity
  8
CSLAYER1
  6
CONTINUOUS
 62
     3
100
AcDbLine
 10
252.802
 20
242.565714
 30
0.0
 11
252.802
 21
233.565714
 31
0.0
  0
LINE
  5
31E
330
1E
100
AcDbEntity
  8
CSLAYER1
  6
CONTINUOUS
 62
     3
100
AcDbLine
 10
236.1019999999999
 20
252.8151589999999
 30
0.0
 11
234.8019999999999
 21
252.0646039999999
 31
0.0
  0
LINE
  5
31F
330
1E
100
AcDbEntity
  8
CSLAYER1
  6
CONTINUOUS
 62
     3
100
AcDbLine
 10
234.8019999999999
 20
252.0646039999999
 30
0.0
 11
233.502
 21
252.8151589999999
 31
0.0
  0
LINE
  5
320
330
1E
100
AcDbEntity
  8
CSLAYER1
  6
CONTINUOUS
 62
     3
100
AcDbLine
 10
233.502
 20
252.8151589999999
 30
0.0
 11
233.502
 21
254.31627
 31
0.0
  0
LINE
  5
321
330
1E
100
AcDbEntity
  8
CSLAYER1
  6
CONTINUOUS
 62
     3
100
AcDbLine
 10
233.502
 20
254.31627
 30
0.0
 11
234.8019999999999
 21
255.066825
 31
0.0
  0
LINE
  5
322
330
1E
100
AcDbEntity
  8
CSLAYER1
  6
CONTINUOUS
 62
     3
100
AcDbLine
 10
234.8019999999999
 20
255.066825
 30
0.0
 11
236.1019999999999
 21
254.31627
 31
0.0
  0
LINE
  5
323
330
1E
100
AcDbEntity
  8
CSLAYER1
  6
CONTINUOUS
 62
     3
100
AcDbLine
 10
236.1019999999999
 20
254.31627
 30
0.0
 11
236.1019999999999
 21
252.8151589999999
 31
0.0
  0
CIRCLE
  5
324
330
1E
100
AcDbEntity
  8
CSLAYER1
  6
CONTINUOUS
 62
     3
100
AcDbCircle
 10
234.8019999999999
 20
253.565714
 30
0.0
 40
2.5
  0
LINE
  5
325
330
1E
100
AcDbEntity
  8
CSLAYER1
  6
CONTINUOUS
 62
     3
100
AcDbLine
 10
225.552
 20
242.565714
 30
0.0
 11
225.552
 21
240.165714
 31
0.0
  0
LINE
  5
326
330
1E
100
AcDbEntity
  8
CSLAYER1
  6
CONTINUOUS
 62
     3
100
AcDbLine
 10
225.552
 20
240.165714
 30
0.0
 11
220.052
 21
240.165714
 31
0.0
  0
LINE
  5
327
330
1E
100
AcDbEntity
  8
CSLAYER1
  6
CONTINUOUS
 62
     3
100
AcDbLine
 10
220.052
 20
240.165714
 30
0.0
 11
220.052
 21
242.565714
 31
0.0
  0
ARC
  5
328
330
1E
100
AcDbEntity
  8
CSLAYER1
  6
CONTINUOUS
 62
     3
100
AcDbCircle
 10
221.4269999999999
 20
244.137202
 30
0.0
 40
3.971487
100
AcDbArc
 50
249.7438419999999
 51
290.256158
  0
ARC
  5
329
330
1E
100
AcDbEntity
  8
CSLAYER1
  6
CONTINUOUS
 62
     3
100
AcDbCircle
 10
224.1769999999999
 20
244.137202
 30
0.0
 40
3.971487
100
AcDbArc
 50
249.7438419999999
 51
290.256158
  0
LINE
  5
32A
330
1E
100
AcDbEntity
  8
CSLAYER1
  6
CONTINUOUS
 62
     3
100
AcDbLine
 10
224.302
 20
240.165714
 30
0.0
 11
224.302
 21
238.315714
 31
0.0
  0
LINE
  5
32B
330
1E
100
AcDbEntity
  8
CSLAYER1
  6
CONTINUOUS
 62
     3
100
AcDbLine
 10
224.302
 20
238.315714
 30
0.0
 11
221.3019999999999
 21
238.315714
 31
0.0
  0
LINE
  5
32C
330
1E
100
AcDbEntity
  8
CSLAYER1
  6
CONTINUOUS
 62
     3
100
AcDbLine
 10
221.3019999999999
 20
238.315714
 30
0.0
 11
221.3019999999999
 21
240.165714
 31
0.0
  0
LINE
  5
32D
330
1E
100
AcDbEntity
  8
CSLAYER1
  6
CONTINUOUS
 62
     3
100
AcDbLine
 10
222.8019999999999
 20
240.4113339999999
 30
0.0
 11
222.8019999999999
 21
242.565714
 31
0.0
  0
LINE
  5
32E
330
1E
100
AcDbEntity
  8
CSLAYER1
  6
CONTINUOUS
 62
     3
100
AcDbLine
 10
224.302
 20
238.315714
 30
0.0
 11
224.052
 21
238.065714
 31
0.0
  0
LINE
  5
32F
330
1E
100
AcDbEntity
  8
CSLAYER1
  6
CONTINUOUS
 62
     3
100
AcDbLine
 10
224.052
 20
238.065714
 30
0.0
 11
221.552
 21
238.065714
 31
0.0
  0
LINE
  5
330
330
1E
100
AcDbEntity
  8
CSLAYER1
  6
CONTINUOUS
 62
     3
100
AcDbLine
 10
221.552
 20
238.065714
 30
0.0
 11
221.3019999999999
 21
238.315714
 31
0.0
  0
LINE
  5
331
330
1E
100
AcDbEntity
  8
CSLAYER1
  6
CONTINUOUS
 62
     3
100
AcDbLine
 10
213.0519999999999
 20
239.565714
 30
0.0
 11
213.0519999999999
 21
242.565714
 31
0.0
  0
ARC
  5
332
330
1E
100
AcDbEntity
  8
CSLAYER1
  6
CONTINUOUS
 62
     3
100
AcDbCircle
 10
212.5519999999999
 20
239.565714
 30
0.0
 40
0.5
100
AcDbArc
 50
270.0
 51
0.0
  0
LINE
  5
333
330
1E
100
AcDbEntity
  8
CSLAYER1
  6
CONTINUOUS
 62
     3
100
AcDbLine
 10
212.5519999999999
 20
239.065714
 30
0.0
 11
208.0519999999999
 21
239.065714
 31
0.0
  0
ARC
  5
334
330
1E
100
AcDbEntity
  8
CSLAYER1
  6
CONTINUOUS
 62
     3
100
AcDbCircle
 10
208.0519999999999
 20
239.565714
 30
0.0
 40
0.5
100
AcDbArc
 50
180.0
 51
270.0
  0
LINE
  5
335
330
1E
100
AcDbEntity
  8
CSLAYER1
  6
CONTINUOUS
 62
     3
100
AcDbLine
 10
207.552
 20
239.565714
 30
0.0
 11
207.552
 21
242.565714
 31
0.0
  0
ARC
  5
336
330
1E
100
AcDbEntity
  8
CSLAYER1
  6
CONTINUOUS
 62
     3
100
AcDbCircle
 10
207.302
 20
253.565714
 30
0.0
 40
1.5
100
AcDbArc
 50
70.528779
 51
289.471221
  0
LINE
  5
337
330
1E
100
AcDbEntity
  8
CSLAYER1
  6
CONTINUOUS
 62
     3
100
AcDbLine
 10
207.8014079999999
 20
254.430714
 30
0.0
 11
206.802592
 21
254.430714
 31
0.0
  0
LINE
  5
338
330
1E
100
AcDbEntity
  8
CSLAYER1
  6
CONTINUOUS
 62
     3
100
AcDbLine
 10
206.802592
 20
254.430714
 30
0.0
 11
206.303184
 21
253.565714
 31
0.0
  0
LINE
  5
339
330
1E
100
AcDbEntity
  8
CSLAYER1
  6
CONTINUOUS
 62
     3
100
AcDbLine
 10
206.303184
 20
253.565714
 30
0.0
 11
206.802592
 21
252.700714
 31
0.0
  0
LINE
  5
33A
330
1E
100
AcDbEntity
  8
CSLAYER1
  6
CONTINUOUS
 62
     3
100
AcDbLine
 10
206.802592
 20
252.700714
 30
0.0
 11
207.8014079999999
 21
252.700714
 31
0.0
  0
LINE
  5
33B
330
1E
100
AcDbEntity
  8
CSLAYER1
  6
CONTINUOUS
 62
     3
100
AcDbLine
 10
209.8019999999999
 20
213.4285709999999
 30
0.0
 11
209.8019999999999
 21
198.428571
 31
0.0
  0
LINE
  5
33C
330
1E
100
AcDbEntity
  8
CSLAYER1
  6
CONTINUOUS
 62
     3
100
AcDbLine
 10
210.3019999999999
 20
188.428571
 30
0.0
 11
229.3019999999999
 21
188.428571
 31
0.0
  0
LINE
  5
33D
330
1E
100
AcDbEntity
  8
CSLAYER1
  6
CONTINUOUS
 62
     3
100
AcDbLine
 10
229.3019999999999
 20
188.428571
 30
0.0
 11
229.3019999999999
 21
177.428571
 31
0.0
  0
ARC
  5
33E
330
1E
100
AcDbEntity
  8
CSLAYER1
  6
CONTINUOUS
 62
     3
100
AcDbCircle
 10
230.302
 20
177.428571
 30
0.0
 40
1.0
100
AcDbArc
 50
180.0
 51
270.0
  0
LINE
  5
33F
330
1E
100
AcDbEntity
  8
CSLAYER1
  6
CONTINUOUS
 62
     3
100
AcDbLine
 10
237.8019999999999
 20
173.38276
 30
0.0
 11
198.3019999999999
 21
173.38276
 31
0.0
  0
ARC
  5
340
330
1E
100
AcDbEntity
  8
CSLAYER1
  6
CONTINUOUS
 62
     3
100
AcDbCircle
 10
209.302
 20
177.428571
 30
0.0
 40
1.0
100
AcDbArc
 50
270.0
 51
0.0
  0
LINE
  5
341
330
1E
100
AcDbEntity
  8
CSLAYER1
  6
CONTINUOUS
 62
     3
100
AcDbLine
 10
210.3019999999999
 20
177.428571
 30
0.0
 11
210.3019999999999
 21
188.428571
 31
0.0
  0
LINE
  5
342
330
1E
100
AcDbEntity
  8
CSLAYER1
  6
CONTINUOUS
 62
     3
100
AcDbLine
 10
210.3019999999999
 20
186.428571
 30
0.0
 11
229.3019999999999
 21
186.428571
 31
0.0
  0
LINE
  5
343
330
1E
100
AcDbEntity
  8
CSLAYER1
  6
CONTINUOUS
 62
     3
100
AcDbLine
 10
232.302
 20
186.9285709999999
 30
0.0
 11
232.302
 21
196.428571
 31
0.0
  0
LINE
  5
344
330
1E
100
AcDbEntity
  8
CSLAYER1
  6
CONTINUOUS
 62
     3
100
AcDbLine
 10
230.8019999999999
 20
196.6965209999999
 30
0.0
 11
230.8019999999999
 21
210.5636859999999
 31
0.0
  0
LINE
  5
345
330
1E
100
AcDbEntity
  8
CSLAYER1
  6
CONTINUOUS
 62
     3
100
AcDbLine
 10
230.8019999999999
 20
210.5636859999999
 30
0.0
 11
229.802
 21
210.5636859999999
 31
0.0
  0
LINE
  5
346
330
1E
100
AcDbEntity
  8
CSLAYER1
  6
CONTINUOUS
 62
     3
100
AcDbLine
 10
229.802
 20
213.4285709999999
 30
0.0
 11
229.802
 21
198.428571
 31
0.0
  0
LINE
  5
347
330
1E
100
AcDbEntity
  8
CSLAYER1
  6
CONTINUOUS
 62
     3
100
AcDbLine
 10
237.3019999999999
 20
194.999286
 30
0.0
 11
237.3019999999999
 21
186.9285709999999
 31
0.0
  0
LINE
  5
348
330
1E
100
AcDbEntity
  8
CSLAYER1
  6
CONTINUOUS
 62
     3
100
AcDbLine
 10
236.802
 20
186.428571
 30
0.0
 11
232.8019999999999
 21
186.428571
 31
0.0
  0
CIRCLE
  5
349
330
1E
100
AcDbEntity
  8
CSLAYER1
  6
CONTINUOUS
 62
     3
100
AcDbCircle
 10
244.802
 20
145.928571
 30
0.0
 40
2.0
  0
LINE
  5
34A
330
1E
100
AcDbEntity
  8
CSLAYER1
  6
CONTINUOUS
 62
     3
100
AcDbLine
 10
254.5519999999999
 20
164.6285709999999
 30
0.0
 11
254.626125
 21
165.47582
 31
0.0
  0
ARC
  5
34B
330
1E
100
AcDbEntity
  8
CSLAYER1
  6
CONTINUOUS
 62
     3
100
AcDbCircle
 10
255.622319
 20
165.388665
 30
0.0
 40
1.0
100
AcDbArc
 50
106.257028
 51
175.0
  0
ARC
  5
34C
330
1E
100
AcDbEntity
  8
CSLAYER1
  6
CONTINUOUS
 62
     3
100
AcDbCircle
 10
257.302
 20
159.628571
 30
0.0
 40
7.0
100
AcDbArc
 50
73.742972
 51
106.257028
  0
ARC
  5
34D
330
1E
100
AcDbEntity
  8
CSLAYER1
  6
CONTINUOUS
 62
     3
100
AcDbCircle
 10
258.9816809999999
 20
165.388665
 30
0.0
 40
1.0
100
AcDbArc
 50
5.0
 51
73.742972
  0
LINE
  5
34E
330
1E
100
AcDbEntity
  8
CSLAYER1
  6
CONTINUOUS
 62
     3
100
AcDbLine
 10
259.977875
 20
165.47582
 30
0.0
 11
260.052
 21
164.6285709999999
 31
0.0
  0
LINE
  5
34F
330
1E
100
AcDbEntity
  8
CSLAYER1
  6
CONTINUOUS
 62
     3
100
AcDbLine
 10
311.095714
 20
158.678571
 30
0.0
 11
311.095714
 21
156.178571
 31
0.0
  0
ARC
  5
350
330
1E
100
AcDbEntity
  8
CSLAYER1
  6
CONTINUOUS
 62
     3
100
AcDbCircle
 10
316.350094
 20
155.928571
 30
0.0
 40
5.25438
100
AcDbArc
 50
162.412046
 51
177.2728739999999
  0
LINE
  5
351
330
1E
100
AcDbEntity
  8
CSLAYER1
  6
CONTINUOUS
 62
     3
100
AcDbLine
 10
311.3413339999999
 20
157.516285
 30
0.0
 11
313.495714
 21
157.516285
 31
0.0
  0
LINE
  5
352
330
1E
100
AcDbEntity
  8
CSLAYER1
  6
CONTINUOUS
 62
     3
100
AcDbLine
 10
313.495714
 20
156.178571
 30
0.0
 11
310.495714
 21
156.178571
 31
0.0
  0
ARC
  5
353
330
1E
100
AcDbEntity
  8
CSLAYER1
  6
CONTINUOUS
 62
     3
100
AcDbCircle
 10
310.495714
 20
155.6785709999997
 30
0.0
 40
0.5
100
AcDbArc
 50
90.0
 51
180.0
  0
LINE
  5
354
330
1E
100
AcDbEntity
  8
CSLAYER1
  6
CONTINUOUS
 62
     3
100
AcDbLine
 10
309.995714
 20
155.6785709999997
 30
0.0
 11
309.995714
 21
151.178571
 31
0.0
  0
ARC
  5
355
330
1E
100
AcDbEntity
  8
CSLAYER1
  6
CONTINUOUS
 62
     3
100
AcDbCircle
 10
310.495714
 20
151.178571
 30
0.0
 40
0.5
100
AcDbArc
 50
180.0
 51
270.0
  0
LINE
  5
356
330
1E
100
AcDbEntity
  8
CSLAYER1
  6
CONTINUOUS
 62
     3
100
AcDbLine
 10
310.495714
 20
150.678571
 30
0.0
 11
313.495714
 21
150.678571
 31
0.0
  0
LINE
  5
357
330
1E
100
AcDbEntity
  8
CSLAYER1
  6
CONTINUOUS
 62
     3
100
AcDbLine
 10
309.995714
 20
154.428571
 30
0.0
 11
309.245714
 21
154.428571
 31
0.0
  0
LINE
  5
358
330
1E
100
AcDbEntity
  8
CSLAYER1
  6
CONTINUOUS
 62
     3
100
AcDbLine
 10
309.245714
 20
154.428571
 30
0.0
 11
309.245714
 21
157.428571
 31
0.0
  0
LINE
  5
359
330
1E
100
AcDbEntity
  8
CSLAYER1
  6
CONTINUOUS
 62
     3
100
AcDbLine
 10
309.245714
 20
157.428571
 30
0.0
 11
311.095714
 21
157.428571
 31
0.0
  0
ARC
  5
35A
330
1E
100
AcDbEntity
  8
CSLAYER1
  6
CONTINUOUS
 62
     3
100
AcDbCircle
 10
316.075843
 20
159.1238999999999
 30
0.0
 40
5.0
100
AcDbArc
 50
185.109864
 51
198.755062
  0
LINE
  5
35B
330
1E
100
AcDbEntity
  8
CSLAYER1
  6
CONTINUOUS
 62
     3
100
AcDbLine
 10
311.095714
 20
158.678571
 30
0.0
 11
311.3413339999999
 21
159.1039979999998
 31
0.0
  0
LINE
  5
35C
330
1E
100
AcDbEntity
  8
CSLAYER1
  6
CONTINUOUS
 62
     3
100
AcDbLine
 10
311.3413339999999
 20
159.1039979999998
 30
0.0
 11
313.495714
 21
159.1039979999998
 31
0.0
  0
LINE
  5
35D
330
1E
100
AcDbEntity
  8
CSLAYER1
  6
CONTINUOUS
 62
     3
100
AcDbLine
 10
309.245714
 20
157.428571
 30
0.0
 11
308.995714
 21
157.178571
 31
0.0
  0
LINE
  5
35E
330
1E
100
AcDbEntity
  8
CSLAYER1
  6
CONTINUOUS
 62
     3
100
AcDbLine
 10
308.995714
 20
157.178571
 30
0.0
 11
308.995714
 21
154.6785709999998
 31
0.0
  0
ARC
  5
35F
330
1E
100
AcDbEntity
  8
CSLAYER1
  6
CONTINUOUS
 62
     3
100
AcDbCircle
 10
310.495714
 20
140.678571
 30
0.0
 40
0.5
100
AcDbArc
 50
90.0
 51
180.0
  0
LINE
  5
360
330
1E
100
AcDbEntity
  8
CSLAYER1
  6
CONTINUOUS
 62
     3
100
AcDbLine
 10
309.995714
 20
140.678571
 30
0.0
 11
309.995714
 21
136.178571
 31
0.0
  0
ARC
  5
361
330
1E
100
AcDbEntity
  8
CSLAYER1
  6
CONTINUOUS
 62
     3
100
AcDbCircle
 10
310.495714
 20
136.178571
 30
0.0
 40
0.5
100
AcDbArc
 50
180.0
 51
270.0
  0
LINE
  5
362
330
1E
100
AcDbEntity
  8
CSLAYER1
  6
CONTINUOUS
 62
     3
100
AcDbLine
 10
310.495714
 20
135.678571
 30
0.0
 11
313.495714
 21
135.678571
 31
0.0
  0
LINE
  5
363
330
1E
100
AcDbEntity
  8
CSLAYER1
  6
CONTINUOUS
 62
     3
100
AcDbLine
 10
313.495714
 20
134.3408579999999
 30
0.0
 11
311.3413339999999
 21
134.3408579999999
 31
0.0
  0
ARC
  5
364
330
1E
100
AcDbEntity
  8
CSLAYER1
  6
CONTINUOUS
 62
     3
100
AcDbCircle
 10
316.350094
 20
135.9285709999997
 30
0.0
 40
5.25438
100
AcDbArc
 50
182.727126
 51
197.5879539999999
  0
LINE
  5
365
330
1E
100
AcDbEntity
  8
CSLAYER1
  6
CONTINUOUS
 62
     3
100
AcDbLine
 10
311.095714
 20
135.678571
 30
0.0
 11
311.095714
 21
133.178571
 31
0.0
  0
LINE
  5
366
330
1E
100
AcDbEntity
  8
CSLAYER1
  6
CONTINUOUS
 62
     3
100
AcDbLine
 10
311.095714
 20
133.178571
 30
0.0
 11
311.3413339999999
 21
132.7531449999999
 31
0.0
  0
LINE
  5
367
330
1E
100
AcDbEntity
  8
CSLAYER1
  6
CONTINUOUS
 62
     3
100
AcDbLine
 10
311.3413339999999
 20
132.7531449999999
 30
0.0
 11
313.495714
 21
132.7531449999999
 31
0.0
  0
ARC
  5
368
330
1E
100
AcDbEntity
  8
CSLAYER1
  6
CONTINUOUS
 62
     3
100
AcDbCircle
 10
316.075843
 20
132.733243
 30
0.0
 40
5.0
100
AcDbArc
 50
161.2449379999999
 51
174.890136
  0
LINE
  5
369
330
1E
100
AcDbEntity
  8
CSLAYER1
  6
CONTINUOUS
 62
     3
100
AcDbLine
 10
311.095714
 20
134.428571
 30
0.0
 11
309.245714
 21
134.428571
 31
0.0
  0
LINE
  5
36A
330
1E
100
AcDbEntity
  8
CSLAYER1
  6
CONTINUOUS
 62
     3
100
AcDbLine
 10
309.245714
 20
134.428571
 30
0.0
 11
309.245714
 21
137.428571
 31
0.0
  0
LINE
  5
36B
330
1E
100
AcDbEntity
  8
CSLAYER1
  6
CONTINUOUS
 62
     3
100
AcDbLine
 10
309.245714
 20
137.428571
 30
0.0
 11
309.995714
 21
137.428571
 31
0.0
  0
LINE
  5
36C
330
1E
100
AcDbEntity
  8
CSLAYER1
  6
CONTINUOUS
 62
     3
100
AcDbLine
 10
309.245714
 20
137.428571
 30
0.0
 11
308.995714
 21
137.178571
 31
0.0
  0
LINE
  5
36D
330
1E
100
AcDbEntity
  8
CSLAYER1
  6
CONTINUOUS
 62
     3
100
AcDbLine
 10
308.995714
 20
137.178571
 30
0.0
 11
308.995714
 21
134.678571
 31
0.0
  0
LINE
  5
36E
330
1E
100
AcDbEntity
  8
CSLAYER1
  6
CONTINUOUS
 62
     3
100
AcDbLine
 10
308.995714
 20
134.678571
 30
0.0
 11
309.245714
 21
134.428571
 31
0.0
  0
LINE
  5
36F
330
1E
100
AcDbEntity
  8
CSLAYER1
  6
CONTINUOUS
 62
     3
100
AcDbLine
 10
310.495714
 20
141.178571
 30
0.0
 11
313.495714
 21
141.178571
 31
0.0
  0
LINE
  5
370
330
1E
100
AcDbEntity
  8
CSLAYER1
  6
CONTINUOUS
 62
     3
100
AcDbLine
 10
242.039437
 20
118.312455
 30
0.0
 11
241.86266
 21
118.1356779999999
 31
0.0
  0
ARC
  5
371
330
1E
100
AcDbEntity
  8
CSLAYER1
  6
CONTINUOUS
 62
     3
100
AcDbCircle
 10
242.5697669999999
 20
117.4285709999999
 30
0.0
 40
1.0
100
AcDbArc
 50
135.0
 51
225.0
  0
LINE
  5
372
330
1E
100
AcDbEntity
  8
CSLAYER1
  6
CONTINUOUS
 62
     3
100
AcDbLine
 10
241.86266
 20
116.721465
 30
0.0
 11
242.039437
 21
116.5446879999999
 31
0.0
  0
LINE
  5
373
330
1E
100
AcDbEntity
  8
CSLAYER1
  6
CONTINUOUS
 62
     3
100
AcDbLine
 10
242.039437
 20
116.5446879999999
 30
0.0
 11
241.685883
 21
116.191135
 31
0.0
  0
LINE
  5
374
330
1E
100
AcDbEntity
  8
CSLAYER1
  6
CONTINUOUS
 62
     3
100
AcDbLine
 10
241.685883
 20
116.191135
 30
0.0
 11
241.5091069999999
 21
116.367911
 31
0.0
  0
ARC
  5
375
330
1E
100
AcDbEntity
  8
CSLAYER1
  6
CONTINUOUS
 62
     3
100
AcDbCircle
 10
240.802
 20
115.660804
 30
0.0
 40
1.0
100
AcDbArc
 50
45.0
 51
135.0
  0
LINE
  5
376
330
1E
100
AcDbEntity
  8
CSLAYER1
  6
CONTINUOUS
 62
     3
100
AcDbLine
 10
240.094893
 20
116.367911
 30
0.0
 11
239.9181169999998
 21
116.191135
 31
0.0
  0
LINE
  5
377
330
1E
100
AcDbEntity
  8
CSLAYER1
  6
CONTINUOUS
 62
     3
100
AcDbLine
 10
239.9181169999998
 20
116.191135
 30
0.0
 11
239.564563
 21
116.5446879999999
 31
0.0
  0
LINE
  5
378
330
1E
100
AcDbEntity
  8
CSLAYER1
  6
CONTINUOUS
 62
     3
100
AcDbLine
 10
239.564563
 20
116.5446879999999
 30
0.0
 11
239.74134
 21
116.721465
 31
0.0
  0
ARC
  5
379
330
1E
100
AcDbEntity
  8
CSLAYER1
  6
CONTINUOUS
 62
     3
100
AcDbCircle
 10
239.034233
 20
117.4285709999999
 30
0.0
 40
1.0
100
AcDbArc
 50
315.0
 51
45.0
  0
LINE
  5
37A
330
1E
100
AcDbEntity
  8
CSLAYER1
  6
CONTINUOUS
 62
     3
100
AcDbLine
 10
239.74134
 20
118.1356779999999
 30
0.0
 11
239.564563
 21
118.312455
 31
0.0
  0
LINE
  5
37B
330
1E
100
AcDbEntity
  8
CSLAYER1
  6
CONTINUOUS
 62
     3
100
AcDbLine
 10
239.564563
 20
118.312455
 30
0.0
 11
239.9181169999998
 21
118.666008
 31
0.0
  0
LINE
  5
37C
330
1E
100
AcDbEntity
  8
CSLAYER1
  6
CONTINUOUS
 62
     3
100
AcDbLine
 10
239.9181169999998
 20
118.666008
 30
0.0
 11
240.094893
 21
118.489232
 31
0.0
  0
ARC
  5
37D
330
1E
100
AcDbEntity
  8
CSLAYER1
  6
CONTINUOUS
 62
     3
100
AcDbCircle
 10
240.802
 20
119.1963379999997
 30
0.0
 40
1.0
100
AcDbArc
 50
225.0
 51
315.0
  0
LINE
  5
37E
330
1E
100
AcDbEntity
  8
CSLAYER1
  6
CONTINUOUS
 62
     3
100
AcDbLine
 10
241.5091069999999
 20
118.489232
 30
0.0
 11
241.685883
 21
118.666008
 31
0.0
  0
LINE
  5
37F
330
1E
100
AcDbEntity
  8
CSLAYER1
  6
CONTINUOUS
 62
     3
100
AcDbLine
 10
241.685883
 20
118.666008
 30
0.0
 11
242.039437
 21
118.312455
 31
0.0
  0
CIRCLE
  5
380
330
1E
100
AcDbEntity
  8
CSLAYER1
  6
CONTINUOUS
 62
     3
100
AcDbCircle
 10
240.802
 20
117.4285709999999
 30
0.0
 40
2.799999999999998
  0
LINE
  5
381
330
1E
100
AcDbEntity
  8
CSLAYER1
  6
CONTINUOUS
 62
     3
100
AcDbLine
 10
241.685883
 20
91.66600800000001
 30
0.0
 11
241.5091069999999
 21
91.489232
 31
0.0
  0
ARC
  5
382
330
1E
100
AcDbEntity
  8
CSLAYER1
  6
CONTINUOUS
 62
     3
100
AcDbCircle
 10
240.802
 20
92.196338
 30
0.0
 40
1.0
100
AcDbArc
 50
225.0
 51
315.0
  0
LINE
  5
383
330
1E
100
AcDbEntity
  8
CSLAYER1
  6
CONTINUOUS
 62
     3
100
AcDbLine
 10
240.094893
 20
91.489232
 30
0.0
 11
239.9181169999998
 21
91.66600800000001
 31
0.0
  0
LINE
  5
384
330
1E
100
AcDbEntity
  8
CSLAYER1
  6
CONTINUOUS
 62
     3
100
AcDbLine
 10
239.9181169999998
 20
91.66600800000001
 30
0.0
 11
239.564563
 21
91.312455
 31
0.0
  0
LINE
  5
385
330
1E
100
AcDbEntity
  8
CSLAYER1
  6
CONTINUOUS
 62
     3
100
AcDbLine
 10
239.564563
 20
91.312455
 30
0.0
 11
239.74134
 21
91.135678
 31
0.0
  0
ARC
  5
386
330
1E
100
AcDbEntity
  8
CSLAYER1
  6
CONTINUOUS
 62
     3
100
AcDbCircle
 10
239.034233
 20
90.42857099999999
 30
0.0
 40
1.0
100
AcDbArc
 50
315.0
 51
45.0
  0
LINE
  5
387
330
1E
100
AcDbEntity
  8
CSLAYER1
  6
CONTINUOUS
 62
     3
100
AcDbLine
 10
239.74134
 20
89.721465
 30
0.0
 11
239.564563
 21
89.54468799999999
 31
0.0
  0
LINE
  5
388
330
1E
100
AcDbEntity
  8
CSLAYER1
  6
CONTINUOUS
 62
     3
100
AcDbLine
 10
239.564563
 20
89.54468799999999
 30
0.0
 11
239.9181169999998
 21
89.19113499999998
 31
0.0
  0
LINE
  5
389
330
1E
100
AcDbEntity
  8
CSLAYER1
  6
CONTINUOUS
 62
     3
100
AcDbLine
 10
239.9181169999998
 20
89.19113499999998
 30
0.0
 11
240.094893
 21
89.36791099999998
 31
0.0
  0
ARC
  5
38A
330
1E
100
AcDbEntity
  8
CSLAYER1
  6
CONTINUOUS
 62
     3
100
AcDbCircle
 10
240.802
 20
88.66080399999999
 30
0.0
 40
1.0
100
AcDbArc
 50
45.0
 51
135.0
  0
LINE
  5
38B
330
1E
100
AcDbEntity
  8
CSLAYER1
  6
CONTINUOUS
 62
     3
100
AcDbLine
 10
241.5091069999999
 20
89.36791099999998
 30
0.0
 11
241.685883
 21
89.19113499999998
 31
0.0
  0
LINE
  5
38C
330
1E
100
AcDbEntity
  8
CSLAYER1
  6
CONTINUOUS
 62
     3
100
AcDbLine
 10
241.685883
 20
89.19113499999998
 30
0.0
 11
242.039437
 21
89.54468799999999
 31
0.0
  0
LINE
  5
38D
330
1E
100
AcDbEntity
  8
CSLAYER1
  6
CONTINUOUS
 62
     3
100
AcDbLine
 10
242.039437
 20
89.54468799999999
 30
0.0
 11
241.86266
 21
89.721465
 31
0.0
  0
ARC
  5
38E
330
1E
100
AcDbEntity
  8
CSLAYER1
  6
CONTINUOUS
 62
     3
100
AcDbCircle
 10
242.5697669999999
 20
90.42857099999999
 30
0.0
 40
1.0
100
AcDbArc
 50
135.0
 51
225.0
  0
LINE
  5
38F
330
1E
100
AcDbEntity
  8
CSLAYER1
  6
CONTINUOUS
 62
     3
100
AcDbLine
 10
241.86266
 20
91.135678
 30
0.0
 11
242.039437
 21
91.312455
 31
0.0
  0
LINE
  5
390
330
1E
100
AcDbEntity
  8
CSLAYER1
  6
CONTINUOUS
 62
     3
100
AcDbLine
 10
242.039437
 20
91.312455
 30
0.0
 11
241.685883
 21
91.66600800000001
 31
0.0
  0
CIRCLE
  5
391
330
1E
100
AcDbEntity
  8
CSLAYER1
  6
CONTINUOUS
 62
     3
100
AcDbCircle
 10
240.802
 20
90.42857099999999
 30
0.0
 40
2.799999999999998
  0
LINE
  5
392
330
1E
100
AcDbEntity
  8
CSLAYER1
  6
CONTINUOUS
 62
     3
100
AcDbLine
 10
213.802
 20
72.42857099999998
 30
0.0
 11
213.802
 21
39.928571
 31
0.0
  0
CIRCLE
  5
393
330
1E
100
AcDbEntity
  8
CSLAYER1
  6
CONTINUOUS
 62
     3
100
AcDbCircle
 10
204.3019999999999
 20
99.928571
 30
0.0
 40
2.149999999999999
  0
CIRCLE
  5
394
330
1E
100
AcDbEntity
  8
CSLAYER1
  6
CONTINUOUS
 62
     3
100
AcDbCircle
 10
204.3019999999999
 20
109.9285709999999
 30
0.0
 40
2.149999999999999
  0
ARC
  5
395
330
1E
100
AcDbEntity
  8
CSLAYER1
  6
CONTINUOUS
 62
     3
100
AcDbCircle
 10
208.622319
 20
126.468478
 30
0.0
 40
1.0
100
AcDbArc
 50
185.0
 51
253.7429719999999
  0
LINE
  5
396
330
1E
100
AcDbEntity
  8
CSLAYER1
  6
CONTINUOUS
 62
     3
100
AcDbLine
 10
207.6261249999999
 20
126.381323
 30
0.0
 11
207.552
 21
127.228571
 31
0.0
  0
LINE
  5
397
330
1E
100
AcDbEntity
  8
CSLAYER1
  6
CONTINUOUS
 62
     3
100
AcDbLine
 10
207.302
 20
127.228571
 30
0.0
 11
217.302
 21
127.228571
 31
0.0
  0
LINE
  5
398
330
1E
100
AcDbEntity
  8
CSLAYER1
  6
CONTINUOUS
 62
     3
100
AcDbLine
 10
217.302
 20
126.9285709999999
 30
0.0
 11
217.302
 21
128.428571
 31
0.0
  0
LINE
  5
399
330
1E
100
AcDbEntity
  8
CSLAYER1
  6
CONTINUOUS
 62
     3
100
AcDbLine
 10
216.8019999999999
 20
128.428571
 30
0.0
 11
216.8019999999999
 21
127.228571
 31
0.0
  0
LINE
  5
39A
330
1E
100
AcDbEntity
  8
CSLAYER1
  6
CONTINUOUS
 62
     3
100
AcDbLine
 10
213.0519999999999
 20
127.228571
 30
0.0
 11
213.0257529999999
 21
126.9285709999999
 31
0.0
  0
ARC
  5
39B
330
1E
100
AcDbEntity
  8
CSLAYER1
  6
CONTINUOUS
 62
     3
100
AcDbCircle
 10
210.3019999999999
 20
132.2285709999997
 30
0.0
 40
7.0
100
AcDbArc
 50
253.7429719999999
 51
260.958904
  0
LINE
  5
39C
330
1E
100
AcDbEntity
  8
CSLAYER1
  6
CONTINUOUS
 62
     3
100
AcDbLine
 10
210.3019999999999
 20
136.927461
 30
0.0
 11
209.0019999999999
 21
137.6780159999997
 31
0.0
  0
LINE
  5
39D
330
1E
100
AcDbEntity
  8
CSLAYER1
  6
CONTINUOUS
 62
     3
100
AcDbLine
 10
209.0019999999999
 20
137.6780159999997
 30
0.0
 11
209.0019999999999
 21
139.1791269999999
 31
0.0
  0
LINE
  5
39E
330
1E
100
AcDbEntity
  8
CSLAYER1
  6
CONTINUOUS
 62
     3
100
AcDbLine
 10
209.0019999999999
 20
139.1791269999999
 30
0.0
 11
210.3019999999999
 21
139.929682
 31
0.0
  0
LINE
  5
39F
330
1E
100
AcDbEntity
  8
CSLAYER1
  6
CONTINUOUS
 62
     3
100
AcDbLine
 10
210.3019999999999
 20
139.929682
 30
0.0
 11
211.602
 21
139.1791269999999
 31
0.0
  0
LINE
  5
3A0
330
1E
100
AcDbEntity
  8
CSLAYER1
  6
CONTINUOUS
 62
     3
100
AcDbLine
 10
211.602
 20
139.1791269999999
 30
0.0
 11
211.602
 21
137.6780159999997
 31
0.0
  0
LINE
  5
3A1
330
1E
100
AcDbEntity
  8
CSLAYER1
  6
CONTINUOUS
 62
     3
100
AcDbLine
 10
211.602
 20
137.6780159999997
 30
0.0
 11
210.3019999999999
 21
136.927461
 31
0.0
  0
CIRCLE
  5
3A2
330
1E
100
AcDbEntity
  8
CSLAYER1
  6
CONTINUOUS
 62
     3
100
AcDbCircle
 10
210.3019999999999
 20
138.428571
 30
0.0
 40
2.75
  0
LINE
  5
3A3
330
1E
100
AcDbEntity
  8
CSLAYER1
  6
CONTINUOUS
 62
     3
100
AcDbLine
 10
210.3019999999999
 20
151.927461
 30
0.0
 11
211.602
 21
152.6780159999999
 31
0.0
  0
LINE
  5
3A4
330
1E
100
AcDbEntity
  8
CSLAYER1
  6
CONTINUOUS
 62
     3
100
AcDbLine
 10
211.602
 20
152.6780159999999
 30
0.0
 11
211.602
 21
154.179127
 31
0.0
  0
LINE
  5
3A5
330
1E
100
AcDbEntity
  8
CSLAYER1
  6
CONTINUOUS
 62
     3
100
AcDbLine
 10
211.602
 20
154.179127
 30
0.0
 11
210.3019999999999
 21
154.929682
 31
0.0
  0
LINE
  5
3A6
330
1E
100
AcDbEntity
  8
CSLAYER1
  6
CONTINUOUS
 62
     3
100
AcDbLine
 10
210.3019999999999
 20
154.929682
 30
0.0
 11
209.0019999999999
 21
154.179127
 31
0.0
  0
LINE
  5
3A7
330
1E
100
AcDbEntity
  8
CSLAYER1
  6
CONTINUOUS
 62
     3
100
AcDbLine
 10
209.0019999999999
 20
154.179127
 30
0.0
 11
209.0019999999999
 21
152.6780159999999
 31
0.0
  0
LINE
  5
3A8
330
1E
100
AcDbEntity
  8
CSLAYER1
  6
CONTINUOUS
 62
     3
100
AcDbLine
 10
209.0019999999999
 20
152.6780159999999
 30
0.0
 11
210.3019999999999
 21
151.927461
 31
0.0
  0
CIRCLE
  5
3A9
330
1E
100
AcDbEntity
  8
CSLAYER1
  6
CONTINUOUS
 62
     3
100
AcDbCircle
 10
210.3019999999999
 20
153.4285709999998
 30
0.0
 40
2.75
  0
LINE
  5
3AA
330
1E
100
AcDbEntity
  8
CSLAYER1
  6
CONTINUOUS
 62
     3
100
AcDbLine
 10
134.641429
 20
137.178571
 30
0.0
 11
134.391429
 21
137.428571
 31
0.0
  0
LINE
  5
3AB
330
1E
100
AcDbEntity
  8
CSLAYER1
  6
CONTINUOUS
 62
     3
100
AcDbLine
 10
134.391429
 20
137.428571
 30
0.0
 11
133.641429
 21
137.428571
 31
0.0
  0
LINE
  5
3AC
330
1E
100
AcDbEntity
  8
CSLAYER1
  6
CONTINUOUS
 62
     3
100
AcDbLine
 10
134.391429
 20
137.428571
 30
0.0
 11
134.391429
 21
134.428571
 31
0.0
  0
LINE
  5
3AD
330
1E
100
AcDbEntity
  8
CSLAYER1
  6
CONTINUOUS
 62
     3
100
AcDbLine
 10
134.391429
 20
134.428571
 30
0.0
 11
132.5414289999999
 21
134.428571
 31
0.0
  0
ARC
  5
3AE
330
1E
100
AcDbEntity
  8
CSLAYER1
  6
CONTINUOUS
 62
     3
100
AcDbCircle
 10
127.287049
 20
135.9285709999997
 30
0.0
 40
5.25438
100
AcDbArc
 50
342.4120459999997
 51
357.272874
  0
LINE
  5
3AF
330
1E
100
AcDbEntity
  8
CSLAYER1
  6
CONTINUOUS
 62
     3
100
AcDbLine
 10
132.5414289999999
 20
135.678571
 30
0.0
 11
132.5414289999999
 21
133.178571
 31
0.0
  0
LINE
  5
3B0
330
1E
100
AcDbEntity
  8
CSLAYER1
  6
CONTINUOUS
 62
     3
100
AcDbLine
 10
132.5414289999999
 20
133.178571
 30
0.0
 11
132.295808
 21
132.7531449999999
 31
0.0
  0
LINE
  5
3B1
330
1E
100
AcDbEntity
  8
CSLAYER1
  6
CONTINUOUS
 62
     3
100
AcDbLine
 10
132.295808
 20
132.7531449999999
 30
0.0
 11
130.141429
 21
132.7531449999999
 31
0.0
  0
LINE
  5
3B2
330
1E
100
AcDbEntity
  8
CSLAYER1
  6
CONTINUOUS
 62
     3
100
AcDbLine
 10
130.141429
 20
134.3408579999999
 30
0.0
 11
132.295808
 21
134.3408579999999
 31
0.0
  0
ARC
  5
3B3
330
1E
100
AcDbEntity
  8
CSLAYER1
  6
CONTINUOUS
 62
     3
100
AcDbCircle
 10
127.5613
 20
132.733243
 30
0.0
 40
5.0
100
AcDbArc
 50
5.109863999999999
 51
18.755062
  0
LINE
  5
3B4
330
1E
100
AcDbEntity
  8
CSLAYER1
  6
CONTINUOUS
 62
     3
100
AcDbLine
 10
134.391429
 20
134.428571
 30
0.0
 11
134.641429
 21
134.678571
 31
0.0
  0
LINE
  5
3B5
330
1E
100
AcDbEntity
  8
CSLAYER1
  6
CONTINUOUS
 62
     3
100
AcDbLine
 10
134.641429
 20
134.678571
 30
0.0
 11
134.641429
 21
137.178571
 31
0.0
  0
ARC
  5
3B6
330
1E
100
AcDbEntity
  8
CSLAYER1
  6
CONTINUOUS
 62
     3
100
AcDbCircle
 10
133.141429
 20
136.178571
 30
0.0
 40
0.5
100
AcDbArc
 50
270.0
 51
0.0
  0
LINE
  5
3B7
330
1E
100
AcDbEntity
  8
CSLAYER1
  6
CONTINUOUS
 62
     3
100
AcDbLine
 10
133.141429
 20
135.678571
 30
0.0
 11
130.141429
 21
135.678571
 31
0.0
  0
LINE
  5
3B8
330
1E
100
AcDbEntity
  8
CSLAYER1
  6
CONTINUOUS
 62
     3
100
AcDbLine
 10
133.641429
 20
136.178571
 30
0.0
 11
133.641429
 21
140.678571
 31
0.0
  0
ARC
  5
3B9
330
1E
100
AcDbEntity
  8
CSLAYER1
  6
CONTINUOUS
 62
     3
100
AcDbCircle
 10
133.141429
 20
140.678571
 30
0.0
 40
0.5
100
AcDbArc
 50
0.0
 51
90.0
  0
LINE
  5
3BA
330
1E
100
AcDbEntity
  8
CSLAYER1
  6
CONTINUOUS
 62
     3
100
AcDbLine
 10
133.141429
 20
141.178571
 30
0.0
 11
130.141429
 21
141.178571
 31
0.0
  0
LINE
  5
3BB
330
1E
100
AcDbEntity
  8
CSLAYER1
  6
CONTINUOUS
 62
     3
100
AcDbLine
 10
130.141429
 20
150.678571
 30
0.0
 11
133.141429
 21
150.678571
 31
0.0
  0
ARC
  5
3BC
330
1E
100
AcDbEntity
  8
CSLAYER1
  6
CONTINUOUS
 62
     3
100
AcDbCircle
 10
133.141429
 20
151.178571
 30
0.0
 40
0.5
100
AcDbArc
 50
270.0
 51
0.0
  0
LINE
  5
3BD
330
1E
100
AcDbEntity
  8
CSLAYER1
  6
CONTINUOUS
 62
     3
100
AcDbLine
 10
133.641429
 20
151.178571
 30
0.0
 11
133.641429
 21
155.6785709999997
 31
0.0
  0
ARC
  5
3BE
330
1E
100
AcDbEntity
  8
CSLAYER1
  6
CONTINUOUS
 62
     3
100
AcDbCircle
 10
133.141429
 20
155.6785709999997
 30
0.0
 40
0.5
100
AcDbArc
 50
0.0
 51
90.0
  0
LINE
  5
3BF
330
1E
100
AcDbEntity
  8
CSLAYER1
  6
CONTINUOUS
 62
     3
100
AcDbLine
 10
133.141429
 20
156.178571
 30
0.0
 11
130.141429
 21
156.178571
 31
0.0
  0
LINE
  5
3C0
330
1E
100
AcDbEntity
  8
CSLAYER1
  6
CONTINUOUS
 62
     3
100
AcDbLine
 10
130.141429
 20
157.516285
 30
0.0
 11
132.295808
 21
157.516285
 31
0.0
  0
ARC
  5
3C1
330
1E
100
AcDbEntity
  8
CSLAYER1
  6
CONTINUOUS
 62
     3
100
AcDbCircle
 10
127.287049
 20
155.928571
 30
0.0
 40
5.25438
100
AcDbArc
 50
2.727125999999999
 51
17.587954
  0
LINE
  5
3C2
330
1E
100
AcDbEntity
  8
CSLAYER1
  6
CONTINUOUS
 62
     3
100
AcDbLine
 10
132.5414289999999
 20
156.178571
 30
0.0
 11
132.5414289999999
 21
158.678571
 31
0.0
  0
LINE
  5
3C3
330
1E
100
AcDbEntity
  8
CSLAYER1
  6
CONTINUOUS
 62
     3
100
AcDbLine
 10
132.5414289999999
 20
158.678571
 30
0.0
 11
132.295808
 21
159.1039979999998
 31
0.0
  0
LINE
  5
3C4
330
1E
100
AcDbEntity
  8
CSLAYER1
  6
CONTINUOUS
 62
     3
100
AcDbLine
 10
132.295808
 20
159.1039979999998
 30
0.0
 11
130.141429
 21
159.1039979999998
 31
0.0
  0
ARC
  5
3C5
330
1E
100
AcDbEntity
  8
CSLAYER1
  6
CONTINUOUS
 62
     3
100
AcDbCircle
 10
127.5613
 20
159.1238999999999
 30
0.0
 40
5.0
100
AcDbArc
 50
341.2449379999998
 51
354.8901359999998
  0
LINE
  5
3C6
330
1E
100
AcDbEntity
  8
CSLAYER1
  6
CONTINUOUS
 62
     3
100
AcDbLine
 10
132.5414289999999
 20
157.428571
 30
0.0
 11
134.391429
 21
157.428571
 31
0.0
  0
LINE
  5
3C7
330
1E
100
AcDbEntity
  8
CSLAYER1
  6
CONTINUOUS
 62
     3
100
AcDbLine
 10
134.391429
 20
157.428571
 30
0.0
 11
134.391429
 21
154.428571
 31
0.0
  0
LINE
  5
3C8
330
1E
100
AcDbEntity
  8
CSLAYER1
  6
CONTINUOUS
 62
     3
100
AcDbLine
 10
134.391429
 20
154.428571
 30
0.0
 11
133.641429
 21
154.428571
 31
0.0
  0
LINE
  5
3C9
330
1E
100
AcDbEntity
  8
CSLAYER1
  6
CONTINUOUS
 62
     3
100
AcDbLine
 10
134.641429
 20
154.6785709999998
 30
0.0
 11
134.641429
 21
157.178571
 31
0.0
  0
LINE
  5
3CA
330
1E
100
AcDbEntity
  8
CSLAYER1
  6
CONTINUOUS
 62
     3
100
AcDbLine
 10
134.641429
 20
157.178571
 30
0.0
 11
134.391429
 21
157.428571
 31
0.0
  0
LINE
  5
3CB
330
1E
100
AcDbEntity
  8
CSLAYER1
  6
CONTINUOUS
 62
     3
100
AcDbLine
 10
126.141429
 20
128.428571
 30
0.0
 11
126.141429
 21
163.428571
 31
0.0
  0
LINE
  5
3CC
330
1E
100
AcDbEntity
  8
CSLAYER1
  6
CONTINUOUS
 62
     3
100
AcDbLine
 10
122.641429
 20
163.428571
 30
0.0
 11
122.641429
 21
164.6285709999999
 31
0.0
  0
CIRCLE
  5
3CD
330
1E
100
AcDbEntity
  8
CSLAYER1
  6
DASHED
 62
     4
100
AcDbCircle
 10
119.1414289999999
 20
169.428571
 30
0.0
 40
3.149999999999999
  0
LINE
  5
3CE
330
1E
100
AcDbEntity
  8
CSLAYER1
  6
CONTINUOUS
 62
     3
100
AcDbLine
 10
123.141429
 20
173.38276
 30
0.0
 11
121.5219419999999
 21
176.428571
 31
0.0
  0
LINE
  5
3CF
330
1E
100
AcDbEntity
  8
CSLAYER1
  6
CONTINUOUS
 62
     3
100
AcDbLine
 10
121.5219419999999
 20
176.428571
 30
0.0
 11
115.1414289999999
 21
176.428571
 31
0.0
  0
ARC
  5
3D0
330
1E
100
AcDbEntity
  8
CSLAYER1
  6
CONTINUOUS
 62
     3
100
AcDbCircle
 10
120.544757
 20
177.428571
 30
0.0
 40
1.0
100
AcDbArc
 50
200.0
 51
270.0
  0
LINE
  5
3D1
330
1E
100
AcDbEntity
  8
CSLAYER1
  6
CONTINUOUS
 62
     3
100
AcDbLine
 10
119.6050649999999
 20
177.086551
 30
0.0
 11
116.204847
 21
186.428571
 31
0.0
  0
LINE
  5
3D2
330
1E
100
AcDbEntity
  8
CSLAYER1
  6
CONTINUOUS
 62
     3
100
AcDbLine
 10
116.204847
 20
186.428571
 30
0.0
 11
115.1414289999999
 21
188.428571
 31
0.0
  0
LINE
  5
3D3
330
1E
100
AcDbEntity
  8
CSLAYER1
  6
CONTINUOUS
 62
     3
100
AcDbLine
 10
115.1414289999999
 20
187.9285709999999
 30
0.0
 11
115.392283
 21
183.1419929999999
 31
0.0
  0
ARC
  5
3D4
330
1E
100
AcDbEntity
  8
CSLAYER1
  6
CONTINUOUS
 62
     3
100
AcDbCircle
 10
115.192557
 20
183.131525
 30
0.0
 40
0.2
100
AcDbArc
 50
273.0
 51
3.0
  0
LINE
  5
3D5
330
1E
100
AcDbEntity
  8
CSLAYER1
  6
CONTINUOUS
 62
     3
100
AcDbLine
 10
115.2030239999999
 20
182.931799
 30
0.0
 11
115.1414289999999
 21
182.928571
 31
0.0
  0
LINE
  5
3D6
330
1E
100
AcDbEntity
  8
CSLAYER1
  6
CONTINUOUS
 62
     3
100
AcDbLine
 10
117.1414289999999
 20
186.428571
 30
0.0
 11
121.141429
 21
186.428571
 31
0.0
  0
LINE
  5
3D7
330
1E
100
AcDbEntity
  8
CSLAYER1
  6
CONTINUOUS
 62
     3
100
AcDbLine
 10
121.641429
 20
186.9285709999999
 30
0.0
 11
121.641429
 21
196.428571
 31
0.0
  0
LINE
  5
3D8
330
1E
100
AcDbEntity
  8
CSLAYER1
  6
CONTINUOUS
 62
     3
100
AcDbLine
 10
123.141429
 20
196.428571
 30
0.0
 11
117.1414289999999
 21
196.428571
 31
0.0
  0
ARC
  5
3D9
330
1E
100
AcDbEntity
  8
CSLAYER1
  6
CONTINUOUS
 62
     3
100
AcDbCircle
 10
117.1414289999999
 20
198.428571
 30
0.0
 40
2.0
100
AcDbArc
 50
180.0
 51
270.0
  0
LINE
  5
3DA
330
1E
100
AcDbEntity
  8
CSLAYER1
  6
CONTINUOUS
 62
     3
100
AcDbLine
 10
116.641429
 20
196.49208
 30
0.0
 11
116.641429
 21
186.9285709999999
 31
0.0
  0
LINE
  5
3DB
330
1E
100
AcDbEntity
  8
CSLAYER1
  6
CONTINUOUS
 62
     3
100
AcDbLine
 10
117.1414289999999
 20
196.428571
 30
0.0
 11
123.141429
 21
210.5636859999999
 31
0.0
  0
ARC
  5
3DC
330
1E
100
AcDbEntity
  8
CSLAYER1
  6
CONTINUOUS
 62
     3
100
AcDbCircle
 10
111.141429
 20
159.628571
 30
0.0
 40
7.0
100
AcDbArc
 50
73.742972
 51
106.257028
  0
ARC
  5
3DD
330
1E
100
AcDbEntity
  8
CSLAYER1
  6
CONTINUOUS
 62
     3
100
AcDbCircle
 10
109.4617479999999
 20
165.388665
 30
0.0
 40
1.0
100
AcDbArc
 50
106.257028
 51
175.0
  0
LINE
  5
3DE
330
1E
100
AcDbEntity
  8
CSLAYER1
  6
CONTINUOUS
 62
     3
100
AcDbLine
 10
108.465553
 20
165.47582
 30
0.0
 11
108.391429
 21
164.6285709999999
 31
0.0
  0
LINE
  5
3DF
330
1E
100
AcDbEntity
  8
CSLAYER1
  6
CONTINUOUS
 62
     3
100
AcDbLine
 10
43.502602
 20
164.10979
 30
0.0
 11
43.502602
 21
166.60979
 31
0.0
  0
LINE
  5
3E0
330
1E
100
AcDbEntity
  8
CSLAYER1
  6
CONTINUOUS
 62
     3
100
AcDbLine
 10
43.502602
 20
166.60979
 30
0.0
 11
48.819696
 21
156.60979
 31
0.0
  0
LINE
  5
3E1
330
1E
100
AcDbEntity
  8
CSLAYER1
  6
CONTINUOUS
 62
     3
100
AcDbLine
 10
48.819696
 20
156.60979
 30
0.0
 11
58.26345500000001
 21
130.663276
 31
0.0
  0
LINE
  5
3E2
330
1E
100
AcDbEntity
  8
CSLAYER1
  6
CONTINUOUS
 62
     3
100
AcDbLine
 10
43.502602
 20
128.485475
 30
0.0
 11
43.502602
 21
139.10979
 31
0.0
  0
LINE
  5
3E3
330
1E
100
AcDbEntity
  8
CSLAYER1
  6
CONTINUOUS
 62
     3
100
AcDbLine
 10
43.502602
 20
139.10979
 30
0.0
 11
44.309893
 21
139.1520979999999
 31
0.0
  0
ARC
  5
3E4
330
1E
100
AcDbEntity
  8
CSLAYER1
  6
CONTINUOUS
 62
     3
100
AcDbCircle
 10
44.283725
 20
139.6514129999999
 30
0.0
 40
0.5
100
AcDbArc
 50
273.0
 51
3.0
  0
LINE
  5
3E5
330
1E
100
AcDbEntity
  8
CSLAYER1
  6
CONTINUOUS
 62
     3
100
AcDbLine
 10
44.78304
 20
139.677581
 30
0.0
 11
43.502602
 21
164.10979
 31
0.0
  0
LINE
  5
3E6
330
1E
100
AcDbEntity
  8
CSLAYER1
  6
CONTINUOUS
 62
     3
100
AcDbLine
 10
42.752602
 20
188.091606
 30
0.0
 11
42.752602
 21
212.5236249999999
 31
0.0
  0
ARC
  5
3E7
330
1E
100
AcDbEntity
  8
CSLAYER1
  6
CONTINUOUS
 62
     3
100
AcDbCircle
 10
522.973891
 20
40.50309099999997
 30
0.0
 40
500.0
100
AcDbArc
 50
160.1301349999999
 51
162.831847
  0
LINE
  5
3E8
330
1E
100
AcDbEntity
  8
CSLAYER1
  6
CONTINUOUS
 62
     3
100
AcDbLine
 10
45.252602
 20
188.091606
 30
0.0
 11
42.752602
 21
188.091606
 31
0.0
  0
ARC
  5
3E9
330
1E
100
AcDbEntity
  8
CSLAYER1
  6
CONTINUOUS
 62
     3
100
AcDbCircle
 10
112.821109
 20
165.388665
 30
0.0
 40
1.0
100
AcDbArc
 50
5.0
 51
73.742972
  0
LINE
  5
3EA
330
1E
100
AcDbEntity
  8
CSLAYER1
  6
CONTINUOUS
 62
     3
100
AcDbLine
 10
113.817304
 20
165.47582
 30
0.0
 11
113.8914289999999
 21
164.6285709999999
 31
0.0
  0
LINE
  5
3EB
330
1E
100
AcDbEntity
  8
CSLAYER1
  6
CONTINUOUS
 62
     3
100
AcDbLine
 10
207.552
 20
164.6285709999999
 30
0.0
 11
207.6219909999999
 21
165.428571
 31
0.0
  0
LINE
  5
3EC
330
1E
100
AcDbEntity
  8
CSLAYER1
  6
CONTINUOUS
 62
     3
100
AcDbLine
 10
212.9820089999999
 20
165.428571
 30
0.0
 11
213.0519999999999
 21
164.6285709999999
 31
0.0
  0
LINE
  5
3ED
330
1E
100
AcDbEntity
  8
CSLAYER1
  6
CONTINUOUS
 62
     3
100
AcDbLine
 10
216.8019999999999
 20
164.6285709999999
 30
0.0
 11
216.8019999999999
 21
163.428571
 31
0.0
  0
LINE
  5
3EE
330
1E
100
AcDbEntity
  8
CSLAYER1
  6
CONTINUOUS
 62
     3
100
AcDbLine
 10
217.302
 20
163.428571
 30
0.0
 11
217.302
 21
164.428571
 31
0.0
  0
LINE
  5
3EF
330
1E
100
AcDbEntity
  8
CSLAYER1
  6
CONTINUOUS
 62
     3
100
AcDbLine
 10
209.8019999999999
 20
210.5636859999999
 30
0.0
 11
207.8019999999999
 21
210.5636859999999
 31
0.0
  0
LINE
  5
3F0
330
1E
100
AcDbEntity
  8
CSLAYER1
  6
CONTINUOUS
 62
     3
100
AcDbLine
 10
128.741429
 20
126.9285709999999
 30
0.0
 11
107.141429
 21
126.9285709999999
 31
0.0
  0
LINE
  5
3F1
330
1E
100
AcDbEntity
  8
CSLAYER1
  6
CONTINUOUS
 62
     3
100
AcDbLine
 10
108.417675
 20
126.9285709999999
 30
0.0
 11
108.391429
 21
127.228571
 31
0.0
  0
CIRCLE
  5
3F2
330
1E
100
AcDbEntity
  8
CSLAYER1
  6
CONTINUOUS
 62
     3
100
AcDbCircle
 10
103.141429
 20
125.9285709999999
 30
0.0
 40
2.1
  0
CIRCLE
  5
3F3
330
1E
100
AcDbEntity
  8
CSLAYER1
  6
CONTINUOUS
 62
     3
100
AcDbCircle
 10
103.141429
 20
145.928571
 30
0.0
 40
2.1
  0
LINE
  5
3F4
330
1E
100
AcDbEntity
  8
CSLAYER1
  6
CONTINUOUS
 62
     3
100
AcDbLine
 10
113.8914289999999
 20
127.228571
 30
0.0
 11
113.8651819999999
 21
126.9285709999999
 31
0.0
  0
LINE
  5
3F5
330
1E
100
AcDbEntity
  8
CSLAYER1
  6
CONTINUOUS
 62
     3
100
AcDbLine
 10
115.1414289999999
 20
126.9285709999999
 30
0.0
 11
115.1414289999999
 21
127.228571
 31
0.0
  0
LINE
  5
3F6
330
1E
100
AcDbEntity
  8
CSLAYER1
  6
CONTINUOUS
 62
     3
100
AcDbLine
 10
110.141429
 20
72.42857099999998
 30
0.0
 11
110.141429
 21
39.928571
 31
0.0
  0
LINE
  5
3F7
330
1E
100
AcDbEntity
  8
CSLAYER1
  6
CONTINUOUS
 62
     3
100
AcDbLine
 10
304.868874
 20
39.928571
 30
0.0
 11
304.868874
 21
72.42857099999998
 31
0.0
  0
LINE
  5
3F8
330
1E
100
AcDbEntity
  8
CSLAYER1
  6
CONTINUOUS
 62
     3
100
AcDbLine
 10
304.495714
 20
80.42857099999997
 30
0.0
 11
344.495714
 21
80.42857099999997
 31
0.0
  0
LINE
  5
3F9
330
1E
100
AcDbEntity
  8
CSLAYER1
  6
CONTINUOUS
 62
     3
100
AcDbLine
 10
315.495714
 20
72.42857099999998
 30
0.0
 11
315.495714
 21
39.928571
 31
0.0
  0
LINE
  5
3FA
330
1E
100
AcDbEntity
  8
CSLAYER1
  6
CONTINUOUS
 62
     3
100
AcDbLine
 10
329.7719609999997
 20
126.9285709999999
 30
0.0
 11
329.745714
 21
127.228571
 31
0.0
  0
LINE
  5
3FB
330
1E
100
AcDbEntity
  8
CSLAYER1
  6
CONTINUOUS
 62
     3
100
AcDbLine
 10
335.219468
 20
126.9285709999999
 30
0.0
 11
335.245714
 21
127.228571
 31
0.0
  0
CIRCLE
  5
3FC
330
1E
100
AcDbEntity
  8
CSLAYER1
  6
CONTINUOUS
 62
     3
100
AcDbCircle
 10
340.495714
 20
125.9285709999999
 30
0.0
 40
2.1
  0
CIRCLE
  5
3FD
330
1E
100
AcDbEntity
  8
CSLAYER1
  6
CONTINUOUS
 62
     3
100
AcDbCircle
 10
340.495714
 20
145.928571
 30
0.0
 40
2.1
  0
POINT
  5
3FE
330
1E
100
AcDbEntity
  8
CSLAYER1
 62
     3
100
AcDbPoint
 10
18.0
 20
13.0
 30
0.0
  0
POINT
  5
3FF
330
1E
100
AcDbEntity
  8
CSLAYER1
 62
     3
100
AcDbPoint
 10
257.302
 20
153.4285709999998
 30
0.0
  0
POINT
  5
400
330
1E
100
AcDbEntity
  8
CSLAYER1
 62
     3
100
AcDbPoint
 10
257.302
 20
138.428571
 30
0.0
  0
POINT
  5
401
330
1E
100
AcDbEntity
  8
CSLAYER1
 62
     3
100
AcDbPoint
 10
232.8019999999999
 20
169.428571
 30
0.0
  0
POINT
  5
402
330
1E
100
AcDbEntity
  8
CSLAYER1
 62
     3
100
AcDbPoint
 10
234.8019999999999
 20
253.565714
 30
0.0
  0
POINT
  5
403
330
1E
100
AcDbEntity
  8
CSLAYER1
 62
     3
100
AcDbPoint
 10
240.802
 20
117.4285709999999
 30
0.0
  0
POINT
  5
404
330
1E
100
AcDbEntity
  8
CSLAYER1
 62
     3
100
AcDbPoint
 10
240.802
 20
90.42857099999999
 30
0.0
  0
TEXT
  5
405
330
1E
100
AcDbEntity
  8
CSLAYER1
 62
     3
100
AcDbText
 10
372.591187
 20
15.312742
 30
0.0
 40
3.0
  1
NKH20A-25
 41
1.038461538461538
  7
FX_FONT
 72
     5
 11
399.591187
 21
15.312742
 31
0.0
100
AcDbText
  0
POINT
  5
406
330
1E
100
AcDbEntity
  8
CSLAYER1
 62
     3
100
AcDbPoint
 10
222.8019999999999
 20
145.928571
 30
0.0
  0
LINE
  5
407
330
1E
100
AcDbEntity
  8
CSLAYER1
  6
CENTER
 62
     4
100
AcDbLine
 10
112.985379
 20
61.428571
 30
0.0
 11
125.2656479999999
 21
61.428571
 31
0.0
  0
CIRCLE
  5
408
330
1E
100
AcDbEntity
  8
CSLAYER1
  6
CONTINUOUS
 62
     4
100
AcDbCircle
 10
119.1414289999999
 20
61.428571
 30
0.0
 40
2.5
  0
LINE
  5
409
330
1E
100
AcDbEntity
  8
CSLAYER1
  6
CENTER
 62
     4
100
AcDbLine
 10
119.1414289999999
 20
34.05714
 30
0.0
 11
119.1414289999999
 21
220.7229369999999
 31
0.0
  0
ARC
  5
40A
330
1E
100
AcDbEntity
  8
CSLAYER1
  6
DASHED
 62
     4
100
AcDbCircle
 10
210.6856859999999
 20
168.9108679999999
 30
0.0
 40
100.0
100
AcDbArc
 50
153.565334
 51
162.831847
  0
LINE
  5
40B
330
1E
100
AcDbEntity
  8
CSLAYER1
  6
CONTINUOUS
 62
     4
100
AcDbLine
 10
117.1414289999999
 20
196.428571
 30
0.0
 11
117.1414289999999
 21
186.9285709999999
 31
0.0
  0
LINE
  5
40C
330
1E
100
AcDbEntity
  8
CSLAYER1
  6
CONTINUOUS
 62
     4
100
AcDbLine
 10
117.1414289999999
 20
186.428571
 30
0.0
 11
116.641429
 21
186.9285709999999
 31
0.0
  0
LINE
  5
40D
330
1E
100
AcDbEntity
  8
CSLAYER1
  6
CONTINUOUS
 62
     4
100
AcDbLine
 10
116.641429
 20
186.9285709999999
 30
0.0
 11
121.641429
 21
186.9285709999999
 31
0.0
  0
LINE
  5
40E
330
1E
100
AcDbEntity
  8
CSLAYER1
  6
CONTINUOUS
 62
     4
100
AcDbLine
 10
121.641429
 20
186.9285709999999
 30
0.0
 11
121.141429
 21
186.428571
 31
0.0
  0
LINE
  5
40F
330
1E
100
AcDbEntity
  8
CSLAYER1
  6
CONTINUOUS
 62
     4
100
AcDbLine
 10
121.141429
 20
186.9285709999999
 30
0.0
 11
121.141429
 21
196.428571
 31
0.0
  0
LINE
  5
410
330
1E
100
AcDbEntity
  8
CSLAYER1
  6
CENTER
 62
     4
100
AcDbLine
 10
131.093231
 20
169.428571
 30
0.0
 11
113.019433
 21
169.428571
 31
0.0
  0
LINE
  5
411
330
1E
100
AcDbEntity
  8
CSLAYER1
  6
CONTINUOUS
 62
     4
100
AcDbLine
 10
132.5414289999999
 20
134.678571
 30
0.0
 11
134.641429
 21
134.678571
 31
0.0
  0
LINE
  5
412
330
1E
100
AcDbEntity
  8
CSLAYER1
  6
CENTER
 62
     4
100
AcDbLine
 10
135.950036
 20
135.9285709999997
 30
0.0
 11
123.8436919999999
 21
135.9285709999997
 31
0.0
  0
LINE
  5
413
330
1E
100
AcDbEntity
  8
CSLAYER1
  6
CENTER
 62
     4
100
AcDbLine
 10
128.738961
 20
153.4285709999998
 30
0.0
 11
135.2891429999999
 21
153.4285709999998
 31
0.0
  0
LINE
  5
414
330
1E
100
AcDbEntity
  8
CSLAYER1
  6
CONTINUOUS
 62
     4
100
AcDbLine
 10
134.641429
 20
154.6785709999998
 30
0.0
 11
133.641429
 21
154.6785709999998
 31
0.0
  0
LINE
  5
415
330
1E
100
AcDbEntity
  8
CSLAYER1
  6
CENTER
 62
     4
100
AcDbLine
 10
135.950036
 20
155.928571
 30
0.0
 11
123.8436919999999
 21
155.928571
 31
0.0
  0
LINE
  5
416
330
1E
100
AcDbEntity
  8
CSLAYER1
  6
CENTER
 62
     4
100
AcDbLine
 10
128.8421129999999
 20
138.428571
 30
0.0
 11
137.2490399999997
 21
138.428571
 31
0.0
  0
LINE
  5
417
330
1E
100
AcDbEntity
  8
CSLAYER1
  6
CONTINUOUS
 62
     4
100
AcDbLine
 10
134.641429
 20
137.178571
 30
0.0
 11
133.641429
 21
137.178571
 31
0.0
  0
LINE
  5
418
330
1E
100
AcDbEntity
  8
CSLAYER1
  6
CENTER
 62
     4
100
AcDbLine
 10
103.141429
 20
118.930335
 30
0.0
 11
103.141429
 21
153.4285709999998
 31
0.0
  0
CIRCLE
  5
419
330
1E
100
AcDbEntity
  8
CSLAYER1
  6
CONTINUOUS
 62
     4
100
AcDbCircle
 10
103.141429
 20
145.928571
 30
0.0
 40
2.5
  0
LINE
  5
41A
330
1E
100
AcDbEntity
  8
CSLAYER1
  6
CENTER
 62
     4
100
AcDbLine
 10
111.1671429999999
 20
145.928571
 30
0.0
 11
94.730571
 21
145.928571
 31
0.0
  0
LINE
  5
41B
330
1E
100
AcDbEntity
  8
CSLAYER1
  6
CENTER
 62
     4
100
AcDbLine
 10
94.730571
 20
125.9285709999999
 30
0.0
 11
111.1671429999999
 21
125.9285709999999
 31
0.0
  0
LINE
  5
41C
330
1E
100
AcDbEntity
  8
CSLAYER1
  6
CENTER
 62
     4
100
AcDbLine
 10
111.141429
 20
123.3682169999999
 30
0.0
 11
111.141429
 21
130.7524869999999
 31
0.0
  0
CIRCLE
  5
41D
330
1E
100
AcDbEntity
  8
CSLAYER1
  6
CONTINUOUS
 62
     4
100
AcDbCircle
 10
103.141429
 20
125.9285709999999
 30
0.0
 40
2.5
  0
LINE
  5
41F
330
1E
100
AcDbEntity
  8
CSLAYER1
  6
CENTER
 62
     4
100
AcDbLine
 10
111.141429
 20
168.50734
 30
0.0
 11
111.141429
 21
160.399781
 31
0.0
  0
LINE
  5
420
330
1E
100
AcDbEntity
  8
CSLAYER1
  6
CONTINUOUS
 62
     4
100
AcDbLine
 10
132.5414289999999
 20
157.178571
 30
0.0
 11
134.641429
 21
157.178571
 31
0.0
  0
LINE
  5
421
330
1E
100
AcDbEntity
  8
CSLAYER1
  6
CONTINUOUS
 62
     4
100
AcDbLine
 10
197.3019999999999
 20
173.4285709999999
 30
0.0
 11
197.3019999999999
 21
165.428571
 31
0.0
  0
LINE
  5
422
330
1E
100
AcDbEntity
  8
CSLAYER1
  6
CENTER
 62
     4
100
AcDbLine
 10
190.3019999999999
 20
169.428571
 30
0.0
 11
225.537592
 21
169.428571
 31
0.0
  0
LINE
  5
423
330
1E
100
AcDbEntity
  8
CSLAYER1
  6
DASHED
 62
     4
100
AcDbLine
 10
223.3019999999999
 20
172.5785709999999
 30
0.0
 11
223.3019999999999
 21
166.278571
 31
0.0
  0
LINE
  5
424
330
1E
100
AcDbEntity
  8
CSLAYER1
  6
DASHED
 62
     4
100
AcDbLine
 10
223.3019999999999
 20
166.278571
 30
0.0
 11
198.3019999999999
 21
166.278571
 31
0.0
  0
LINE
  5
425
330
1E
100
AcDbEntity
  8
CSLAYER1
  6
CONTINUOUS
 62
     4
100
AcDbLine
 10
198.3019999999999
 20
166.278571
 30
0.0
 11
197.3019999999999
 21
166.278571
 31
0.0
  0
LINE
  5
426
330
1E
100
AcDbEntity
  8
CSLAYER1
  6
CENTER
 62
     4
100
AcDbLine
 10
201.302
 20
170.3583379999999
 30
0.0
 11
201.302
 21
179.050286
 31
0.0
  0
LINE
  5
427
330
1E
100
AcDbEntity
  8
CSLAYER1
  6
CONTINUOUS
 62
     4
100
AcDbLine
 10
198.3019999999999
 20
172.5785709999999
 30
0.0
 11
197.3019999999999
 21
172.5785709999999
 31
0.0
  0
LINE
  5
428
330
1E
100
AcDbEntity
  8
CSLAYER1
  6
DASHED
 62
     4
100
AcDbLine
 10
198.3019999999999
 20
172.5785709999999
 30
0.0
 11
223.3019999999999
 21
172.5785709999999
 31
0.0
  0
LINE
  5
429
330
1E
100
AcDbEntity
  8
CSLAYER1
  6
CENTER
 62
     4
100
AcDbLine
 10
228.123439
 20
169.428571
 30
0.0
 11
237.3019509999999
 21
169.428571
 31
0.0
  0
LINE
  5
42A
330
1E
100
AcDbEntity
  8
CSLAYER1
  6
CENTER
 62
     4
100
AcDbLine
 10
232.8019999999999
 20
175.453828
 30
0.0
 11
232.8019999999999
 21
164.6285709999999
 31
0.0
  0
LINE
  5
42B
330
1E
100
AcDbEntity
  8
CSLAYER1
  6
CENTER
 62
     4
100
AcDbLine
 10
210.6533109999999
 20
99.928571
 30
0.0
 11
198.2104409999999
 21
99.928571
 31
0.0
  0
LINE
  5
42C
330
1E
100
AcDbEntity
  8
CSLAYER1
  6
CENTER
 62
     4
100
AcDbLine
 10
204.3019999999999
 20
94.349746
 30
0.0
 11
204.3019999999999
 21
115.2763899999999
 31
0.0
  0
LINE
  5
42D
330
1E
100
AcDbEntity
  8
CSLAYER1
  6
CENTER
 62
     4
100
AcDbLine
 10
198.2104409999999
 20
109.9285709999999
 30
0.0
 11
211.218896
 21
109.9285709999999
 31
0.0
  0
LINE
  5
42E
330
1E
100
AcDbEntity
  8
CSLAYER1
  6
CENTER
 62
     4
100
AcDbLine
 10
210.3019999999999
 20
170.830575
 30
0.0
 11
210.3019999999999
 21
122.160847
 31
0.0
  0
LINE
  5
42F
330
1E
100
AcDbEntity
  8
CSLAYER1
  6
CENTER
 62
     4
100
AcDbLine
 10
217.6435999999999
 20
135.9285709999997
 30
0.0
 11
227.219395
 21
135.9285709999997
 31
0.0
  0
CIRCLE
  5
430
330
1E
100
AcDbEntity
  8
CSLAYER1
  6
CONTINUOUS
 62
     4
100
AcDbCircle
 10
222.8019999999999
 20
135.9285709999997
 30
0.0
 40
1.25
  0
LINE
  5
431
330
1E
100
AcDbEntity
  8
CSLAYER1
  6
CENTER
 62
     4
100
AcDbLine
 10
227.277495
 20
155.928571
 30
0.0
 11
218.446272
 21
155.928571
 31
0.0
  0
CIRCLE
  5
432
330
1E
100
AcDbEntity
  8
CSLAYER1
  6
CONTINUOUS
 62
     4
100
AcDbCircle
 10
222.8019999999999
 20
155.928571
 30
0.0
 40
1.25
  0
LINE
  5
433
330
1E
100
AcDbEntity
  8
CSLAYER1
  6
CENTER
 62
     4
100
AcDbLine
 10
239.822918
 20
151.678571
 30
0.0
 11
251.99
 21
151.678571
 31
0.0
  0
LINE
  5
434
330
1E
100
AcDbEntity
  8
CSLAYER1
  6
CENTER
 62
     4
100
AcDbLine
 10
251.6128569999999
 20
153.4285709999998
 30
0.0
 11
264.46778
 21
153.4285709999998
 31
0.0
  0
LINE
  5
435
330
1E
100
AcDbEntity
  8
CSLAYER1
  6
CENTER
 62
     4
100
AcDbLine
 10
264.312781
 20
138.428571
 30
0.0
 11
252.7442859999999
 21
138.428571
 31
0.0
  0
LINE
  5
436
330
1E
100
AcDbEntity
  8
CSLAYER1
  6
CENTER
 62
     4
100
AcDbLine
 10
251.99
 20
140.178571
 30
0.0
 11
239.822918
 21
140.178571
 31
0.0
  0
LINE
  5
437
330
1E
100
AcDbEntity
  8
CSLAYER1
  6
CENTER
 62
     4
100
AcDbLine
 10
257.302
 20
122.315846
 30
0.0
 11
257.302
 21
170.365577
 31
0.0
  0
LINE
  5
438
330
1E
100
AcDbEntity
  8
CSLAYER1
  6
CENTER
 62
     4
100
AcDbLine
 10
244.802
 20
164.68624
 30
0.0
 11
244.802
 21
128.5624
 31
0.0
  0
LINE
  5
439
330
1E
100
AcDbEntity
  8
CSLAYER1
  6
CENTER
 62
     4
100
AcDbLine
 10
240.802
 20
121.209019
 30
0.0
 11
240.802
 21
113.849432
 31
0.0
  0
LINE
  5
43A
330
1E
100
AcDbEntity
  8
CSLAYER1
  6
CENTER
 62
     4
100
AcDbLine
 10
232.965821
 20
117.4285709999999
 30
0.0
 11
248.7363649999999
 21
117.4285709999999
 31
0.0
  0
LINE
  5
43B
330
1E
100
AcDbEntity
  8
CSLAYER1
  6
CENTER
 62
     4
100
AcDbLine
 10
240.802
 20
95.275236
 30
0.0
 11
240.802
 21
84.76153999999999
 31
0.0
  0
LINE
  5
43C
330
1E
100
AcDbEntity
  8
CSLAYER1
  6
CENTER
 62
     4
100
AcDbLine
 10
232.965821
 20
90.42857099999999
 30
0.0
 11
248.7363649999999
 21
90.42857099999999
 31
0.0
  0
LINE
  5
43D
330
1E
100
AcDbEntity
  8
CSLAYER1
  6
CENTER
 62
     4
100
AcDbLine
 10
215.193044
 20
138.428571
 30
0.0
 11
204.343105
 21
138.428571
 31
0.0
  0
LINE
  5
43E
330
1E
100
AcDbEntity
  8
CSLAYER1
  6
CENTER
 62
     4
100
AcDbLine
 10
217.988522
 20
145.928571
 30
0.0
 11
227.974413
 21
145.928571
 31
0.0
  0
LINE
  5
43F
330
1E
100
AcDbEntity
  8
CSLAYER1
  6
CENTER
 62
     4
100
AcDbLine
 10
306.388103
 20
138.428571
 30
0.0
 11
314.79503
 21
138.428571
 31
0.0
  0
LINE
  5
440
330
1E
100
AcDbEntity
  8
CSLAYER1
  6
CENTER
 62
     4
100
AcDbLine
 10
314.8981819999999
 20
153.4285709999998
 30
0.0
 11
308.348
 21
153.4285709999998
 31
0.0
  0
LINE
  5
441
330
1E
100
AcDbEntity
  8
CSLAYER1
  6
CONTINUOUS
 62
     4
100
AcDbLine
 10
308.995714
 20
154.6785709999998
 30
0.0
 11
309.995714
 21
154.6785709999998
 31
0.0
  0
LINE
  5
442
330
1E
100
AcDbEntity
  8
CSLAYER1
  6
CENTER
 62
     4
100
AcDbLine
 10
307.6871069999999
 20
155.928571
 30
0.0
 11
319.793451
 21
155.928571
 31
0.0
  0
LINE
  5
443
330
1E
100
AcDbEntity
  8
CSLAYER1
  6
CONTINUOUS
 62
     4
100
AcDbLine
 10
311.095714
 20
134.678571
 30
0.0
 11
308.995714
 21
134.678571
 31
0.0
  0
LINE
  5
444
330
1E
100
AcDbEntity
  8
CSLAYER1
  6
CENTER
 62
     4
100
AcDbLine
 10
307.6871069999999
 20
135.9285709999997
 30
0.0
 11
319.793451
 21
135.9285709999997
 31
0.0
  0
LINE
  5
445
330
1E
100
AcDbEntity
  8
CSLAYER1
  6
CONTINUOUS
 62
     4
100
AcDbLine
 10
309.995714
 20
137.178571
 30
0.0
 11
308.995714
 21
137.178571
 31
0.0
  0
LINE
  5
446
330
1E
100
AcDbEntity
  8
CSLAYER1
  6
CENTER
 62
     4
100
AcDbLine
 10
324.495714
 20
37.379564
 30
0.0
 11
324.495714
 21
217.6487819999999
 31
0.0
  0
CIRCLE
  5
447
330
1E
100
AcDbEntity
  8
CSLAYER1
  6
CONTINUOUS
 62
     4
100
AcDbCircle
 10
324.495714
 20
203.428571
 30
0.0
 40
1.649999999999999
  0
LINE
  5
448
330
1E
100
AcDbEntity
  8
CSLAYER1
  6
CENTER
 62
     4
100
AcDbLine
 10
328.123143
 20
203.428571
 30
0.0
 11
321.211143
 21
203.428571
 31
0.0
  0
LINE
  5
449
330
1E
100
AcDbEntity
  8
CSLAYER1
  6
CENTER
 62
     4
100
AcDbLine
 10
330.6177099999998
 20
169.428571
 30
0.0
 11
317.653319
 21
169.428571
 31
0.0
  0
LINE
  5
44A
330
1E
100
AcDbEntity
  8
CSLAYER1
  6
CENTER
 62
     4
100
AcDbLine
 10
340.495714
 20
118.930335
 30
0.0
 11
340.495714
 21
153.4285709999998
 31
0.0
  0
CIRCLE
  5
44B
330
1E
100
AcDbEntity
  8
CSLAYER1
  6
CONTINUOUS
 62
     4
100
AcDbCircle
 10
340.495714
 20
145.928571
 30
0.0
 40
2.5
  0
LINE
  5
44C
330
1E
100
AcDbEntity
  8
CSLAYER1
  6
CENTER
 62
     4
100
AcDbLine
 10
348.521429
 20
145.928571
 30
0.0
 11
332.0848569999999
 21
145.928571
 31
0.0
  0
LINE
  5
44D
330
1E
100
AcDbEntity
  8
CSLAYER1
  6
CENTER
 62
     4
100
AcDbLine
 10
332.495714
 20
130.7524869999999
 30
0.0
 11
332.495714
 21
123.3682169999999
 31
0.0
  0
LINE
  5
44E
330
1E
100
AcDbEntity
  8
CSLAYER1
  6
CENTER
 62
     4
100
AcDbLine
 10
332.0848569999999
 20
125.9285709999999
 30
0.0
 11
348.521429
 21
125.9285709999999
 31
0.0
  0
CIRCLE
  5
44F
330
1E
100
AcDbEntity
  8
CSLAYER1
  6
CONTINUOUS
 62
     4
100
AcDbCircle
 10
340.495714
 20
125.9285709999999
 30
0.0
 40
2.5
  0
LINE
  5
450
330
1E
100
AcDbEntity
  8
CSLAYER1
  6
CONTINUOUS
 62
     4
100
AcDbLine
 10
311.095714
 20
157.178571
 30
0.0
 11
308.995714
 21
157.178571
 31
0.0
  0
LINE
  5
451
330
1E
100
AcDbEntity
  8
CSLAYER1
  6
CENTER
 62
     4
100
AcDbLine
 10
332.495714
 20
160.399781
 30
0.0
 11
332.495714
 21
168.50734
 31
0.0
  0
LINE
  5
452
330
1E
100
AcDbEntity
  8
CSLAYER1
  6
CENTER
 62
     4
100
AcDbLine
 10
257.302
 20
237.4179999999999
 30
0.0
 11
257.302
 21
243.968182
 31
0.0
  0
LINE
  5
453
330
1E
100
AcDbEntity
  8
CSLAYER1
  6
CENTER
 62
     4
100
AcDbLine
 10
241.421429
 20
253.565714
 30
0.0
 11
196.4200169999999
 21
253.565714
 31
0.0
  0
CIRCLE
  5
454
330
1E
100
AcDbEntity
  8
CSLAYER1
  6
CONTINUOUS
 62
     4
100
AcDbCircle
 10
201.302
 20
253.565714
 30
0.0
 40
1.25
  0
LINE
  5
455
330
1E
100
AcDbEntity
  8
CSLAYER1
  6
CENTER
 62
     4
100
AcDbLine
 10
201.302
 20
258.2569259999999
 30
0.0
 11
201.302
 21
248.122191
 31
0.0
  0
LINE
  5
456
330
1E
100
AcDbEntity
  8
CSLAYER1
  6
CENTER
 62
     4
100
AcDbLine
 10
207.302
 20
248.4222319999999
 30
0.0
 11
207.302
 21
258.223588
 31
0.0
  0
LINE
  5
457
330
1E
100
AcDbEntity
  8
CSLAYER1
  6
DASHED
 62
     4
100
AcDbLine
 10
209.8019999999999
 20
259.2792819999999
 30
0.0
 11
229.802
 21
259.2792819999999
 31
0.0
  0
LINE
  5
458
330
1E
100
AcDbEntity
  8
CSLAYER1
  6
CENTER
 62
     4
100
AcDbLine
 10
234.8019999999999
 20
258.427429
 30
0.0
 11
234.8019999999999
 21
248.489714
 31
0.0
  0
CIRCLE
  5
459
330
1E
100
AcDbEntity
  8
CSLAYER1
  6
CONTINUOUS
 62
     4
100
AcDbCircle
 10
234.8019999999999
 20
253.565714
 30
0.0
 40
2.1
  0
LINE
  5
45A
330
1E
100
AcDbEntity
  8
CSLAYER1
  6
CENTER
 62
     4
100
AcDbLine
 10
222.8019999999999
 20
242.565714
 30
0.0
 11
222.8019999999999
 21
275.6857909999999
 31
0.0
  0
LINE
  5
45B
330
1E
100
AcDbEntity
  8
CSLAYER1
  6
CENTER
 62
     4
100
AcDbLine
 10
222.8019999999999
 20
240.4113339999999
 30
0.0
 11
222.8019999999999
 21
230.4588569999999
 31
0.0
  0
LINE
  5
45C
330
1E
100
AcDbEntity
  8
CSLAYER1
  6
CENTER
 62
     4
100
AcDbLine
 10
222.8019999999999
 20
219.403184
 30
0.0
 11
222.8019999999999
 21
32.751274
 31
0.0
  0
LINE
  5
45D
330
1E
100
AcDbEntity
  8
CSLAYER1
  6
CENTER
 62
     4
100
AcDbLine
 10
208.8349679999999
 20
61.428571
 30
0.0
 11
195.79993
 21
61.428571
 31
0.0
  0
LINE
  5
45E
330
1E
100
AcDbEntity
  8
CSLAYER1
  6
CENTER
 62
     4
100
AcDbLine
 10
196.7537129999999
 20
45.428571
 30
0.0
 11
211.696318
 21
45.428571
 31
0.0
  0
LINE
  5
45F
330
1E
100
AcDbEntity
  8
CSLAYER1
  6
CENTER
 62
     4
100
AcDbLine
 10
125.308586
 20
45.428571
 30
0.0
 11
113.071255
 21
45.428571
 31
0.0
  0
CIRCLE
  5
460
330
1E
100
AcDbEntity
  8
CSLAYER1
  6
CONTINUOUS
 62
     4
100
AcDbCircle
 10
119.1414289999999
 20
45.428571
 30
0.0
 40
2.5
  0
LINE
  5
461
330
1E
100
AcDbEntity
  8
CSLAYER1
  6
CENTER
 62
     4
100
AcDbLine
 10
204.963101
 20
153.4285709999998
 30
0.0
 11
214.263049
 21
153.4285709999998
 31
0.0
  0
LINE
  5
462
330
1E
100
AcDbEntity
  8
CSLAYER1
  6
CENTER
 62
     4
100
AcDbLine
 10
207.302
 20
170.3583379999999
 30
0.0
 11
207.302
 21
179.050286
 31
0.0
  0
LINE
  5
463
330
1E
100
AcDbEntity
  8
CSLAYER1
  6
CONTINUOUS
 62
     4
100
AcDbLine
 10
232.302
 20
186.9285709999999
 30
0.0
 11
237.3019999999999
 21
186.9285709999999
 31
0.0
  0
LINE
  5
464
330
1E
100
AcDbEntity
  8
CSLAYER1
  6
CONTINUOUS
 62
     4
100
AcDbLine
 10
237.3019999999999
 20
186.9285709999999
 30
0.0
 11
236.802
 21
186.428571
 31
0.0
  0
LINE
  5
465
330
1E
100
AcDbEntity
  8
CSLAYER1
  6
CONTINUOUS
 62
     4
100
AcDbLine
 10
236.802
 20
186.9285709999999
 30
0.0
 11
236.802
 21
195.428571
 31
0.0
  0
LINE
  5
466
330
1E
100
AcDbEntity
  8
CSLAYER1
  6
CONTINUOUS
 62
     4
100
AcDbLine
 10
238.3845759999999
 20
193.428571
 30
0.0
 11
250.802
 21
193.428571
 31
0.0
  0
LINE
  5
467
330
1E
100
AcDbEntity
  8
CSLAYER1
  6
CENTER
 62
     4
100
AcDbLine
 10
253.6819919999999
 20
203.428571
 30
0.0
 11
235.7284649999999
 21
203.428571
 31
0.0
  0
LINE
  5
468
330
1E
100
AcDbEntity
  8
CSLAYER1
  6
CONTINUOUS
 62
     4
100
AcDbLine
 10
232.8019999999999
 20
196.428571
 30
0.0
 11
232.8019999999999
 21
186.9285709999999
 31
0.0
  0
LINE
  5
469
330
1E
100
AcDbEntity
  8
CSLAYER1
  6
CONTINUOUS
 62
     4
100
AcDbLine
 10
232.8019999999999
 20
186.428571
 30
0.0
 11
232.302
 21
186.9285709999999
 31
0.0
  0
LINE
  5
46A
330
1E
100
AcDbEntity
  8
CSLAYER1
  6
CENTER
 62
     4
100
AcDbLine
 10
234.8019999999999
 20
183.437679
 30
0.0
 11
234.8019999999999
 21
218.998727
 31
0.0
  0
LINE
  5
46B
330
1E
100
AcDbEntity
  8
CSLAYER1
  6
CONTINUOUS
 62
     4
100
AcDbLine
 10
224.052
 20
238.065714
 30
0.0
 11
224.052
 21
240.165714
 31
0.0
  0
LINE
  5
46C
330
1E
100
AcDbEntity
  8
CSLAYER1
  6
CONTINUOUS
 62
     4
100
AcDbLine
 10
221.552
 20
240.165714
 30
0.0
 11
221.552
 21
238.065714
 31
0.0
  0
LINE
  5
46D
330
1E
100
AcDbEntity
  8
CSLAYER1
  6
CENTER
 62
     4
100
AcDbLine
 10
210.3019999999999
 20
237.4179999999999
 30
0.0
 11
210.3019999999999
 21
243.968182
 31
0.0
  0
ARC
  5
46E
330
1E
100
AcDbEntity
  8
CSLAYER1
  6
CONTINUOUS
 62
     4
100
AcDbCircle
 10
207.302
 20
253.565714
 30
0.0
 40
1.25
100
AcDbArc
 50
66.42182199999999
 51
293.5781779999998
  0
POINT
  5
46F
330
1E
100
AcDbEntity
  8
CSLAYER1
 62
     3
100
AcDbPoint
 10
119.1414289999999
 20
170.428571
 30
0.0
  0
POINT
  5
470
330
1E
100
AcDbEntity
  8
CSLAYER1
 62
     3
100
AcDbPoint
 10
210.3019999999999
 20
153.4285709999998
 30
0.0
  0
POINT
  5
471
330
1E
100
AcDbEntity
  8
CSLAYER1
 62
     3
100
AcDbPoint
 10
222.8019999999999
 20
198.428571
 30
0.0
  0
POINT
  5
472
330
1E
100
AcDbEntity
  8
CSLAYER1
 62
     3
100
AcDbPoint
 10
222.8019999999999
 20
163.428571
 30
0.0
  0
TEXT
  5
473
330
1E
100
AcDbEntity
  8
CSLAYER1
 62
     4
100
AcDbText
 10
34.757111
 20
118.8438639999999
 30
0.0
 40
3.0
  1
刃部拡大図(5/1)
 41
0.9677419354838704
  7
FX_FONT
 72
     5
 11
64.75711099999999
 21
118.8438639999999
 31
0.0
100
AcDbText
  0
POINT
  5
474
330
1E
100
AcDbEntity
  8
CSLAYER1
 62
     3
100
AcDbPoint
 10
222.8019999999999
 20
249.565714
 30
0.0
  0
POINT
  5
475
330
1E
100
AcDbEntity
  8
CSLAYER1
 62
     3
100
AcDbPoint
 10
222.8019999999999
 20
257.565714
 30
0.0
  0
DIMENSION
  5
476
330
1E
100
AcDbEntity
  8
CSLAYER1
 62
     4
100
AcDbDimension
  2
*D0
 10
194.861429
 20
213.4285709999999
 30
0.0
 11
194.361435
 21
205.9285739999999
 31
0.0
 70
     1
100
AcDbAlignedDimension
 13
208.1334369999999
 23
198.428571
 33
0.0
 14
208.1334369999999
 24
213.4285709999999
 34
0.0
  0
DIMENSION
  5
477
330
1E
100
AcDbEntity
  8
CSLAYER1
 62
     4
100
AcDbDimension
  2
*D1
 10
260.802
 20
15.686041
 30
0.0
 11
230.552002
 21
16.18604099999998
 31
0.0
 70
     1
 52
270.0
100
AcDbAlignedDimension
 13
200.3019999999999
 23
72.42857099999998
 33
0.0
 14
260.802
 24
72.42857099999998
 34
0.0
  0
DIMENSION
  5
478
330
1E
100
AcDbEntity
  8
CSLAYER1
 62
     4
100
AcDbDimension
  2
*D2
 10
222.8019999999999
 20
21.686041
 30
0.0
 11
211.552002
 21
22.18604099999998
 31
0.0
 70
     1
 52
270.0
100
AcDbAlignedDimension
 13
200.3019999999999
 23
30.368571
 33
0.0
 14
222.8019999999999
 24
30.368571
 34
0.0
  0
DIMENSION
  5
479
330
1E
100
AcDbEntity
  8
CSLAYER1
 62
     4
100
AcDbDimension
  2
*D3
 10
123.141429
 20
229.78
 30
0.0
 11
119.1414259999999
 21
230.279999
 31
0.0
 70
     1
100
AcDbAlignedDimension
 13
115.1414289999999
 23
213.4285709999999
 33
0.0
 14
123.141429
 24
213.4285709999999
 34
0.0
  0
DIMENSION
  5
47A
330
1E
100
AcDbEntity
  8
CSLAYER1
 62
     4
100
AcDbDimension
  2
*D4
 10
139.141429
 20
27.984713
 30
0.0
 11
119.1414259999999
 21
28.48471299999999
 31
0.0
 70
     1
 52
270.0
100
AcDbAlignedDimension
 13
99.14142900000001
 23
39.428571
 33
0.0
 14
139.141429
 24
39.428571
 34
0.0
  0
DIMENSION
  5
47B
330
1E
100
AcDbEntity
  8
CSLAYER1
 62
     4
100
AcDbDimension
  2
*D5
 10
115.1414289999999
 20
235.3846579999999
 30
0.0
 11
107.141434
 21
235.884659
 31
0.0
100
AcDbAlignedDimension
 13
99.14142900000001
 23
163.428571
 33
0.0
 14
115.1414289999999
 24
213.4285709999999
 34
0.0
100
AcDbRotatedDimension
  0
DIMENSION
  5
47C
330
1E
100
AcDbEntity
  8
CSLAYER1
 62
     4
100
AcDbDimension
  2
*D6
 10
139.141429
 20
235.3846579999999
 30
0.0
 11
127.141426
 21
235.884659
 31
0.0
 70
     1
100
AcDbAlignedDimension
 13
115.1414289999999
 23
117.928571
 33
0.0
 14
139.141429
 24
117.928571
 34
0.0
  0
DIMENSION
  5
47D
330
1E
100
AcDbEntity
  8
CSLAYER1
 62
     4
100
AcDbDimension
  2
*D7
 10
194.861429
 20
196.428571
 30
0.0
 11
194.361435
 21
192.428574
 31
0.0
 70
     1
100
AcDbAlignedDimension
 13
208.1334369999999
 23
188.428571
 33
0.0
 14
208.1334369999999
 24
196.428571
 34
0.0
  0
DIMENSION
  5
47E
330
1E
100
AcDbEntity
  8
CSLAYER1
 62
     4
100
AcDbDimension
  2
*D8
 10
194.861429
 20
198.428571
 30
0.0
 11
187.8998409999999
 21
204.555649
 31
0.0
 70
     1
100
AcDbAlignedDimension
 13
210.531922
 23
196.428571
 33
0.0
 14
210.531922
 24
198.428571
 34
0.0
  0
DIMENSION
  5
47F
330
1E
100
AcDbEntity
  8
CSLAYER1
 62
     4
100
AcDbDimension
  2
*D9
 10
220.6608299999999
 20
188.428571
 30
0.0
 11
220.1608279999999
 21
193.4285739999999
 31
0.0
 70
     1
100
AcDbAlignedDimension
 13
220.6608299999999
 23
198.428571
 33
0.0
 14
220.6608299999999
 24
188.428571
 34
0.0
  0
DIMENSION
  5
480
330
1E
100
AcDbEntity
  8
CSLAYER1
 62
     4
100
AcDbDimension
  2
*D10
 10
202.802
 20
30.826367
 30
0.0
 11
212.802002
 21
31.32636599999999
 31
0.0
 52
270.0
100
AcDbAlignedDimension
 13
222.8019999999999
 23
30.826367
 33
0.0
 14
202.802
 24
39.428571
 34
0.0
100
AcDbRotatedDimension
  0
DIMENSION
  5
481
330
1E
100
AcDbEntity
  8
CSLAYER1
 62
     4
100
AcDbDimension
  2
*D11
 10
242.802
 20
30.826367
 30
0.0
 11
232.802002
 21
31.32636599999999
 31
0.0
 70
     1
 52
270.0
100
AcDbAlignedDimension
 13
222.8019999999999
 23
39.428571
 33
0.0
 14
242.802
 24
39.428571
 34
0.0
  0
DIMENSION
  5
482
330
1E
100
AcDbEntity
  8
CSLAYER1
 62
     4
100
AcDbDimension
  2
*D12
 10
260.802
 20
278.332857
 30
0.0
 11
230.552002
 21
278.832855
 31
0.0
 70
     1
100
AcDbAlignedDimension
 13
200.3019999999999
 23
273.565714
 33
0.0
 14
260.802
 24
273.565714
 34
0.0
  0
DIMENSION
  5
483
330
1E
100
AcDbEntity
  8
CSLAYER1
 62
     4
100
AcDbDimension
  2
*D13
 10
280.046931
 20
213.4285709999999
 30
0.0
 11
279.5469359999998
 21
126.6785739999999
 31
0.0
100
AcDbAlignedDimension
 13
242.802
 23
39.928571
 33
0.0
 14
245.8019999999999
 24
213.4285709999999
 34
0.0
 50
90.0
100
AcDbRotatedDimension
  0
DIMENSION
  5
484
330
1E
100
AcDbEntity
  8
CSLAYER1
 62
     4
100
AcDbDimension
  2
*D14
 10
274.046931
 20
72.42857099999998
 30
0.0
 11
273.5469359999999
 21
56.17856999999999
 31
0.0
 70
     1
100
AcDbAlignedDimension
 13
260.802
 23
39.928571
 33
0.0
 14
260.802
 24
72.42857099999998
 34
0.0
  0
DIMENSION
  5
485
330
1E
100
AcDbEntity
  8
CSLAYER1
 62
     4
100
AcDbDimension
  2
*D15
 10
274.046931
 20
128.428571
 30
0.0
 11
273.5469359999999
 21
100.428574
 31
0.0
 70
     1
100
AcDbAlignedDimension
 13
260.802
 23
72.42857099999998
 33
0.0
 14
260.802
 24
128.428571
 34
0.0
  0
DIMENSION
  5
486
330
1E
100
AcDbEntity
  8
CSLAYER1
 62
     4
100
AcDbDimension
  2
*D16
 10
274.046931
 20
163.428571
 30
0.0
 11
273.5469359999999
 21
145.928574
 31
0.0
 70
     1
100
AcDbAlignedDimension
 13
260.802
 23
128.428571
 33
0.0
 14
260.802
 24
163.428571
 34
0.0
  0
DIMENSION
  5
487
330
1E
100
AcDbEntity
  8
CSLAYER1
 62
     4
100
AcDbDimension
  2
*D17
 10
274.046931
 20
163.428571
 30
0.0
 11
273.5469359999999
 21
182.9603269999999
 31
0.0
 70
     1
100
AcDbAlignedDimension
 13
274.046931
 23
213.4285709999999
 33
0.0
 14
274.046931
 24
163.428571
 34
0.0
  0
DIMENSION
  5
488
330
1E
100
AcDbEntity
  8
CSLAYER1
 62
     4
100
AcDbDimension
  2
*D18
 10
180.0997139999999
 20
273.565714
 30
0.0
 11
179.5997159999999
 21
253.56572
 31
0.0
 70
     1
100
AcDbAlignedDimension
 13
200.3019999999999
 23
233.565714
 33
0.0
 14
200.3019999999999
 24
273.565714
 34
0.0
  0
DIMENSION
  5
489
330
1E
100
AcDbEntity
  8
CSLAYER1
 62
     4
100
AcDbDimension
  2
*D19
 10
192.0997139999999
 20
257.565714
 30
0.0
 11
191.599716
 21
253.56572
 31
0.0
 70
     1
100
AcDbAlignedDimension
 13
198.069523
 23
249.565714
 33
0.0
 14
198.069523
 24
257.565714
 34
0.0
  0
DIMENSION
  5
48A
330
1E
100
AcDbEntity
  8
CSLAYER1
 62
     4
100
AcDbDimension
  2
*D20
 10
192.0997139999999
 20
257.565714
 30
0.0
 11
191.599716
 21
261.565735
 31
0.0
 70
     1
100
AcDbAlignedDimension
 13
192.0997139999999
 23
265.565714
 33
0.0
 14
192.0997139999999
 24
257.565714
 34
0.0
  0
DIMENSION
  5
48B
330
1E
100
AcDbEntity
  8
CSLAYER1
 62
     4
100
AcDbDimension
  2
*D21
 10
192.0997139999999
 20
265.565714
 30
0.0
 11
191.599716
 21
269.5657039999999
 31
0.0
 70
     1
100
AcDbAlignedDimension
 13
192.0997139999999
 23
273.565714
 33
0.0
 14
192.0997139999999
 24
265.565714
 34
0.0
  0
INSERT
  5
48C
330
1E
100
AcDbEntity
  8
CSLAYER1
100
AcDbBlockReference
  2
FXDIM0000
 10
0.0
 20
0.0
 30
0.0
  0
DIMENSION
  5
48D
330
1E
100
AcDbEntity
  8
CSLAYER1
 62
     4
100
AcDbDimension
  2
*D23
 10
103.141429
 20
182.6236729999999
 30
0.0
 11
97.641457
 21
183.1236719999999
 31
0.0
 70
     1
100
AcDbAlignedDimension
 13
99.14142900000001
 23
152.428571
 33
0.0
 14
103.141429
 24
152.428571
 34
0.0
  0
DIMENSION
  5
48E
330
1E
100
AcDbEntity
  8
CSLAYER1
 62
     4
100
AcDbDimension
  2
*D24
 10
103.141429
 20
182.6236729999999
 30
0.0
 11
109.1414569999999
 21
183.1236719999999
 31
0.0
 70
     1
100
AcDbAlignedDimension
 13
115.1414289999999
 23
182.6236729999999
 33
0.0
 14
103.141429
 24
182.6236729999999
 34
0.0
  0
INSERT
  5
48F
330
1E
100
AcDbEntity
  8
CSLAYER1
100
AcDbBlockReference
  2
FXDIM0001
 10
0.0
 20
0.0
 30
0.0
  0
DIMENSION
  5
490
330
1E
100
AcDbEntity
  8
CSLAYER1
 62
     4
100
AcDbDimension
  2
*D26
 10
77.264286
 20
145.928571
 30
0.0
 11
76.764282
 21
135.928574
 31
0.0
 70
     1
100
AcDbAlignedDimension
 13
96.51571400000001
 23
125.9285709999999
 33
0.0
 14
96.51571400000001
 24
145.928571
 34
0.0
  0
DIMENSION
  5
491
330
1E
100
AcDbEntity
  8
CSLAYER1
 62
     4
100
AcDbDimension
  2
*D27
 10
77.264286
 20
163.428571
 30
0.0
 11
76.764282
 21
154.6785739999999
 31
0.0
100
AcDbAlignedDimension
 13
100.141429
 23
145.928571
 33
0.0
 14
99.14142900000001
 24
163.428571
 34
0.0
 50
90.0
100
AcDbRotatedDimension
  0
DIMENSION
  5
492
330
1E
100
AcDbEntity
  8
CSLAYER1
 62
     4
100
AcDbDimension
  2
*D28
 10
77.264286
 20
198.428571
 30
0.0
 11
76.764282
 21
180.9285739999999
 31
0.0
 70
     1
100
AcDbAlignedDimension
 13
116.1414289999999
 23
163.428571
 33
0.0
 14
116.1414289999999
 24
198.428571
 34
0.0
  0
DIMENSION
  5
493
330
1E
100
AcDbEntity
  8
CSLAYER1
 62
     4
100
AcDbDimension
  2
*D29
 10
77.264286
 20
125.9285709999999
 30
0.0
 11
76.764282
 21
82.928574
 31
0.0
100
AcDbAlignedDimension
 13
99.14142900000001
 23
39.928571
 33
0.0
 14
100.541429
 24
125.9285709999999
 34
0.0
 50
90.0
100
AcDbRotatedDimension
  0
DIMENSION
  5
494
330
1E
100
AcDbEntity
  8
CSLAYER1
 62
     4
100
AcDbDimension
  2
*D30
 10
344.495714
 20
58.744
 30
0.0
 11
324.4957279999998
 21
59.243999
 31
0.0
 70
     1
 52
270.0
100
AcDbAlignedDimension
 13
304.495714
 23
60.744
 33
0.0
 14
344.495714
 24
60.744
 34
0.0
  0
DIMENSION
  5
495
330
1E
100
AcDbEntity
  8
CSLAYER1
 62
     4
100
AcDbDimension
  2
*D31
 10
194.861429
 20
188.428571
 30
0.0
 11
194.361435
 21
182.428574
 31
0.0
100
AcDbAlignedDimension
 13
198.3019999999999
 23
176.428571
 33
0.0
 14
210.6008569999999
 24
188.428571
 34
0.0
 50
90.0
100
AcDbRotatedDimension
  0
DIMENSION
  5
496
330
1E
100
AcDbEntity
  8
CSLAYER1
 62
     4
100
AcDbDimension
  2
*D32
 10
210.3019999999999
 20
181.052604
 30
0.0
 11
219.802002
 21
181.5525969999999
 31
0.0
 70
     1
100
AcDbAlignedDimension
 13
229.3019999999999
 23
181.052604
 33
0.0
 14
210.3019999999999
 24
181.052604
 34
0.0
  0
DIMENSION
  5
497
330
1E
100
AcDbEntity
  8
CSLAYER1
 62
     4
100
AcDbDimension
  2
*D33
 10
186.0907579999999
 20
265.565714
 30
0.0
 11
185.590759
 21
254.06572
 31
0.0
100
AcDbAlignedDimension
 13
206.8019999999999
 23
242.565714
 33
0.0
 14
200.3019999999999
 24
265.565714
 34
0.0
 50
90.0
100
AcDbRotatedDimension
  0
DIMENSION
  5
498
330
1E
100
AcDbEntity
  8
CSLAYER1
 62
     4
100
AcDbDimension
  2
*D34
 10
27.06416799999999
 20
166.60979
 30
0.0
 11
26.56417299999999
 21
152.859787
 31
0.0
 70
     1
100
AcDbAlignedDimension
 13
43.502602
 23
139.10979
 33
0.0
 14
43.502602
 24
166.60979
 34
0.0
  0
DIMENSION
  5
499
330
1E
100
AcDbEntity
  8
CSLAYER1
 62
     4
100
AcDbDimension
  2
*D35
 10
33.064168
 20
166.60979
 30
0.0
 11
32.34843099999999
 21
155.086273
 31
0.0
 70
     1
100
AcDbAlignedDimension
 13
43.502602
 23
164.10979
 33
0.0
 14
43.502602
 24
166.60979
 34
0.0
  0
DIMENSION
  5
49A
330
1E
100
AcDbEntity
  8
CSLAYER1
 62
     4
100
AcDbDimension
  2
*D36
 10
55.819513
 20
166.60979
 30
0.0
 11
55.319511
 21
161.609787
 31
0.0
100
AcDbAlignedDimension
 13
48.819696
 23
156.60979
 33
0.0
 14
43.502602
 24
166.60979
 34
0.0
 50
90.0
100
AcDbRotatedDimension
  0
DIMENSION
  5
49E
330
1E
100
AcDbEntity
  8
CSLAYER1
 62
     4
100
AcDbDimension
  2
*D40
 10
43.502602
 20
180.146223
 30
0.0
 11
52.101078
 21
180.588318
 31
0.0
 52
270.0
100
AcDbAlignedDimension
 13
42.752602
 23
188.091606
 33
0.0
 14
43.502602
 24
166.60979
 34
0.0
100
AcDbRotatedDimension
  0
DIMENSION
  5
49F
330
1E
100
AcDbEntity
  8
CSLAYER1
 62
     4
100
AcDbDimension
  2
*D41
 10
45.252602
 20
200.150831
 30
0.0
 11
36.185806
 21
200.8139649999999
 31
0.0
 52
270.0
100
AcDbAlignedDimension
 13
42.752602
 23
212.5236249999999
 33
0.0
 14
45.252602
 24
188.091606
 34
0.0
100
AcDbRotatedDimension
  0
INSERT
  5
4A0
330
1E
100
AcDbEntity
  8
CSLAYER1
100
AcDbBlockReference
  2
BLKF0000
 10
0.0
 20
0.0
 30
0.0
  0
INSERT
  5
4A1
330
1E
100
AcDbEntity
  8
CSLAYER1
100
AcDbBlockReference
  2
BLKF0001
 10
0.0
 20
0.0
 30
0.0
  0
INSERT
  5
4A2
330
1E
100
AcDbEntity
  8
CSLAYER1
100
AcDbBlockReference
  2
FXDIM0002
 10
0.0
 20
0.0
 30
0.0
  0
INSERT
  5
4A3
330
1E
100
AcDbEntity
  8
CSLAYER1
100
AcDbBlockReference
  2
FXDIM0003
 10
0.0
 20
0.0
 30
0.0
  0
LINE
  5
4A4
330
1E
100
AcDbEntity
  8
CSLAYER1
  6
CENTER
 62
     4
100
AcDbLine
 10
248.717666
 20
158.928571
 30
0.0
 11
263.3897049999999
 21
158.928571
 31
0.0
  0
LINE
  5
4A5
330
1E
100
AcDbEntity
  8
CSLAYER1
  6
CENTER
 62
     4
100
AcDbLine
 10
248.717666
 20
132.928571
 30
0.0
 11
263.3897049999999
 21
132.928571
 31
0.0
  0
LINE
  5
4A6
330
1E
100
AcDbEntity
  8
CSLAYER1
  6
CENTER
 62
     4
100
AcDbLine
 10
219.138833
 20
158.928571
 30
0.0
 11
201.6273749999998
 21
158.928571
 31
0.0
  0
LINE
  5
4A7
330
1E
100
AcDbEntity
  8
CSLAYER1
  6
CENTER
 62
     4
100
AcDbLine
 10
219.138833
 20
132.928571
 30
0.0
 11
201.6273749999998
 21
132.928571
 31
0.0
  0
INSERT
  5
4A8
330
1E
100
AcDbEntity
  8
CSLAYER1
100
AcDbBlockReference
  2
BLKF0002
 10
0.0
 20
0.0
 30
0.0
  0
INSERT
  5
4A9
330
1E
100
AcDbEntity
  8
CSLAYER1
100
AcDbBlockReference
  2
FXDIM0004
 10
0.0
 20
0.0
 30
0.0
  0
ARC
  5
4AA
330
1E
100
AcDbEntity
  8
CSLAYER1
  6
CONTINUOUS
 62
     4
100
AcDbCircle
 10
119.1414289999999
 20
169.428571
 30
0.0
 40
4.0
100
AcDbArc
 50
0.0
 51
180.0
  0
LINE
  5
4AB
330
1E
100
AcDbEntity
  8
CSLAYER1
  6
CONTINUOUS
 62
     4
100
AcDbLine
 10
115.1414289999999
 20
148.4285709999998
 30
0.0
 11
123.141429
 21
148.4285709999998
 31
0.0
  0
LINE
  5
4AC
330
1E
100
AcDbEntity
  8
CSLAYER1
  6
CONTINUOUS
 62
     4
100
AcDbLine
 10
123.141429
 20
148.4285709999998
 30
0.0
 11
123.141429
 21
173.4285709999999
 31
0.0
  0
LINE
  5
4AD
330
1E
100
AcDbEntity
  8
CSLAYER1
  6
CONTINUOUS
 62
     4
100
AcDbLine
 10
115.1414289999999
 20
169.428571
 30
0.0
 11
115.1414289999999
 21
148.4285709999998
 31
0.0
  0
LINE
  5
4AE
330
1E
100
AcDbEntity
  8
CSLAYER1
  6
CONTINUOUS
 62
     4
100
AcDbLine
 10
120.1414289999999
 20
148.4285709999998
 30
0.0
 11
120.1414289999999
 21
112.5040529999999
 31
0.0
  0
LINE
  5
4AF
330
1E
100
AcDbEntity
  8
CSLAYER1
  6
CONTINUOUS
 62
     4
100
AcDbLine
 10
118.1414289999999
 20
148.4285709999998
 30
0.0
 11
118.1414289999999
 21
112.5040529999999
 31
0.0
  0
LINE
  5
4B0
330
1E
100
AcDbEntity
  8
CSLAYER1
  6
CONTINUOUS
 62
     4
100
AcDbLine
 10
197.3019999999999
 20
165.428571
 30
0.0
 11
194.3019999999999
 21
165.428572
 31
0.0
  0
LINE
  5
4B1
330
1E
100
AcDbEntity
  8
CSLAYER1
  6
CONTINUOUS
 62
     4
100
AcDbLine
 10
197.3019999999999
 20
173.4285709999999
 30
0.0
 11
186.3019999999999
 21
173.428572
 31
0.0
  0
LINE
  5
4B2
330
1E
100
AcDbEntity
  8
CSLAYER1
  6
CONTINUOUS
 62
     4
100
AcDbLine
 10
186.3019999999999
 20
173.428572
 30
0.0
 11
186.3020009999999
 21
148.428572
 31
0.0
  0
LINE
  5
4B3
330
1E
100
AcDbEntity
  8
CSLAYER1
  6
CONTINUOUS
 62
     4
100
AcDbLine
 10
194.3020009999999
 20
148.428572
 30
0.0
 11
194.3019999999999
 21
165.428572
 31
0.0
  0
LINE
  5
4B4
330
1E
100
AcDbEntity
  8
CSLAYER1
  6
CONTINUOUS
 62
     4
100
AcDbLine
 10
194.3020009999999
 20
148.428572
 30
0.0
 11
186.3019989999999
 21
148.428572
 31
0.0
  0
LINE
  5
4B5
330
1E
100
AcDbEntity
  8
CSLAYER1
  6
CENTER
 62
     4
100
AcDbLine
 10
190.3019999999999
 20
169.428572
 30
0.0
 11
190.302002
 21
118.041123
 31
0.0
  0
LINE
  5
4B6
330
1E
100
AcDbEntity
  8
CSLAYER1
  6
CONTINUOUS
 62
     4
100
AcDbLine
 10
194.3019999999999
 20
165.428572
 30
0.0
 11
186.3019999999999
 21
173.428572
 31
0.0
  0
LINE
  5
4B7
330
1E
100
AcDbEntity
  8
CSLAYER1
  6
CONTINUOUS
 62
     4
100
AcDbLine
 10
189.3020009999999
 20
148.428572
 30
0.0
 11
189.302002
 21
122.780464
 31
0.0
  0
LINE
  5
4B8
330
1E
100
AcDbEntity
  8
CSLAYER1
  6
CONTINUOUS
 62
     4
100
AcDbLine
 10
187.3020009999999
 20
148.428572
 30
0.0
 11
187.302002
 21
122.224459
 31
0.0
  0
LINE
  5
4B9
330
1E
100
AcDbEntity
  8
CSLAYER1
  6
CONTINUOUS
 62
     4
100
AcDbLine
 10
191.3020009999999
 20
148.428572
 30
0.0
 11
191.302002
 21
124.8037129999999
 31
0.0
  0
LINE
  5
4BA
330
1E
100
AcDbEntity
  8
CSLAYER1
  6
CONTINUOUS
 62
     4
100
AcDbLine
 10
193.3020009999999
 20
148.428572
 30
0.0
 11
193.302002
 21
124.8037129999999
 31
0.0
  0
LINE
  5
4BB
330
1E
100
AcDbEntity
  8
CSLAYER1
  6
CONTINUOUS
 62
     4
100
AcDbLine
 10
225.791011
 20
171.928571
 30
0.0
 11
225.791011
 21
166.928571
 31
0.0
  0
LINE
  5
4BC
330
1E
100
AcDbEntity
  8
CSLAYER1
  6
CONTINUOUS
 62
     4
100
AcDbLine
 10
214.4293549999999
 20
166.928571
 30
0.0
 11
225.791011
 21
166.928571
 31
0.0
  0
LINE
  5
4BD
330
1E
100
AcDbEntity
  8
CSLAYER1
  6
CONTINUOUS
 62
     4
100
AcDbLine
 10
212.8019999999999
 20
171.92857
 30
0.0
 11
225.791011
 21
171.928571
 31
0.0
  0
CIRCLE
  5
4BE
330
1E
100
AcDbEntity
  8
CSLAYER1
  6
CONTINUOUS
 62
     3
100
AcDbCircle
 10
232.8019999999999
 20
169.428571
 30
0.0
 40
2.980385
  0
LINE
  5
4BF
330
1E
100
AcDbEntity
  8
CSLAYER1
  6
CONTINUOUS
 62
     3
100
AcDbLine
 10
231.3019999999999
 20
170.294597
 30
0.0
 11
232.8019999999999
 21
171.160622
 31
0.0
  0
LINE
  5
4C0
330
1E
100
AcDbEntity
  8
CSLAYER1
  6
CONTINUOUS
 62
     3
100
AcDbLine
 10
231.3019999999999
 20
168.5625459999999
 30
0.0
 11
231.3019999999999
 21
170.294597
 31
0.0
  0
LINE
  5
4C1
330
1E
100
AcDbEntity
  8
CSLAYER1
  6
CONTINUOUS
 62
     3
100
AcDbLine
 10
232.8019999999999
 20
167.6965209999998
 30
0.0
 11
231.3019999999999
 21
168.5625459999999
 31
0.0
  0
LINE
  5
4C2
330
1E
100
AcDbEntity
  8
CSLAYER1
  6
CONTINUOUS
 62
     3
100
AcDbLine
 10
234.302
 20
168.5625459999999
 30
0.0
 11
232.8019999999999
 21
167.6965209999998
 31
0.0
  0
LINE
  5
4C3
330
1E
100
AcDbEntity
  8
CSLAYER1
  6
CONTINUOUS
 62
     3
100
AcDbLine
 10
234.302
 20
170.294597
 30
0.0
 11
234.302
 21
168.5625459999999
 31
0.0
  0
ARC
  5
4C4
330
1E
100
AcDbEntity
  8
CSLAYER1
  6
CONTINUOUS
 62
     4
100
AcDbCircle
 10
232.8019999999999
 20
169.428571
 30
0.0
 40
4.0
100
AcDbArc
 50
232.6295879999999
 51
127.370417
  0
LINE
  5
4C5
330
1E
100
AcDbEntity
  8
CSLAYER1
  6
CONTINUOUS
 62
     3
100
AcDbLine
 10
232.8019999999999
 20
171.160622
 30
0.0
 11
234.302
 21
170.294597
 31
0.0
  0
ARC
  5
4C6
330
1E
100
AcDbEntity
  8
CSLAYER1
  6
CONTINUOUS
 62
     4
100
AcDbCircle
 10
226.125379
 20
178.170581
 30
0.0
 40
7.0
100
AcDbArc
 50
267.262122
 51
307.3704169999998
  0
ARC
  5
4C7
330
1E
100
AcDbEntity
  8
CSLAYER1
  6
CONTINUOUS
 62
     4
100
AcDbCircle
 10
226.125379
 20
160.686562
 30
0.0
 40
7.0
100
AcDbArc
 50
52.62958799999999
 51
92.73788399999999
  0
CIRCLE
  5
4C8
330
1E
100
AcDbEntity
  8
CSLAYER1
  6
CONTINUOUS
 62
     3
100
AcDbCircle
 10
232.8019999999999
 20
169.428571
 30
0.0
 40
3.5
  0
ARC
  5
4C9
330
1E
100
AcDbEntity
  8
CSLAYER1
  6
CONTINUOUS
 62
     4
100
AcDbCircle
 10
212.8020009999999
 20
146.92857
 30
0.0
 40
25.0
100
AcDbArc
 50
90.00000300000001
 51
122.5877659999998
  0
ARC
  5
4CA
330
1E
100
AcDbEntity
  8
CSLAYER1
  6
CONTINUOUS
 62
     4
100
AcDbCircle
 10
212.8020009999999
 20
146.92857
 30
0.0
 40
20.0
100
AcDbArc
 50
85.33281499999999
 51
118.799114
  0
LINE
  5
4CB
330
1E
100
AcDbEntity
  8
CSLAYER1
  6
CONTINUOUS
 62
     4
100
AcDbLine
 10
125.141429
 20
171.928571
 30
0.0
 11
125.341429
 21
171.928571
 31
0.0
  0
LINE
  5
4CC
330
1E
100
AcDbEntity
  8
CSLAYER1
  6
CONTINUOUS
 62
     4
100
AcDbLine
 10
123.941429
 20
173.4285709999999
 30
0.0
 11
123.141429
 21
173.4285709999999
 31
0.0
  0
LINE
  5
4CD
330
1E
100
AcDbEntity
  8
CSLAYER1
  6
CONTINUOUS
 62
     3
100
AcDbLine
 10
127.941429
 20
172.408956
 30
0.0
 11
127.941429
 21
166.448187
 31
0.0
  0
LINE
  5
4CE
330
1E
100
AcDbEntity
  8
CSLAYER1
  6
CONTINUOUS
 62
     3
100
AcDbLine
 10
123.941429
 20
172.928571
 30
0.0
 11
127.6414289999999
 21
172.928571
 31
0.0
  0
LINE
  5
4CF
330
1E
100
AcDbEntity
  8
CSLAYER1
  6
CONTINUOUS
 62
     3
100
AcDbLine
 10
127.341429
 20
165.9285709999998
 30
0.0
 11
127.6414289999999
 21
165.9285709999998
 31
0.0
  0
LINE
  5
4D0
330
1E
100
AcDbEntity
  8
CSLAYER1
  6
CONTINUOUS
 62
     3
100
AcDbLine
 10
127.6414289999999
 20
172.928571
 30
0.0
 11
127.6414289999999
 21
165.9285709999998
 31
0.0
  0
LINE
  5
4D1
330
1E
100
AcDbEntity
  8
CSLAYER1
  6
CONTINUOUS
 62
     3
100
AcDbLine
 10
127.6414289999999
 20
165.9285709999998
 30
0.0
 11
127.941429
 21
166.448187
 31
0.0
  0
ARC
  5
4D2
330
1E
100
AcDbEntity
  8
CSLAYER1
  6
CONTINUOUS
 62
     4
100
AcDbCircle
 10
125.341429
 20
169.928571
 30
0.0
 40
2.0
100
AcDbArc
 50
0.0
 51
90.0
  0
ARC
  5
4D3
330
1E
100
AcDbEntity
  8
CSLAYER1
  6
CONTINUOUS
 62
     4
100
AcDbCircle
 10
125.141429
 20
169.928571
 30
0.0
 40
2.0
100
AcDbArc
 50
90.0
 51
180.0
  0
LINE
  5
4D4
330
1E
100
AcDbEntity
  8
CSLAYER1
  6
CONTINUOUS
 62
     3
100
AcDbLine
 10
127.6414289999999
 20
172.928571
 30
0.0
 11
127.941429
 21
172.408956
 31
0.0
  0
LINE
  5
4D5
330
1E
100
AcDbEntity
  8
CSLAYER1
  6
CONTINUOUS
 62
     4
100
AcDbLine
 10
127.341429
 20
169.928571
 30
0.0
 11
127.341429
 21
161.0957319999999
 31
0.0
  0
LINE
  5
4D6
330
1E
100
AcDbEntity
  8
CSLAYER1
  6
CONTINUOUS
 62
     4
100
AcDbLine
 10
123.941429
 20
171.528571
 30
0.0
 11
123.941429
 21
173.4285709999999
 31
0.0
  0
LINE
  5
4D7
330
1E
100
AcDbEntity
  8
CSLAYER1
  6
CENTER
 62
     4
100
AcDbLine
 10
321.578197
 20
158.928571
 30
0.0
 11
327.8257549999999
 21
158.928571
 31
0.0
  0
LINE
  5
4D8
330
1E
100
AcDbEntity
  8
CSLAYER1
  6
CONTINUOUS
 62
     3
100
AcDbLine
 10
323.918364
 20
157.928571
 30
0.0
 11
323.341014
 21
158.928571
 31
0.0
  0
LINE
  5
4D9
330
1E
100
AcDbEntity
  8
CSLAYER1
  6
CONTINUOUS
 62
     3
100
AcDbLine
 10
323.341014
 20
158.928571
 30
0.0
 11
323.918364
 21
159.928571
 31
0.0
  0
LINE
  5
4DA
330
1E
100
AcDbEntity
  8
CSLAYER1
  6
CONTINUOUS
 62
     3
100
AcDbLine
 10
323.918364
 20
159.928571
 30
0.0
 11
325.0730649999998
 21
159.928571
 31
0.0
  0
LINE
  5
4DB
330
1E
100
AcDbEntity
  8
CSLAYER1
  6
CONTINUOUS
 62
     3
100
AcDbLine
 10
325.0730649999998
 20
159.928571
 30
0.0
 11
325.650415
 21
158.928571
 31
0.0
  0
LINE
  5
4DC
330
1E
100
AcDbEntity
  8
CSLAYER1
  6
CONTINUOUS
 62
     3
100
AcDbLine
 10
325.650415
 20
158.928571
 30
0.0
 11
325.0730649999998
 21
157.928571
 31
0.0
  0
LINE
  5
4DD
330
1E
100
AcDbEntity
  8
CSLAYER1
  6
CONTINUOUS
 62
     3
100
AcDbLine
 10
325.0730649999998
 20
157.928571
 30
0.0
 11
323.918364
 21
157.928571
 31
0.0
  0
CIRCLE
  5
4DE
330
1E
100
AcDbEntity
  8
CSLAYER1
  6
CONTINUOUS
 62
     3
100
AcDbCircle
 10
324.495714
 20
158.928571
 30
0.0
 40
2.0
  0
CIRCLE
  5
4DF
330
1E
100
AcDbEntity
  8
CSLAYER1
  6
CONTINUOUS
 62
     4
100
AcDbCircle
 10
324.495714
 20
158.928571
 30
0.0
 40
1.649999999999999
  0
LINE
  5
4E0
330
1E
100
AcDbEntity
  8
CSLAYER1
  6
CENTER
 62
     4
100
AcDbLine
 10
321.578197
 20
132.928571
 30
0.0
 11
327.8257549999999
 21
132.928571
 31
0.0
  0
LINE
  5
4E1
330
1E
100
AcDbEntity
  8
CSLAYER1
  6
CONTINUOUS
 62
     3
100
AcDbLine
 10
323.918364
 20
131.928571
 30
0.0
 11
323.341014
 21
132.928571
 31
0.0
  0
LINE
  5
4E2
330
1E
100
AcDbEntity
  8
CSLAYER1
  6
CONTINUOUS
 62
     3
100
AcDbLine
 10
323.341014
 20
132.928571
 30
0.0
 11
323.918364
 21
133.928571
 31
0.0
  0
LINE
  5
4E3
330
1E
100
AcDbEntity
  8
CSLAYER1
  6
CONTINUOUS
 62
     3
100
AcDbLine
 10
323.918364
 20
133.928571
 30
0.0
 11
325.0730649999998
 21
133.928571
 31
0.0
  0
LINE
  5
4E4
330
1E
100
AcDbEntity
  8
CSLAYER1
  6
CONTINUOUS
 62
     3
100
AcDbLine
 10
325.0730649999998
 20
133.928571
 30
0.0
 11
325.650415
 21
132.928571
 31
0.0
  0
LINE
  5
4E5
330
1E
100
AcDbEntity
  8
CSLAYER1
  6
CONTINUOUS
 62
     3
100
AcDbLine
 10
325.650415
 20
132.928571
 30
0.0
 11
325.0730649999998
 21
131.928571
 31
0.0
  0
LINE
  5
4E6
330
1E
100
AcDbEntity
  8
CSLAYER1
  6
CONTINUOUS
 62
     3
100
AcDbLine
 10
325.0730649999998
 20
131.928571
 30
0.0
 11
323.918364
 21
131.928571
 31
0.0
  0
CIRCLE
  5
4E7
330
1E
100
AcDbEntity
  8
CSLAYER1
  6
CONTINUOUS
 62
     3
100
AcDbCircle
 10
324.495714
 20
132.928571
 30
0.0
 40
2.0
  0
CIRCLE
  5
4E8
330
1E
100
AcDbEntity
  8
CSLAYER1
  6
CONTINUOUS
 62
     4
100
AcDbCircle
 10
324.495714
 20
132.928571
 30
0.0
 40
1.649999999999999
  0
INSERT
  5
4E9
330
1E
100
AcDbEntity
  8
CSLAYER1
100
AcDbBlockReference
  2
BLKF0003
 10
0.0
 20
0.0
 30
0.0
  0
LINE
  5
4EA
330
1E
100
AcDbEntity
  8
CSLAYER1
  6
DASHED
 62
     4
100
AcDbLine
 10
118.564078
 20
157.928571
 30
0.0
 11
117.986728
 21
158.928571
 31
0.0
  0
LINE
  5
4EB
330
1E
100
AcDbEntity
  8
CSLAYER1
  6
DASHED
 62
     4
100
AcDbLine
 10
117.986728
 20
158.928571
 30
0.0
 11
118.564078
 21
159.928571
 31
0.0
  0
LINE
  5
4EC
330
1E
100
AcDbEntity
  8
CSLAYER1
  6
DASHED
 62
     4
100
AcDbLine
 10
118.564078
 20
159.928571
 30
0.0
 11
119.718779
 21
159.928571
 31
0.0
  0
LINE
  5
4ED
330
1E
100
AcDbEntity
  8
CSLAYER1
  6
DASHED
 62
     4
100
AcDbLine
 10
119.718779
 20
159.928571
 30
0.0
 11
120.296129
 21
158.928571
 31
0.0
  0
LINE
  5
4EE
330
1E
100
AcDbEntity
  8
CSLAYER1
  6
DASHED
 62
     4
100
AcDbLine
 10
120.296129
 20
158.928571
 30
0.0
 11
119.718779
 21
157.928571
 31
0.0
  0
LINE
  5
4EF
330
1E
100
AcDbEntity
  8
CSLAYER1
  6
DASHED
 62
     4
100
AcDbLine
 10
119.718779
 20
157.928571
 30
0.0
 11
118.564078
 21
157.928571
 31
0.0
  0
POLYLINE
  5
4F0
330
1E
100
AcDbEntity
  8
CSLAYER1
  6
CONTINUOUS
 62
     4
100
AcDb2dPolyline
 66
     1
 10
0.0
 20
0.0
 30
0.0
  0
VERTEX
  5
4F1
330
4F0
100
AcDbEntity
  8
CSLAYER1
  6
CONTINUOUS
 62
     4
100
AcDbVertex
100
AcDb2dVertex
 10
193.302002
 20
124.8037129999999
 30
0.0
  0
VERTEX
  5
4F2
330
4F0
100
AcDbEntity
  8
CSLAYER1
  6
CONTINUOUS
 62
     4
100
AcDbVertex
100
AcDb2dVertex
 10
193.245204
 20
124.826512
 30
0.0
  0
VERTEX
  5
4F3
330
4F0
100
AcDbEntity
  8
CSLAYER1
  6
CONTINUOUS
 62
     4
100
AcDbVertex
100
AcDb2dVertex
 10
193.188405
 20
124.849311
 30
0.0
  0
VERTEX
  5
4F4
330
4F0
100
AcDbEntity
  8
CSLAYER1
  6
CONTINUOUS
 62
     4
100
AcDbVertex
100
AcDb2dVertex
 10
193.131607
 20
124.87211
 30
0.0
  0
VERTEX
  5
4F5
330
4F0
100
AcDbEntity
  8
CSLAYER1
  6
CONTINUOUS
 62
     4
100
AcDbVertex
100
AcDb2dVertex
 10
193.074809
 20
124.894909
 30
0.0
  0
VERTEX
  5
4F6
330
4F0
100
AcDbEntity
  8
CSLAYER1
  6
CONTINUOUS
 62
     4
100
AcDbVertex
100
AcDb2dVertex
 10
193.01801
 20
124.917708
 30
0.0
  0
VERTEX
  5
4F7
330
4F0
100
AcDbEntity
  8
CSLAYER1
  6
CONTINUOUS
 62
     4
100
AcDbVertex
100
AcDb2dVertex
 10
192.961212
 20
124.940507
 30
0.0
  0
VERTEX
  5
4F8
330
4F0
100
AcDbEntity
  8
CSLAYER1
  6
CONTINUOUS
 62
     4
100
AcDbVertex
100
AcDb2dVertex
 10
192.904414
 20
124.963306
 30
0.0
  0
VERTEX
  5
4F9
330
4F0
100
AcDbEntity
  8
CSLAYER1
  6
CONTINUOUS
 62
     4
100
AcDbVertex
100
AcDb2dVertex
 10
192.8476159999999
 20
124.986105
 30
0.0
  0
VERTEX
  5
4FA
330
4F0
100
AcDbEntity
  8
CSLAYER1
  6
CONTINUOUS
 62
     4
100
AcDbVertex
100
AcDb2dVertex
 10
192.790817
 20
125.0089039999999
 30
0.0
  0
VERTEX
  5
4FB
330
4F0
100
AcDbEntity
  8
CSLAYER1
  6
CONTINUOUS
 62
     4
100
AcDbVertex
100
AcDb2dVertex
 10
192.7340189999999
 20
125.031703
 30
0.0
  0
VERTEX
  5
4FC
330
4F0
100
AcDbEntity
  8
CSLAYER1
  6
CONTINUOUS
 62
     4
100
AcDbVertex
100
AcDb2dVertex
 10
192.677221
 20
125.054502
 30
0.0
  0
VERTEX
  5
4FD
330
4F0
100
AcDbEntity
  8
CSLAYER1
  6
CONTINUOUS
 62
     4
100
AcDbVertex
100
AcDb2dVertex
 10
192.6204229999999
 20
125.077301
 30
0.0
  0
VERTEX
  5
4FE
330
4F0
100
AcDbEntity
  8
CSLAYER1
  6
CONTINUOUS
 62
     4
100
AcDbVertex
100
AcDb2dVertex
 10
192.5636609999999
 20
125.0998999999999
 30
0.0
  0
VERTEX
  5
4FF
330
4F0
100
AcDbEntity
  8
CSLAYER1
  6
CONTINUOUS
 62
     4
100
AcDbVertex
100
AcDb2dVertex
 10
192.507411
 20
125.1196989999999
 30
0.0
  0
VERTEX
  5
500
330
4F0
100
AcDbEntity
  8
CSLAYER1
  6
CONTINUOUS
 62
     4
100
AcDbVertex
100
AcDb2dVertex
 10
192.451819
 20
125.1358989999999
 30
0.0
  0
VERTEX
  5
501
330
4F0
100
AcDbEntity
  8
CSLAYER1
  6
CONTINUOUS
 62
     4
100
AcDbVertex
100
AcDb2dVertex
 10
192.3968849999999
 20
125.148498
 30
0.0
  0
VERTEX
  5
502
330
4F0
100
AcDbEntity
  8
CSLAYER1
  6
CONTINUOUS
 62
     4
100
AcDbVertex
100
AcDb2dVertex
 10
192.342608
 20
125.157498
 30
0.0
  0
VERTEX
  5
503
330
4F0
100
AcDbEntity
  8
CSLAYER1
  6
CONTINUOUS
 62
     4
100
AcDbVertex
100
AcDb2dVertex
 10
192.2889899999999
 20
125.162897
 30
0.0
  0
VERTEX
  5
504
330
4F0
100
AcDbEntity
  8
CSLAYER1
  6
CONTINUOUS
 62
     4
100
AcDbVertex
100
AcDb2dVertex
 10
192.236029
 20
125.164697
 30
0.0
  0
VERTEX
  5
505
330
4F0
100
AcDbEntity
  8
CSLAYER1
  6
CONTINUOUS
 62
     4
100
AcDbVertex
100
AcDb2dVertex
 10
192.183727
 20
125.162897
 30
0.0
  0
VERTEX
  5
506
330
4F0
100
AcDbEntity
  8
CSLAYER1
  6
CONTINUOUS
 62
     4
100
AcDbVertex
100
AcDb2dVertex
 10
192.132082
 20
125.157498
 30
0.0
  0
VERTEX
  5
507
330
4F0
100
AcDbEntity
  8
CSLAYER1
  6
CONTINUOUS
 62
     4
100
AcDbVertex
100
AcDb2dVertex
 10
192.081095
 20
125.148498
 30
0.0
  0
VERTEX
  5
508
330
4F0
100
AcDbEntity
  8
CSLAYER1
  6
CONTINUOUS
 62
     4
100
AcDbVertex
100
AcDb2dVertex
 10
192.0307659999999
 20
125.1358989999999
 30
0.0
  0
VERTEX
  5
509
330
4F0
100
AcDbEntity
  8
CSLAYER1
  6
CONTINUOUS
 62
     4
100
AcDbVertex
100
AcDb2dVertex
 10
191.9810949999999
 20
125.1196989999999
 30
0.0
  0
VERTEX
  5
50A
330
4F0
100
AcDbEntity
  8
CSLAYER1
  6
CONTINUOUS
 62
     4
100
AcDbVertex
100
AcDb2dVertex
 10
191.932082
 20
125.0998999999999
 30
0.0
  0
VERTEX
  5
50B
330
4F0
100
AcDbEntity
  8
CSLAYER1
  6
CONTINUOUS
 62
     4
100
AcDbVertex
100
AcDb2dVertex
 10
191.883581
 20
125.077301
 30
0.0
  0
VERTEX
  5
50C
330
4F0
100
AcDbEntity
  8
CSLAYER1
  6
CONTINUOUS
 62
     4
100
AcDbVertex
100
AcDb2dVertex
 10
191.835116
 20
125.054502
 30
0.0
  0
VERTEX
  5
50D
330
4F0
100
AcDbEntity
  8
CSLAYER1
  6
CONTINUOUS
 62
     4
100
AcDbVertex
100
AcDb2dVertex
 10
191.7866509999999
 20
125.031703
 30
0.0
  0
VERTEX
  5
50E
330
4F0
100
AcDbEntity
  8
CSLAYER1
  6
CONTINUOUS
 62
     4
100
AcDbVertex
100
AcDb2dVertex
 10
191.738186
 20
125.0089039999999
 30
0.0
  0
VERTEX
  5
50F
330
4F0
100
AcDbEntity
  8
CSLAYER1
  6
CONTINUOUS
 62
     4
100
AcDbVertex
100
AcDb2dVertex
 10
191.6897209999999
 20
124.986105
 30
0.0
  0
VERTEX
  5
510
330
4F0
100
AcDbEntity
  8
CSLAYER1
  6
CONTINUOUS
 62
     4
100
AcDbVertex
100
AcDb2dVertex
 10
191.6412559999999
 20
124.963306
 30
0.0
  0
VERTEX
  5
511
330
4F0
100
AcDbEntity
  8
CSLAYER1
  6
CONTINUOUS
 62
     4
100
AcDbVertex
100
AcDb2dVertex
 10
191.592791
 20
124.940507
 30
0.0
  0
VERTEX
  5
512
330
4F0
100
AcDbEntity
  8
CSLAYER1
  6
CONTINUOUS
 62
     4
100
AcDbVertex
100
AcDb2dVertex
 10
191.544326
 20
124.917708
 30
0.0
  0
VERTEX
  5
513
330
4F0
100
AcDbEntity
  8
CSLAYER1
  6
CONTINUOUS
 62
     4
100
AcDbVertex
100
AcDb2dVertex
 10
191.495861
 20
124.894909
 30
0.0
  0
VERTEX
  5
514
330
4F0
100
AcDbEntity
  8
CSLAYER1
  6
CONTINUOUS
 62
     4
100
AcDbVertex
100
AcDb2dVertex
 10
191.447396
 20
124.87211
 30
0.0
  0
VERTEX
  5
515
330
4F0
100
AcDbEntity
  8
CSLAYER1
  6
CONTINUOUS
 62
     4
100
AcDbVertex
100
AcDb2dVertex
 10
191.3989319999999
 20
124.849311
 30
0.0
  0
VERTEX
  5
516
330
4F0
100
AcDbEntity
  8
CSLAYER1
  6
CONTINUOUS
 62
     4
100
AcDbVertex
100
AcDb2dVertex
 10
191.3504669999999
 20
124.826512
 30
0.0
  0
VERTEX
  5
517
330
4F0
100
AcDbEntity
  8
CSLAYER1
  6
CONTINUOUS
 62
     4
100
AcDbVertex
100
AcDb2dVertex
 10
191.302002
 20
124.8037129999999
 30
0.0
  0
SEQEND
  5
518
330
4F0
100
AcDbEntity
  8
CSLAYER1
 62
     4
  0
POLYLINE
  5
519
330
1E
100
AcDbEntity
  8
CSLAYER1
  6
CONTINUOUS
 62
     4
100
AcDb2dPolyline
 66
     1
 10
0.0
 20
0.0
 30
0.0
  0
VERTEX
  5
51A
330
519
100
AcDbEntity
  8
CSLAYER1
  6
CONTINUOUS
 62
     4
100
AcDbVertex
100
AcDb2dVertex
 10
189.302002
 20
122.780464
 30
0.0
  0
VERTEX
  5
51B
330
519
100
AcDbEntity
  8
CSLAYER1
  6
CONTINUOUS
 62
     4
100
AcDbVertex
100
AcDb2dVertex
 10
189.2595499999999
 20
122.745598
 30
0.0
  0
VERTEX
  5
51C
330
519
100
AcDbEntity
  8
CSLAYER1
  6
CONTINUOUS
 62
     4
100
AcDbVertex
100
AcDb2dVertex
 10
189.217097
 20
122.710732
 30
0.0
  0
VERTEX
  5
51D
330
519
100
AcDbEntity
  8
CSLAYER1
  6
CONTINUOUS
 62
     4
100
AcDbVertex
100
AcDb2dVertex
 10
189.174645
 20
122.6758659999999
 30
0.0
  0
VERTEX
  5
51E
330
519
100
AcDbEntity
  8
CSLAYER1
  6
CONTINUOUS
 62
     4
100
AcDbVertex
100
AcDb2dVertex
 10
189.132193
 20
122.641
 30
0.0
  0
VERTEX
  5
51F
330
519
100
AcDbEntity
  8
CSLAYER1
  6
CONTINUOUS
 62
     4
100
AcDbVertex
100
AcDb2dVertex
 10
189.0897399999999
 20
122.606134
 30
0.0
  0
VERTEX
  5
520
330
519
100
AcDbEntity
  8
CSLAYER1
  6
CONTINUOUS
 62
     4
100
AcDbVertex
100
AcDb2dVertex
 10
189.0472879999999
 20
122.5712679999999
 30
0.0
  0
VERTEX
  5
521
330
519
100
AcDbEntity
  8
CSLAYER1
  6
CONTINUOUS
 62
     4
100
AcDbVertex
100
AcDb2dVertex
 10
189.004836
 20
122.5364019999999
 30
0.0
  0
VERTEX
  5
522
330
519
100
AcDbEntity
  8
CSLAYER1
  6
CONTINUOUS
 62
     4
100
AcDbVertex
100
AcDb2dVertex
 10
188.962383
 20
122.501536
 30
0.0
  0
VERTEX
  5
523
330
519
100
AcDbEntity
  8
CSLAYER1
  6
CONTINUOUS
 62
     4
100
AcDbVertex
100
AcDb2dVertex
 10
188.919931
 20
122.4666699999999
 30
0.0
  0
VERTEX
  5
524
330
519
100
AcDbEntity
  8
CSLAYER1
  6
CONTINUOUS
 62
     4
100
AcDbVertex
100
AcDb2dVertex
 10
188.877479
 20
122.4318039999999
 30
0.0
  0
VERTEX
  5
525
330
519
100
AcDbEntity
  8
CSLAYER1
  6
CONTINUOUS
 62
     4
100
AcDbVertex
100
AcDb2dVertex
 10
188.8350259999999
 20
122.396937
 30
0.0
  0
VERTEX
  5
526
330
519
100
AcDbEntity
  8
CSLAYER1
  6
CONTINUOUS
 62
     4
100
AcDbVertex
100
AcDb2dVertex
 10
188.792574
 20
122.362071
 30
0.0
  0
VERTEX
  5
527
330
519
100
AcDbEntity
  8
CSLAYER1
  6
CONTINUOUS
 62
     4
100
AcDbVertex
100
AcDb2dVertex
 10
188.750032
 20
122.327383
 30
0.0
  0
VERTEX
  5
528
330
519
100
AcDbEntity
  8
CSLAYER1
  6
CONTINUOUS
 62
     4
100
AcDbVertex
100
AcDb2dVertex
 10
188.706241
 20
122.2951789999999
 30
0.0
  0
VERTEX
  5
529
330
519
100
AcDbEntity
  8
CSLAYER1
  6
CONTINUOUS
 62
     4
100
AcDbVertex
100
AcDb2dVertex
 10
188.6608419999999
 20
122.266171
 30
0.0
  0
VERTEX
  5
52A
330
519
100
AcDbEntity
  8
CSLAYER1
  6
CONTINUOUS
 62
     4
100
AcDbVertex
100
AcDb2dVertex
 10
188.613836
 20
122.2403569999999
 30
0.0
  0
VERTEX
  5
52B
330
519
100
AcDbEntity
  8
CSLAYER1
  6
CONTINUOUS
 62
     4
100
AcDbVertex
100
AcDb2dVertex
 10
188.565222
 20
122.2177379999999
 30
0.0
  0
VERTEX
  5
52C
330
519
100
AcDbEntity
  8
CSLAYER1
  6
CONTINUOUS
 62
     4
100
AcDbVertex
100
AcDb2dVertex
 10
188.515001
 20
122.198314
 30
0.0
  0
VERTEX
  5
52D
330
519
100
AcDbEntity
  8
CSLAYER1
  6
CONTINUOUS
 62
     4
100
AcDbVertex
100
AcDb2dVertex
 10
188.463173
 20
122.182085
 30
0.0
  0
VERTEX
  5
52E
330
519
100
AcDbEntity
  8
CSLAYER1
  6
CONTINUOUS
 62
     4
100
AcDbVertex
100
AcDb2dVertex
 10
188.4097379999999
 20
122.16905
 30
0.0
  0
VERTEX
  5
52F
330
519
100
AcDbEntity
  8
CSLAYER1
  6
CONTINUOUS
 62
     4
100
AcDbVertex
100
AcDb2dVertex
 10
188.3546959999999
 20
122.159211
 30
0.0
  0
VERTEX
  5
530
330
519
100
AcDbEntity
  8
CSLAYER1
  6
CONTINUOUS
 62
     4
100
AcDbVertex
100
AcDb2dVertex
 10
188.2980459999999
 20
122.1525659999999
 30
0.0
  0
VERTEX
  5
531
330
519
100
AcDbEntity
  8
CSLAYER1
  6
CONTINUOUS
 62
     4
100
AcDbVertex
100
AcDb2dVertex
 10
188.239789
 20
122.1491169999999
 30
0.0
  0
VERTEX
  5
532
330
519
100
AcDbEntity
  8
CSLAYER1
  6
CONTINUOUS
 62
     4
100
AcDbVertex
100
AcDb2dVertex
 10
188.179925
 20
122.148862
 30
0.0
  0
VERTEX
  5
533
330
519
100
AcDbEntity
  8
CSLAYER1
  6
CONTINUOUS
 62
     4
100
AcDbVertex
100
AcDb2dVertex
 10
188.118453
 20
122.1518019999999
 30
0.0
  0
VERTEX
  5
534
330
519
100
AcDbEntity
  8
CSLAYER1
  6
CONTINUOUS
 62
     4
100
AcDbVertex
100
AcDb2dVertex
 10
188.055732
 20
122.1572279999999
 30
0.0
  0
VERTEX
  5
535
330
519
100
AcDbEntity
  8
CSLAYER1
  6
CONTINUOUS
 62
     4
100
AcDbVertex
100
AcDb2dVertex
 10
187.992921
 20
122.16283
 30
0.0
  0
VERTEX
  5
536
330
519
100
AcDbEntity
  8
CSLAYER1
  6
CONTINUOUS
 62
     4
100
AcDbVertex
100
AcDb2dVertex
 10
187.93011
 20
122.168433
 30
0.0
  0
VERTEX
  5
537
330
519
100
AcDbEntity
  8
CSLAYER1
  6
CONTINUOUS
 62
     4
100
AcDbVertex
100
AcDb2dVertex
 10
187.867299
 20
122.174035
 30
0.0
  0
VERTEX
  5
538
330
519
100
AcDbEntity
  8
CSLAYER1
  6
CONTINUOUS
 62
     4
100
AcDbVertex
100
AcDb2dVertex
 10
187.8044889999999
 20
122.1796379999997
 30
0.0
  0
VERTEX
  5
539
330
519
100
AcDbEntity
  8
CSLAYER1
  6
CONTINUOUS
 62
     4
100
AcDbVertex
100
AcDb2dVertex
 10
187.741678
 20
122.1852409999999
 30
0.0
  0
VERTEX
  5
53A
330
519
100
AcDbEntity
  8
CSLAYER1
  6
CONTINUOUS
 62
     4
100
AcDbVertex
100
AcDb2dVertex
 10
187.678867
 20
122.1908429999997
 30
0.0
  0
VERTEX
  5
53B
330
519
100
AcDbEntity
  8
CSLAYER1
  6
CONTINUOUS
 62
     4
100
AcDbVertex
100
AcDb2dVertex
 10
187.616056
 20
122.1964459999999
 30
0.0
  0
VERTEX
  5
53C
330
519
100
AcDbEntity
  8
CSLAYER1
  6
CONTINUOUS
 62
     4
100
AcDbVertex
100
AcDb2dVertex
 10
187.553245
 20
122.202049
 30
0.0
  0
VERTEX
  5
53D
330
519
100
AcDbEntity
  8
CSLAYER1
  6
CONTINUOUS
 62
     4
100
AcDbVertex
100
AcDb2dVertex
 10
187.490434
 20
122.2076509999999
 30
0.0
  0
VERTEX
  5
53E
330
519
100
AcDbEntity
  8
CSLAYER1
  6
CONTINUOUS
 62
     4
100
AcDbVertex
100
AcDb2dVertex
 10
187.427624
 20
122.213254
 30
0.0
  0
VERTEX
  5
53F
330
519
100
AcDbEntity
  8
CSLAYER1
  6
CONTINUOUS
 62
     4
100
AcDbVertex
100
AcDb2dVertex
 10
187.364813
 20
122.2188559999999
 30
0.0
  0
VERTEX
  5
540
330
519
100
AcDbEntity
  8
CSLAYER1
  6
CONTINUOUS
 62
     4
100
AcDbVertex
100
AcDb2dVertex
 10
187.302002
 20
122.224459
 30
0.0
  0
SEQEND
  5
541
330
519
100
AcDbEntity
  8
CSLAYER1
 62
     4
  0
POLYLINE
  5
542
330
1E
100
AcDbEntity
  8
CSLAYER1
  6
CONTINUOUS
 62
     4
100
AcDb2dPolyline
 66
     1
 10
0.0
 20
0.0
 30
0.0
  0
VERTEX
  5
543
330
542
100
AcDbEntity
  8
CSLAYER1
  6
CONTINUOUS
 62
     4
100
AcDbVertex
100
AcDb2dVertex
 10
199.337229
 20
167.992756
 30
0.0
  0
VERTEX
  5
544
330
542
100
AcDbEntity
  8
CSLAYER1
  6
CONTINUOUS
 62
     4
100
AcDbVertex
100
AcDb2dVertex
 10
199.355581
 20
167.919372
 30
0.0
  0
VERTEX
  5
545
330
542
100
AcDbEntity
  8
CSLAYER1
  6
CONTINUOUS
 62
     4
100
AcDbVertex
100
AcDb2dVertex
 10
199.373933
 20
167.845989
 30
0.0
  0
VERTEX
  5
546
330
542
100
AcDbEntity
  8
CSLAYER1
  6
CONTINUOUS
 62
     4
100
AcDbVertex
100
AcDb2dVertex
 10
199.3922859999999
 20
167.7726049999999
 30
0.0
  0
VERTEX
  5
547
330
542
100
AcDbEntity
  8
CSLAYER1
  6
CONTINUOUS
 62
     4
100
AcDbVertex
100
AcDb2dVertex
 10
199.4106379999999
 20
167.6992209999999
 30
0.0
  0
VERTEX
  5
548
330
542
100
AcDbEntity
  8
CSLAYER1
  6
CONTINUOUS
 62
     4
100
AcDbVertex
100
AcDb2dVertex
 10
199.42899
 20
167.625837
 30
0.0
  0
VERTEX
  5
549
330
542
100
AcDbEntity
  8
CSLAYER1
  6
CONTINUOUS
 62
     4
100
AcDbVertex
100
AcDb2dVertex
 10
199.447343
 20
167.552454
 30
0.0
  0
VERTEX
  5
54A
330
542
100
AcDbEntity
  8
CSLAYER1
  6
CONTINUOUS
 62
     4
100
AcDbVertex
100
AcDb2dVertex
 10
199.4656949999999
 20
167.47907
 30
0.0
  0
VERTEX
  5
54B
330
542
100
AcDbEntity
  8
CSLAYER1
  6
CONTINUOUS
 62
     4
100
AcDbVertex
100
AcDb2dVertex
 10
199.4840469999999
 20
167.405686
 30
0.0
  0
VERTEX
  5
54C
330
542
100
AcDbEntity
  8
CSLAYER1
  6
CONTINUOUS
 62
     4
100
AcDbVertex
100
AcDb2dVertex
 10
199.5023999999999
 20
167.3323029999999
 30
0.0
  0
VERTEX
  5
54D
330
542
100
AcDbEntity
  8
CSLAYER1
  6
CONTINUOUS
 62
     4
100
AcDbVertex
100
AcDb2dVertex
 10
199.520752
 20
167.258919
 30
0.0
  0
VERTEX
  5
54E
330
542
100
AcDbEntity
  8
CSLAYER1
  6
CONTINUOUS
 62
     4
100
AcDbVertex
100
AcDb2dVertex
 10
199.539104
 20
167.185535
 30
0.0
  0
VERTEX
  5
54F
330
542
100
AcDbEntity
  8
CSLAYER1
  6
CONTINUOUS
 62
     4
100
AcDbVertex
100
AcDb2dVertex
 10
199.557457
 20
167.112151
 30
0.0
  0
VERTEX
  5
550
330
542
100
AcDbEntity
  8
CSLAYER1
  6
CONTINUOUS
 62
     4
100
AcDbVertex
100
AcDb2dVertex
 10
199.575809
 20
167.038768
 30
0.0
  0
VERTEX
  5
551
330
542
100
AcDbEntity
  8
CSLAYER1
  6
CONTINUOUS
 62
     4
100
AcDbVertex
100
AcDb2dVertex
 10
199.594161
 20
166.965384
 30
0.0
  0
VERTEX
  5
552
330
542
100
AcDbEntity
  8
CSLAYER1
  6
CONTINUOUS
 62
     4
100
AcDbVertex
100
AcDb2dVertex
 10
199.6150059999999
 20
166.8930119999999
 30
0.0
  0
VERTEX
  5
553
330
542
100
AcDbEntity
  8
CSLAYER1
  6
CONTINUOUS
 62
     4
100
AcDbVertex
100
AcDb2dVertex
 10
199.644436
 20
166.824127
 30
0.0
  0
VERTEX
  5
554
330
542
100
AcDbEntity
  8
CSLAYER1
  6
CONTINUOUS
 62
     4
100
AcDbVertex
100
AcDb2dVertex
 10
199.6827279999999
 20
166.7588399999999
 30
0.0
  0
VERTEX
  5
555
330
542
100
AcDbEntity
  8
CSLAYER1
  6
CONTINUOUS
 62
     4
100
AcDbVertex
100
AcDb2dVertex
 10
199.729882
 20
166.6971519999998
 30
0.0
  0
VERTEX
  5
556
330
542
100
AcDbEntity
  8
CSLAYER1
  6
CONTINUOUS
 62
     4
100
AcDbVertex
100
AcDb2dVertex
 10
199.785898
 20
166.639062
 30
0.0
  0
VERTEX
  5
557
330
542
100
AcDbEntity
  8
CSLAYER1
  6
CONTINUOUS
 62
     4
100
AcDbVertex
100
AcDb2dVertex
 10
199.8507769999999
 20
166.5845709999999
 30
0.0
  0
VERTEX
  5
558
330
542
100
AcDbEntity
  8
CSLAYER1
  6
CONTINUOUS
 62
     4
100
AcDbVertex
100
AcDb2dVertex
 10
199.9245169999999
 20
166.533679
 30
0.0
  0
VERTEX
  5
559
330
542
100
AcDbEntity
  8
CSLAYER1
  6
CONTINUOUS
 62
     4
100
AcDbVertex
100
AcDb2dVertex
 10
200.0071189999999
 20
166.486385
 30
0.0
  0
VERTEX
  5
55A
330
542
100
AcDbEntity
  8
CSLAYER1
  6
CONTINUOUS
 62
     4
100
AcDbVertex
100
AcDb2dVertex
 10
200.098584
 20
166.44269
 30
0.0
  0
VERTEX
  5
55B
330
542
100
AcDbEntity
  8
CSLAYER1
  6
CONTINUOUS
 62
     4
100
AcDbVertex
100
AcDb2dVertex
 10
200.19891
 20
166.402593
 30
0.0
  0
VERTEX
  5
55C
330
542
100
AcDbEntity
  8
CSLAYER1
  6
CONTINUOUS
 62
     4
100
AcDbVertex
100
AcDb2dVertex
 10
200.3080989999999
 20
166.366095
 30
0.0
  0
VERTEX
  5
55D
330
542
100
AcDbEntity
  8
CSLAYER1
  6
CONTINUOUS
 62
     4
100
AcDbVertex
100
AcDb2dVertex
 10
200.42615
 20
166.3331949999999
 30
0.0
  0
VERTEX
  5
55E
330
542
100
AcDbEntity
  8
CSLAYER1
  6
CONTINUOUS
 62
     4
100
AcDbVertex
100
AcDb2dVertex
 10
200.5530629999999
 20
166.3038949999998
 30
0.0
  0
VERTEX
  5
55F
330
542
100
AcDbEntity
  8
CSLAYER1
  6
CONTINUOUS
 62
     4
100
AcDbVertex
100
AcDb2dVertex
 10
200.6888379999999
 20
166.278192
 30
0.0
  0
VERTEX
  5
560
330
542
100
AcDbEntity
  8
CSLAYER1
  6
CONTINUOUS
 62
     4
100
AcDbVertex
100
AcDb2dVertex
 10
200.8316629999999
 20
166.255154
 30
0.0
  0
VERTEX
  5
561
330
542
100
AcDbEntity
  8
CSLAYER1
  6
CONTINUOUS
 62
     4
100
AcDbVertex
100
AcDb2dVertex
 10
200.9706689999999
 20
166.2291699999999
 30
0.0
  0
VERTEX
  5
562
330
542
100
AcDbEntity
  8
CSLAYER1
  6
CONTINUOUS
 62
     4
100
AcDbVertex
100
AcDb2dVertex
 10
201.1040449999999
 20
166.199306
 30
0.0
  0
VERTEX
  5
563
330
542
100
AcDbEntity
  8
CSLAYER1
  6
CONTINUOUS
 62
     4
100
AcDbVertex
100
AcDb2dVertex
 10
201.2317909999999
 20
166.165562
 30
0.0
  0
VERTEX
  5
564
330
542
100
AcDbEntity
  8
CSLAYER1
  6
CONTINUOUS
 62
     4
100
AcDbVertex
100
AcDb2dVertex
 10
201.3539059999998
 20
166.127937
 30
0.0
  0
VERTEX
  5
565
330
542
100
AcDbEntity
  8
CSLAYER1
  6
CONTINUOUS
 62
     4
100
AcDbVertex
100
AcDb2dVertex
 10
201.4703909999999
 20
166.086433
 30
0.0
  0
VERTEX
  5
566
330
542
100
AcDbEntity
  8
CSLAYER1
  6
CONTINUOUS
 62
     4
100
AcDbVertex
100
AcDb2dVertex
 10
201.5812449999998
 20
166.0410479999999
 30
0.0
  0
VERTEX
  5
567
330
542
100
AcDbEntity
  8
CSLAYER1
  6
CONTINUOUS
 62
     4
100
AcDbVertex
100
AcDb2dVertex
 10
201.6864689999999
 20
165.9917829999999
 30
0.0
  0
VERTEX
  5
568
330
542
100
AcDbEntity
  8
CSLAYER1
  6
CONTINUOUS
 62
     4
100
AcDbVertex
100
AcDb2dVertex
 10
201.7860619999999
 20
165.9386379999999
 30
0.0
  0
VERTEX
  5
569
330
542
100
AcDbEntity
  8
CSLAYER1
  6
CONTINUOUS
 62
     4
100
AcDbVertex
100
AcDb2dVertex
 10
201.8800249999999
 20
165.881612
 30
0.0
  0
VERTEX
  5
56A
330
542
100
AcDbEntity
  8
CSLAYER1
  6
CONTINUOUS
 62
     4
100
AcDbVertex
100
AcDb2dVertex
 10
201.968357
 20
165.820707
 30
0.0
  0
VERTEX
  5
56B
330
542
100
AcDbEntity
  8
CSLAYER1
  6
CONTINUOUS
 62
     4
100
AcDbVertex
100
AcDb2dVertex
 10
202.051059
 20
165.755921
 30
0.0
  0
VERTEX
  5
56C
330
542
100
AcDbEntity
  8
CSLAYER1
  6
CONTINUOUS
 62
     4
100
AcDbVertex
100
AcDb2dVertex
 10
202.1281309999999
 20
165.6872549999999
 30
0.0
  0
VERTEX
  5
56D
330
542
100
AcDbEntity
  8
CSLAYER1
  6
CONTINUOUS
 62
     4
100
AcDbVertex
100
AcDb2dVertex
 10
202.199571
 20
165.614709
 30
0.0
  0
VERTEX
  5
56E
330
542
100
AcDbEntity
  8
CSLAYER1
  6
CONTINUOUS
 62
     4
100
AcDbVertex
100
AcDb2dVertex
 10
202.2655579999999
 20
165.538403
 30
0.0
  0
VERTEX
  5
56F
330
542
100
AcDbEntity
  8
CSLAYER1
  6
CONTINUOUS
 62
     4
100
AcDbVertex
100
AcDb2dVertex
 10
202.329961
 20
165.4610069999999
 30
0.0
  0
VERTEX
  5
570
330
542
100
AcDbEntity
  8
CSLAYER1
  6
CONTINUOUS
 62
     4
100
AcDbVertex
100
AcDb2dVertex
 10
202.394364
 20
165.38361
 30
0.0
  0
VERTEX
  5
571
330
542
100
AcDbEntity
  8
CSLAYER1
  6
CONTINUOUS
 62
     4
100
AcDbVertex
100
AcDb2dVertex
 10
202.4587669999999
 20
165.3062139999998
 30
0.0
  0
VERTEX
  5
572
330
542
100
AcDbEntity
  8
CSLAYER1
  6
CONTINUOUS
 62
     4
100
AcDbVertex
100
AcDb2dVertex
 10
202.5231699999999
 20
165.228818
 30
0.0
  0
VERTEX
  5
573
330
542
100
AcDbEntity
  8
CSLAYER1
  6
CONTINUOUS
 62
     4
100
AcDbVertex
100
AcDb2dVertex
 10
202.587572
 20
165.151421
 30
0.0
  0
VERTEX
  5
574
330
542
100
AcDbEntity
  8
CSLAYER1
  6
CONTINUOUS
 62
     4
100
AcDbVertex
100
AcDb2dVertex
 10
202.6519749999999
 20
165.074025
 30
0.0
  0
VERTEX
  5
575
330
542
100
AcDbEntity
  8
CSLAYER1
  6
CONTINUOUS
 62
     4
100
AcDbVertex
100
AcDb2dVertex
 10
202.7163779999999
 20
164.996628
 30
0.0
  0
VERTEX
  5
576
330
542
100
AcDbEntity
  8
CSLAYER1
  6
CONTINUOUS
 62
     4
100
AcDbVertex
100
AcDb2dVertex
 10
202.780781
 20
164.919232
 30
0.0
  0
VERTEX
  5
577
330
542
100
AcDbEntity
  8
CSLAYER1
  6
CONTINUOUS
 62
     4
100
AcDbVertex
100
AcDb2dVertex
 10
202.845184
 20
164.841835
 30
0.0
  0
VERTEX
  5
578
330
542
100
AcDbEntity
  8
CSLAYER1
  6
CONTINUOUS
 62
     4
100
AcDbVertex
100
AcDb2dVertex
 10
202.909587
 20
164.7644389999999
 30
0.0
  0
VERTEX
  5
579
330
542
100
AcDbEntity
  8
CSLAYER1
  6
CONTINUOUS
 62
     4
100
AcDbVertex
100
AcDb2dVertex
 10
202.97399
 20
164.6870419999999
 30
0.0
  0
VERTEX
  5
57A
330
542
100
AcDbEntity
  8
CSLAYER1
  6
CONTINUOUS
 62
     4
100
AcDbVertex
100
AcDb2dVertex
 10
203.0383929999999
 20
164.609646
 30
0.0
  0
VERTEX
  5
57B
330
542
100
AcDbEntity
  8
CSLAYER1
  6
CONTINUOUS
 62
     4
100
AcDbVertex
100
AcDb2dVertex
 10
203.1027959999999
 20
164.532249
 30
0.0
  0
VERTEX
  5
57C
330
542
100
AcDbEntity
  8
CSLAYER1
  6
CONTINUOUS
 62
     4
100
AcDbVertex
100
AcDb2dVertex
 10
203.167198
 20
164.454853
 30
0.0
  0
SEQEND
  5
57D
330
542
100
AcDbEntity
  8
CSLAYER1
 62
     4
  0
POLYLINE
  5
57E
330
1E
100
AcDbEntity
  8
CSLAYER1
  6
DASHED
 62
     4
100
AcDb2dPolyline
 66
     1
 10
0.0
 20
0.0
 30
0.0
  0
VERTEX
  5
57F
330
57E
100
AcDbEntity
  8
CSLAYER1
  6
DASHED
 62
     4
100
AcDbVertex
100
AcDb2dVertex
 10
120.1414289999999
 20
112.5040529999999
 30
0.0
  0
VERTEX
  5
580
330
57E
100
AcDbEntity
  8
CSLAYER1
  6
DASHED
 62
     4
100
AcDbVertex
100
AcDb2dVertex
 10
120.07311
 20
112.523565
 30
0.0
  0
VERTEX
  5
581
330
57E
100
AcDbEntity
  8
CSLAYER1
  6
DASHED
 62
     4
100
AcDbVertex
100
AcDb2dVertex
 10
120.004791
 20
112.5430759999999
 30
0.0
  0
VERTEX
  5
582
330
57E
100
AcDbEntity
  8
CSLAYER1
  6
DASHED
 62
     4
100
AcDbVertex
100
AcDb2dVertex
 10
119.9364719999999
 20
112.5625879999999
 30
0.0
  0
VERTEX
  5
583
330
57E
100
AcDbEntity
  8
CSLAYER1
  6
DASHED
 62
     4
100
AcDbVertex
100
AcDb2dVertex
 10
119.8681529999999
 20
112.582099
 30
0.0
  0
VERTEX
  5
584
330
57E
100
AcDbEntity
  8
CSLAYER1
  6
DASHED
 62
     4
100
AcDbVertex
100
AcDb2dVertex
 10
119.799834
 20
112.601611
 30
0.0
  0
VERTEX
  5
585
330
57E
100
AcDbEntity
  8
CSLAYER1
  6
DASHED
 62
     4
100
AcDbVertex
100
AcDb2dVertex
 10
119.7315149999997
 20
112.621122
 30
0.0
  0
VERTEX
  5
586
330
57E
100
AcDbEntity
  8
CSLAYER1
  6
DASHED
 62
     4
100
AcDbVertex
100
AcDb2dVertex
 10
119.6631959999999
 20
112.640634
 30
0.0
  0
VERTEX
  5
587
330
57E
100
AcDbEntity
  8
CSLAYER1
  6
DASHED
 62
     4
100
AcDbVertex
100
AcDb2dVertex
 10
119.594877
 20
112.660145
 30
0.0
  0
VERTEX
  5
588
330
57E
100
AcDbEntity
  8
CSLAYER1
  6
DASHED
 62
     4
100
AcDbVertex
100
AcDb2dVertex
 10
119.526558
 20
112.6796569999999
 30
0.0
  0
VERTEX
  5
589
330
57E
100
AcDbEntity
  8
CSLAYER1
  6
DASHED
 62
     4
100
AcDbVertex
100
AcDb2dVertex
 10
119.4582389999997
 20
112.6991679999999
 30
0.0
  0
VERTEX
  5
58A
330
57E
100
AcDbEntity
  8
CSLAYER1
  6
DASHED
 62
     4
100
AcDbVertex
100
AcDb2dVertex
 10
119.3899199999999
 20
112.71868
 30
0.0
  0
VERTEX
  5
58B
330
57E
100
AcDbEntity
  8
CSLAYER1
  6
DASHED
 62
     4
100
AcDbVertex
100
AcDb2dVertex
 10
119.3216009999999
 20
112.7381909999999
 30
0.0
  0
VERTEX
  5
58C
330
57E
100
AcDbEntity
  8
CSLAYER1
  6
DASHED
 62
     4
100
AcDbVertex
100
AcDb2dVertex
 10
119.2534199999997
 20
112.757532
 30
0.0
  0
VERTEX
  5
58D
330
57E
100
AcDbEntity
  8
CSLAYER1
  6
DASHED
 62
     4
100
AcDbVertex
100
AcDb2dVertex
 10
119.1871649999999
 20
112.774476
 30
0.0
  0
VERTEX
  5
58E
330
57E
100
AcDbEntity
  8
CSLAYER1
  6
DASHED
 62
     4
100
AcDbVertex
100
AcDb2dVertex
 10
119.123387
 20
112.788339
 30
0.0
  0
VERTEX
  5
58F
330
57E
100
AcDbEntity
  8
CSLAYER1
  6
DASHED
 62
     4
100
AcDbVertex
100
AcDb2dVertex
 10
119.062086
 20
112.7991219999999
 30
0.0
  0
VERTEX
  5
590
330
57E
100
AcDbEntity
  8
CSLAYER1
  6
DASHED
 62
     4
100
AcDbVertex
100
AcDb2dVertex
 10
119.0032619999999
 20
112.806824
 30
0.0
  0
VERTEX
  5
591
330
57E
100
AcDbEntity
  8
CSLAYER1
  6
DASHED
 62
     4
100
AcDbVertex
100
AcDb2dVertex
 10
118.9469149999997
 20
112.8114449999999
 30
0.0
  0
VERTEX
  5
592
330
57E
100
AcDbEntity
  8
CSLAYER1
  6
DASHED
 62
     4
100
AcDbVertex
100
AcDb2dVertex
 10
118.8930449999999
 20
112.812986
 30
0.0
  0
VERTEX
  5
593
330
57E
100
AcDbEntity
  8
CSLAYER1
  6
DASHED
 62
     4
100
AcDbVertex
100
AcDb2dVertex
 10
118.841652
 20
112.8114449999999
 30
0.0
  0
VERTEX
  5
594
330
57E
100
AcDbEntity
  8
CSLAYER1
  6
DASHED
 62
     4
100
AcDbVertex
100
AcDb2dVertex
 10
118.7927359999999
 20
112.806824
 30
0.0
  0
VERTEX
  5
595
330
57E
100
AcDbEntity
  8
CSLAYER1
  6
DASHED
 62
     4
100
AcDbVertex
100
AcDb2dVertex
 10
118.746297
 20
112.7991219999999
 30
0.0
  0
VERTEX
  5
596
330
57E
100
AcDbEntity
  8
CSLAYER1
  6
DASHED
 62
     4
100
AcDbVertex
100
AcDb2dVertex
 10
118.702335
 20
112.788339
 30
0.0
  0
VERTEX
  5
597
330
57E
100
AcDbEntity
  8
CSLAYER1
  6
DASHED
 62
     4
100
AcDbVertex
100
AcDb2dVertex
 10
118.660849
 20
112.774476
 30
0.0
  0
VERTEX
  5
598
330
57E
100
AcDbEntity
  8
CSLAYER1
  6
DASHED
 62
     4
100
AcDbVertex
100
AcDb2dVertex
 10
118.6218409999999
 20
112.757532
 30
0.0
  0
VERTEX
  5
599
330
57E
100
AcDbEntity
  8
CSLAYER1
  6
DASHED
 62
     4
100
AcDbVertex
100
AcDb2dVertex
 10
118.584759
 20
112.7381909999999
 30
0.0
  0
VERTEX
  5
59A
330
57E
100
AcDbEntity
  8
CSLAYER1
  6
DASHED
 62
     4
100
AcDbVertex
100
AcDb2dVertex
 10
118.5478149999999
 20
112.71868
 30
0.0
  0
VERTEX
  5
59B
330
57E
100
AcDbEntity
  8
CSLAYER1
  6
DASHED
 62
     4
100
AcDbVertex
100
AcDb2dVertex
 10
118.5108709999999
 20
112.6991679999999
 30
0.0
  0
VERTEX
  5
59C
330
57E
100
AcDbEntity
  8
CSLAYER1
  6
DASHED
 62
     4
100
AcDbVertex
100
AcDb2dVertex
 10
118.473927
 20
112.6796569999999
 30
0.0
  0
VERTEX
  5
59D
330
57E
100
AcDbEntity
  8
CSLAYER1
  6
DASHED
 62
     4
100
AcDbVertex
100
AcDb2dVertex
 10
118.436982
 20
112.660145
 30
0.0
  0
VERTEX
  5
59E
330
57E
100
AcDbEntity
  8
CSLAYER1
  6
DASHED
 62
     4
100
AcDbVertex
100
AcDb2dVertex
 10
118.400038
 20
112.640634
 30
0.0
  0
VERTEX
  5
59F
330
57E
100
AcDbEntity
  8
CSLAYER1
  6
DASHED
 62
     4
100
AcDbVertex
100
AcDb2dVertex
 10
118.363094
 20
112.621122
 30
0.0
  0
VERTEX
  5
5A0
330
57E
100
AcDbEntity
  8
CSLAYER1
  6
DASHED
 62
     4
100
AcDbVertex
100
AcDb2dVertex
 10
118.3261499999999
 20
112.601611
 30
0.0
  0
VERTEX
  5
5A1
330
57E
100
AcDbEntity
  8
CSLAYER1
  6
DASHED
 62
     4
100
AcDbVertex
100
AcDb2dVertex
 10
118.289205
 20
112.582099
 30
0.0
  0
VERTEX
  5
5A2
330
57E
100
AcDbEntity
  8
CSLAYER1
  6
DASHED
 62
     4
100
AcDbVertex
100
AcDb2dVertex
 10
118.252261
 20
112.5625879999999
 30
0.0
  0
VERTEX
  5
5A3
330
57E
100
AcDbEntity
  8
CSLAYER1
  6
DASHED
 62
     4
100
AcDbVertex
100
AcDb2dVertex
 10
118.215317
 20
112.5430759999999
 30
0.0
  0
VERTEX
  5
5A4
330
57E
100
AcDbEntity
  8
CSLAYER1
  6
DASHED
 62
     4
100
AcDbVertex
100
AcDb2dVertex
 10
118.178373
 20
112.523565
 30
0.0
  0
VERTEX
  5
5A5
330
57E
100
AcDbEntity
  8
CSLAYER1
  6
DASHED
 62
     4
100
AcDbVertex
100
AcDb2dVertex
 10
118.1414289999999
 20
112.5040529999999
 30
0.0
  0
SEQEND
  5
5A6
330
57E
100
AcDbEntity
  8
CSLAYER1
 62
     4
  0
POLYLINE
  5
5A7
330
1E
100
AcDbEntity
  8
CSLAYER1
  6
CONTINUOUS
 62
     4
100
AcDb2dPolyline
 66
     1
 10
0.0
 20
0.0
 30
0.0
  0
VERTEX
  5
5A8
330
5A7
100
AcDbEntity
  8
CSLAYER1
  6
CONTINUOUS
 62
     4
100
AcDbVertex
100
AcDb2dVertex
 10
127.341429
 20
161.0957319999999
 30
0.0
  0
VERTEX
  5
5A9
330
5A7
100
AcDbEntity
  8
CSLAYER1
  6
CONTINUOUS
 62
     4
100
AcDbVertex
100
AcDb2dVertex
 10
127.2729949999999
 20
161.12316
 30
0.0
  0
VERTEX
  5
5AA
330
5A7
100
AcDbEntity
  8
CSLAYER1
  6
CONTINUOUS
 62
     4
100
AcDbVertex
100
AcDb2dVertex
 10
127.204562
 20
161.1505879999999
 30
0.0
  0
VERTEX
  5
5AB
330
5A7
100
AcDbEntity
  8
CSLAYER1
  6
CONTINUOUS
 62
     4
100
AcDbVertex
100
AcDb2dVertex
 10
127.1361289999999
 20
161.1780169999998
 30
0.0
  0
VERTEX
  5
5AC
330
5A7
100
AcDbEntity
  8
CSLAYER1
  6
CONTINUOUS
 62
     4
100
AcDbVertex
100
AcDb2dVertex
 10
127.067696
 20
161.205445
 30
0.0
  0
VERTEX
  5
5AD
330
5A7
100
AcDbEntity
  8
CSLAYER1
  6
CONTINUOUS
 62
     4
100
AcDbVertex
100
AcDb2dVertex
 10
126.9992629999999
 20
161.232874
 30
0.0
  0
VERTEX
  5
5AE
330
5A7
100
AcDbEntity
  8
CSLAYER1
  6
CONTINUOUS
 62
     4
100
AcDbVertex
100
AcDb2dVertex
 10
126.93083
 20
161.2603019999999
 30
0.0
  0
VERTEX
  5
5AF
330
5A7
100
AcDbEntity
  8
CSLAYER1
  6
CONTINUOUS
 62
     4
100
AcDbVertex
100
AcDb2dVertex
 10
126.8623959999999
 20
161.28773
 30
0.0
  0
VERTEX
  5
5B0
330
5A7
100
AcDbEntity
  8
CSLAYER1
  6
CONTINUOUS
 62
     4
100
AcDbVertex
100
AcDb2dVertex
 10
126.7939629999997
 20
161.315159
 30
0.0
  0
VERTEX
  5
5B1
330
5A7
100
AcDbEntity
  8
CSLAYER1
  6
CONTINUOUS
 62
     4
100
AcDbVertex
100
AcDb2dVertex
 10
126.72553
 20
161.342587
 30
0.0
  0
VERTEX
  5
5B2
330
5A7
100
AcDbEntity
  8
CSLAYER1
  6
CONTINUOUS
 62
     4
100
AcDbVertex
100
AcDb2dVertex
 10
126.6570969999999
 20
161.370016
 30
0.0
  0
VERTEX
  5
5B3
330
5A7
100
AcDbEntity
  8
CSLAYER1
  6
CONTINUOUS
 62
     4
100
AcDbVertex
100
AcDb2dVertex
 10
126.5886639999999
 20
161.3974439999998
 30
0.0
  0
VERTEX
  5
5B4
330
5A7
100
AcDbEntity
  8
CSLAYER1
  6
CONTINUOUS
 62
     4
100
AcDbVertex
100
AcDb2dVertex
 10
126.520231
 20
161.4248719999999
 30
0.0
  0
VERTEX
  5
5B5
330
5A7
100
AcDbEntity
  8
CSLAYER1
  6
CONTINUOUS
 62
     4
100
AcDbVertex
100
AcDb2dVertex
 10
126.4517969999999
 20
161.452301
 30
0.0
  0
VERTEX
  5
5B6
330
5A7
100
AcDbEntity
  8
CSLAYER1
  6
CONTINUOUS
 62
     4
100
AcDbVertex
100
AcDb2dVertex
 10
126.3833639999997
 20
161.479729
 30
0.0
  0
VERTEX
  5
5B7
330
5A7
100
AcDbEntity
  8
CSLAYER1
  6
CONTINUOUS
 62
     4
100
AcDbVertex
100
AcDb2dVertex
 10
126.315076
 20
161.5055189999999
 30
0.0
  0
VERTEX
  5
5B8
330
5A7
100
AcDbEntity
  8
CSLAYER1
  6
CONTINUOUS
 62
     4
100
AcDbVertex
100
AcDb2dVertex
 10
126.2472849999999
 20
161.525666
 30
0.0
  0
VERTEX
  5
5B9
330
5A7
100
AcDbEntity
  8
CSLAYER1
  6
CONTINUOUS
 62
     4
100
AcDbVertex
100
AcDb2dVertex
 10
126.1800079999999
 20
161.539987
 30
0.0
  0
VERTEX
  5
5BA
330
5A7
100
AcDbEntity
  8
CSLAYER1
  6
CONTINUOUS
 62
     4
100
AcDbVertex
100
AcDb2dVertex
 10
126.1132449999999
 20
161.548484
 30
0.0
  0
VERTEX
  5
5BB
330
5A7
100
AcDbEntity
  8
CSLAYER1
  6
CONTINUOUS
 62
     4
100
AcDbVertex
100
AcDb2dVertex
 10
126.0469969999999
 20
161.5511549999999
 30
0.0
  0
VERTEX
  5
5BC
330
5A7
100
AcDbEntity
  8
CSLAYER1
  6
CONTINUOUS
 62
     4
100
AcDbVertex
100
AcDb2dVertex
 10
125.981262
 20
161.5479999999999
 30
0.0
  0
VERTEX
  5
5BD
330
5A7
100
AcDbEntity
  8
CSLAYER1
  6
CONTINUOUS
 62
     4
100
AcDbVertex
100
AcDb2dVertex
 10
125.916041
 20
161.5390209999999
 30
0.0
  0
VERTEX
  5
5BE
330
5A7
100
AcDbEntity
  8
CSLAYER1
  6
CONTINUOUS
 62
     4
100
AcDbVertex
100
AcDb2dVertex
 10
125.851334
 20
161.524216
 30
0.0
  0
VERTEX
  5
5BF
330
5A7
100
AcDbEntity
  8
CSLAYER1
  6
CONTINUOUS
 62
     4
100
AcDbVertex
100
AcDb2dVertex
 10
125.7871409999999
 20
161.503586
 30
0.0
  0
VERTEX
  5
5C0
330
5A7
100
AcDbEntity
  8
CSLAYER1
  6
CONTINUOUS
 62
     4
100
AcDbVertex
100
AcDb2dVertex
 10
125.723462
 20
161.47713
 30
0.0
  0
VERTEX
  5
5C1
330
5A7
100
AcDbEntity
  8
CSLAYER1
  6
CONTINUOUS
 62
     4
100
AcDbVertex
100
AcDb2dVertex
 10
125.660297
 20
161.4448499999999
 30
0.0
  0
VERTEX
  5
5C2
330
5A7
100
AcDbEntity
  8
CSLAYER1
  6
CONTINUOUS
 62
     4
100
AcDbVertex
100
AcDb2dVertex
 10
125.597646
 20
161.406744
 30
0.0
  0
VERTEX
  5
5C3
330
5A7
100
AcDbEntity
  8
CSLAYER1
  6
CONTINUOUS
 62
     4
100
AcDbVertex
100
AcDb2dVertex
 10
125.535508
 20
161.3628129999999
 30
0.0
  0
VERTEX
  5
5C4
330
5A7
100
AcDbEntity
  8
CSLAYER1
  6
CONTINUOUS
 62
     4
100
AcDbVertex
100
AcDb2dVertex
 10
125.473885
 20
161.313056
 30
0.0
  0
VERTEX
  5
5C5
330
5A7
100
AcDbEntity
  8
CSLAYER1
  6
CONTINUOUS
 62
     4
100
AcDbVertex
100
AcDb2dVertex
 10
125.412482
 20
161.258864
 30
0.0
  0
VERTEX
  5
5C6
330
5A7
100
AcDbEntity
  8
CSLAYER1
  6
CONTINUOUS
 62
     4
100
AcDbVertex
100
AcDb2dVertex
 10
125.349533
 20
161.2085729999999
 30
0.0
  0
VERTEX
  5
5C7
330
5A7
100
AcDbEntity
  8
CSLAYER1
  6
CONTINUOUS
 62
     4
100
AcDbVertex
100
AcDb2dVertex
 10
125.2847459999999
 20
161.163574
 30
0.0
  0
VERTEX
  5
5C8
330
5A7
100
AcDbEntity
  8
CSLAYER1
  6
CONTINUOUS
 62
     4
100
AcDbVertex
100
AcDb2dVertex
 10
125.2181189999999
 20
161.1238649999999
 30
0.0
  0
VERTEX
  5
5C9
330
5A7
100
AcDbEntity
  8
CSLAYER1
  6
CONTINUOUS
 62
     4
100
AcDbVertex
100
AcDb2dVertex
 10
125.149652
 20
161.0894479999998
 30
0.0
  0
VERTEX
  5
5CA
330
5A7
100
AcDbEntity
  8
CSLAYER1
  6
CONTINUOUS
 62
     4
100
AcDbVertex
100
AcDb2dVertex
 10
125.079347
 20
161.0603209999998
 30
0.0
  0
VERTEX
  5
5CB
330
5A7
100
AcDbEntity
  8
CSLAYER1
  6
CONTINUOUS
 62
     4
100
AcDbVertex
100
AcDb2dVertex
 10
125.007202
 20
161.0364859999999
 30
0.0
  0
VERTEX
  5
5CC
330
5A7
100
AcDbEntity
  8
CSLAYER1
  6
CONTINUOUS
 62
     4
100
AcDbVertex
100
AcDb2dVertex
 10
124.9332179999999
 20
161.017942
 30
0.0
  0
VERTEX
  5
5CD
330
5A7
100
AcDbEntity
  8
CSLAYER1
  6
CONTINUOUS
 62
     4
100
AcDbVertex
100
AcDb2dVertex
 10
124.8573949999999
 20
161.0046889999999
 30
0.0
  0
VERTEX
  5
5CE
330
5A7
100
AcDbEntity
  8
CSLAYER1
  6
CONTINUOUS
 62
     4
100
AcDbVertex
100
AcDb2dVertex
 10
124.779732
 20
160.996727
 30
0.0
  0
VERTEX
  5
5CF
330
5A7
100
AcDbEntity
  8
CSLAYER1
  6
CONTINUOUS
 62
     4
100
AcDbVertex
100
AcDb2dVertex
 10
124.700231
 20
160.994056
 30
0.0
  0
VERTEX
  5
5D0
330
5A7
100
AcDbEntity
  8
CSLAYER1
  6
CONTINUOUS
 62
     4
100
AcDbVertex
100
AcDb2dVertex
 10
124.6188899999999
 20
160.996676
 30
0.0
  0
VERTEX
  5
5D1
330
5A7
100
AcDbEntity
  8
CSLAYER1
  6
CONTINUOUS
 62
     4
100
AcDbVertex
100
AcDb2dVertex
 10
124.535709
 20
161.004587
 30
0.0
  0
VERTEX
  5
5D2
330
5A7
100
AcDbEntity
  8
CSLAYER1
  6
CONTINUOUS
 62
     4
100
AcDbVertex
100
AcDb2dVertex
 10
124.4506899999999
 20
161.0177889999999
 30
0.0
  0
VERTEX
  5
5D3
330
5A7
100
AcDbEntity
  8
CSLAYER1
  6
CONTINUOUS
 62
     4
100
AcDbVertex
100
AcDb2dVertex
 10
124.3638889999999
 20
161.036117
 30
0.0
  0
VERTEX
  5
5D4
330
5A7
100
AcDbEntity
  8
CSLAYER1
  6
CONTINUOUS
 62
     4
100
AcDbVertex
100
AcDb2dVertex
 10
124.2765699999999
 20
161.055933
 30
0.0
  0
VERTEX
  5
5D5
330
5A7
100
AcDbEntity
  8
CSLAYER1
  6
CONTINUOUS
 62
     4
100
AcDbVertex
100
AcDb2dVertex
 10
124.189251
 20
161.075749
 30
0.0
  0
VERTEX
  5
5D6
330
5A7
100
AcDbEntity
  8
CSLAYER1
  6
CONTINUOUS
 62
     4
100
AcDbVertex
100
AcDb2dVertex
 10
124.101933
 20
161.095565
 30
0.0
  0
VERTEX
  5
5D7
330
5A7
100
AcDbEntity
  8
CSLAYER1
  6
CONTINUOUS
 62
     4
100
AcDbVertex
100
AcDb2dVertex
 10
124.014614
 20
161.115382
 30
0.0
  0
VERTEX
  5
5D8
330
5A7
100
AcDbEntity
  8
CSLAYER1
  6
CONTINUOUS
 62
     4
100
AcDbVertex
100
AcDb2dVertex
 10
123.927296
 20
161.135198
 30
0.0
  0
VERTEX
  5
5D9
330
5A7
100
AcDbEntity
  8
CSLAYER1
  6
CONTINUOUS
 62
     4
100
AcDbVertex
100
AcDb2dVertex
 10
123.839977
 20
161.155014
 30
0.0
  0
VERTEX
  5
5DA
330
5A7
100
AcDbEntity
  8
CSLAYER1
  6
CONTINUOUS
 62
     4
100
AcDbVertex
100
AcDb2dVertex
 10
123.752659
 20
161.17483
 30
0.0
  0
VERTEX
  5
5DB
330
5A7
100
AcDbEntity
  8
CSLAYER1
  6
CONTINUOUS
 62
     4
100
AcDbVertex
100
AcDb2dVertex
 10
123.6653399999999
 20
161.194646
 30
0.0
  0
VERTEX
  5
5DC
330
5A7
100
AcDbEntity
  8
CSLAYER1
  6
CONTINUOUS
 62
     4
100
AcDbVertex
100
AcDb2dVertex
 10
123.5780209999999
 20
161.214462
 30
0.0
  0
VERTEX
  5
5DD
330
5A7
100
AcDbEntity
  8
CSLAYER1
  6
CONTINUOUS
 62
     4
100
AcDbVertex
100
AcDb2dVertex
 10
123.490703
 20
161.2342779999998
 30
0.0
  0
VERTEX
  5
5DE
330
5A7
100
AcDbEntity
  8
CSLAYER1
  6
CONTINUOUS
 62
     4
100
AcDbVertex
100
AcDb2dVertex
 10
123.403384
 20
161.2540939999998
 30
0.0
  0
VERTEX
  5
5DF
330
5A7
100
AcDbEntity
  8
CSLAYER1
  6
CONTINUOUS
 62
     4
100
AcDbVertex
100
AcDb2dVertex
 10
123.316066
 20
161.2739099999999
 30
0.0
  0
VERTEX
  5
5E0
330
5A7
100
AcDbEntity
  8
CSLAYER1
  6
CONTINUOUS
 62
     4
100
AcDbVertex
100
AcDb2dVertex
 10
123.2287469999999
 20
161.2937269999999
 30
0.0
  0
VERTEX
  5
5E1
330
5A7
100
AcDbEntity
  8
CSLAYER1
  6
CONTINUOUS
 62
     4
100
AcDbVertex
100
AcDb2dVertex
 10
123.141429
 20
161.3135429999998
 30
0.0
  0
SEQEND
  5
5E2
330
5A7
100
AcDbEntity
  8
CSLAYER1
 62
     4
  0
LINE
  5
5E3
330
1E
100
AcDbEntity
  8
CSLAYER1
  6
CONTINUOUS
 62
     3
100
AcDbLine
 10
204.102
 20
129.428571
 30
0.0
 11
204.102
 21
136.428571
 31
0.0
  0
LINE
  5
5E4
330
1E
100
AcDbEntity
  8
CSLAYER1
  6
CONTINUOUS
 62
     3
100
AcDbLine
 10
207.302
 20
128.8871199999997
 30
0.0
 11
204.414607
 21
128.8871199999997
 31
0.0
  0
LINE
  5
5E5
330
1E
100
AcDbEntity
  8
CSLAYER1
  6
CONTINUOUS
 62
     3
100
AcDbLine
 10
207.302
 20
130.907845
 30
0.0
 11
204.414607
 21
130.907845
 31
0.0
  0
LINE
  5
5E6
330
1E
100
AcDbEntity
  8
CSLAYER1
  6
CONTINUOUS
 62
     3
100
AcDbLine
 10
204.414607
 20
128.8871199999997
 30
0.0
 11
204.102
 21
129.428571
 31
0.0
  0
LINE
  5
5E7
330
1E
100
AcDbEntity
  8
CSLAYER1
  6
CONTINUOUS
 62
     3
100
AcDbLine
 10
207.302
 20
136.970023
 30
0.0
 11
204.414607
 21
136.970023
 31
0.0
  0
LINE
  5
5E8
330
1E
100
AcDbEntity
  8
CSLAYER1
  6
CONTINUOUS
 62
     3
100
AcDbLine
 10
207.302
 20
134.949297
 30
0.0
 11
204.414607
 21
134.949297
 31
0.0
  0
LINE
  5
5E9
330
1E
100
AcDbEntity
  8
CSLAYER1
  6
CONTINUOUS
 62
     3
100
AcDbLine
 10
204.414607
 20
136.970023
 30
0.0
 11
204.102
 21
136.428571
 31
0.0
  0
ARC
  5
5EA
330
1E
100
AcDbEntity
  8
CSLAYER1
  6
CONTINUOUS
 62
     3
100
AcDbCircle
 10
210.789393
 20
132.928571
 30
0.0
 40
6.687392999999997
100
AcDbArc
 50
162.412046
 51
197.5879539999999
  0
ARC
  5
5EB
330
1E
100
AcDbEntity
  8
CSLAYER1
  6
CONTINUOUS
 62
     3
100
AcDbCircle
 10
208.0967959999999
 20
136.5118239999999
 30
0.0
 40
4.0
100
AcDbArc
 50
182.9230149999999
 51
202.9938029999999
  0
ARC
  5
5EC
330
1E
100
AcDbEntity
  8
CSLAYER1
  6
CONTINUOUS
 62
     3
100
AcDbCircle
 10
208.0967959999999
 20
129.3453189999999
 30
0.0
 40
4.0
100
AcDbArc
 50
157.0061969999999
 51
177.076985
  0
LINE
  5
5ED
330
1E
100
AcDbEntity
  8
CSLAYER1
  6
CONTINUOUS
 62
     3
100
AcDbLine
 10
204.102
 20
155.428571
 30
0.0
 11
204.102
 21
162.428571
 31
0.0
  0
LINE
  5
5EE
330
1E
100
AcDbEntity
  8
CSLAYER1
  6
CONTINUOUS
 62
     3
100
AcDbLine
 10
207.302
 20
154.8871199999998
 30
0.0
 11
204.414607
 21
154.8871199999998
 31
0.0
  0
LINE
  5
5EF
330
1E
100
AcDbEntity
  8
CSLAYER1
  6
CONTINUOUS
 62
     3
100
AcDbLine
 10
207.302
 20
156.907845
 30
0.0
 11
204.414607
 21
156.907845
 31
0.0
  0
LINE
  5
5F0
330
1E
100
AcDbEntity
  8
CSLAYER1
  6
CONTINUOUS
 62
     3
100
AcDbLine
 10
204.414607
 20
154.8871199999998
 30
0.0
 11
204.102
 21
155.428571
 31
0.0
  0
LINE
  5
5F1
330
1E
100
AcDbEntity
  8
CSLAYER1
  6
CONTINUOUS
 62
     3
100
AcDbLine
 10
207.302
 20
162.970023
 30
0.0
 11
204.414607
 21
162.970023
 31
0.0
  0
LINE
  5
5F2
330
1E
100
AcDbEntity
  8
CSLAYER1
  6
CONTINUOUS
 62
     3
100
AcDbLine
 10
207.302
 20
160.9492969999999
 30
0.0
 11
204.414607
 21
160.9492969999999
 31
0.0
  0
LINE
  5
5F3
330
1E
100
AcDbEntity
  8
CSLAYER1
  6
CONTINUOUS
 62
     3
100
AcDbLine
 10
204.414607
 20
162.970023
 30
0.0
 11
204.102
 21
162.428571
 31
0.0
  0
ARC
  5
5F4
330
1E
100
AcDbEntity
  8
CSLAYER1
  6
CONTINUOUS
 62
     3
100
AcDbCircle
 10
210.789393
 20
158.928571
 30
0.0
 40
6.687392999999997
100
AcDbArc
 50
162.412046
 51
197.5879539999999
  0
ARC
  5
5F5
330
1E
100
AcDbEntity
  8
CSLAYER1
  6
CONTINUOUS
 62
     3
100
AcDbCircle
 10
208.0967959999999
 20
162.5118239999999
 30
0.0
 40
4.0
100
AcDbArc
 50
182.9230149999999
 51
202.9938029999999
  0
ARC
  5
5F6
330
1E
100
AcDbEntity
  8
CSLAYER1
  6
CONTINUOUS
 62
     3
100
AcDbCircle
 10
208.0967959999999
 20
155.3453189999999
 30
0.0
 40
4.0
100
AcDbArc
 50
157.0061969999999
 51
177.076985
  0
INSERT
  5
5F7
330
1E
100
AcDbEntity
  8
CSLAYER1
100
AcDbBlockReference
  2
BLKF0004
 10
0.0
 20
0.0
 30
0.0
  0
LINE
  5
5F8
330
1E
100
AcDbEntity
  8
CSLAYER1
  6
DASHED
 62
     4
100
AcDbLine
 10
118.564078
 20
131.928571
 30
0.0
 11
118.1414289999999
 21
132.6606219999999
 31
0.0
  0
LINE
  5
5F9
330
1E
100
AcDbEntity
  8
CSLAYER1
  6
CONTINUOUS
 62
     3
100
AcDbLine
 10
117.986728
 20
132.928571
 30
0.0
 11
118.1414289999999
 21
133.1965209999999
 31
0.0
  0
LINE
  5
5FA
330
1E
100
AcDbEntity
  8
CSLAYER1
  6
DASHED
 62
     4
100
AcDbLine
 10
118.564078
 20
133.928571
 30
0.0
 11
119.718779
 21
133.928571
 31
0.0
  0
LINE
  5
5FB
330
1E
100
AcDbEntity
  8
CSLAYER1
  6
DASHED
 62
     4
100
AcDbLine
 10
119.718779
 20
133.928571
 30
0.0
 11
120.1414289999999
 21
133.1965209999999
 31
0.0
  0
LINE
  5
5FC
330
1E
100
AcDbEntity
  8
CSLAYER1
  6
CONTINUOUS
 62
     3
100
AcDbLine
 10
120.296129
 20
132.928571
 30
0.0
 11
120.1414289999999
 21
132.6606219999999
 31
0.0
  0
LINE
  5
5FD
330
1E
100
AcDbEntity
  8
CSLAYER1
  6
DASHED
 62
     4
100
AcDbLine
 10
119.718779
 20
131.928571
 30
0.0
 11
118.564078
 21
131.928571
 31
0.0
  0
LINE
  5
5FE
330
1E
100
AcDbEntity
  8
CSLAYER1
  6
CONTINUOUS
 62
     3
100
AcDbLine
 10
120.1414289999999
 20
133.1965209999999
 30
0.0
 11
120.296129
 21
132.928571
 31
0.0
  0
LINE
  5
5FF
330
1E
100
AcDbEntity
  8
CSLAYER1
  6
DASHED
 62
     4
100
AcDbLine
 10
120.1414289999999
 20
132.6606219999999
 30
0.0
 11
119.718779
 21
131.928571
 31
0.0
  0
LINE
  5
600
330
1E
100
AcDbEntity
  8
CSLAYER1
  6
CONTINUOUS
 62
     3
100
AcDbLine
 10
118.1414289999999
 20
132.6606219999999
 30
0.0
 11
117.986728
 21
132.928571
 31
0.0
  0
LINE
  5
601
330
1E
100
AcDbEntity
  8
CSLAYER1
  6
DASHED
 62
     4
100
AcDbLine
 10
118.1414289999999
 20
133.1965209999999
 30
0.0
 11
118.564078
 21
133.928571
 31
0.0
  0
LINE
  5
602
330
1E
100
AcDbEntity
  8
CSLAYER1
  6
CONTINUOUS
 62
     3
100
AcDbLine
 10
223.552
 20
156.361584
 30
0.0
 11
223.552
 21
155.495559
 31
0.0
  0
LINE
  5
603
330
1E
100
AcDbEntity
  8
CSLAYER1
  6
CONTINUOUS
 62
     3
100
AcDbLine
 10
222.8019999999999
 20
156.794597
 30
0.0
 11
223.552
 21
156.361584
 31
0.0
  0
LINE
  5
604
330
1E
100
AcDbEntity
  8
CSLAYER1
  6
CONTINUOUS
 62
     3
100
AcDbLine
 10
222.052
 20
156.361584
 30
0.0
 11
222.8019999999999
 21
156.794597
 31
0.0
  0
LINE
  5
605
330
1E
100
AcDbEntity
  8
CSLAYER1
  6
CONTINUOUS
 62
     3
100
AcDbLine
 10
222.052
 20
155.495559
 30
0.0
 11
222.052
 21
156.361584
 31
0.0
  0
LINE
  5
606
330
1E
100
AcDbEntity
  8
CSLAYER1
  6
CONTINUOUS
 62
     3
100
AcDbLine
 10
222.8019999999999
 20
155.062546
 30
0.0
 11
222.052
 21
155.495559
 31
0.0
  0
LINE
  5
607
330
1E
100
AcDbEntity
  8
CSLAYER1
  6
CONTINUOUS
 62
     3
100
AcDbLine
 10
223.552
 20
155.495559
 30
0.0
 11
222.8019999999999
 21
155.062546
 31
0.0
  0
LINE
  5
608
330
1E
100
AcDbEntity
  8
CSLAYER1
  6
CONTINUOUS
 62
     3
100
AcDbLine
 10
223.552
 20
136.361584
 30
0.0
 11
223.552
 21
135.495559
 31
0.0
  0
LINE
  5
609
330
1E
100
AcDbEntity
  8
CSLAYER1
  6
CONTINUOUS
 62
     3
100
AcDbLine
 10
222.8019999999999
 20
136.794597
 30
0.0
 11
223.552
 21
136.361584
 31
0.0
  0
LINE
  5
60A
330
1E
100
AcDbEntity
  8
CSLAYER1
  6
CONTINUOUS
 62
     3
100
AcDbLine
 10
222.052
 20
136.361584
 30
0.0
 11
222.8019999999999
 21
136.794597
 31
0.0
  0
LINE
  5
60B
330
1E
100
AcDbEntity
  8
CSLAYER1
  6
CONTINUOUS
 62
     3
100
AcDbLine
 10
222.052
 20
135.495559
 30
0.0
 11
222.052
 21
136.361584
 31
0.0
  0
LINE
  5
60C
330
1E
100
AcDbEntity
  8
CSLAYER1
  6
CONTINUOUS
 62
     3
100
AcDbLine
 10
222.8019999999999
 20
135.062546
 30
0.0
 11
222.052
 21
135.495559
 31
0.0
  0
LINE
  5
60D
330
1E
100
AcDbEntity
  8
CSLAYER1
  6
CONTINUOUS
 62
     3
100
AcDbLine
 10
223.552
 20
135.495559
 30
0.0
 11
222.8019999999999
 21
135.062546
 31
0.0
  0
INSERT
  5
60E
330
1E
100
AcDbEntity
  8
CSLAYER1
100
AcDbBlockReference
  2
FXDIM0005
 10
0.0
 20
0.0
 30
0.0
  0
INSERT
  5
60F
330
1E
100
AcDbEntity
  8
CSLAYER1
100
AcDbBlockReference
  2
BLKF0005
 10
0.0
 20
0.0
 30
0.0
  0
LINE
  5
610
330
1E
100
AcDbEntity
  8
CSLAYER1
  6
CENTER
 62
     4
100
AcDbLine
 10
239.8148259999999
 20
145.928571
 30
0.0
 11
249.800716
 21
145.928571
 31
0.0
  0
LINE
  5
611
330
1E
100
AcDbEntity
  8
CSLAYER1
  6
DOT
 62
     3
100
AcDbLine
 10
18.0
 20
13.0
 30
0.0
 11
403.0
 21
13.0
 31
0.0
  0
LINE
  5
612
330
1E
100
AcDbEntity
  8
CSLAYER1
  6
DOT
 62
     3
100
AcDbLine
 10
403.0
 20
13.0
 30
0.0
 11
403.0
 21
285.0
 31
0.0
  0
LINE
  5
613
330
1E
100
AcDbEntity
  8
CSLAYER1
  6
DOT
 62
     3
100
AcDbLine
 10
403.0
 20
285.0
 30
0.0
 11
18.0
 21
285.0
 31
0.0
  0
LINE
  5
614
330
1E
100
AcDbEntity
  8
CSLAYER1
  6
DOT
 62
     3
100
AcDbLine
 10
18.0
 20
285.0
 30
0.0
 11
18.0
 21
13.0
 31
0.0
  0
ENDSEC
  0
SECTION
  2
OBJECTS
  0
DICTIONARY
  5
C
330
0
100
AcDbDictionary
  3
ACAD_GROUP
350
D
  3
ACAD_LAYOUT
350
19
  3
ACAD_MLINESTYLE
350
16
  3
ACAD_PLOTSETTINGS
350
18
1001
ACAD
1000
TREAT_AS_HARD
1070
     0
1000
TREAT_AS_HARD
1070
     0
1000
TREAT_AS_HARD
1070
     0
  0
DICTIONARY
  5
61E
330
1E
100
AcDbDictionary
  3
ACAD_LAYOUTSELFREF
350
66E
1001
ACAD
1000
TREAT_AS_HARD
1070
     0
1000
TREAT_AS_HARD
1070
     0
  0
DICTIONARY
  5
61C
330
1A
100
AcDbDictionary
  3
ACAD_LAYOUTSELFREF
350
66D
1001
ACAD
1000
TREAT_AS_HARD
1070
     0
1000
TREAT_AS_HARD
1070
     0
  0
DICTIONARY
  5
D
102
{ACAD_REACTORS
330
C
102
}
330
C
100
AcDbDictionary
1001
ACAD
1000
TREAT_AS_HARD
1070
     0
1000
TREAT_AS_HARD
1070
     0
1000
TREAT_AS_HARD
1070
     0
  0
DICTIONARY
  5
19
102
{ACAD_REACTORS
330
C
102
}
330
C
100
AcDbDictionary
1001
ACAD
1000
TREAT_AS_HARD
1070
     0
1000
TREAT_AS_HARD
1070
     0
1000
TREAT_AS_HARD
1070
     0
  0
DICTIONARY
  5
16
102
{ACAD_REACTORS
330
C
102
}
330
C
100
AcDbDictionary
  3
STANDARD
350
17
1001
ACAD
1000
TREAT_AS_HARD
1070
     0
1000
TREAT_AS_HARD
1070
     0
1000
TREAT_AS_HARD
1070
     0
  0
DICTIONARY
  5
18
102
{ACAD_REACTORS
330
C
102
}
330
C
100
AcDbDictionary
1001
ACAD
1000
TREAT_AS_HARD
1070
     0
1000
TREAT_AS_HARD
1070
     0
1000
TREAT_AS_HARD
1070
     0
  0
XRECORD
  5
66E
102
{ACAD_REACTORS
330
61E
102
}
330
61E
100
AcDbXrecord
340
1E
  0
XRECORD
  5
66D
102
{ACAD_REACTORS
330
61C
102
}
330
61C
100
AcDbXrecord
340
1A
  0
MLINESTYLE
  5
17
102
{ACAD_REACTORS
330
16
102
}
330
16
100
AcDbMlineStyle
  2
STANDARD
 70
     0
  3

 62
   256
 51
90.0
 52
90.0
 71
     2
 49
0.5
 62
   256
  6
BYLAYER
 49
-0.5
 62
   256
  6
BYLAYER
  0
ENDSEC
  0
EOF
