  0
SECTION
  2
HEADER
  9
$ACADVER
  1
AC1012
  9
$DWGCODEPAGE
  3
dos932
  9
$INSBASE
 10
0.0
 20
0.0
 30
0.0
  9
$EXTMIN
 10
-0.0090630292066862
 20
0.9869389666558276
 30
-0.0015258207003583
  9
$EXTMAX
 10
283.0056159095904
 20
199.0155034058442
 30
0.0000000349246037
  9
$LIMMIN
 10
0.0
 20
0.0
  9
$LIMMAX
 10
297.0
 20
210.0
  9
$ORTHOMODE
 70
     0
  9
$REGENMODE
 70
     1
  9
$FILLMODE
 70
     1
  9
$QTEXTMODE
 70
     0
  9
$MIRRTEXT
 70
     1
  9
$DRAGMODE
 70
     2
  9
$LTSCALE
 40
15.0
  9
$OSMODE
 70
    37
  9
$ATTMODE
 70
     1
  9
$TEXTSIZE
 40
0.2
  9
$TRACEWID
 40
0.05
  9
$TEXTSTYLE
  7
GOTHIC
  9
$CLAYER
  8
CSLAYER1
  9
$CELTYPE
  6
BYLAYER
  9
$CECOLOR
 62
   256
  9
$CELTSCALE
 40
1.0
  9
$DELOBJ
 70
     1
  9
$DISPSILH
 70
     0
  9
$DIMSCALE
 40
1.0
  9
$DIMASZ
 40
0.18
  9
$DIMEXO
 40
0.0625
  9
$DIMDLI
 40
0.38
  9
$DIMRND
 40
0.0
  9
$DIMDLE
 40
0.0
  9
$DIMEXE
 40
0.18
  9
$DIMTP
 40
0.0
  9
$DIMTM
 40
0.0
  9
$DIMTXT
 40
0.18
  9
$DIMCEN
 40
0.09
  9
$DIMTSZ
 40
0.0
  9
$DIMTOL
 70
     0
  9
$DIMLIM
 70
     0
  9
$DIMTIH
 70
     1
  9
$DIMTOH
 70
     1
  9
$DIMSE1
 70
     0
  9
$DIMSE2
 70
     0
  9
$DIMTAD
 70
     0
  9
$DIMZIN
 70
     0
  9
$DIMBLK
  1

  9
$DIMASO
 70
     1
  9
$DIMSHO
 70
     1
  9
$DIMPOST
  1

  9
$DIMAPOST
  1

  9
$DIMALT
 70
     0
  9
$DIMALTD
 70
     2
  9
$DIMALTF
 40
25.4
  9
$DIMLFAC
 40
1.0
  9
$DIMTOFL
 70
     0
  9
$DIMTVP
 40
0.0
  9
$DIMTIX
 70
     0
  9
$DIMSOXD
 70
     0
  9
$DIMSAH
 70
     0
  9
$DIMBLK1
  1

  9
$DIMBLK2
  1

  9
$DIMSTYLE
  2
STANDARD
  9
$DIMCLRD
 70
     0
  9
$DIMCLRE
 70
     0
  9
$DIMCLRT
 70
     0
  9
$DIMTFAC
 40
1.0
  9
$DIMGAP
 40
0.09
  9
$DIMJUST
 70
     0
  9
$DIMSD1
 70
     0
  9
$DIMSD2
 70
     0
  9
$DIMTOLJ
 70
     1
  9
$DIMTZIN
 70
     0
  9
$DIMALTZ
 70
     0
  9
$DIMALTTZ
 70
     0
  9
$DIMFIT
 70
     3
  9
$DIMUPT
 70
     0
  9
$DIMUNIT
 70
     2
  9
$DIMDEC
 70
     4
  9
$DIMTDEC
 70
     4
  9
$DIMALTU
 70
     2
  9
$DIMALTTD
 70
     2
  9
$DIMTXSTY
  7
STANDARD
  9
$DIMAUNIT
 70
     0
  9
$LUNITS
 70
     2
  9
$LUPREC
 70
     4
  9
$SKETCHINC
 40
0.1
  9
$FILLETRAD
 40
0.0
  9
$AUNITS
 70
     0
  9
$AUPREC
 70
     0
  9
$MENU
  1
ACAD
  9
$ELEVATION
 40
0.0
  9
$PELEVATION
 40
0.0
  9
$THICKNESS
 40
0.0
  9
$LIMCHECK
 70
     0
  9
$BLIPMODE
 70
     1
  9
$CHAMFERA
 40
0.0
  9
$CHAMFERB
 40
0.0
  9
$CHAMFERC
 40
0.0
  9
$CHAMFERD
 40
0.0
  9
$SKPOLY
 70
     0
  9
$TDCREATE
 40
2453481.000000000
  9
$TDUPDATE
 40
2453516.567361631
  9
$TDINDWG
 40
0.0008001157
  9
$TDUSRTIMER
 40
0.0008001157
  9
$USRTIMER
 70
     1
  9
$ANGBASE
 50
0.0
  9
$ANGDIR
 70
     0
  9
$PDMODE
 70
     0
  9
$PDSIZE
 40
0.0
  9
$PLINEWID
 40
0.0
  9
$COORDS
 70
     0
  9
$SPLFRAME
 70
     0
  9
$SPLINETYPE
 70
     6
  9
$SPLINESEGS
 70
     8
  9
$ATTDIA
 70
     0
  9
$ATTREQ
 70
     1
  9
$HANDLING
 70
-16383
  9
$HANDSEED
  5
209
  9
$SURFTAB1
 70
     6
  9
$SURFTAB2
 70
     6
  9
$SURFTYPE
 70
     6
  9
$SURFU
 70
     6
  9
$SURFV
 70
     6
  9
$UCSNAME
  2

  9
$UCSORG
 10
0.0
 20
0.0
 30
0.0
  9
$UCSXDIR
 10
1.0
 20
0.0
 30
0.0
  9
$UCSYDIR
 10
0.0
 20
1.0
 30
0.0
  9
$PUCSNAME
  2

  9
$PUCSORG
 10
0.0
 20
0.0
 30
0.0
  9
$PUCSXDIR
 10
1.0
 20
0.0
 30
0.0
  9
$PUCSYDIR
 10
0.0
 20
1.0
 30
0.0
  9
$USERI1
 70
     0
  9
$USERI2
 70
     0
  9
$USERI3
 70
     0
  9
$USERI4
 70
     0
  9
$USERI5
 70
     0
  9
$USERR1
 40
0.0
  9
$USERR2
 40
0.0
  9
$USERR3
 40
0.0
  9
$USERR4
 40
0.0
  9
$USERR5
 40
0.0
  9
$WORLDVIEW
 70
     1
  9
$SHADEDGE
 70
     3
  9
$SHADEDIF
 70
    70
  9
$TILEMODE
 70
     1
  9
$MAXACTVP
 70
    64
  9
$PINSBASE
 10
0.0
 20
0.0
 30
0.0
  9
$PLIMCHECK
 70
     0
  9
$PEXTMIN
 10
1.000000000000000E+20
 20
1.000000000000000E+20
 30
1.000000000000000E+20
  9
$PEXTMAX
 10
-1.000000000000000E+20
 20
-1.000000000000000E+20
 30
-1.000000000000000E+20
  9
$PLIMMIN
 10
0.0
 20
0.0
  9
$PLIMMAX
 10
12.0
 20
9.0
  9
$UNITMODE
 70
     0
  9
$VISRETAIN
 70
     1
  9
$PLINEGEN
 70
     0
  9
$PSLTSCALE
 70
     1
  9
$TREEDEPTH
 70
  3020
  9
$PICKSTYLE
 70
     3
  9
$CMLSTYLE
  2
STANDARD
  9
$CMLJUST
 70
     0
  9
$CMLSCALE
 40
1.0
  9
$SAVEIMAGES
 70
     1
  0
ENDSEC
  0
SECTION
  2
CLASSES
  0
CLASS
  1
ACDBDICTIONARYWDFLT
  2
AcDbDictionaryWithDefault
  3
AutoCAD 2000
 90
    32768
280
     0
281
     0
  0
CLASS
  1
ACDBPLACEHOLDER
  2
AcDbPlaceHolder
  3
AutoCAD 2000
 90
    32768
280
     0
281
     0
  0
CLASS
  1
LAYOUT
  2
AcDbLayout
  3
AutoCAD 2000
 90
    32768
280
     0
281
     0
  0
CLASS
  1
DICTIONARYVAR
  2
AcDbDictionaryVar
  3
AutoCAD 2000
 90
    32768
280
     0
281
     0
  0
CLASS
  1
LONG_TRANSACTION
  2
AcDbLongTransaction
  3
AutoCAD 2000
 90
    32768
280
     0
281
     0
  0
CLASS
  1
LWPOLYLINE
  2
AcDbPolyline
  3
AutoCAD 2000
 90
    32768
280
     0
281
     1
  0
CLASS
  1
HATCH
  2
AcDbHatch
  3
AutoCAD 2000
 90
    32768
280
     0
281
     1
  0
CLASS
  1
XRECORD
  2
AcDbXrecord
  3
AutoCAD 2000
 90
    32768
280
     0
281
     0
  0
CLASS
  1
LONG_TRANSACTION
  2
AcDbLongTransaction
  3
AutoCAD 2000
 90
    32768
280
     0
281
     0
  0
CLASS
  1
LWPOLYLINE
  2
AcDbPolyline
  3
AutoCAD 2000
 90
    32768
280
     0
281
     1
  0
CLASS
  1
HATCH
  2
AcDbHatch
  3
AutoCAD 2000
 90
    32768
280
     0
281
     1
  0
CLASS
  1
XRECORD
  2
AcDbXrecord
  3
AutoCAD 2000
 90
    32768
280
     0
281
     0
  0
ENDSEC
  0
SECTION
  2
TABLES
  0
TABLE
  2
VPORT
  5
8
330
0
100
AcDbSymbolTable
 70
     2
  0
VPORT
  5
206
330
8
100
AcDbSymbolTableRecord
100
AcDbViewportTableRecord
  2
*ACTIVE
 70
     0
 10
0.0
 20
0.0
 11
1.0
 21
1.0
 12
141.4982764401918
 22
100.00122118625
 13
0.0
 23
0.0
 14
1.0
 24
1.0
 15
0.0
 25
0.0
 16
0.0
 26
0.0
 36
1.0
 17
0.0
 27
0.0
 37
0.0
 40
199.5156375138256
 41
1.510025062656641
 42
50.0
 43
0.0
 44
0.0
 50
0.0
 51
0.0
 71
     0
 72
   100
 73
     1
 74
     1
 75
     0
 76
     0
 77
     0
 78
     0
  0
ENDTAB
  0
TABLE
  2
LTYPE
  5
5
330
0
100
AcDbSymbolTable
 70
     4
  0
LTYPE
  5
13
330
5
100
AcDbSymbolTableRecord
100
AcDbLinetypeTableRecord
  2
BYBLOCK
 70
     0
  3

 72
    65
 73
     0
 40
0.0
  0
LTYPE
  5
14
330
5
100
AcDbSymbolTableRecord
100
AcDbLinetypeTableRecord
  2
BYLAYER
 70
     0
  3

 72
    65
 73
     0
 40
0.0
  0
LTYPE
  5
15
330
5
100
AcDbSymbolTableRecord
100
AcDbLinetypeTableRecord
  2
CONTINUOUS
 70
     0
  3
Solid line
 72
    65
 73
     0
 40
0.0
  0
LTYPE
  5
23
330
5
100
AcDbSymbolTableRecord
100
AcDbLinetypeTableRecord
  2
DASHED
 70
     0
  3
__ __ __ __ __ __ __ __ __ __ __ __ __ __ __
 72
    65
 73
     2
 40
0.75
 49
0.5
 74
     0
 49
-0.25
 74
     0
  0
LTYPE
  5
25
330
5
100
AcDbSymbolTableRecord
100
AcDbLinetypeTableRecord
  2
DOT
 70
     0
  3
...............................................
 72
    65
 73
     2
 40
0.25
 49
0.0
 74
     0
 49
-0.25
 74
     0
  0
LTYPE
  5
28
330
5
100
AcDbSymbolTableRecord
100
AcDbLinetypeTableRecord
  2
CENTER
 70
     0
  3
____ _ ____ _ ____ _ ____ _ ____ _ ____ _ ____ 
 72
    65
 73
     4
 40
2.0
 49
1.25
 74
     0
 49
-0.25
 74
     0
 49
0.25
 74
     0
 49
-0.25
 74
     0
  0
ENDTAB
  0
TABLE
  2
LAYER
  5
2
330
0
100
AcDbSymbolTable
 70
     3
  0
LAYER
  5
10
330
2
100
AcDbSymbolTableRecord
100
AcDbLayerTableRecord
  2
0
 70
     0
 62
     7
  6
CONTINUOUS
  0
LAYER
  5
22
330
2
100
AcDbSymbolTableRecord
100
AcDbLayerTableRecord
  2
CSLAYER1
 70
     0
 62
     7
  6
CONTINUOUS
  0
LAYER
  5
1DF
330
2
100
AcDbSymbolTableRecord
100
AcDbLayerTableRecord
  2
DEFPOINTS
 70
     0
 62
     7
  6
CONTINUOUS
  0
ENDTAB
  0
TABLE
  2
STYLE
  5
3
330
0
100
AcDbSymbolTable
 70
     3
  0
STYLE
  5
11
330
3
100
AcDbSymbolTableRecord
100
AcDbTextStyleTableRecord
  2
STANDARD
 70
     0
 40
0.0
 41
1.0
 50
0.0
 71
     0
 42
0.2
  3
txt
  4
extfont.shx
  0
STYLE
  5
3A
330
3
100
AcDbSymbolTableRecord
100
AcDbTextStyleTableRecord
  2
FX_FONT
 70
     0
 40
1.0
 41
1.0
 50
0.0
 71
     0
 42
1.0
  3
monotxt
  4
bigfont
  0
STYLE
  5
1D7
330
3
100
AcDbSymbolTableRecord
100
AcDbTextStyleTableRecord
  2
GOTHIC
 70
     0
 40
0.0
 41
1.0
 50
0.0
 71
     0
 42
0.2
  3
txt.shx
  4
extfont.shx
  0
ENDTAB
  0
TABLE
  2
VIEW
  5
6
330
0
100
AcDbSymbolTable
 70
     0
  0
ENDTAB
  0
TABLE
  2
UCS
  5
7
330
0
100
AcDbSymbolTable
 70
     0
  0
ENDTAB
  0
TABLE
  2
APPID
  5
9
330
0
100
AcDbSymbolTable
 70
     1
  0
APPID
  5
12
330
9
100
AcDbSymbolTableRecord
100
AcDbRegAppTableRecord
  2
ACAD
 70
     0
  0
ENDTAB
  0
TABLE
  2
DIMSTYLE
  5
A
330
0
100
AcDbSymbolTable
 70
     1
  0
DIMSTYLE
105
1D4
330
A
100
AcDbSymbolTableRecord
100
AcDbDimStyleTableRecord
  2
STANDARD
 70
     0
  3

  4

  5

  6

  7

 40
1.0
 41
0.18
 42
0.0625
 43
0.38
 44
0.18
 45
0.0
 46
0.0
 47
0.0
 48
0.0
140
0.18
141
0.09
142
0.0
143
25.4
144
1.0
145
0.0
146
1.0
147
0.09
 71
     0
 72
     0
 73
     1
 74
     1
 75
     0
 76
     0
 77
     0
 78
     0
170
     0
171
     2
172
     0
173
     0
174
     0
175
     0
176
     0
177
     0
178
     0
270
     2
271
     4
272
     4
273
     2
274
     2
340
11
275
     0
280
     0
281
     0
282
     0
283
     1
284
     0
285
     0
286
     0
287
     3
288
     0
  0
ENDTAB
  0
TABLE
  2
BLOCK_RECORD
  5
1
330
0
100
AcDbSymbolTable
 70
    18
  0
BLOCK_RECORD
  5
1E
102
{ACAD_XDICTIONARY
360
1DD
102
}
330
1
100
AcDbSymbolTableRecord
100
AcDbBlockTableRecord
  2
*MODEL_SPACE
  0
BLOCK_RECORD
  5
1A
102
{ACAD_XDICTIONARY
360
1DB
102
}
330
1
100
AcDbSymbolTableRecord
100
AcDbBlockTableRecord
  2
*PAPER_SPACE
  0
BLOCK_RECORD
  5
3F
330
1
100
AcDbSymbolTableRecord
100
AcDbBlockTableRecord
  2
*D0
  0
BLOCK_RECORD
  5
46
330
1
100
AcDbSymbolTableRecord
100
AcDbBlockTableRecord
  2
FXDIM0000
  0
BLOCK_RECORD
  5
52
330
1
100
AcDbSymbolTableRecord
100
AcDbBlockTableRecord
  2
FXDIM0001
  0
BLOCK_RECORD
  5
5E
330
1
100
AcDbSymbolTableRecord
100
AcDbBlockTableRecord
  2
*D3
  0
BLOCK_RECORD
  5
67
330
1
100
AcDbSymbolTableRecord
100
AcDbBlockTableRecord
  2
*D4
  0
BLOCK_RECORD
  5
71
330
1
100
AcDbSymbolTableRecord
100
AcDbBlockTableRecord
  2
FXDIM0002
  0
BLOCK_RECORD
  5
79
330
1
100
AcDbSymbolTableRecord
100
AcDbBlockTableRecord
  2
*D6
  0
BLOCK_RECORD
  5
84
330
1
100
AcDbSymbolTableRecord
100
AcDbBlockTableRecord
  2
*D7
  0
BLOCK_RECORD
  5
8F
330
1
100
AcDbSymbolTableRecord
100
AcDbBlockTableRecord
  2
*D8
  0
BLOCK_RECORD
  5
9A
330
1
100
AcDbSymbolTableRecord
100
AcDbBlockTableRecord
  2
*D9
  0
BLOCK_RECORD
  5
A1
330
1
100
AcDbSymbolTableRecord
100
AcDbBlockTableRecord
  2
*D10
  0
BLOCK_RECORD
  5
AC
330
1
100
AcDbSymbolTableRecord
100
AcDbBlockTableRecord
  2
*D11
  0
BLOCK_RECORD
  5
B7
330
1
100
AcDbSymbolTableRecord
100
AcDbBlockTableRecord
  2
*D12
  0
BLOCK_RECORD
  5
C4
330
1
100
AcDbSymbolTableRecord
100
AcDbBlockTableRecord
  2
*D13
  0
BLOCK_RECORD
  5
CF
330
1
100
AcDbSymbolTableRecord
100
AcDbBlockTableRecord
  2
*D14
  0
BLOCK_RECORD
  5
DA
330
1
100
AcDbSymbolTableRecord
100
AcDbBlockTableRecord
  2
*D15
  0
BLOCK_RECORD
  5
1E0
330
1
100
AcDbSymbolTableRecord
100
AcDbBlockTableRecord
  2
*D16
  0
BLOCK_RECORD
  5
1ED
330
1
100
AcDbSymbolTableRecord
100
AcDbBlockTableRecord
  2
*D17
  0
ENDTAB
  0
ENDSEC
  0
SECTION
  2
BLOCKS
  0
BLOCK
  5
1F
330
1E
100
AcDbEntity
  8
0
100
AcDbBlockBegin
  2
*MODEL_SPACE
 70
     0
 10
0.0
 20
0.0
 30
0.0
  3
*MODEL_SPACE
  1

  0
ENDBLK
  5
20
330
1E
100
AcDbEntity
  8
0
100
AcDbBlockEnd
  0
BLOCK
  5
1B
330
1A
100
AcDbEntity
 67
     1
  8
0
100
AcDbBlockBegin
  2
*PAPER_SPACE
 70
     0
 10
0.0
 20
0.0
 30
0.0
  3
*PAPER_SPACE
  1

  0
ENDBLK
  5
1C
330
1A
100
AcDbEntity
 67
     1
  8
0
100
AcDbBlockEnd
  0
BLOCK
  5
40
330
3F
100
AcDbEntity
  8
0
100
AcDbBlockBegin
  2
*D0
 70
     1
 10
0.0
 20
0.0
 30
0.0
  3
*D0
  1

  0
TEXT
  5
41
330
3F
100
AcDbEntity
  8
CSLAYER1
 62
     4
100
AcDbText
 10
64.88166899999999
 20
136.898348
 30
0.0
 40
3.2
  1
R85
 50
6.372832503314415
 41
1.124999958335987
 51
15.0
  7
FX_FONT
 72
     5
 11
74.422347
 21
137.963926
 31
0.0
100
AcDbText
  0
LINE
  5
42
330
3F
100
AcDbEntity
  8
CSLAYER1
  6
CONTINUOUS
 62
     4
100
AcDbLine
 10
57.729849
 20
136.0355909999998
 30
0.0
 11
76.70931299999998
 21
138.1553669999999
 31
0.0
  0
LINE
  5
43
330
3F
100
AcDbEntity
  8
CSLAYER1
  6
CONTINUOUS
 62
     4
100
AcDbLine
 10
57.729849
 20
136.0355909999998
 30
0.0
 11
60.52353499999998
 21
137.1288969999999
 31
0.0
  0
LINE
  5
44
330
3F
100
AcDbEntity
  8
CSLAYER1
  6
CONTINUOUS
 62
     4
100
AcDbLine
 10
57.729849
 20
136.0355909999998
 30
0.0
 11
60.695905
 21
135.5855789999999
 31
0.0
  0
ENDBLK
  5
45
330
3F
100
AcDbEntity
  8
0
100
AcDbBlockEnd
  0
BLOCK
  5
47
330
46
100
AcDbEntity
  8
0
100
AcDbBlockBegin
  2
FXDIM0000
 70
     0
 10
0.0
 20
0.0
 30
0.0
  3
FXDIM0000
  1

  0
LINE
  5
48
330
46
100
AcDbEntity
  8
CSLAYER1
  6
CONTINUOUS
 62
     4
100
AcDbLine
 10
181.304605
 20
93.770395
 30
0.0
 11
182.804605
 21
96.368471
 31
0.0
  0
LINE
  5
49
330
46
100
AcDbEntity
  8
CSLAYER1
  6
CONTINUOUS
 62
     4
100
AcDbLine
 10
182.804605
 20
96.368471
 30
0.0
 11
179.804605
 21
96.368471
 31
0.0
  0
LINE
  5
4A
330
46
100
AcDbEntity
  8
CSLAYER1
  6
CONTINUOUS
 62
     4
100
AcDbLine
 10
179.804605
 20
96.368471
 30
0.0
 11
181.304605
 21
93.770395
 31
0.0
  0
LINE
  5
4B
330
46
100
AcDbEntity
  8
CSLAYER1
  6
CONTINUOUS
 62
     4
100
AcDbLine
 10
184.304605
 20
93.770395
 30
0.0
 11
185.804605
 21
96.368471
 31
0.0
  0
LINE
  5
4C
330
46
100
AcDbEntity
  8
CSLAYER1
  6
CONTINUOUS
 62
     4
100
AcDbLine
 10
185.804605
 20
96.368471
 30
0.0
 11
182.804605
 21
96.368471
 31
0.0
  0
LINE
  5
4D
330
46
100
AcDbEntity
  8
CSLAYER1
  6
CONTINUOUS
 62
     4
100
AcDbLine
 10
182.804605
 20
96.368471
 30
0.0
 11
184.304605
 21
93.770395
 31
0.0
  0
LINE
  5
4E
330
46
100
AcDbEntity
  8
CSLAYER1
  6
CONTINUOUS
 62
     4
100
AcDbLine
 10
187.304605
 20
93.770395
 30
0.0
 11
188.8046049999999
 21
96.368471
 31
0.0
  0
LINE
  5
4F
330
46
100
AcDbEntity
  8
CSLAYER1
  6
CONTINUOUS
 62
     4
100
AcDbLine
 10
188.8046049999999
 20
96.368471
 30
0.0
 11
185.804605
 21
96.368471
 31
0.0
  0
LINE
  5
50
330
46
100
AcDbEntity
  8
CSLAYER1
  6
CONTINUOUS
 62
     4
100
AcDbLine
 10
185.804605
 20
96.368471
 30
0.0
 11
187.304605
 21
93.770395
 31
0.0
  0
ENDBLK
  5
51
330
46
100
AcDbEntity
  8
0
100
AcDbBlockEnd
  0
BLOCK
  5
53
330
52
100
AcDbEntity
  8
0
100
AcDbBlockBegin
  2
FXDIM0001
 70
     0
 10
0.0
 20
0.0
 30
0.0
  3
FXDIM0001
  1

  0
LINE
  5
54
330
52
100
AcDbEntity
  8
CSLAYER1
  6
CONTINUOUS
 62
     4
100
AcDbLine
 10
184.304605
 20
76.77039499999998
 30
0.0
 11
182.804605
 21
74.17231899999999
 31
0.0
  0
LINE
  5
55
330
52
100
AcDbEntity
  8
CSLAYER1
  6
CONTINUOUS
 62
     4
100
AcDbLine
 10
182.804605
 20
74.17231899999999
 30
0.0
 11
185.804605
 21
74.17231899999999
 31
0.0
  0
LINE
  5
56
330
52
100
AcDbEntity
  8
CSLAYER1
  6
CONTINUOUS
 62
     4
100
AcDbLine
 10
185.804605
 20
74.17231899999999
 30
0.0
 11
184.304605
 21
76.77039499999998
 31
0.0
  0
LINE
  5
57
330
52
100
AcDbEntity
  8
CSLAYER1
  6
CONTINUOUS
 62
     4
100
AcDbLine
 10
187.304605
 20
76.77039499999998
 30
0.0
 11
185.804605
 21
74.17231899999999
 31
0.0
  0
LINE
  5
58
330
52
100
AcDbEntity
  8
CSLAYER1
  6
CONTINUOUS
 62
     4
100
AcDbLine
 10
185.804605
 20
74.17231899999999
 30
0.0
 11
188.8046049999999
 21
74.17231899999999
 31
0.0
  0
LINE
  5
59
330
52
100
AcDbEntity
  8
CSLAYER1
  6
CONTINUOUS
 62
     4
100
AcDbLine
 10
188.8046049999999
 20
74.17231899999999
 30
0.0
 11
187.304605
 21
76.77039499999998
 31
0.0
  0
LINE
  5
5A
330
52
100
AcDbEntity
  8
CSLAYER1
  6
CONTINUOUS
 62
     4
100
AcDbLine
 10
190.304605
 20
76.77039499999998
 30
0.0
 11
188.8046049999999
 21
74.17231899999999
 31
0.0
  0
LINE
  5
5B
330
52
100
AcDbEntity
  8
CSLAYER1
  6
CONTINUOUS
 62
     4
100
AcDbLine
 10
188.8046049999999
 20
74.17231899999999
 30
0.0
 11
191.804605
 21
74.17231899999999
 31
0.0
  0
LINE
  5
5C
330
52
100
AcDbEntity
  8
CSLAYER1
  6
CONTINUOUS
 62
     4
100
AcDbLine
 10
191.804605
 20
74.17231899999999
 30
0.0
 11
190.304605
 21
76.77039499999998
 31
0.0
  0
ENDBLK
  5
5D
330
52
100
AcDbEntity
  8
0
100
AcDbBlockEnd
  0
BLOCK
  5
5F
330
5E
100
AcDbEntity
  8
0
100
AcDbBlockBegin
  2
*D3
 70
     1
 10
0.0
 20
0.0
 30
0.0
  3
*D3
  1

  0
TEXT
  5
60
330
5E
100
AcDbEntity
  8
CSLAYER1
 62
     4
100
AcDbText
 10
114.802255
 20
78.044922
 30
0.0
 40
3.2
  1
30%%d
 50
74.99999914162472
 41
1.285714300251898
 51
15.0
  7
FX_FONT
 72
     5
 11
117.2869179999999
 21
87.31780999999998
 31
0.0
100
AcDbText
  0
ARC
  5
61
330
5E
100
AcDbEntity
  8
CSLAYER1
  6
CONTINUOUS
 62
     4
100
AcDbCircle
 10
138.1046049999999
 20
76.77039499999998
 30
0.0
 40
22.33821199999999
100
AcDbArc
 50
150.0
 51
180.0
  0
LINE
  5
62
330
5E
100
AcDbEntity
  8
CSLAYER1
  6
CONTINUOUS
 62
     4
100
AcDbLine
 10
118.7591459999999
 20
87.93950100000001
 30
0.0
 11
117.9826889999999
 21
85.041723
 31
0.0
  0
LINE
  5
63
330
5E
100
AcDbEntity
  8
CSLAYER1
  6
CONTINUOUS
 62
     4
100
AcDbLine
 10
118.7591459999999
 20
87.93950100000001
 30
0.0
 11
116.637826
 21
85.81818
 31
0.0
  0
LINE
  5
64
330
5E
100
AcDbEntity
  8
CSLAYER1
  6
CONTINUOUS
 62
     4
100
AcDbLine
 10
115.766393
 20
76.77039499999998
 30
0.0
 11
114.989936
 21
79.668172
 31
0.0
  0
LINE
  5
65
330
5E
100
AcDbEntity
  8
CSLAYER1
  6
CONTINUOUS
 62
     4
100
AcDbLine
 10
115.766393
 20
76.77039499999998
 30
0.0
 11
116.5428499999999
 21
79.668172
 31
0.0
  0
ENDBLK
  5
66
330
5E
100
AcDbEntity
  8
0
100
AcDbBlockEnd
  0
BLOCK
  5
68
330
67
100
AcDbEntity
  8
0
100
AcDbBlockBegin
  2
*D4
 70
     1
 10
0.0
 20
0.0
 30
0.0
  3
*D4
  1

  0
TEXT
  5
69
330
67
100
AcDbEntity
  8
CSLAYER1
 62
     4
100
AcDbText
 10
60.368402
 20
171.4671309999999
 30
0.0
 40
3.2
  1
35%%d
 50
342.4999986410726
 41
1.285714333640239
 51
15.0
  7
FX_FONT
 72
     5
 11
69.524085
 21
168.5803549999999
 31
0.0
100
AcDbText
  0
ARC
  5
6A
330
67
100
AcDbEntity
  8
CSLAYER1
  6
CONTINUOUS
 62
     4
100
AcDbCircle
 10
57.20460500000001
 20
145.470395
 30
0.0
 40
25.24489299999999
100
AcDbArc
 50
55.0
 51
90.0
  0
LINE
  5
6B
330
67
100
AcDbEntity
  8
CSLAYER1
  6
CONTINUOUS
 62
     4
100
AcDbLine
 10
71.684481
 20
166.1497999999999
 30
0.0
 11
68.865403
 21
167.1758609999999
 31
0.0
  0
LINE
  5
6C
330
67
100
AcDbEntity
  8
CSLAYER1
  6
CONTINUOUS
 62
     4
100
AcDbLine
 10
71.684481
 20
166.1497999999999
 30
0.0
 11
69.756118
 21
168.447934
 31
0.0
  0
LINE
  5
6D
330
67
100
AcDbEntity
  8
CSLAYER1
  6
CONTINUOUS
 62
     4
100
AcDbLine
 10
57.20460500000001
 20
170.715287
 30
0.0
 11
60.102383
 21
171.491745
 31
0.0
  0
LINE
  5
6E
330
67
100
AcDbEntity
  8
CSLAYER1
  6
CONTINUOUS
 62
     4
100
AcDbLine
 10
57.20460500000001
 20
170.715287
 30
0.0
 11
60.102383
 21
169.93883
 31
0.0
  0
LINE
  5
6F
330
67
100
AcDbEntity
  8
CSLAYER1
  6
CONTINUOUS
 62
     4
100
AcDbLine
 10
59.53157
 20
148.793645
 30
0.0
 11
72.25805699999998
 21
166.968952
 31
0.0
  0
ENDBLK
  5
70
330
67
100
AcDbEntity
  8
0
100
AcDbBlockEnd
  0
BLOCK
  5
72
330
71
100
AcDbEntity
  8
0
100
AcDbBlockBegin
  2
FXDIM0002
 70
     0
 10
0.0
 20
0.0
 30
0.0
  3
FXDIM0002
  1

  0
LINE
  5
73
330
71
100
AcDbEntity
  8
CSLAYER1
  6
CONTINUOUS
 62
     4
100
AcDbLine
 10
170.3928529999999
 20
142.8140989999999
 30
0.0
 11
163.8382909999999
 21
118.3521419999999
 31
0.0
  0
LINE
  5
74
330
71
100
AcDbEntity
  8
CSLAYER1
  6
CONTINUOUS
 62
     4
100
AcDbLine
 10
170.3928529999999
 20
142.8140989999999
 30
0.0
 11
170.3928529999999
 21
139.8140989999999
 31
0.0
  0
LINE
  5
75
330
71
100
AcDbEntity
  8
CSLAYER1
  6
CONTINUOUS
 62
     4
100
AcDbLine
 10
170.3928529999999
 20
142.8140989999999
 30
0.0
 11
168.892853
 21
140.2160229999998
 31
0.0
  0
LINE
  5
76
330
71
100
AcDbEntity
  8
CSLAYER1
  6
CONTINUOUS
 62
     4
100
AcDbLine
 10
163.8382909999999
 20
118.3521419999999
 30
0.0
 11
149.0382909999999
 21
118.3521419999999
 31
0.0
  0
TEXT
  5
77
330
71
100
AcDbEntity
  8
CSLAYER1
 62
     4
100
AcDbText
 10
150.0382929999998
 20
118.8521419999998
 30
0.0
 40
3.2
  1
%%c5.1
 41
1.142857232142858
 51
15.0
  7
FX_FONT
 72
     5
 11
162.8382939999999
 21
118.8521419999998
 31
0.0
100
AcDbText
  0
ENDBLK
  5
78
330
71
100
AcDbEntity
  8
0
100
AcDbBlockEnd
  0
BLOCK
  5
7A
330
79
100
AcDbEntity
  8
0
100
AcDbBlockBegin
  2
*D6
 70
     1
 10
0.0
 20
0.0
 30
0.0
  3
*D6
  1

  0
TEXT
  5
7B
330
79
100
AcDbEntity
  8
CSLAYER1
 62
     4
100
AcDbText
 10
97.596886
 20
134.270398
 30
0.0
 40
3.2
  1
31.5~33
 50
90.0
 41
1.049999999999994
 51
15.0
  7
FX_FONT
 72
     5
 11
97.596886
 21
156.6703979999998
 31
0.0
100
AcDbText
  0
LINE
  5
7C
330
79
100
AcDbEntity
  8
CSLAYER1
  6
CONTINUOUS
 62
     4
100
AcDbLine
 10
98.09688600000001
 20
129.4703949999999
 30
0.0
 11
98.09688600000001
 21
161.4703949999999
 31
0.0
  0
LINE
  5
7D
330
79
100
AcDbEntity
  8
CSLAYER1
  6
CONTINUOUS
 62
     4
100
AcDbLine
 10
98.09688600000001
 20
129.4703949999999
 30
0.0
 11
97.32042900000001
 21
132.3681719999999
 31
0.0
  0
LINE
  5
7E
330
79
100
AcDbEntity
  8
CSLAYER1
  6
CONTINUOUS
 62
     4
100
AcDbLine
 10
98.09688600000001
 20
129.4703949999999
 30
0.0
 11
98.873343
 21
132.3681719999999
 31
0.0
  0
LINE
  5
7F
330
79
100
AcDbEntity
  8
CSLAYER1
  6
CONTINUOUS
 62
     4
100
AcDbLine
 10
98.09688600000001
 20
161.4703949999999
 30
0.0
 11
97.32042900000001
 21
158.5726169999998
 31
0.0
  0
LINE
  5
80
330
79
100
AcDbEntity
  8
CSLAYER1
  6
CONTINUOUS
 62
     4
100
AcDbLine
 10
98.09688600000001
 20
161.4703949999999
 30
0.0
 11
98.873343
 21
158.5726169999998
 31
0.0
  0
LINE
  5
81
330
79
100
AcDbEntity
  8
CSLAYER1
  6
CONTINUOUS
 62
     4
100
AcDbLine
 10
127.7171
 20
129.4703949999999
 30
0.0
 11
97.09688599999999
 21
129.4703949999999
 31
0.0
  0
LINE
  5
82
330
79
100
AcDbEntity
  8
CSLAYER1
  6
CONTINUOUS
 62
     4
100
AcDbLine
 10
127.7171
 20
161.4703949999999
 30
0.0
 11
97.09688599999999
 21
161.4703949999999
 31
0.0
  0
ENDBLK
  5
83
330
79
100
AcDbEntity
  8
0
100
AcDbBlockEnd
  0
BLOCK
  5
85
330
84
100
AcDbEntity
  8
0
100
AcDbBlockBegin
  2
*D7
 70
     1
 10
0.0
 20
0.0
 30
0.0
  3
*D7
  1

  0
TEXT
  5
86
330
84
100
AcDbEntity
  8
CSLAYER1
 62
     4
100
AcDbText
 10
103.596886
 20
142.270398
 30
0.0
 40
3.2
  1
17
 50
90.0
 41
1.200000000000001
 51
15.0
  7
FX_FONT
 72
     5
 11
103.596886
 21
148.670398
 31
0.0
100
AcDbText
  0
LINE
  5
87
330
84
100
AcDbEntity
  8
CSLAYER1
  6
CONTINUOUS
 62
     4
100
AcDbLine
 10
104.0968859999999
 20
136.9703949999999
 30
0.0
 11
104.0968859999999
 21
153.9703949999999
 31
0.0
  0
LINE
  5
88
330
84
100
AcDbEntity
  8
CSLAYER1
  6
CONTINUOUS
 62
     4
100
AcDbLine
 10
104.0968859999999
 20
136.9703949999999
 30
0.0
 11
103.320429
 21
139.8681719999999
 31
0.0
  0
LINE
  5
89
330
84
100
AcDbEntity
  8
CSLAYER1
  6
CONTINUOUS
 62
     4
100
AcDbLine
 10
104.0968859999999
 20
136.9703949999999
 30
0.0
 11
104.8733429999999
 21
139.8681719999999
 31
0.0
  0
LINE
  5
8A
330
84
100
AcDbEntity
  8
CSLAYER1
  6
CONTINUOUS
 62
     4
100
AcDbLine
 10
104.0968859999999
 20
153.9703949999999
 30
0.0
 11
103.320429
 21
151.0726169999998
 31
0.0
  0
LINE
  5
8B
330
84
100
AcDbEntity
  8
CSLAYER1
  6
CONTINUOUS
 62
     4
100
AcDbLine
 10
104.0968859999999
 20
153.9703949999999
 30
0.0
 11
104.8733429999999
 21
151.0726169999998
 31
0.0
  0
LINE
  5
8C
330
84
100
AcDbEntity
  8
CSLAYER1
  6
CONTINUOUS
 62
     4
100
AcDbLine
 10
112.104605
 20
136.9703949999999
 30
0.0
 11
103.0968859999999
 21
136.9703949999999
 31
0.0
  0
LINE
  5
8D
330
84
100
AcDbEntity
  8
CSLAYER1
  6
CONTINUOUS
 62
     4
100
AcDbLine
 10
112.104605
 20
153.9703949999999
 30
0.0
 11
103.0968859999999
 21
153.9703949999999
 31
0.0
  0
ENDBLK
  5
8E
330
84
100
AcDbEntity
  8
0
100
AcDbBlockEnd
  0
BLOCK
  5
90
330
8F
100
AcDbEntity
  8
0
100
AcDbBlockBegin
  2
*D8
 70
     1
 10
0.0
 20
0.0
 30
0.0
  3
*D8
  1

  0
TEXT
  5
91
330
8F
100
AcDbEntity
  8
CSLAYER1
 62
     4
100
AcDbText
 10
138.9045989999999
 20
180.464523
 30
0.0
 40
3.2
  1
58
 41
1.200000000000001
 51
15.0
  7
FX_FONT
 72
     5
 11
145.3045989999999
 21
180.464523
 31
0.0
100
AcDbText
  0
LINE
  5
92
330
8F
100
AcDbEntity
  8
CSLAYER1
  6
CONTINUOUS
 62
     4
100
AcDbLine
 10
113.104605
 20
179.964527
 30
0.0
 11
171.104605
 21
179.964527
 31
0.0
  0
LINE
  5
93
330
8F
100
AcDbEntity
  8
CSLAYER1
  6
CONTINUOUS
 62
     4
100
AcDbLine
 10
113.104605
 20
179.964527
 30
0.0
 11
116.002383
 21
180.740985
 31
0.0
  0
LINE
  5
94
330
8F
100
AcDbEntity
  8
CSLAYER1
  6
CONTINUOUS
 62
     4
100
AcDbLine
 10
113.104605
 20
179.964527
 30
0.0
 11
116.002383
 21
179.1880699999999
 31
0.0
  0
LINE
  5
95
330
8F
100
AcDbEntity
  8
CSLAYER1
  6
CONTINUOUS
 62
     4
100
AcDbLine
 10
171.104605
 20
179.964527
 30
0.0
 11
168.206828
 21
180.740985
 31
0.0
  0
LINE
  5
96
330
8F
100
AcDbEntity
  8
CSLAYER1
  6
CONTINUOUS
 62
     4
100
AcDbLine
 10
171.104605
 20
179.964527
 30
0.0
 11
168.206828
 21
179.1880699999999
 31
0.0
  0
LINE
  5
97
330
8F
100
AcDbEntity
  8
CSLAYER1
  6
CONTINUOUS
 62
     4
100
AcDbLine
 10
113.104605
 20
154.970395
 30
0.0
 11
113.104605
 21
180.964527
 31
0.0
  0
LINE
  5
98
330
8F
100
AcDbEntity
  8
CSLAYER1
  6
CONTINUOUS
 62
     4
100
AcDbLine
 10
171.104605
 20
168.3455459999999
 30
0.0
 11
171.104605
 21
180.964527
 31
0.0
  0
ENDBLK
  5
99
330
8F
100
AcDbEntity
  8
0
100
AcDbBlockEnd
  0
BLOCK
  5
9B
330
9A
100
AcDbEntity
  8
0
100
AcDbBlockBegin
  2
*D9
 70
     1
 10
0.0
 20
0.0
 30
0.0
  3
*D9
  1

  0
TEXT
  5
9C
330
9A
100
AcDbEntity
  8
CSLAYER1
 62
     4
100
AcDbText
 10
120.826676
 20
133.822218
 30
0.0
 40
3.2
  1
R20
 50
64.8758860053437
 41
1.125000027009541
 51
15.0
  7
FX_FONT
 72
     5
 11
124.902649
 21
142.5139639999999
 31
0.0
100
AcDbText
  0
LINE
  5
9D
330
9A
100
AcDbEntity
  8
CSLAYER1
  6
CONTINUOUS
 62
     4
100
AcDbLine
 10
120.2254909999999
 20
131.3625909999998
 30
0.0
 11
128.7170999999998
 21
149.4703949999999
 31
0.0
  0
LINE
  5
9E
330
9A
100
AcDbEntity
  8
CSLAYER1
  6
CONTINUOUS
 62
     4
100
AcDbLine
 10
120.2254909999999
 20
131.3625909999998
 30
0.0
 11
120.752834
 21
134.3158789999999
 31
0.0
  0
LINE
  5
9F
330
9A
100
AcDbEntity
  8
CSLAYER1
  6
CONTINUOUS
 62
     4
100
AcDbLine
 10
120.2254909999999
 20
131.3625909999998
 30
0.0
 11
122.158827
 21
133.656542
 31
0.0
  0
ENDBLK
  5
A0
330
9A
100
AcDbEntity
  8
0
100
AcDbBlockEnd
  0
BLOCK
  5
A2
330
A1
100
AcDbEntity
  8
0
100
AcDbBlockBegin
  2
*D10
 70
     1
 10
0.0
 20
0.0
 30
0.0
  3
*D10
  1

  0
TEXT
  5
A3
330
A1
100
AcDbEntity
  8
CSLAYER1
 62
     4
100
AcDbText
 10
156.4045989999998
 20
106.7927779999999
 30
0.0
 40
3.2
  1
23
 41
1.200000000000001
 51
15.0
  7
FX_FONT
 72
     5
 11
162.8045989999999
 21
106.7927779999999
 31
0.0
100
AcDbText
  0
LINE
  5
A4
330
A1
100
AcDbEntity
  8
CSLAYER1
  6
CONTINUOUS
 62
     4
100
AcDbLine
 10
148.1046049999999
 20
106.292778
 30
0.0
 11
171.104605
 21
106.292778
 31
0.0
  0
LINE
  5
A5
330
A1
100
AcDbEntity
  8
CSLAYER1
  6
CONTINUOUS
 62
     4
100
AcDbLine
 10
148.1046049999999
 20
106.292778
 30
0.0
 11
151.002383
 21
107.069235
 31
0.0
  0
LINE
  5
A6
330
A1
100
AcDbEntity
  8
CSLAYER1
  6
CONTINUOUS
 62
     4
100
AcDbLine
 10
148.1046049999999
 20
106.292778
 30
0.0
 11
151.002383
 21
105.5163209999999
 31
0.0
  0
LINE
  5
A7
330
A1
100
AcDbEntity
  8
CSLAYER1
  6
CONTINUOUS
 62
     4
100
AcDbLine
 10
171.104605
 20
106.292778
 30
0.0
 11
168.206828
 21
107.069235
 31
0.0
  0
LINE
  5
A8
330
A1
100
AcDbEntity
  8
CSLAYER1
  6
CONTINUOUS
 62
     4
100
AcDbLine
 10
171.104605
 20
106.292778
 30
0.0
 11
168.206828
 21
105.5163209999999
 31
0.0
  0
LINE
  5
A9
330
A1
100
AcDbEntity
  8
CSLAYER1
  6
CONTINUOUS
 62
     4
100
AcDbLine
 10
148.1046049999999
 20
94.770395
 30
0.0
 11
148.1046049999999
 21
107.292778
 31
0.0
  0
LINE
  5
AA
330
A1
100
AcDbEntity
  8
CSLAYER1
  6
CONTINUOUS
 62
     4
100
AcDbLine
 10
171.104605
 20
101.2882089999999
 30
0.0
 11
171.104605
 21
107.292778
 31
0.0
  0
ENDBLK
  5
AB
330
A1
100
AcDbEntity
  8
0
100
AcDbBlockEnd
  0
BLOCK
  5
AD
330
AC
100
AcDbEntity
  8
0
100
AcDbBlockBegin
  2
*D11
 70
     1
 10
0.0
 20
0.0
 30
0.0
  3
*D11
  1

  0
TEXT
  5
AE
330
AC
100
AcDbEntity
  8
CSLAYER1
 62
     4
100
AcDbText
 10
151.4045989999999
 20
63.598328
 30
0.0
 40
3.2
  1
33
 41
1.200000000000001
 51
15.0
  7
FX_FONT
 72
     5
 11
157.8045989999999
 21
63.598328
 31
0.0
100
AcDbText
  0
LINE
  5
AF
330
AC
100
AcDbEntity
  8
CSLAYER1
  6
CONTINUOUS
 62
     4
100
AcDbLine
 10
138.1046049999999
 20
63.09833000000001
 30
0.0
 11
171.104605
 21
63.09833000000001
 31
0.0
  0
LINE
  5
B0
330
AC
100
AcDbEntity
  8
CSLAYER1
  6
CONTINUOUS
 62
     4
100
AcDbLine
 10
138.1046049999999
 20
63.09833000000001
 30
0.0
 11
141.002383
 21
63.87478699999999
 31
0.0
  0
LINE
  5
B1
330
AC
100
AcDbEntity
  8
CSLAYER1
  6
CONTINUOUS
 62
     4
100
AcDbLine
 10
138.1046049999999
 20
63.09833000000001
 30
0.0
 11
141.002383
 21
62.32187299999999
 31
0.0
  0
LINE
  5
B2
330
AC
100
AcDbEntity
  8
CSLAYER1
  6
CONTINUOUS
 62
     4
100
AcDbLine
 10
171.104605
 20
63.09833000000001
 30
0.0
 11
168.206828
 21
63.87478699999999
 31
0.0
  0
LINE
  5
B3
330
AC
100
AcDbEntity
  8
CSLAYER1
  6
CONTINUOUS
 62
     4
100
AcDbLine
 10
171.104605
 20
63.09833000000001
 30
0.0
 11
168.206828
 21
62.32187299999999
 31
0.0
  0
LINE
  5
B4
330
AC
100
AcDbEntity
  8
CSLAYER1
  6
CONTINUOUS
 62
     4
100
AcDbLine
 10
138.1046049999999
 20
75.77039499999997
 30
0.0
 11
138.1046049999999
 21
62.09833
 31
0.0
  0
LINE
  5
B5
330
AC
100
AcDbEntity
  8
CSLAYER1
  6
CONTINUOUS
 62
     4
100
AcDbLine
 10
171.104605
 20
69.60756299999999
 30
0.0
 11
171.104605
 21
62.09833
 31
0.0
  0
ENDBLK
  5
B6
330
AC
100
AcDbEntity
  8
0
100
AcDbBlockEnd
  0
BLOCK
  5
B8
330
B7
100
AcDbEntity
  8
0
100
AcDbBlockBegin
  2
*D12
 70
     1
 10
0.0
 20
0.0
 30
0.0
  3
*D12
  1

  0
TEXT
  5
B9
330
B7
100
AcDbEntity
  8
CSLAYER1
 62
     4
100
AcDbText
 10
97.67683400000001
 20
82.29859300000002
 30
0.0
 40
3.2
  1
17  
 50
90.0
 41
1.249999999999998
 51
15.0
  7
FX_FONT
 72
     5
 11
97.67683400000001
 21
95.098593
 31
0.0
100
AcDbText
  0
TEXT
  5
BA
330
B7
100
AcDbEntity
  8
CSLAYER1
 62
     4
100
AcDbText
 10
96.076834
 20
95.098593
 30
0.0
 40
1.6
  1
  0
 50
90.0
 41
1.607142857142856
 51
15.0
  7
FX_FONT
 72
     5
 11
96.076834
 21
99.898593
 31
0.0
100
AcDbText
  0
TEXT
  5
BB
330
B7
100
AcDbEntity
  8
CSLAYER1
 62
     4
100
AcDbText
 10
97.67683400000001
 20
95.098593
 30
0.0
 40
1.6
  1
-0.15
 50
90.0
 41
1.071428571428571
 51
15.0
  7
FX_FONT
 72
     5
 11
97.67683400000001
 21
103.098593
 31
0.0
100
AcDbText
  0
LINE
  5
BC
330
B7
100
AcDbEntity
  8
CSLAYER1
  6
CONTINUOUS
 62
     4
100
AcDbLine
 10
98.17683500000001
 20
76.77039499999998
 30
0.0
 11
98.17683500000001
 21
93.770395
 31
0.0
  0
LINE
  5
BD
330
B7
100
AcDbEntity
  8
CSLAYER1
  6
CONTINUOUS
 62
     4
100
AcDbLine
 10
98.17683500000001
 20
76.77039499999998
 30
0.0
 11
97.40037800000001
 21
79.668172
 31
0.0
  0
LINE
  5
BE
330
B7
100
AcDbEntity
  8
CSLAYER1
  6
CONTINUOUS
 62
     4
100
AcDbLine
 10
98.17683500000001
 20
76.77039499999998
 30
0.0
 11
98.953292
 21
79.668172
 31
0.0
  0
LINE
  5
BF
330
B7
100
AcDbEntity
  8
CSLAYER1
  6
CONTINUOUS
 62
     4
100
AcDbLine
 10
98.17683500000001
 20
93.770395
 30
0.0
 11
97.40037800000001
 21
90.872617
 31
0.0
  0
LINE
  5
C0
330
B7
100
AcDbEntity
  8
CSLAYER1
  6
CONTINUOUS
 62
     4
100
AcDbLine
 10
98.17683500000001
 20
93.770395
 30
0.0
 11
98.953292
 21
90.872617
 31
0.0
  0
LINE
  5
C1
330
B7
100
AcDbEntity
  8
CSLAYER1
  6
CONTINUOUS
 62
     4
100
AcDbLine
 10
137.1046049999999
 20
76.77039499999998
 30
0.0
 11
97.17683499999999
 21
76.77039499999998
 31
0.0
  0
LINE
  5
C2
330
B7
100
AcDbEntity
  8
CSLAYER1
  6
CONTINUOUS
 62
     4
100
AcDbLine
 10
112.104605
 20
93.770395
 30
0.0
 11
97.17683499999999
 21
93.770395
 31
0.0
  0
ENDBLK
  5
C3
330
B7
100
AcDbEntity
  8
0
100
AcDbBlockEnd
  0
BLOCK
  5
C5
330
C4
100
AcDbEntity
  8
0
100
AcDbBlockBegin
  2
*D13
 70
     1
 10
0.0
 20
0.0
 30
0.0
  3
*D13
  1

  0
TEXT
  5
C6
330
C4
100
AcDbEntity
  8
CSLAYER1
 62
     4
100
AcDbText
 10
103.2347349999999
 20
71.50904200000002
 30
0.0
 40
3.2
  1
切刃部有効25
 50
329.9999999427408
 41
0.9130434766804444
 51
15.0
  7
FX_FONT
 72
     5
 11
122.633704
 21
60.30904200000001
 31
0.0
100
AcDbText
  0
LINE
  5
C7
330
C4
100
AcDbEntity
  8
CSLAYER1
  6
CONTINUOUS
 62
     4
100
AcDbLine
 10
101.858904
 20
71.726025
 30
0.0
 11
123.5095389999999
 21
59.22602499999999
 31
0.0
  0
LINE
  5
C8
330
C4
100
AcDbEntity
  8
CSLAYER1
  6
CONTINUOUS
 62
     4
100
AcDbLine
 10
101.858904
 20
71.726025
 30
0.0
 11
104.7566809999999
 21
70.949568
 31
0.0
  0
LINE
  5
C9
330
C4
100
AcDbEntity
  8
CSLAYER1
  6
CONTINUOUS
 62
     4
100
AcDbLine
 10
101.858904
 20
71.726025
 30
0.0
 11
103.9802239999999
 21
69.604704
 31
0.0
  0
LINE
  5
CA
330
C4
100
AcDbEntity
  8
CSLAYER1
  6
CONTINUOUS
 62
     4
100
AcDbLine
 10
123.5095389999999
 20
59.22602499999999
 30
0.0
 11
120.611761
 21
60.00248199999999
 31
0.0
  0
LINE
  5
CB
330
C4
100
AcDbEntity
  8
CSLAYER1
  6
CONTINUOUS
 62
     4
100
AcDbLine
 10
123.5095389999999
 20
59.22602499999999
 30
0.0
 11
121.3882179999999
 21
61.347345
 31
0.0
  0
LINE
  5
CC
330
C4
100
AcDbEntity
  8
CSLAYER1
  6
CONTINUOUS
 62
     4
100
AcDbLine
 10
112.604605
 20
90.338126
 30
0.0
 11
101.358904
 21
70.859999
 31
0.0
  0
LINE
  5
CD
330
C4
100
AcDbEntity
  8
CSLAYER1
  6
CONTINUOUS
 62
     4
100
AcDbLine
 10
134.2552399999999
 20
77.838126
 30
0.0
 11
123.009539
 21
58.359999
 31
0.0
  0
ENDBLK
  5
CE
330
C4
100
AcDbEntity
  8
0
100
AcDbBlockEnd
  0
BLOCK
  5
D0
330
CF
100
AcDbEntity
  8
0
100
AcDbBlockBegin
  2
*D14
 70
     1
 10
0.0
 20
0.0
 30
0.0
  3
*D14
  1

  0
TEXT
  5
D1
330
CF
100
AcDbEntity
  8
CSLAYER1
 62
     4
100
AcDbText
 10
51.010029
 20
28.635525
 30
0.0
 40
3.2
  1
15
 50
90.0
 41
1.2000001875
 51
15.0
  7
FX_FONT
 72
     5
 11
51.010029
 21
35.035526
 31
0.0
100
AcDbText
  0
LINE
  5
D2
330
CF
100
AcDbEntity
  8
CSLAYER1
  6
CONTINUOUS
 62
     4
100
AcDbLine
 10
51.510028
 20
24.335526
 30
0.0
 11
51.510028
 21
39.335526
 31
0.0
  0
LINE
  5
D3
330
CF
100
AcDbEntity
  8
CSLAYER1
  6
CONTINUOUS
 62
     4
100
AcDbLine
 10
51.510028
 20
24.335526
 30
0.0
 11
50.733571
 21
27.233304
 31
0.0
  0
LINE
  5
D4
330
CF
100
AcDbEntity
  8
CSLAYER1
  6
CONTINUOUS
 62
     4
100
AcDbLine
 10
51.510028
 20
24.335526
 30
0.0
 11
52.286485
 21
27.233304
 31
0.0
  0
LINE
  5
D5
330
CF
100
AcDbEntity
  8
CSLAYER1
  6
CONTINUOUS
 62
     4
100
AcDbLine
 10
51.510028
 20
39.335526
 30
0.0
 11
50.733571
 21
36.43774899999999
 31
0.0
  0
LINE
  5
D6
330
CF
100
AcDbEntity
  8
CSLAYER1
  6
CONTINUOUS
 62
     4
100
AcDbLine
 10
51.510028
 20
39.335526
 30
0.0
 11
52.286485
 21
36.43774899999999
 31
0.0
  0
LINE
  5
D7
330
CF
100
AcDbEntity
  8
CSLAYER1
  6
CONTINUOUS
 62
     4
100
AcDbLine
 10
60.782353
 20
24.335526
 30
0.0
 11
50.510028
 21
24.335526
 31
0.0
  0
LINE
  5
D8
330
CF
100
AcDbEntity
  8
CSLAYER1
  6
CONTINUOUS
 62
     4
100
AcDbLine
 10
60.782353
 20
39.335526
 30
0.0
 11
50.510028
 21
39.335526
 31
0.0
  0
ENDBLK
  5
D9
330
CF
100
AcDbEntity
  8
0
100
AcDbBlockEnd
  0
BLOCK
  5
DB
330
DA
100
AcDbEntity
  8
0
100
AcDbBlockBegin
  2
*D15
 70
     1
 10
0.0
 20
0.0
 30
0.0
  3
*D15
  1

  0
TEXT
  5
DC
330
DA
100
AcDbEntity
  8
CSLAYER1
 62
     4
100
AcDbText
 10
62.522036
 20
151.470532
 30
0.0
 40
3.2
  1
R12.5
 50
328.0687275098823
 41
1.071428558350396
 51
15.0
  7
FX_FONT
 72
     5
 11
76.100966
 21
143.008106
 31
0.0
100
AcDbText
  0
LINE
  5
DD
330
DA
100
AcDbEntity
  8
CSLAYER1
  6
CONTINUOUS
 62
     4
100
AcDbLine
 10
60.596066
 20
152.0816659999999
 30
0.0
 11
71.204605
 21
145.470395
 31
0.0
  0
LINE
  5
DE
330
DA
100
AcDbEntity
  8
CSLAYER1
  6
CONTINUOUS
 62
     4
100
AcDbLine
 10
60.596066
 20
152.0816659999999
 30
0.0
 11
63.46603100000001
 21
151.2079919999998
 31
0.0
  0
LINE
  5
DF
330
DA
100
AcDbEntity
  8
CSLAYER1
  6
CONTINUOUS
 62
     4
100
AcDbLine
 10
60.596066
 20
152.0816659999999
 30
0.0
 11
62.644692
 21
149.8900599999998
 31
0.0
  0
ENDBLK
  5
E0
330
DA
100
AcDbEntity
  8
0
100
AcDbBlockEnd
  0
BLOCK
  5
1EB
330
1E0
100
AcDbEntity
  8
0
100
AcDbBlockBegin
  2
*D16
 70
     1
 10
0.0
 20
0.0
 30
0.0
  3
*D16
  1

  0
ARC
  5
1E1
330
1E0
100
AcDbEntity
  8
CSLAYER1
 62
     0
100
AcDbCircle
 10
138.1046049999999
 20
76.77039499999998
 30
0.0
 40
22.33821193117415
100
AcDbArc
 50
150.4616885302034
 51
164.5214871104636
  0
ARC
  5
1E2
330
1E0
100
AcDbEntity
  8
CSLAYER1
 62
     0
100
AcDbCircle
 10
138.1046049999999
 20
76.77039499999998
 30
0.0
 40
22.33821193117415
100
AcDbArc
 50
165.4774456769388
 51
179.538312724128
  0
SOLID
  5
1E3
330
1E0
100
AcDbEntity
  8
CSLAYER1
 62
     0
100
AcDbTrace
 10
118.6437335500925
 20
87.79814982724536
 30
0.0
 11
118.6958155223537
 21
87.76835942333109
 31
0.0
 12
118.7591457479659
 22
87.93950054207206
 32
0.0
 13
118.7591457479659
 23
87.93950054207206
 33
0.0
  0
SOLID
  5
1E4
330
1E0
100
AcDbEntity
  8
CSLAYER1
 62
     0
100
AcDbTrace
 10
115.7971180400507
 20
76.9502726699405
 30
0.0
 11
115.7371185270309
 21
76.95051440817886
 31
0.0
 12
115.7663930688257
 22
76.77039500000002
 32
0.0
 13
115.7663930688257
 23
76.77039500000002
 33
0.0
  0
MTEXT
  5
1E5
330
1E0
100
AcDbEntity
  8
CSLAYER1
 62
     0
100
AcDbMText
 10
116.5275491192747
 20
82.55194944513942
 30
0.0
 40
0.18
 41
0.0
 71
     5
 72
     1
  1
\A1;30°
1001
ACAD
1000
MTEXTBEGIN
1070
    73
1070
     1
1070
    44
1040
1.0
1070
    74
1070
     0
1000
MTEXTEND
  0
POINT
  5
1E6
330
1E0
100
AcDbEntity
  8
DEFPOINTS
 62
     0
100
AcDbPoint
 10
117.1135519752178
 20
84.41051313997885
 30
0.0
  0
POINT
  5
1E7
330
1E0
100
AcDbEntity
  8
DEFPOINTS
 62
     0
100
AcDbPoint
 10
138.1046049999999
 20
76.77039499999998
 30
0.0
  0
POINT
  5
1E8
330
1E0
100
AcDbEntity
  8
DEFPOINTS
 62
     0
100
AcDbPoint
 10
95.67793899999999
 20
76.77039499999998
 30
0.0
  0
POINT
  5
1E9
330
1E0
100
AcDbEntity
  8
DEFPOINTS
 62
     0
100
AcDbPoint
 10
137.1046049999999
 20
76.77039499999998
 30
0.0
  0
POINT
  5
1EA
330
1E0
100
AcDbEntity
  8
DEFPOINTS
 62
     0
100
AcDbPoint
 10
113.1046049999999
 20
91.204151
 30
0.0
  0
ENDBLK
  5
1EC
330
1E0
100
AcDbEntity
  8
0
100
AcDbBlockEnd
  0
BLOCK
  5
1F9
330
1ED
100
AcDbEntity
  8
0
100
AcDbBlockBegin
  2
*D17
 70
     1
 10
0.0
 20
0.0
 30
0.0
  3
*D17
  1

  0
LINE
  5
1EE
330
1ED
100
AcDbEntity
  8
CSLAYER1
 62
     0
100
AcDbLine
 10
58.99384253692989
 20
148.0256899960054
 30
0.0
 11
71.78772829189448
 21
166.297245099428
 31
0.0
  0
ARC
  5
1EF
330
1ED
100
AcDbEntity
  8
CSLAYER1
 62
     0
100
AcDbCircle
 10
57.20460500000002
 20
145.470395
 30
0.0
 40
25.24489272368017
100
AcDbArc
 50
55.40851785007975
 51
71.59817774812191
  0
ARC
  5
1F0
330
1ED
100
AcDbEntity
  8
CSLAYER1
 62
     0
100
AcDbCircle
 10
57.20460500000002
 20
145.470395
 30
0.0
 40
25.24489272368017
100
AcDbArc
 50
73.39735758667998
 51
89.59147134147631
  0
SOLID
  5
1F1
330
1ED
100
AcDbEntity
  8
CSLAYER1
 62
     0
100
AcDbTrace
 10
71.5537896001219
 20
166.2771509672196
 30
0.0
 11
71.51955044378087
 21
166.2278794726911
 31
0.0
 12
71.68448450553639
 22
166.1497977509324
 32
0.0
 13
71.68448450553639
 23
166.1497977509324
 33
0.0
  0
SOLID
  5
1F2
330
1ED
100
AcDbEntity
  8
CSLAYER1
 62
     0
100
AcDbTrace
 10
57.38449690379026
 20
170.6846462003706
 30
0.0
 11
57.38471080844253
 21
170.744645819076
 31
0.0
 12
57.20460500000004
 22
170.7152877236801
 32
0.0
 13
57.20460500000004
 23
170.7152877236801
 33
0.0
  0
MTEXT
  5
1F3
330
1ED
100
AcDbEntity
  8
CSLAYER1
 62
     0
100
AcDbMText
 10
64.79589292080295
 20
169.5468763943731
 30
0.0
 40
0.18
 41
0.0
 71
     5
 72
     1
  1
\A1;35°
1001
ACAD
1000
MTEXTBEGIN
1070
    73
1070
     1
1070
    44
1040
1.0
1070
    74
1070
     0
1000
MTEXTEND
  0
POINT
  5
1F4
330
1ED
100
AcDbEntity
  8
DEFPOINTS
 62
     0
100
AcDbPoint
 10
67.20359911887452
 20
168.6506608578548
 30
0.0
  0
POINT
  5
1F5
330
1ED
100
AcDbEntity
  8
DEFPOINTS
 62
     0
100
AcDbPoint
 10
57.20460500000001
 20
145.470395
 30
0.0
  0
POINT
  5
1F6
330
1ED
100
AcDbEntity
  8
DEFPOINTS
 62
     0
100
AcDbPoint
 10
57.20460500000001
 20
171.342475
 30
0.0
  0
POINT
  5
1F7
330
1ED
100
AcDbEntity
  8
DEFPOINTS
 62
     0
100
AcDbPoint
 10
57.20460500000001
 20
145.470395
 30
0.0
  0
POINT
  5
1F8
330
1ED
100
AcDbEntity
  8
DEFPOINTS
 62
     0
100
AcDbPoint
 10
58.95799399999999
 20
147.974493
 30
0.0
  0
ENDBLK
  5
1FA
330
1ED
100
AcDbEntity
  8
0
100
AcDbBlockEnd
  0
ENDSEC
  0
SECTION
  2
ENTITIES
  0
LINE
  5
E1
330
1E
100
AcDbEntity
  8
CSLAYER1
  6
CONTINUOUS
 62
     3
100
AcDbLine
 10
113.104605
 20
91.204151
 30
0.0
 11
138.1046049999999
 21
76.77039499999998
 31
0.0
  0
LINE
  5
E2
330
1E
100
AcDbEntity
  8
CSLAYER1
  6
CONTINUOUS
 62
     3
100
AcDbLine
 10
138.1046049999999
 20
76.77039499999998
 30
0.0
 11
197.1046049999999
 21
76.77039499999998
 31
0.0
  0
LINE
  5
E3
330
1E
100
AcDbEntity
  8
CSLAYER1
  6
CONTINUOUS
 62
     3
100
AcDbLine
 10
197.1046049999999
 20
76.77039499999998
 30
0.0
 11
248.106945
 21
78.089421
 31
0.0
  0
ARC
  5
E4
330
1E
100
AcDbEntity
  8
CSLAYER1
  6
CONTINUOUS
 62
     3
100
AcDbCircle
 10
247.9212299999999
 20
85.27039499999998
 30
0.0
 40
7.183374999999998
100
AcDbArc
 50
270.0
 51
90.0
  0
LINE
  5
E5
330
1E
100
AcDbEntity
  8
CSLAYER1
  6
CONTINUOUS
 62
     3
100
AcDbLine
 10
248.106945
 20
92.451369
 30
0.0
 11
197.1046049999999
 21
93.770395
 31
0.0
  0
LINE
  5
E6
330
1E
100
AcDbEntity
  8
CSLAYER1
  6
CONTINUOUS
 62
     3
100
AcDbLine
 10
197.1046049999999
 20
93.770395
 30
0.0
 11
148.1046049999999
 21
93.770395
 31
0.0
  0
LINE
  5
E7
330
1E
100
AcDbEntity
  8
CSLAYER1
  6
CONTINUOUS
 62
     3
100
AcDbLine
 10
148.1046049999999
 20
93.770395
 30
0.0
 11
147.1393929999998
 21
90.168172
 31
0.0
  0
ARC
  5
E8
330
1E
100
AcDbEntity
  8
CSLAYER1
  6
CONTINUOUS
 62
     3
100
AcDbCircle
 10
144.2416149999999
 20
90.94462900000001
 30
0.0
 40
3.0
100
AcDbArc
 50
255.0
 51
345.0
  0
LINE
  5
E9
330
1E
100
AcDbEntity
  8
CSLAYER1
  6
CONTINUOUS
 62
     3
100
AcDbLine
 10
143.465158
 20
88.04685199999999
 30
0.0
 11
122.1046049999999
 21
93.770395
 31
0.0
  0
LINE
  5
EA
330
1E
100
AcDbEntity
  8
CSLAYER1
  6
CONTINUOUS
 62
     3
100
AcDbLine
 10
122.1046049999999
 20
93.770395
 30
0.0
 11
113.104605
 21
93.770395
 31
0.0
  0
LINE
  5
EB
330
1E
100
AcDbEntity
  8
CSLAYER1
  6
CONTINUOUS
 62
     3
100
AcDbLine
 10
113.104605
 20
93.770395
 30
0.0
 11
113.104605
 21
91.204151
 31
0.0
  0
LINE
  5
EC
330
1E
100
AcDbEntity
  8
CSLAYER1
  6
CONTINUOUS
 62
     3
100
AcDbLine
 10
157.1738449999999
 20
84.27039499999997
 30
0.0
 11
157.1738449999999
 21
76.77039499999998
 31
0.0
  0
ARC
  5
ED
330
1E
100
AcDbEntity
  8
CSLAYER1
  6
CONTINUOUS
 62
     3
100
AcDbCircle
 10
158.173845
 20
84.27039499999997
 30
0.0
 40
1.0
100
AcDbArc
 50
90.0
 51
180.0
  0
LINE
  5
EE
330
1E
100
AcDbEntity
  8
CSLAYER1
  6
CONTINUOUS
 62
     3
100
AcDbLine
 10
158.173845
 20
85.27039499999998
 30
0.0
 11
184.0353659999999
 21
85.27039499999998
 31
0.0
  0
ARC
  5
EF
330
1E
100
AcDbEntity
  8
CSLAYER1
  6
CONTINUOUS
 62
     3
100
AcDbCircle
 10
184.0353659999999
 20
86.270395
 30
0.0
 40
1.0
100
AcDbArc
 50
270.0
 51
0.0
  0
LINE
  5
F0
330
1E
100
AcDbEntity
  8
CSLAYER1
  6
CONTINUOUS
 62
     3
100
AcDbLine
 10
185.0353659999999
 20
86.270395
 30
0.0
 11
185.0353659999999
 21
93.770395
 31
0.0
  0
LINE
  5
F1
330
1E
100
AcDbEntity
  8
CSLAYER1
  6
CONTINUOUS
 62
     3
100
AcDbLine
 10
176.8491679999999
 20
93.770395
 30
0.0
 11
176.8491679999999
 21
85.77039499999997
 31
0.0
  0
LINE
  5
F2
330
1E
100
AcDbEntity
  8
CSLAYER1
  6
CONTINUOUS
 62
     3
100
AcDbLine
 10
176.8491679999999
 20
85.77039499999997
 30
0.0
 11
176.349168
 21
85.27039499999998
 31
0.0
  0
LINE
  5
F3
330
1E
100
AcDbEntity
  8
CSLAYER1
  6
CONTINUOUS
 62
     3
100
AcDbLine
 10
165.8600429999999
 20
85.27039499999998
 30
0.0
 11
165.360043
 21
84.770395
 31
0.0
  0
LINE
  5
F4
330
1E
100
AcDbEntity
  8
CSLAYER1
  6
CONTINUOUS
 62
     3
100
AcDbLine
 10
165.360043
 20
84.770395
 30
0.0
 11
165.360043
 21
76.77039499999998
 31
0.0
  0
ARC
  5
F5
330
1E
100
AcDbEntity
  8
CSLAYER1
  6
CONTINUOUS
 62
     3
100
AcDbCircle
 10
171.104605
 20
145.470395
 30
0.0
 40
17.0
100
AcDbArc
 50
289.7499229999999
 51
2.253785999999998
  0
ARC
  5
F6
330
1E
100
AcDbEntity
  8
CSLAYER1
  6
CONTINUOUS
 62
     3
100
AcDbCircle
 10
188.890836
 20
146.1703949999999
 30
0.0
 40
0.8
100
AcDbArc
 50
90.0
 51
182.253786
  0
LINE
  5
F7
330
1E
100
AcDbEntity
  8
CSLAYER1
  6
CONTINUOUS
 62
     3
100
AcDbLine
 10
188.890836
 20
146.9703949999999
 30
0.0
 11
255.104605
 21
146.9703949999999
 31
0.0
  0
ARC
  5
F8
330
1E
100
AcDbEntity
  8
CSLAYER1
  6
CONTINUOUS
 62
     3
100
AcDbCircle
 10
245.123111
 20
146.362311
 30
0.0
 40
10.0
100
AcDbArc
 50
3.486216
 51
84.64417500000001
  0
LINE
  5
F9
330
1E
100
AcDbEntity
  8
CSLAYER1
  6
CONTINUOUS
 62
     3
100
AcDbLine
 10
246.056518
 20
156.318653
 30
0.0
 11
191.1046049999999
 21
161.4703949999999
 31
0.0
  0
LINE
  5
FA
330
1E
100
AcDbEntity
  8
CSLAYER1
  6
CONTINUOUS
 62
     3
100
AcDbLine
 10
191.1046049999999
 20
161.4703949999999
 30
0.0
 11
128.7170999999998
 21
161.4703949999999
 31
0.0
  0
ARC
  5
FB
330
1E
100
AcDbEntity
  8
CSLAYER1
  6
CONTINUOUS
 62
     3
100
AcDbCircle
 10
128.7170999999998
 20
141.4703949999999
 30
0.0
 40
20.0
100
AcDbArc
 50
90.0
 51
141.317813
  0
LINE
  5
FC
330
1E
100
AcDbEntity
  8
CSLAYER1
  6
CONTINUOUS
 62
     3
100
AcDbLine
 10
113.104605
 20
153.9703949999999
 30
0.0
 11
113.104605
 21
136.9703949999999
 31
0.0
  0
ARC
  5
FD
330
1E
100
AcDbEntity
  8
CSLAYER1
  6
CONTINUOUS
 62
     3
100
AcDbCircle
 10
128.7170999999998
 20
149.4703949999999
 30
0.0
 40
20.0
100
AcDbArc
 50
218.682187
 51
270.0
  0
LINE
  5
FE
330
1E
100
AcDbEntity
  8
CSLAYER1
  6
CONTINUOUS
 62
     3
100
AcDbLine
 10
128.7170999999998
 20
129.4703949999999
 30
0.0
 11
191.1046049999999
 21
129.4703949999999
 31
0.0
  0
LINE
  5
FF
330
1E
100
AcDbEntity
  8
CSLAYER1
  6
CONTINUOUS
 62
     3
100
AcDbLine
 10
191.1046049999999
 20
129.4703949999999
 30
0.0
 11
246.056518
 21
134.622137
 31
0.0
  0
ARC
  5
100
330
1E
100
AcDbEntity
  8
CSLAYER1
  6
CONTINUOUS
 62
     3
100
AcDbCircle
 10
245.123111
 20
144.578479
 30
0.0
 40
10.0
100
AcDbArc
 50
275.3558249999999
 51
356.5137839999998
  0
LINE
  5
101
330
1E
100
AcDbEntity
  8
CSLAYER1
  6
CONTINUOUS
 62
     3
100
AcDbLine
 10
255.104605
 20
143.9703949999999
 30
0.0
 11
188.890836
 21
143.9703949999999
 31
0.0
  0
ARC
  5
102
330
1E
100
AcDbEntity
  8
CSLAYER1
  6
CONTINUOUS
 62
     3
100
AcDbCircle
 10
188.890836
 20
144.770395
 30
0.0
 40
0.8
100
AcDbArc
 50
177.7462139999999
 51
270.0
  0
LINE
  5
103
330
1E
100
AcDbEntity
  8
CSLAYER1
  6
CONTINUOUS
 62
     3
100
AcDbLine
 10
189.468461
 20
143.9703949999999
 30
0.0
 11
185.0353659999999
 21
129.4703949999999
 31
0.0
  0
LINE
  5
104
330
1E
100
AcDbEntity
  8
CSLAYER1
  6
CONTINUOUS
 62
     3
100
AcDbLine
 10
241.1046049999999
 20
143.9703949999999
 30
0.0
 11
241.1046049999999
 21
146.9703949999999
 31
0.0
  0
LINE
  5
105
330
1E
100
AcDbEntity
  8
CSLAYER1
  6
CONTINUOUS
 62
     3
100
AcDbLine
 10
249.104605
 20
146.9703949999999
 30
0.0
 11
249.104605
 21
143.9703949999999
 31
0.0
  0
CIRCLE
  5
106
330
1E
100
AcDbEntity
  8
CSLAYER1
  6
CONTINUOUS
 62
     3
100
AcDbCircle
 10
171.104605
 20
145.470395
 30
0.0
 40
9.55
  0
CIRCLE
  5
107
330
1E
100
AcDbEntity
  8
CSLAYER1
  6
CONTINUOUS
 62
     3
100
AcDbCircle
 10
171.104605
 20
145.470395
 30
0.0
 40
2.75
  0
ARC
  5
108
330
1E
100
AcDbEntity
  8
CSLAYER1
  6
CONTINUOUS
 62
     3
100
AcDbCircle
 10
171.104605
 20
145.470395
 30
0.0
 40
17.0
100
AcDbArc
 50
109.7499229999999
 51
172.8192439999999
  0
LINE
  5
109
330
1E
100
AcDbEntity
  8
CSLAYER1
  6
CONTINUOUS
 62
     3
100
AcDbLine
 10
157.1738449999999
 20
161.4703949999999
 30
0.0
 11
152.370095
 21
145.758037
 31
0.0
  0
ARC
  5
10A
330
1E
100
AcDbEntity
  8
CSLAYER1
  6
CONTINUOUS
 62
     3
100
AcDbCircle
 10
151.26147
 20
142.9703949999999
 30
0.0
 40
3.0
100
AcDbArc
 50
56.44269000000001
 51
90.0
  0
LINE
  5
10B
330
1E
100
AcDbEntity
  8
CSLAYER1
  6
CONTINUOUS
 62
     3
100
AcDbLine
 10
151.26147
 20
145.9703949999999
 30
0.0
 11
134.7552399999998
 21
145.9703949999999
 31
0.0
  0
LINE
  5
10C
330
1E
100
AcDbEntity
  8
CSLAYER1
  6
CONTINUOUS
 62
     3
100
AcDbLine
 10
138.11552
 20
144.9703949999999
 30
0.0
 11
138.128388
 21
144.3809479999998
 31
0.0
  0
LINE
  5
10D
330
1E
100
AcDbEntity
  8
CSLAYER1
  6
CONTINUOUS
 62
     3
100
AcDbLine
 10
138.128388
 20
144.3809479999998
 30
0.0
 11
138.153252
 21
144.003237
 31
0.0
  0
ARC
  5
10E
330
1E
100
AcDbEntity
  8
CSLAYER1
  6
CONTINUOUS
 62
     3
100
AcDbCircle
 10
137.654331
 20
143.9703949999999
 30
0.0
 40
0.5
100
AcDbArc
 50
270.0
 51
3.766132999999999
  0
LINE
  5
10F
330
1E
100
AcDbEntity
  8
CSLAYER1
  6
CONTINUOUS
 62
     3
100
AcDbLine
 10
137.654331
 20
143.470395
 30
0.0
 11
113.104605
 21
143.470395
 31
0.0
  0
LINE
  5
110
330
1E
100
AcDbEntity
  8
CSLAYER1
  6
CONTINUOUS
 62
     3
100
AcDbLine
 10
113.104605
 20
145.470395
 30
0.0
 11
134.7552399999998
 21
145.470395
 31
0.0
  0
LINE
  5
111
330
1E
100
AcDbEntity
  8
CSLAYER1
  6
CONTINUOUS
 62
     3
100
AcDbLine
 10
138.11552
 20
145.9703949999999
 30
0.0
 11
138.128388
 21
146.559842
 31
0.0
  0
LINE
  5
112
330
1E
100
AcDbEntity
  8
CSLAYER1
  6
CONTINUOUS
 62
     3
100
AcDbLine
 10
138.128388
 20
146.559842
 30
0.0
 11
138.153252
 21
146.937553
 31
0.0
  0
ARC
  5
113
330
1E
100
AcDbEntity
  8
CSLAYER1
  6
CONTINUOUS
 62
     3
100
AcDbCircle
 10
137.654331
 20
146.9703949999999
 30
0.0
 40
0.5
100
AcDbArc
 50
356.2338669999998
 51
90.0
  0
LINE
  5
114
330
1E
100
AcDbEntity
  8
CSLAYER1
  6
CONTINUOUS
 62
     3
100
AcDbLine
 10
137.654331
 20
147.470395
 30
0.0
 11
113.104605
 21
147.470395
 31
0.0
  0
ARC
  5
115
330
1E
100
AcDbEntity
  8
CSLAYER1
  6
CONTINUOUS
 62
     3
100
AcDbCircle
 10
127.838081
 20
137.94543
 30
0.0
 40
20.0
100
AcDbArc
 50
90.0
 51
137.4488399999999
  0
LINE
  5
116
330
1E
100
AcDbEntity
  8
CSLAYER1
  6
CONTINUOUS
 62
     3
100
AcDbLine
 10
127.838081
 20
157.94543
 30
0.0
 11
143.267965
 21
157.94543
 31
0.0
  0
ARC
  5
117
330
1E
100
AcDbEntity
  8
CSLAYER1
  6
CONTINUOUS
 62
     3
100
AcDbCircle
 10
143.267965
 20
156.44543
 30
0.0
 40
1.5
100
AcDbArc
 50
0.0
 51
90.0
  0
LINE
  5
118
330
1E
100
AcDbEntity
  8
CSLAYER1
  6
CONTINUOUS
 62
     3
100
AcDbLine
 10
144.7679649999999
 20
156.44543
 30
0.0
 11
144.7679649999999
 21
145.9703949999999
 31
0.0
  0
LINE
  5
119
330
1E
100
AcDbEntity
  8
CSLAYER1
  6
CONTINUOUS
 62
     3
100
AcDbLine
 10
144.7679649999999
 20
144.9703949999999
 30
0.0
 11
144.7679649999999
 21
134.4953599999998
 31
0.0
  0
ARC
  5
11A
330
1E
100
AcDbEntity
  8
CSLAYER1
  6
CONTINUOUS
 62
     3
100
AcDbCircle
 10
143.267965
 20
134.4953599999998
 30
0.0
 40
1.5
100
AcDbArc
 50
270.0
 51
0.0
  0
LINE
  5
11B
330
1E
100
AcDbEntity
  8
CSLAYER1
  6
CONTINUOUS
 62
     3
100
AcDbLine
 10
143.267965
 20
132.99536
 30
0.0
 11
127.838081
 21
132.99536
 31
0.0
  0
ARC
  5
11C
330
1E
100
AcDbEntity
  8
CSLAYER1
  6
CONTINUOUS
 62
     3
100
AcDbCircle
 10
127.838081
 20
152.9953599999998
 30
0.0
 40
20.0
100
AcDbArc
 50
222.5511599999999
 51
270.0
  0
LINE
  5
11D
330
1E
100
AcDbEntity
  8
CSLAYER1
  6
CONTINUOUS
 62
     3
100
AcDbLine
 10
122.1046049999999
 20
133.8347949999999
 30
0.0
 11
122.1046049999999
 21
130.5951489999999
 31
0.0
  0
LINE
  5
11E
330
1E
100
AcDbEntity
  8
CSLAYER1
  6
CONTINUOUS
 62
     3
100
AcDbLine
 10
139.5668269999999
 20
137.43555
 30
0.0
 11
139.9351879999999
 21
136.63156
 31
0.0
  0
LINE
  5
11F
330
1E
100
AcDbEntity
  8
CSLAYER1
  6
CONTINUOUS
 62
     3
100
AcDbLine
 10
139.9351879999999
 20
136.63156
 30
0.0
 11
140.337183
 21
135.8948389999999
 31
0.0
  0
LINE
  5
120
330
1E
100
AcDbEntity
  8
CSLAYER1
  6
CONTINUOUS
 62
     3
100
AcDbLine
 10
140.337183
 20
135.8948389999999
 30
0.0
 11
140.769753
 21
135.2309939999998
 31
0.0
  0
LINE
  5
121
330
1E
100
AcDbEntity
  8
CSLAYER1
  6
CONTINUOUS
 62
     3
100
AcDbLine
 10
140.769753
 20
135.2309939999998
 30
0.0
 11
141.2296049999999
 21
134.645077
 31
0.0
  0
LINE
  5
122
330
1E
100
AcDbEntity
  8
CSLAYER1
  6
CONTINUOUS
 62
     3
100
AcDbLine
 10
141.2296049999999
 20
134.645077
 30
0.0
 11
141.7132409999998
 21
134.141547
 31
0.0
  0
LINE
  5
123
330
1E
100
AcDbEntity
  8
CSLAYER1
  6
CONTINUOUS
 62
     3
100
AcDbLine
 10
141.7132409999998
 20
134.141547
 30
0.0
 11
142.216979
 21
133.724237
 31
0.0
  0
LINE
  5
124
330
1E
100
AcDbEntity
  8
CSLAYER1
  6
CONTINUOUS
 62
     3
100
AcDbLine
 10
142.216979
 20
133.724237
 30
0.0
 11
142.7369859999999
 21
133.396322
 31
0.0
  0
LINE
  5
125
330
1E
100
AcDbEntity
  8
CSLAYER1
  6
CONTINUOUS
 62
     3
100
AcDbLine
 10
142.7369859999999
 20
133.396322
 30
0.0
 11
143.269304
 21
133.160298
 31
0.0
  0
LINE
  5
126
330
1E
100
AcDbEntity
  8
CSLAYER1
  6
CONTINUOUS
 62
     3
100
AcDbLine
 10
143.269304
 20
133.160298
 30
0.0
 11
143.678357
 21
133.052592
 31
0.0
  0
LINE
  5
127
330
1E
100
AcDbEntity
  8
CSLAYER1
  6
CONTINUOUS
 62
     3
100
AcDbLine
 10
146.362936
 20
129.4703949999999
 30
0.0
 11
146.362936
 21
144.9703949999999
 31
0.0
  0
LINE
  5
128
330
1E
100
AcDbEntity
  8
CSLAYER1
  6
CONTINUOUS
 62
     3
100
AcDbLine
 10
146.362936
 20
145.9703949999999
 30
0.0
 11
146.362936
 21
161.4703949999999
 31
0.0
  0
LINE
  5
129
330
1E
100
AcDbEntity
  8
CSLAYER1
  6
CONTINUOUS
 62
     3
100
AcDbLine
 10
148.1046049999999
 20
161.4703949999999
 30
0.0
 11
148.1046049999999
 21
145.9703949999999
 31
0.0
  0
LINE
  5
12A
330
1E
100
AcDbEntity
  8
CSLAYER1
  6
CONTINUOUS
 62
     3
100
AcDbLine
 10
148.1046049999999
 20
144.9703949999999
 30
0.0
 11
148.1046049999999
 21
129.4703949999999
 31
0.0
  0
LINE
  5
12B
330
1E
100
AcDbEntity
  8
CSLAYER1
  6
CONTINUOUS
 62
     3
100
AcDbLine
 10
139.5668269999999
 20
137.43555
 30
0.0
 11
139.2349049999999
 21
138.3006889999998
 31
0.0
  0
LINE
  5
12C
330
1E
100
AcDbEntity
  8
CSLAYER1
  6
CONTINUOUS
 62
     3
100
AcDbLine
 10
139.2349049999999
 20
138.3006889999998
 30
0.0
 11
138.941946
 21
139.220395
 31
0.0
  0
LINE
  5
12D
330
1E
100
AcDbEntity
  8
CSLAYER1
  6
CONTINUOUS
 62
     3
100
AcDbLine
 10
138.941946
 20
139.220395
 30
0.0
 11
138.690182
 21
140.1876659999999
 31
0.0
  0
LINE
  5
12E
330
1E
100
AcDbEntity
  8
CSLAYER1
  6
CONTINUOUS
 62
     3
100
AcDbLine
 10
138.690182
 20
140.1876659999999
 30
0.0
 11
138.481526
 21
141.195143
 31
0.0
  0
LINE
  5
12F
330
1E
100
AcDbEntity
  8
CSLAYER1
  6
CONTINUOUS
 62
     3
100
AcDbLine
 10
138.481526
 20
141.195143
 30
0.0
 11
138.3175689999999
 21
142.235157
 31
0.0
  0
LINE
  5
130
330
1E
100
AcDbEntity
  8
CSLAYER1
  6
CONTINUOUS
 62
     3
100
AcDbLine
 10
138.3175689999999
 20
142.235157
 30
0.0
 11
138.13889
 21
143.847094
 31
0.0
  0
LINE
  5
131
330
1E
100
AcDbEntity
  8
CSLAYER1
  6
CONTINUOUS
 62
     3
100
AcDbLine
 10
134.7552399999998
 20
144.9703949999999
 30
0.0
 11
151.26147
 21
144.9703949999999
 31
0.0
  0
ARC
  5
132
330
1E
100
AcDbEntity
  8
CSLAYER1
  6
CONTINUOUS
 62
     3
100
AcDbCircle
 10
151.26147
 20
147.970395
 30
0.0
 40
3.0
100
AcDbArc
 50
270.0
 51
352.819244
  0
LINE
  5
133
330
1E
100
AcDbEntity
  8
CSLAYER1
  6
CONTINUOUS
 62
     3
100
AcDbLine
 10
143.678357
 20
157.8881969999999
 30
0.0
 11
143.269304
 21
157.7804919999999
 31
0.0
  0
LINE
  5
134
330
1E
100
AcDbEntity
  8
CSLAYER1
  6
CONTINUOUS
 62
     3
100
AcDbLine
 10
143.269304
 20
157.7804919999999
 30
0.0
 11
142.7369859999999
 21
157.5444679999999
 31
0.0
  0
LINE
  5
135
330
1E
100
AcDbEntity
  8
CSLAYER1
  6
CONTINUOUS
 62
     3
100
AcDbLine
 10
142.7369859999999
 20
157.5444679999999
 30
0.0
 11
142.216979
 21
157.216552
 31
0.0
  0
LINE
  5
136
330
1E
100
AcDbEntity
  8
CSLAYER1
  6
CONTINUOUS
 62
     3
100
AcDbLine
 10
142.216979
 20
157.216552
 30
0.0
 11
141.7132409999998
 21
156.7992419999999
 31
0.0
  0
LINE
  5
137
330
1E
100
AcDbEntity
  8
CSLAYER1
  6
CONTINUOUS
 62
     3
100
AcDbLine
 10
141.7132409999998
 20
156.7992419999999
 30
0.0
 11
141.2296049999999
 21
156.295712
 31
0.0
  0
LINE
  5
138
330
1E
100
AcDbEntity
  8
CSLAYER1
  6
CONTINUOUS
 62
     3
100
AcDbLine
 10
141.2296049999999
 20
156.295712
 30
0.0
 11
140.769753
 21
155.7097949999999
 31
0.0
  0
LINE
  5
139
330
1E
100
AcDbEntity
  8
CSLAYER1
  6
CONTINUOUS
 62
     3
100
AcDbLine
 10
140.769753
 20
155.7097949999999
 30
0.0
 11
140.337183
 21
155.04595
 31
0.0
  0
LINE
  5
13A
330
1E
100
AcDbEntity
  8
CSLAYER1
  6
CONTINUOUS
 62
     3
100
AcDbLine
 10
140.337183
 20
155.04595
 30
0.0
 11
139.9351879999999
 21
154.30923
 31
0.0
  0
LINE
  5
13B
330
1E
100
AcDbEntity
  8
CSLAYER1
  6
CONTINUOUS
 62
     3
100
AcDbLine
 10
139.9351879999999
 20
154.30923
 30
0.0
 11
139.5668269999999
 21
153.5052399999998
 31
0.0
  0
LINE
  5
13C
330
1E
100
AcDbEntity
  8
CSLAYER1
  6
CONTINUOUS
 62
     3
100
AcDbLine
 10
139.5668269999999
 20
153.5052399999998
 30
0.0
 11
139.2349049999999
 21
152.6400999999999
 31
0.0
  0
LINE
  5
13D
330
1E
100
AcDbEntity
  8
CSLAYER1
  6
CONTINUOUS
 62
     3
100
AcDbLine
 10
139.2349049999999
 20
152.6400999999999
 30
0.0
 11
138.941946
 21
151.720395
 31
0.0
  0
LINE
  5
13E
330
1E
100
AcDbEntity
  8
CSLAYER1
  6
CONTINUOUS
 62
     3
100
AcDbLine
 10
138.941946
 20
151.720395
 30
0.0
 11
138.690182
 21
150.7531229999998
 31
0.0
  0
LINE
  5
13F
330
1E
100
AcDbEntity
  8
CSLAYER1
  6
CONTINUOUS
 62
     3
100
AcDbLine
 10
138.690182
 20
150.7531229999998
 30
0.0
 11
138.481526
 21
149.7456469999999
 31
0.0
  0
LINE
  5
140
330
1E
100
AcDbEntity
  8
CSLAYER1
  6
CONTINUOUS
 62
     3
100
AcDbLine
 10
138.481526
 20
149.7456469999999
 30
0.0
 11
138.3175689999999
 21
148.705633
 31
0.0
  0
LINE
  5
141
330
1E
100
AcDbEntity
  8
CSLAYER1
  6
CONTINUOUS
 62
     3
100
AcDbLine
 10
138.3175689999999
 20
148.705633
 30
0.0
 11
138.13889
 21
147.0936959999999
 31
0.0
  0
LINE
  5
142
330
1E
100
AcDbEntity
  8
CSLAYER1
  6
CONTINUOUS
 62
     3
100
AcDbLine
 10
122.1046049999999
 20
157.105995
 30
0.0
 11
122.1046049999999
 21
160.3456409999999
 31
0.0
  0
LINE
  5
143
330
1E
100
AcDbEntity
  8
CSLAYER1
  6
CONTINUOUS
 62
     3
100
AcDbLine
 10
68.407926
 20
161.4703949999999
 30
0.0
 11
58.704605
 21
161.4703949999999
 31
0.0
  0
ARC
  5
144
330
1E
100
AcDbEntity
  8
CSLAYER1
  6
CONTINUOUS
 62
     3
100
AcDbCircle
 10
142.204605
 20
145.470395
 30
0.0
 40
85.0
100
AcDbArc
 50
169.1501839999999
 51
190.8498159999999
  0
LINE
  5
145
330
1E
100
AcDbEntity
  8
CSLAYER1
  6
CONTINUOUS
 62
     3
100
AcDbLine
 10
58.704605
 20
129.4703949999999
 30
0.0
 11
68.407926
 21
129.4703949999999
 31
0.0
  0
LINE
  5
146
330
1E
100
AcDbEntity
  8
CSLAYER1
  6
CONTINUOUS
 62
     3
100
AcDbLine
 10
68.407926
 20
129.4703949999999
 30
0.0
 11
64.662935
 21
134.8187959999999
 31
0.0
  0
ARC
  5
147
330
1E
100
AcDbEntity
  8
CSLAYER1
  6
CONTINUOUS
 62
     3
100
AcDbCircle
 10
71.204605
 20
145.470395
 30
0.0
 40
12.5
100
AcDbArc
 50
191.556133
 51
238.4438669999999
  0
LINE
  5
148
330
1E
100
AcDbEntity
  8
CSLAYER1
  6
CONTINUOUS
 62
     3
100
AcDbLine
 10
58.95799399999999
 20
142.9662959999999
 30
0.0
 11
57.20460500000001
 21
145.470395
 31
0.0
  0
LINE
  5
149
330
1E
100
AcDbEntity
  8
CSLAYER1
  6
CONTINUOUS
 62
     3
100
AcDbLine
 10
57.20460500000001
 20
145.470395
 30
0.0
 11
58.95799399999999
 21
147.974493
 31
0.0
  0
ARC
  5
14A
330
1E
100
AcDbEntity
  8
CSLAYER1
  6
CONTINUOUS
 62
     3
100
AcDbCircle
 10
71.204605
 20
145.470395
 30
0.0
 40
12.5
100
AcDbArc
 50
121.556133
 51
168.4438669999998
  0
LINE
  5
14B
330
1E
100
AcDbEntity
  8
CSLAYER1
  6
CONTINUOUS
 62
     3
100
AcDbLine
 10
64.662935
 20
156.121993
 30
0.0
 11
68.407926
 21
161.4703949999999
 31
0.0
  0
LINE
  5
14C
330
1E
100
AcDbEntity
  8
CSLAYER1
  6
CONTINUOUS
 62
     3
100
AcDbLine
 10
238.0
 20
50.0
 30
0.0
 11
279.0
 21
50.0
 31
0.0
  0
LINE
  5
14D
330
1E
100
AcDbEntity
  8
CSLAYER1
  6
CONTINUOUS
 62
     3
100
AcDbLine
 10
279.0
 20
40.0
 30
0.0
 11
238.0
 21
40.0
 31
0.0
  0
POINT
  5
14E
330
1E
100
AcDbEntity
  8
CSLAYER1
 62
     3
100
AcDbPoint
 10
250.4999999999999
 20
43.5
 30
0.0
  0
POINT
  5
14F
330
1E
100
AcDbEntity
  8
CSLAYER1
 62
     3
100
AcDbPoint
 10
271.0
 20
43.5
 30
0.0
  0
POINT
  5
150
330
1E
100
AcDbEntity
  8
CSLAYER1
 62
     3
100
AcDbPoint
 10
271.0
 20
53.5
 30
0.0
  0
POINT
  5
151
330
1E
100
AcDbEntity
  8
CSLAYER1
 62
     3
100
AcDbPoint
 10
250.4999999999999
 20
53.5
 30
0.0
  0
TEXT
  5
152
330
1E
100
AcDbEntity
  8
CSLAYER1
 62
     3
100
AcDbText
 10
238.099985
 20
51.00000399999998
 30
0.0
 40
5.0
  1
刃開キハ
 41
1.11044776119403
  7
FX_FONT
 72
     5
 11
262.899985
 21
51.00000399999998
 31
0.0
100
AcDbText
  0
TEXT
  5
153
330
1E
100
AcDbEntity
  8
CSLAYER1
 62
     3
100
AcDbText
 10
237.999985
 20
41.00000399999998
 30
0.0
 40
5.0
  1
切刃部有効
 41
0.872093023255811
  7
FX_FONT
 72
     5
 11
262.9999849999999
 21
41.00000399999998
 31
0.0
100
AcDbText
  0
TEXT
  5
154
330
1E
100
AcDbEntity
  8
CSLAYER1
 62
     3
100
AcDbText
 10
266.0
 20
51.00000399999998
 30
0.0
 40
5.0
  1
15
 41
1.199999999999999
  7
FX_FONT
 72
     5
 11
276.0
 21
51.00000399999998
 31
0.0
100
AcDbText
  0
TEXT
  5
155
330
1E
100
AcDbEntity
  8
CSLAYER1
 62
     3
100
AcDbText
 10
266.0
 20
41.00000399999998
 30
0.0
 40
5.0
  1
25
 41
1.199999999999999
  7
FX_FONT
 72
     5
 11
276.0
 21
41.00000399999998
 31
0.0
100
AcDbText
  0
TEXT
  5
156
330
1E
100
AcDbEntity
  8
CSLAYER1
 62
     3
100
AcDbText
 10
242.45
 20
17.25
 30
0.0
 40
3.5
  1
N30PF
 41
1.169387755102042
  7
FX_FONT
 72
     5
 11
261.55
 21
17.25
 31
0.0
100
AcDbText
  0
POINT
  5
157
330
1E
100
AcDbEntity
  8
CSLAYER1
 62
     3
100
AcDbPoint
 10
4.0
 20
1.0
 30
0.0
  0
POINT
  5
158
330
1E
100
AcDbEntity
  8
CSLAYER1
 62
     3
100
AcDbPoint
 10
252.0
 20
19.0
 30
0.0
  0
POINT
  5
159
330
1E
100
AcDbEntity
  8
CSLAYER1
 62
     3
100
AcDbPoint
 10
171.104605
 20
145.470395
 30
0.0
  0
POINT
  5
15A
330
1E
100
AcDbEntity
  8
CSLAYER1
 62
     3
100
AcDbPoint
 10
171.104605
 20
85.27039499999998
 30
0.0
  0
LINE
  5
15B
330
1E
100
AcDbEntity
  8
CSLAYER1
  6
CENTER
 62
     4
100
AcDbLine
 10
67.204603
 20
145.470395
 30
0.0
 11
51.566421
 21
145.470395
 31
0.0
  0
LINE
  5
15D
330
1E
100
AcDbEntity
  8
CSLAYER1
  6
CENTER
 62
     4
100
AcDbLine
 10
109.312507
 20
145.470395
 30
0.0
 11
113.104605
 21
145.470395
 31
0.0
  0
LINE
  5
15E
330
1E
100
AcDbEntity
  8
CSLAYER1
  6
CENTER
 62
     4
100
AcDbLine
 10
134.7552399999998
 20
145.470395
 30
0.0
 11
261.4438169999999
 21
145.470395
 31
0.0
  0
LINE
  5
15F
330
1E
100
AcDbEntity
  8
CSLAYER1
  6
CENTER
 62
     4
100
AcDbLine
 10
245.1046049999999
 20
150.6389659999999
 30
0.0
 11
245.1046049999999
 21
140.0498229999999
 31
0.0
  0
LINE
  5
160
330
1E
100
AcDbEntity
  8
CSLAYER1
  6
CENTER
 62
     4
100
AcDbLine
 10
197.1046049999999
 20
137.322558
 30
0.0
 11
197.1046049999999
 21
153.9703949999999
 31
0.0
  0
LINE
  5
161
330
1E
100
AcDbEntity
  8
CSLAYER1
  6
CENTER
 62
     4
100
AcDbLine
 10
171.104605
 20
167.3455459999999
 30
0.0
 11
171.104605
 21
122.814637
 31
0.0
  0
LINE
  5
162
330
1E
100
AcDbEntity
  8
CSLAYER1
  6
CENTER
 62
     4
100
AcDbLine
 10
171.104605
 20
100.2882089999999
 30
0.0
 11
171.104605
 21
70.607563
 31
0.0
  0
LINE
  5
163
330
1E
100
AcDbEntity
  8
CSLAYER1
  6
CENTER
 62
     4
100
AcDbLine
 10
158.173845
 20
85.27039499999998
 30
0.0
 11
154.351953
 21
85.27039499999998
 31
0.0
  0
LINE
  5
164
330
1E
100
AcDbEntity
  8
CSLAYER1
  6
DASHED
 62
     4
100
AcDbLine
 10
144.7679649999999
 20
87.991164
 30
0.0
 11
138.9933889999998
 21
77.989306
 31
0.0
  0
ARC
  5
165
330
1E
100
AcDbEntity
  8
CSLAYER1
  6
DASHED
 62
     4
100
AcDbCircle
 10
137.694351
 20
78.739306
 30
0.0
 40
1.5
100
AcDbArc
 50
239.9999999999999
 51
330.0
  0
LINE
  5
166
330
1E
100
AcDbEntity
  8
CSLAYER1
  6
CENTER
 62
     4
100
AcDbLine
 10
184.0353659999999
 20
85.27039499999998
 30
0.0
 11
192.542787
 21
85.27039499999998
 31
0.0
  0
LINE
  5
167
330
1E
100
AcDbEntity
  8
CSLAYER1
  6
CENTER
 62
     4
100
AcDbLine
 10
249.003999
 20
85.284334
 30
0.0
 11
261.09612
 21
85.284334
 31
0.0
  0
DIMENSION
  5
168
330
1E
100
AcDbEntity
  8
CSLAYER1
 62
     4
100
AcDbDimension
  2
*D0
 10
142.204605
 20
145.470395
 30
0.0
 11
69.65200799999999
 21
137.431137
 31
0.0
 70
     4
100
AcDbRadialDimension
 15
57.729849
 25
136.0355909999998
 35
0.0
 40
0.0
  0
INSERT
  5
169
330
1E
100
AcDbEntity
  8
CSLAYER1
100
AcDbBlockReference
  2
FXDIM0000
 10
0.0
 20
0.0
 30
0.0
  0
INSERT
  5
16A
330
1E
100
AcDbEntity
  8
CSLAYER1
100
AcDbBlockReference
  2
FXDIM0001
 10
0.0
 20
0.0
 30
0.0
  0
INSERT
  5
16D
330
1E
100
AcDbEntity
  8
CSLAYER1
100
AcDbBlockReference
  2
FXDIM0002
 10
0.0
 20
0.0
 30
0.0
  0
DIMENSION
  5
16E
330
1E
100
AcDbEntity
  8
CSLAYER1
 62
     4
100
AcDbDimension
  2
*D6
 10
98.09688600000001
 20
161.4703949999999
 30
0.0
 11
97.596886
 21
145.4703979999998
 31
0.0
 70
     1
100
AcDbAlignedDimension
 13
128.7170999999998
 23
129.4703949999999
 33
0.0
 14
128.7170999999998
 24
161.4703949999999
 34
0.0
  0
DIMENSION
  5
16F
330
1E
100
AcDbEntity
  8
CSLAYER1
 62
     4
100
AcDbDimension
  2
*D7
 10
104.0968859999999
 20
153.9703949999999
 30
0.0
 11
103.596886
 21
145.4703979999998
 31
0.0
 70
     1
100
AcDbAlignedDimension
 13
113.104605
 23
136.9703949999999
 33
0.0
 14
113.104605
 24
153.9703949999999
 34
0.0
  0
DIMENSION
  5
170
330
1E
100
AcDbEntity
  8
CSLAYER1
 62
     4
100
AcDbDimension
  2
*D8
 10
171.104605
 20
179.964527
 30
0.0
 11
142.104599
 21
180.464523
 31
0.0
100
AcDbAlignedDimension
 13
113.104605
 23
153.9703949999999
 33
0.0
 14
171.104605
 24
167.3455459999999
 34
0.0
100
AcDbRotatedDimension
  0
DIMENSION
  5
171
330
1E
100
AcDbEntity
  8
CSLAYER1
 62
     4
100
AcDbDimension
  2
*D9
 10
128.7170999999998
 20
149.4703949999999
 30
0.0
 11
122.864662
 21
138.168091
 31
0.0
 70
     4
100
AcDbRadialDimension
 15
120.2254909999999
 25
131.3625909999998
 35
0.0
 40
0.0
  0
DIMENSION
  5
172
330
1E
100
AcDbEntity
  8
CSLAYER1
 62
     4
100
AcDbDimension
  2
*D10
 10
171.104605
 20
106.292778
 30
0.0
 11
159.604599
 21
106.7927779999999
 31
0.0
100
AcDbAlignedDimension
 13
148.1046049999999
 23
93.770395
 33
0.0
 14
171.104605
 24
100.2882089999999
 34
0.0
100
AcDbRotatedDimension
  0
DIMENSION
  5
173
330
1E
100
AcDbEntity
  8
CSLAYER1
 62
     4
100
AcDbDimension
  2
*D11
 10
171.104605
 20
63.09833000000001
 30
0.0
 11
154.604599
 21
63.598328
 31
0.0
 52
270.0
100
AcDbAlignedDimension
 13
138.1046049999999
 23
76.77039499999998
 33
0.0
 14
171.104605
 24
70.607563
 34
0.0
100
AcDbRotatedDimension
  0
DIMENSION
  5
174
330
1E
100
AcDbEntity
  8
CSLAYER1
 62
     4
100
AcDbDimension
  2
*D12
 10
98.17683500000001
 20
93.770395
 30
0.0
 11
97.67683400000001
 21
92.698593
 31
0.0
100
AcDbAlignedDimension
 13
138.1046049999999
 23
76.77039499999998
 33
0.0
 14
113.104605
 24
93.770395
 34
0.0
 50
90.0
100
AcDbRotatedDimension
  0
DIMENSION
  5
175
330
1E
100
AcDbEntity
  8
CSLAYER1
 62
     4
100
AcDbDimension
  2
*D13
 10
123.5095389999999
 20
59.22602499999999
 30
0.0
 11
112.934219
 21
65.909042
 31
0.0
 70
     1
100
AcDbAlignedDimension
 13
113.104605
 23
91.204151
 33
0.0
 14
134.7552399999998
 24
78.70415099999998
 34
0.0
  0
LINE
  5
176
330
1E
100
AcDbEntity
  8
CSLAYER1
  6
CONTINUOUS
 62
     3
100
AcDbLine
 10
134.7552399999998
 20
145.9703949999999
 30
0.0
 11
134.7552399999998
 21
144.9703949999999
 31
0.0
  0
LINE
  5
177
330
1E
100
AcDbEntity
  8
CSLAYER1
  6
CONTINUOUS
 62
     3
100
AcDbLine
 10
119.2953949999999
 20
47.97099699999999
 30
0.0
 11
79.33273299999997
 21
53.182336
 31
0.0
  0
ARC
  5
178
330
1E
100
AcDbEntity
  8
CSLAYER1
  6
CONTINUOUS
 62
     3
100
AcDbCircle
 10
76.746527
 20
33.350253
 30
0.0
 40
20.0
100
AcDbArc
 50
82.57025799999999
 51
133.8880709999999
  0
LINE
  5
179
330
1E
100
AcDbEntity
  8
CSLAYER1
  6
CONTINUOUS
 62
     3
100
AcDbLine
 10
62.881491
 20
47.76416199999999
 30
0.0
 11
61.782353
 21
39.335526
 31
0.0
  0
CIRCLE
  5
17A
330
1E
100
AcDbEntity
  8
CSLAYER1
  6
CONTINUOUS
 62
     3
100
AcDbCircle
 10
119.2953949999999
 20
31.835526
 30
0.0
 40
9.55
  0
CIRCLE
  5
17B
330
1E
100
AcDbEntity
  8
CSLAYER1
  6
CONTINUOUS
 62
     3
100
AcDbCircle
 10
119.2953949999999
 20
31.835526
 30
0.0
 40
2.75
  0
ARC
  5
17C
330
1E
100
AcDbEntity
  8
CSLAYER1
  6
CONTINUOUS
 62
     3
100
AcDbCircle
 10
119.2953949999999
 20
31.835526
 30
0.0
 40
17.0
100
AcDbArc
 50
117.1796639999999
 51
180.248986
  0
LINE
  5
17D
330
1E
100
AcDbEntity
  8
CSLAYER1
  6
CONTINUOUS
 62
     3
100
AcDbLine
 10
107.55056
 20
49.502585
 30
0.0
 11
100.755371
 21
34.54332
 31
0.0
  0
ARC
  5
17E
330
1E
100
AcDbEntity
  8
CSLAYER1
  6
CONTINUOUS
 62
     3
100
AcDbCircle
 10
99.29558400000001
 20
31.92243799999999
 30
0.0
 40
3.0
100
AcDbArc
 50
359.751014
 51
82.57025799999999
  0
LINE
  5
17F
330
1E
100
AcDbEntity
  8
CSLAYER1
  6
CONTINUOUS
 62
     3
100
AcDbLine
 10
99.683515
 20
34.897251
 30
0.0
 11
83.31586800000001
 21
37.031677
 31
0.0
  0
LINE
  5
180
330
1E
100
AcDbEntity
  8
CSLAYER1
  6
CONTINUOUS
 62
     3
100
AcDbLine
 10
61.782353
 20
39.335526
 30
0.0
 11
83.25121300000002
 21
36.53587499999999
 31
0.0
  0
LINE
  5
181
330
1E
100
AcDbEntity
  8
CSLAYER1
  6
CONTINUOUS
 62
     3
100
AcDbLine
 10
86.64793600000001
 20
36.597158
 30
0.0
 11
86.736917
 21
37.17999199999999
 31
0.0
  0
LINE
  5
182
330
1E
100
AcDbEntity
  8
CSLAYER1
  6
CONTINUOUS
 62
     3
100
AcDbLine
 10
86.736917
 20
37.17999199999999
 30
0.0
 11
86.81041399999998
 21
37.55131699999999
 31
0.0
  0
ARC
  5
183
330
1E
100
AcDbEntity
  8
CSLAYER1
  6
CONTINUOUS
 62
     3
100
AcDbCircle
 10
86.319929
 20
37.648399
 30
0.0
 40
0.5
100
AcDbArc
 50
348.804126
 51
82.57025799999999
  0
LINE
  5
184
330
1E
100
AcDbEntity
  8
CSLAYER1
  6
CONTINUOUS
 62
     3
100
AcDbLine
 10
86.38458400000002
 20
38.144201
 30
0.0
 11
62.040973
 21
41.318735
 31
0.0
  0
ARC
  5
185
330
1E
100
AcDbEntity
  8
CSLAYER1
  6
CONTINUOUS
 62
     3
100
AcDbCircle
 10
75.419073
 20
29.968549
 30
0.0
 40
20.0
100
AcDbArc
 50
82.57025799999999
 51
130.019099
  0
LINE
  5
186
330
1E
100
AcDbEntity
  8
CSLAYER1
  6
CONTINUOUS
 62
     3
100
AcDbLine
 10
78.00527999999999
 20
49.800632
 30
0.0
 11
93.305617
 21
47.805388
 31
0.0
  0
ARC
  5
187
330
1E
100
AcDbEntity
  8
CSLAYER1
  6
CONTINUOUS
 62
     3
100
AcDbCircle
 10
93.11165200000001
 20
46.317982
 30
0.0
 40
1.5
100
AcDbArc
 50
352.570258
 51
82.57025799999999
  0
LINE
  5
188
330
1E
100
AcDbEntity
  8
CSLAYER1
  6
CONTINUOUS
 62
     3
100
AcDbLine
 10
94.59905799999999
 20
46.12401699999998
 30
0.0
 11
93.24452800000001
 21
35.736928
 31
0.0
  0
LINE
  5
189
330
1E
100
AcDbEntity
  8
CSLAYER1
  6
CONTINUOUS
 62
     3
100
AcDbLine
 10
94.826107
 20
35.530682
 30
0.0
 11
96.83041700000003
 21
50.90054699999999
 31
0.0
  0
LINE
  5
18A
330
1E
100
AcDbEntity
  8
CSLAYER1
  6
CONTINUOUS
 62
     3
100
AcDbLine
 10
98.55746400000001
 20
50.675331
 30
0.0
 11
96.553154
 21
35.30546599999999
 31
0.0
  0
LINE
  5
18B
330
1E
100
AcDbEntity
  8
CSLAYER1
  6
CONTINUOUS
 62
     3
100
AcDbLine
 10
93.705163
 20
47.695569
 30
0.0
 11
93.28561699999999
 21
47.641662
 31
0.0
  0
LINE
  5
18C
330
1E
100
AcDbEntity
  8
CSLAYER1
  6
CONTINUOUS
 62
     3
100
AcDbLine
 10
93.28561699999999
 20
47.641662
 30
0.0
 11
92.727248
 21
47.47645399999998
 31
0.0
  0
LINE
  5
18D
330
1E
100
AcDbEntity
  8
CSLAYER1
  6
CONTINUOUS
 62
     3
100
AcDbLine
 10
92.727248
 20
47.47645399999998
 30
0.0
 11
92.16920399999999
 21
47.218534
 31
0.0
  0
LINE
  5
18E
330
1E
100
AcDbEntity
  8
CSLAYER1
  6
CONTINUOUS
 62
     3
100
AcDbLine
 10
92.16920399999999
 20
47.218534
 30
0.0
 11
91.61573299999998
 21
46.869866
 31
0.0
  0
LINE
  5
18F
330
1E
100
AcDbEntity
  8
CSLAYER1
  6
CONTINUOUS
 62
     3
100
AcDbLine
 10
91.61573299999998
 20
46.869866
 30
0.0
 11
91.07104599999999
 21
46.433103
 31
0.0
  0
LINE
  5
190
330
1E
100
AcDbEntity
  8
CSLAYER1
  6
CONTINUOUS
 62
     3
100
AcDbLine
 10
91.07104599999999
 20
46.433103
 30
0.0
 11
90.539289
 21
45.911569
 31
0.0
  0
LINE
  5
191
330
1E
100
AcDbEntity
  8
CSLAYER1
  6
CONTINUOUS
 62
     3
100
AcDbLine
 10
90.539289
 20
45.911569
 30
0.0
 11
90.02450899999997
 21
45.309233
 31
0.0
  0
LINE
  5
192
330
1E
100
AcDbEntity
  8
CSLAYER1
  6
CONTINUOUS
 62
     3
100
AcDbLine
 10
90.02450899999997
 20
45.309233
 30
0.0
 11
89.53062299999997
 21
44.63067999999998
 31
0.0
  0
LINE
  5
193
330
1E
100
AcDbEntity
  8
CSLAYER1
  6
CONTINUOUS
 62
     3
100
AcDbLine
 10
89.53062299999997
 20
44.63067999999998
 30
0.0
 11
89.061391
 21
43.881073
 31
0.0
  0
LINE
  5
194
330
1E
100
AcDbEntity
  8
CSLAYER1
  6
CONTINUOUS
 62
     3
100
AcDbLine
 10
89.061391
 20
43.881073
 30
0.0
 11
88.62038400000001
 21
43.06611799999998
 31
0.0
  0
LINE
  5
195
330
1E
100
AcDbEntity
  8
CSLAYER1
  6
CONTINUOUS
 62
     3
100
AcDbLine
 10
88.62038400000001
 20
43.06611799999998
 30
0.0
 11
88.210958
 21
42.192017
 31
0.0
  0
LINE
  5
196
330
1E
100
AcDbEntity
  8
CSLAYER1
  6
CONTINUOUS
 62
     3
100
AcDbLine
 10
88.210958
 20
42.192017
 30
0.0
 11
87.83622800000001
 21
41.26542199999999
 31
0.0
  0
LINE
  5
197
330
1E
100
AcDbEntity
  8
CSLAYER1
  6
CONTINUOUS
 62
     3
100
AcDbLine
 10
87.83622800000001
 20
41.26542199999999
 30
0.0
 11
87.49904800000001
 21
40.293385
 31
0.0
  0
LINE
  5
198
330
1E
100
AcDbEntity
  8
CSLAYER1
  6
CONTINUOUS
 62
     3
100
AcDbLine
 10
87.49904800000001
 20
40.293385
 30
0.0
 11
87.201982
 21
39.28330499999999
 31
0.0
  0
LINE
  5
199
330
1E
100
AcDbEntity
  8
CSLAYER1
  6
CONTINUOUS
 62
     3
100
AcDbLine
 10
87.201982
 20
39.28330499999999
 30
0.0
 11
86.81636299999999
 21
37.70800599999999
 31
0.0
  0
LINE
  5
19A
330
1E
100
AcDbEntity
  8
CSLAYER1
  6
CONTINUOUS
 62
     3
100
AcDbLine
 10
72.211394
 20
49.709643
 30
0.0
 11
72.630313
 21
52.922089
 31
0.0
  0
POINT
  5
19B
330
1E
100
AcDbEntity
  8
CSLAYER1
 62
     3
100
AcDbPoint
 10
119.2953949999999
 20
31.835526
 30
0.0
  0
LINE
  5
19C
330
1E
100
AcDbEntity
  8
CSLAYER1
  6
CENTER
 62
     4
100
AcDbLine
 10
56.935604
 20
31.835526
 30
0.0
 11
133.6480259999998
 21
31.835526
 31
0.0
  0
LINE
  5
19D
330
1E
100
AcDbEntity
  8
CSLAYER1
  6
CONTINUOUS
 62
     3
100
AcDbLine
 10
83.31586800000001
 20
37.031677
 30
0.0
 11
83.25121300000002
 21
36.53587499999999
 31
0.0
  0
LINE
  5
19E
330
1E
100
AcDbEntity
  8
CSLAYER1
  6
CONTINUOUS
 62
     3
100
AcDbLine
 10
42.041449
 20
55.335526
 30
0.0
 11
32.338128
 21
55.335526
 31
0.0
  0
ARC
  5
19F
330
1E
100
AcDbEntity
  8
CSLAYER1
  6
CONTINUOUS
 62
     3
100
AcDbCircle
 10
115.8381279999999
 20
39.335526
 30
0.0
 40
85.0
100
AcDbArc
 50
169.1501839999999
 51
180.0
  0
LINE
  5
1A0
330
1E
100
AcDbEntity
  8
CSLAYER1
  6
CONTINUOUS
 62
     3
100
AcDbLine
 10
30.838128
 20
39.335526
 30
0.0
 11
32.59151699999998
 21
41.83962499999998
 31
0.0
  0
ARC
  5
1A1
330
1E
100
AcDbEntity
  8
CSLAYER1
  6
CONTINUOUS
 62
     3
100
AcDbCircle
 10
44.838128
 20
39.335526
 30
0.0
 40
12.5
100
AcDbArc
 50
121.556133
 51
168.4438669999998
  0
LINE
  5
1A2
330
1E
100
AcDbEntity
  8
CSLAYER1
  6
CONTINUOUS
 62
     3
100
AcDbLine
 10
38.296457
 20
49.98712499999999
 30
0.0
 11
42.041449
 21
55.335526
 31
0.0
  0
LINE
  5
1A3
330
1E
100
AcDbEntity
  8
CSLAYER1
  6
CENTER
 62
     4
100
AcDbLine
 10
40.838126
 20
31.835526
 30
0.0
 11
25.19994399999999
 21
31.835526
 31
0.0
  0
LINE
  5
1A4
330
1E
100
AcDbEntity
  8
CSLAYER1
  6
CENTER
 62
     4
100
AcDbLine
 10
119.2953949999999
 20
51.981908
 30
0.0
 11
119.2953949999999
 21
9.239309
 31
0.0
  0
LINE
  5
1A5
330
1E
100
AcDbEntity
  8
CSLAYER1
  6
CONTINUOUS
 62
     3
100
AcDbLine
 10
42.041449
 20
8.335525999999997
 30
0.0
 11
32.338128
 21
8.335525999999997
 31
0.0
  0
ARC
  5
1A6
330
1E
100
AcDbEntity
  8
CSLAYER1
  6
CONTINUOUS
 62
     3
100
AcDbCircle
 10
115.8381279999999
 20
24.335526
 30
0.0
 40
85.0
100
AcDbArc
 50
180.0
 51
190.8498159999999
  0
LINE
  5
1A7
330
1E
100
AcDbEntity
  8
CSLAYER1
  6
CONTINUOUS
 62
     3
100
AcDbLine
 10
30.838128
 20
24.335526
 30
0.0
 11
32.59151699999998
 21
21.831428
 31
0.0
  0
ARC
  5
1A8
330
1E
100
AcDbEntity
  8
CSLAYER1
  6
CONTINUOUS
 62
     3
100
AcDbCircle
 10
44.838128
 20
24.335526
 30
0.0
 40
12.5
100
AcDbArc
 50
191.556133
 51
238.4438669999999
  0
LINE
  5
1A9
330
1E
100
AcDbEntity
  8
CSLAYER1
  6
CONTINUOUS
 62
     3
100
AcDbLine
 10
38.296457
 20
13.683928
 30
0.0
 11
42.041449
 21
8.335525999999997
 31
0.0
  0
LINE
  5
1AA
330
1E
100
AcDbEntity
  8
CSLAYER1
  6
CONTINUOUS
 62
     3
100
AcDbLine
 10
131.1012449999998
 20
17.23959999999999
 30
0.0
 11
79.33273299999997
 21
10.488717
 31
0.0
  0
ARC
  5
1AB
330
1E
100
AcDbEntity
  8
CSLAYER1
  6
CONTINUOUS
 62
     3
100
AcDbCircle
 10
76.746527
 20
30.3208
 30
0.0
 40
20.0
100
AcDbArc
 50
226.1119289999999
 51
277.4297419999999
  0
LINE
  5
1AC
330
1E
100
AcDbEntity
  8
CSLAYER1
  6
CONTINUOUS
 62
     3
100
AcDbLine
 10
62.881491
 20
15.906891
 30
0.0
 11
61.782353
 21
24.335526
 31
0.0
  0
ARC
  5
1AD
330
1E
100
AcDbEntity
  8
CSLAYER1
  6
CONTINUOUS
 62
     3
100
AcDbCircle
 10
99.29558400000001
 20
31.748614
 30
0.0
 40
3.0
100
AcDbArc
 50
277.4297419999999
 51
0.248986
  0
LINE
  5
1AE
330
1E
100
AcDbEntity
  8
CSLAYER1
  6
CONTINUOUS
 62
     3
100
AcDbLine
 10
99.683515
 20
28.773802
 30
0.0
 11
83.31586800000001
 21
26.639375
 31
0.0
  0
LINE
  5
1AF
330
1E
100
AcDbEntity
  8
CSLAYER1
  6
CONTINUOUS
 62
     3
100
AcDbLine
 10
61.782353
 20
24.335526
 30
0.0
 11
83.25121300000002
 21
27.135177
 31
0.0
  0
LINE
  5
1B0
330
1E
100
AcDbEntity
  8
CSLAYER1
  6
CONTINUOUS
 62
     3
100
AcDbLine
 10
86.64793600000001
 20
27.073894
 30
0.0
 11
86.736917
 21
26.49105999999999
 31
0.0
  0
LINE
  5
1B1
330
1E
100
AcDbEntity
  8
CSLAYER1
  6
CONTINUOUS
 62
     3
100
AcDbLine
 10
86.736917
 20
26.49105999999999
 30
0.0
 11
86.81041399999998
 21
26.119735
 31
0.0
  0
ARC
  5
1B2
330
1E
100
AcDbEntity
  8
CSLAYER1
  6
CONTINUOUS
 62
     3
100
AcDbCircle
 10
86.319929
 20
26.022654
 30
0.0
 40
0.5
100
AcDbArc
 50
277.4297419999999
 51
11.195874
  0
LINE
  5
1B3
330
1E
100
AcDbEntity
  8
CSLAYER1
  6
CONTINUOUS
 62
     3
100
AcDbLine
 10
86.38458400000002
 20
25.52685199999999
 30
0.0
 11
62.040973
 21
22.352318
 31
0.0
  0
ARC
  5
1B4
330
1E
100
AcDbEntity
  8
CSLAYER1
  6
CONTINUOUS
 62
     3
100
AcDbCircle
 10
75.419073
 20
33.70250399999999
 30
0.0
 40
20.0
100
AcDbArc
 50
229.9809009999999
 51
277.4297419999999
  0
LINE
  5
1B5
330
1E
100
AcDbEntity
  8
CSLAYER1
  6
CONTINUOUS
 62
     3
100
AcDbLine
 10
78.00527999999999
 20
13.87042099999999
 30
0.0
 11
93.305617
 21
15.865664
 31
0.0
  0
ARC
  5
1B6
330
1E
100
AcDbEntity
  8
CSLAYER1
  6
CONTINUOUS
 62
     3
100
AcDbCircle
 10
93.11165200000001
 20
17.35307
 30
0.0
 40
1.5
100
AcDbArc
 50
277.4297419999999
 51
7.429742
  0
LINE
  5
1B7
330
1E
100
AcDbEntity
  8
CSLAYER1
  6
CONTINUOUS
 62
     3
100
AcDbLine
 10
94.59905799999999
 20
17.547036
 30
0.0
 11
93.24452800000001
 21
27.934124
 31
0.0
  0
LINE
  5
1B8
330
1E
100
AcDbEntity
  8
CSLAYER1
  6
CONTINUOUS
 62
     3
100
AcDbLine
 10
94.826107
 20
28.14037
 30
0.0
 11
96.83041700000003
 21
12.77050599999999
 31
0.0
  0
LINE
  5
1B9
330
1E
100
AcDbEntity
  8
CSLAYER1
  6
CONTINUOUS
 62
     3
100
AcDbLine
 10
98.55746400000001
 20
12.995722
 30
0.0
 11
96.553154
 21
28.365586
 31
0.0
  0
LINE
  5
1BA
330
1E
100
AcDbEntity
  8
CSLAYER1
  6
CONTINUOUS
 62
     3
100
AcDbLine
 10
93.705163
 20
15.97548399999999
 30
0.0
 11
93.28561699999999
 21
16.02939
 31
0.0
  0
LINE
  5
1BB
330
1E
100
AcDbEntity
  8
CSLAYER1
  6
CONTINUOUS
 62
     3
100
AcDbLine
 10
93.28561699999999
 20
16.02939
 30
0.0
 11
92.727248
 21
16.194599
 31
0.0
  0
LINE
  5
1BC
330
1E
100
AcDbEntity
  8
CSLAYER1
  6
CONTINUOUS
 62
     3
100
AcDbLine
 10
92.727248
 20
16.194599
 30
0.0
 11
92.16920399999999
 21
16.45251799999999
 31
0.0
  0
LINE
  5
1BD
330
1E
100
AcDbEntity
  8
CSLAYER1
  6
CONTINUOUS
 62
     3
100
AcDbLine
 10
92.16920399999999
 20
16.45251799999999
 30
0.0
 11
91.61573299999998
 21
16.80118699999999
 31
0.0
  0
LINE
  5
1BE
330
1E
100
AcDbEntity
  8
CSLAYER1
  6
CONTINUOUS
 62
     3
100
AcDbLine
 10
91.61573299999998
 20
16.80118699999999
 30
0.0
 11
91.07104599999999
 21
17.23795
 31
0.0
  0
LINE
  5
1BF
330
1E
100
AcDbEntity
  8
CSLAYER1
  6
CONTINUOUS
 62
     3
100
AcDbLine
 10
91.07104599999999
 20
17.23795
 30
0.0
 11
90.539289
 21
17.759484
 31
0.0
  0
LINE
  5
1C0
330
1E
100
AcDbEntity
  8
CSLAYER1
  6
CONTINUOUS
 62
     3
100
AcDbLine
 10
90.539289
 20
17.759484
 30
0.0
 11
90.02450899999997
 21
18.361819
 31
0.0
  0
LINE
  5
1C1
330
1E
100
AcDbEntity
  8
CSLAYER1
  6
CONTINUOUS
 62
     3
100
AcDbLine
 10
90.02450899999997
 20
18.361819
 30
0.0
 11
89.53062299999997
 21
19.040373
 31
0.0
  0
LINE
  5
1C2
330
1E
100
AcDbEntity
  8
CSLAYER1
  6
CONTINUOUS
 62
     3
100
AcDbLine
 10
89.53062299999997
 20
19.040373
 30
0.0
 11
89.061391
 21
19.789979
 31
0.0
  0
LINE
  5
1C3
330
1E
100
AcDbEntity
  8
CSLAYER1
  6
CONTINUOUS
 62
     3
100
AcDbLine
 10
89.061391
 20
19.789979
 30
0.0
 11
88.62038400000001
 21
20.604935
 31
0.0
  0
LINE
  5
1C4
330
1E
100
AcDbEntity
  8
CSLAYER1
  6
CONTINUOUS
 62
     3
100
AcDbLine
 10
88.62038400000001
 20
20.604935
 30
0.0
 11
88.210958
 21
21.47903599999998
 31
0.0
  0
LINE
  5
1C5
330
1E
100
AcDbEntity
  8
CSLAYER1
  6
CONTINUOUS
 62
     3
100
AcDbLine
 10
88.210958
 20
21.47903599999998
 30
0.0
 11
87.83622800000001
 21
22.405631
 31
0.0
  0
LINE
  5
1C6
330
1E
100
AcDbEntity
  8
CSLAYER1
  6
CONTINUOUS
 62
     3
100
AcDbLine
 10
87.83622800000001
 20
22.405631
 30
0.0
 11
87.49904800000001
 21
23.377667
 31
0.0
  0
LINE
  5
1C7
330
1E
100
AcDbEntity
  8
CSLAYER1
  6
CONTINUOUS
 62
     3
100
AcDbLine
 10
87.49904800000001
 20
23.377667
 30
0.0
 11
87.201982
 21
24.387748
 31
0.0
  0
LINE
  5
1C8
330
1E
100
AcDbEntity
  8
CSLAYER1
  6
CONTINUOUS
 62
     3
100
AcDbLine
 10
87.201982
 20
24.387748
 30
0.0
 11
86.81636299999999
 21
25.96304599999999
 31
0.0
  0
LINE
  5
1C9
330
1E
100
AcDbEntity
  8
CSLAYER1
  6
CONTINUOUS
 62
     3
100
AcDbLine
 10
72.211394
 20
13.96141
 30
0.0
 11
72.630313
 21
10.748963
 31
0.0
  0
LINE
  5
1CA
330
1E
100
AcDbEntity
  8
CSLAYER1
  6
CONTINUOUS
 62
     3
100
AcDbLine
 10
83.31586800000001
 20
26.639375
 30
0.0
 11
83.25121300000002
 21
27.135177
 31
0.0
  0
LINE
  5
1CB
330
1E
100
AcDbEntity
  8
CSLAYER1
  6
CONTINUOUS
 62
     3
100
AcDbLine
 10
126.0022679999998
 20
48.845608
 30
0.0
 11
111.530097
 21
46.958362
 31
0.0
  0
DIMENSION
  5
1CC
330
1E
100
AcDbEntity
  8
CSLAYER1
 62
     4
100
AcDbDimension
  2
*D14
 10
51.510028
 20
39.335526
 30
0.0
 11
51.010029
 21
31.835526
 31
0.0
 70
     1
100
AcDbAlignedDimension
 13
61.782353
 23
24.335526
 33
0.0
 14
61.782353
 24
39.335526
 34
0.0
  0
DIMENSION
  5
1CD
330
1E
100
AcDbEntity
  8
CSLAYER1
 62
     4
100
AcDbDimension
  2
*D15
 10
71.204605
 20
145.470395
 30
0.0
 11
69.311501
 21
147.239319
 31
0.0
 70
     4
100
AcDbRadialDimension
 15
60.596066
 25
152.0816659999999
 35
0.0
 40
0.0
  0
LINE
  5
1CE
330
1E
100
AcDbEntity
  8
CSLAYER1
  6
DOT
 62
     3
100
AcDbLine
 10
4.0
 20
1.0
 30
0.0
 11
283.0
 21
1.0
 31
0.0
  0
LINE
  5
1CF
330
1E
100
AcDbEntity
  8
CSLAYER1
  6
DOT
 62
     3
100
AcDbLine
 10
283.0
 20
1.0
 30
0.0
 11
283.0
 21
195.0
 31
0.0
  0
LINE
  5
1D0
330
1E
100
AcDbEntity
  8
CSLAYER1
  6
DOT
 62
     3
100
AcDbLine
 10
283.0
 20
195.0
 30
0.0
 11
4.0
 21
195.0
 31
0.0
  0
LINE
  5
1D1
330
1E
100
AcDbEntity
  8
CSLAYER1
  6
DOT
 62
     3
100
AcDbLine
 10
4.0
 20
195.0
 30
0.0
 11
4.0
 21
1.0
 31
0.0
  0
LINE
  5
1D2
330
1E
100
AcDbEntity
  8
CSLAYER1
  6
DOT
 62
     3
100
AcDbLine
 10
4.0
 20
98.0
 30
0.0
 11
0.0
 21
98.0
 31
0.0
  0
LINE
  5
1D3
330
1E
100
AcDbEntity
  8
CSLAYER1
  6
DOT
 62
     3
100
AcDbLine
 10
143.5
 20
195.0
 30
0.0
 11
143.5
 21
199.0
 31
0.0
  0
ENDSEC
  0
SECTION
  2
OBJECTS
  0
DICTIONARY
  5
C
330
0
100
AcDbDictionary
  3
ACAD_GROUP
350
D
  3
ACAD_LAYOUT
350
19
  3
ACAD_MLINESTYLE
350
16
  3
ACAD_PLOTSETTINGS
350
18
1001
ACAD
1000
TREAT_AS_HARD
1070
     0
1000
TREAT_AS_HARD
1070
     0
  0
DICTIONARY
  5
1DD
330
1E
100
AcDbDictionary
  3
ACAD_LAYOUTSELFREF
350
208
1001
ACAD
1000
TREAT_AS_HARD
1070
     0
  0
DICTIONARY
  5
1DB
330
1A
100
AcDbDictionary
  3
ACAD_LAYOUTSELFREF
350
207
1001
ACAD
1000
TREAT_AS_HARD
1070
     0
  0
DICTIONARY
  5
D
102
{ACAD_REACTORS
330
C
102
}
330
C
100
AcDbDictionary
1001
ACAD
1000
TREAT_AS_HARD
1070
     0
1000
TREAT_AS_HARD
1070
     0
  0
DICTIONARY
  5
19
102
{ACAD_REACTORS
330
C
102
}
330
C
100
AcDbDictionary
1001
ACAD
1000
TREAT_AS_HARD
1070
     0
1000
TREAT_AS_HARD
1070
     0
  0
DICTIONARY
  5
16
102
{ACAD_REACTORS
330
C
102
}
330
C
100
AcDbDictionary
  3
STANDARD
350
17
1001
ACAD
1000
TREAT_AS_HARD
1070
     0
1000
TREAT_AS_HARD
1070
     0
  0
DICTIONARY
  5
18
102
{ACAD_REACTORS
330
C
102
}
330
C
100
AcDbDictionary
1001
ACAD
1000
TREAT_AS_HARD
1070
     0
1000
TREAT_AS_HARD
1070
     0
  0
XRECORD
  5
208
102
{ACAD_REACTORS
330
1DD
102
}
330
1DD
100
AcDbXrecord
340
1E
  0
XRECORD
  5
207
102
{ACAD_REACTORS
330
1DB
102
}
330
1DB
100
AcDbXrecord
340
1A
  0
MLINESTYLE
  5
17
102
{ACAD_REACTORS
330
16
102
}
330
16
100
AcDbMlineStyle
  2
STANDARD
 70
     0
  3

 62
   256
 51
90.0
 52
90.0
 71
     2
 49
0.5
 62
   256
  6
BYLAYER
 49
-0.5
 62
   256
  6
BYLAYER
  0
ENDSEC
  0
EOF
