  0
SECTION
  2
HEADER
  9
$ACADVER
  1
AC1012
  9
$DWGCODEPAGE
  3
dos932
  9
$INSBASE
 10
0.0
 20
0.0
 30
0.0
  9
$EXTMIN
 10
3.978974084811056
 20
0.9869389666558276
 30
-0.0015258207003583
  9
$EXTMAX
 10
283.0056159095904
 20
195.010071272275
 30
0.0000000349246037
  9
$LIMMIN
 10
0.0
 20
0.0
  9
$LIMMAX
 10
297.0
 20
210.0
  9
$ORTHOMODE
 70
     0
  9
$REGENMODE
 70
     1
  9
$FILLMODE
 70
     1
  9
$QTEXTMODE
 70
     0
  9
$MIRRTEXT
 70
     1
  9
$DRAGMODE
 70
     2
  9
$LTSCALE
 40
15.0
  9
$OSMODE
 70
    37
  9
$ATTMODE
 70
     1
  9
$TEXTSIZE
 40
0.2
  9
$TRACEWID
 40
0.05
  9
$TEXTSTYLE
  7
GOTHIC
  9
$CLAYER
  8
CSLAYER1
  9
$CELTYPE
  6
BYLAYER
  9
$CECOLOR
 62
   256
  9
$CELTSCALE
 40
1.0
  9
$DELOBJ
 70
     1
  9
$DISPSILH
 70
     0
  9
$DIMSCALE
 40
1.0
  9
$DIMASZ
 40
0.18
  9
$DIMEXO
 40
0.0625
  9
$DIMDLI
 40
0.38
  9
$DIMRND
 40
0.0
  9
$DIMDLE
 40
0.0
  9
$DIMEXE
 40
0.18
  9
$DIMTP
 40
0.0
  9
$DIMTM
 40
0.0
  9
$DIMTXT
 40
0.18
  9
$DIMCEN
 40
0.09
  9
$DIMTSZ
 40
0.0
  9
$DIMTOL
 70
     0
  9
$DIMLIM
 70
     0
  9
$DIMTIH
 70
     1
  9
$DIMTOH
 70
     1
  9
$DIMSE1
 70
     0
  9
$DIMSE2
 70
     0
  9
$DIMTAD
 70
     0
  9
$DIMZIN
 70
     0
  9
$DIMBLK
  1

  9
$DIMASO
 70
     1
  9
$DIMSHO
 70
     1
  9
$DIMPOST
  1

  9
$DIMAPOST
  1

  9
$DIMALT
 70
     0
  9
$DIMALTD
 70
     2
  9
$DIMALTF
 40
25.4
  9
$DIMLFAC
 40
1.0
  9
$DIMTOFL
 70
     0
  9
$DIMTVP
 40
0.0
  9
$DIMTIX
 70
     0
  9
$DIMSOXD
 70
     0
  9
$DIMSAH
 70
     0
  9
$DIMBLK1
  1

  9
$DIMBLK2
  1

  9
$DIMSTYLE
  2
STANDARD
  9
$DIMCLRD
 70
     0
  9
$DIMCLRE
 70
     0
  9
$DIMCLRT
 70
     0
  9
$DIMTFAC
 40
1.0
  9
$DIMGAP
 40
0.09
  9
$DIMJUST
 70
     0
  9
$DIMSD1
 70
     0
  9
$DIMSD2
 70
     0
  9
$DIMTOLJ
 70
     1
  9
$DIMTZIN
 70
     0
  9
$DIMALTZ
 70
     0
  9
$DIMALTTZ
 70
     0
  9
$DIMFIT
 70
     3
  9
$DIMUPT
 70
     0
  9
$DIMUNIT
 70
     2
  9
$DIMDEC
 70
     4
  9
$DIMTDEC
 70
     4
  9
$DIMALTU
 70
     2
  9
$DIMALTTD
 70
     2
  9
$DIMTXSTY
  7
STANDARD
  9
$DIMAUNIT
 70
     0
  9
$LUNITS
 70
     2
  9
$LUPREC
 70
     4
  9
$SKETCHINC
 40
0.1
  9
$FILLETRAD
 40
0.0
  9
$AUNITS
 70
     0
  9
$AUPREC
 70
     0
  9
$MENU
  1
ACAD
  9
$ELEVATION
 40
0.0
  9
$PELEVATION
 40
0.0
  9
$THICKNESS
 40
0.0
  9
$LIMCHECK
 70
     0
  9
$BLIPMODE
 70
     1
  9
$CHAMFERA
 40
0.0
  9
$CHAMFERB
 40
0.0
  9
$CHAMFERC
 40
0.0
  9
$CHAMFERD
 40
0.0
  9
$SKPOLY
 70
     0
  9
$TDCREATE
 40
2453481.000000000
  9
$TDUPDATE
 40
2453516.428419131
  9
$TDINDWG
 40
0.0081677662
  9
$TDUSRTIMER
 40
0.0081675347
  9
$USRTIMER
 70
     1
  9
$ANGBASE
 50
0.0
  9
$ANGDIR
 70
     0
  9
$PDMODE
 70
     0
  9
$PDSIZE
 40
0.0
  9
$PLINEWID
 40
0.0
  9
$COORDS
 70
     1
  9
$SPLFRAME
 70
     0
  9
$SPLINETYPE
 70
     6
  9
$SPLINESEGS
 70
     8
  9
$ATTDIA
 70
     0
  9
$ATTREQ
 70
     1
  9
$HANDLING
 70
-16383
  9
$HANDSEED
  5
3B6
  9
$SURFTAB1
 70
     6
  9
$SURFTAB2
 70
     6
  9
$SURFTYPE
 70
     6
  9
$SURFU
 70
     6
  9
$SURFV
 70
     6
  9
$UCSNAME
  2

  9
$UCSORG
 10
0.0
 20
0.0
 30
0.0
  9
$UCSXDIR
 10
1.0
 20
0.0
 30
0.0
  9
$UCSYDIR
 10
0.0
 20
1.0
 30
0.0
  9
$PUCSNAME
  2

  9
$PUCSORG
 10
0.0
 20
0.0
 30
0.0
  9
$PUCSXDIR
 10
1.0
 20
0.0
 30
0.0
  9
$PUCSYDIR
 10
0.0
 20
1.0
 30
0.0
  9
$USERI1
 70
     0
  9
$USERI2
 70
     0
  9
$USERI3
 70
     0
  9
$USERI4
 70
     0
  9
$USERI5
 70
     0
  9
$USERR1
 40
0.0
  9
$USERR2
 40
0.0
  9
$USERR3
 40
0.0
  9
$USERR4
 40
0.0
  9
$USERR5
 40
0.0
  9
$WORLDVIEW
 70
     1
  9
$SHADEDGE
 70
     3
  9
$SHADEDIF
 70
    70
  9
$TILEMODE
 70
     1
  9
$MAXACTVP
 70
    64
  9
$PINSBASE
 10
0.0
 20
0.0
 30
0.0
  9
$PLIMCHECK
 70
     0
  9
$PEXTMIN
 10
1.129916750539944
 20
0.7867500162500099
 30
0.0
  9
$PEXTMAX
 10
10.1692507548595
 20
7.080750146250085
 30
0.0
  9
$PLIMMIN
 10
-0.1979161059762549
 20
-0.1979166691697489
  9
$PLIMMAX
 10
11.49708424966166
 20
8.080416739456296
  9
$UNITMODE
 70
     0
  9
$VISRETAIN
 70
     1
  9
$PLINEGEN
 70
     0
  9
$PSLTSCALE
 70
     1
  9
$TREEDEPTH
 70
  3020
  9
$PICKSTYLE
 70
     3
  9
$CMLSTYLE
  2
STANDARD
  9
$CMLJUST
 70
     0
  9
$CMLSCALE
 40
1.0
  9
$SAVEIMAGES
 70
     1
  0
ENDSEC
  0
SECTION
  2
CLASSES
  0
CLASS
  1
ACDBDICTIONARYWDFLT
  2
AcDbDictionaryWithDefault
  3
AutoCAD 2000
 90
    32768
280
     0
281
     0
  0
CLASS
  1
ACDBPLACEHOLDER
  2
AcDbPlaceHolder
  3
AutoCAD 2000
 90
    32768
280
     0
281
     0
  0
CLASS
  1
LAYOUT
  2
AcDbLayout
  3
AutoCAD 2000
 90
    32768
280
     0
281
     0
  0
CLASS
  1
DICTIONARYVAR
  2
AcDbDictionaryVar
  3
AutoCAD 2000
 90
    32768
280
     0
281
     0
  0
CLASS
  1
LONG_TRANSACTION
  2
AcDbLongTransaction
  3
AutoCAD 2000
 90
    32768
280
     0
281
     0
  0
CLASS
  1
LWPOLYLINE
  2
AcDbPolyline
  3
AutoCAD 2000
 90
    32768
280
     0
281
     1
  0
CLASS
  1
HATCH
  2
AcDbHatch
  3
AutoCAD 2000
 90
    32768
280
     0
281
     1
  0
CLASS
  1
XRECORD
  2
AcDbXrecord
  3
AutoCAD 2000
 90
    32768
280
     0
281
     0
  0
CLASS
  1
LONG_TRANSACTION
  2
AcDbLongTransaction
  3
AutoCAD 2000
 90
    32768
280
     0
281
     0
  0
CLASS
  1
LWPOLYLINE
  2
AcDbPolyline
  3
AutoCAD 2000
 90
    32768
280
     0
281
     1
  0
CLASS
  1
HATCH
  2
AcDbHatch
  3
AutoCAD 2000
 90
    32768
280
     0
281
     1
  0
CLASS
  1
XRECORD
  2
AcDbXrecord
  3
AutoCAD 2000
 90
    32768
280
     0
281
     0
  0
ENDSEC
  0
SECTION
  2
TABLES
  0
TABLE
  2
VPORT
  5
8
330
0
100
AcDbSymbolTable
 70
     3
  0
VPORT
  5
3B3
330
8
100
AcDbSymbolTableRecord
100
AcDbViewportTableRecord
  2
*ACTIVE
 70
     0
 10
0.0
 20
0.0
 11
1.0
 21
1.0
 12
143.4922949972007
 22
97.99850511946541
 13
0.0
 23
0.0
 14
1.0
 24
1.0
 15
0.0
 25
0.0
 16
0.0
 26
0.0
 36
1.0
 17
0.0
 27
0.0
 37
0.0
 40
195.4801270413309
 41
1.510025062656641
 42
50.0
 43
0.0
 44
0.0
 50
0.0
 51
0.0
 71
     0
 72
   100
 73
     1
 74
     1
 75
     0
 76
     0
 77
     0
 78
     0
  0
ENDTAB
  0
TABLE
  2
LTYPE
  5
5
330
0
100
AcDbSymbolTable
 70
     4
  0
LTYPE
  5
13
330
5
100
AcDbSymbolTableRecord
100
AcDbLinetypeTableRecord
  2
BYBLOCK
 70
     0
  3

 72
    65
 73
     0
 40
0.0
  0
LTYPE
  5
14
330
5
100
AcDbSymbolTableRecord
100
AcDbLinetypeTableRecord
  2
BYLAYER
 70
     0
  3

 72
    65
 73
     0
 40
0.0
  0
LTYPE
  5
15
330
5
100
AcDbSymbolTableRecord
100
AcDbLinetypeTableRecord
  2
CONTINUOUS
 70
     0
  3
Solid line
 72
    65
 73
     0
 40
0.0
  0
LTYPE
  5
25
330
5
100
AcDbSymbolTableRecord
100
AcDbLinetypeTableRecord
  2
DOT
 70
     0
  3
...............................................
 72
    65
 73
     2
 40
0.25
 49
0.0
 74
     0
 49
-0.25
 74
     0
  0
LTYPE
  5
28
330
5
100
AcDbSymbolTableRecord
100
AcDbLinetypeTableRecord
  2
CENTER
 70
     0
  3
____ _ ____ _ ____ _ ____ _ ____ _ ____ _ ____ 
 72
    65
 73
     4
 40
2.0
 49
1.25
 74
     0
 49
-0.25
 74
     0
 49
0.25
 74
     0
 49
-0.25
 74
     0
  0
LTYPE
  5
29
330
5
100
AcDbSymbolTableRecord
100
AcDbLinetypeTableRecord
  2
PHANTOM
 70
     0
  3
______  __  __  ______  __  __  ______  __  __ 
 72
    65
 73
     6
 40
2.5
 49
1.25
 74
     0
 49
-0.25
 74
     0
 49
0.25
 74
     0
 49
-0.25
 74
     0
 49
0.25
 74
     0
 49
-0.25
 74
     0
  0
ENDTAB
  0
TABLE
  2
LAYER
  5
2
330
0
100
AcDbSymbolTable
 70
     4
  0
LAYER
  5
10
330
2
100
AcDbSymbolTableRecord
100
AcDbLayerTableRecord
  2
0
 70
     0
 62
     7
  6
CONTINUOUS
  0
LAYER
  5
22
330
2
100
AcDbSymbolTableRecord
100
AcDbLayerTableRecord
  2
CSLAYER1
 70
     0
 62
     7
  6
CONTINUOUS
  0
LAYER
  5
2B
330
2
100
AcDbSymbolTableRecord
100
AcDbLayerTableRecord
  2
CSLAYER2
 70
     0
 62
     7
  6
CONTINUOUS
  0
LAYER
  5
32B
330
2
100
AcDbSymbolTableRecord
100
AcDbLayerTableRecord
  2
DEFPOINTS
 70
     0
 62
     7
  6
CONTINUOUS
  0
ENDTAB
  0
TABLE
  2
STYLE
  5
3
330
0
100
AcDbSymbolTable
 70
     3
  0
STYLE
  5
11
330
3
100
AcDbSymbolTableRecord
100
AcDbTextStyleTableRecord
  2
STANDARD
 70
     0
 40
0.0
 41
1.0
 50
0.0
 71
     0
 42
0.2
  3
txt
  4
extfont.shx
  0
STYLE
  5
3A
330
3
100
AcDbSymbolTableRecord
100
AcDbTextStyleTableRecord
  2
FX_FONT
 70
     0
 40
1.0
 41
1.0
 50
0.0
 71
     0
 42
1.0
  3
monotxt
  4
bigfont
  0
STYLE
  5
323
330
3
100
AcDbSymbolTableRecord
100
AcDbTextStyleTableRecord
  2
GOTHIC
 70
     0
 40
0.0
 41
1.0
 50
0.0
 71
     0
 42
0.2
  3
txt.shx
  4
extfont.shx
  0
ENDTAB
  0
TABLE
  2
VIEW
  5
6
330
0
100
AcDbSymbolTable
 70
     0
  0
ENDTAB
  0
TABLE
  2
UCS
  5
7
330
0
100
AcDbSymbolTable
 70
     0
  0
ENDTAB
  0
TABLE
  2
APPID
  5
9
330
0
100
AcDbSymbolTable
 70
     1
  0
APPID
  5
12
330
9
100
AcDbSymbolTableRecord
100
AcDbRegAppTableRecord
  2
ACAD
 70
     0
  0
ENDTAB
  0
TABLE
  2
DIMSTYLE
  5
A
330
0
100
AcDbSymbolTable
 70
     1
  0
DIMSTYLE
105
320
330
A
100
AcDbSymbolTableRecord
100
AcDbDimStyleTableRecord
  2
STANDARD
 70
     0
  3

  4

  5

  6

  7

 40
1.0
 41
0.18
 42
0.0625
 43
0.38
 44
0.18
 45
0.0
 46
0.0
 47
0.0
 48
0.0
140
0.18
141
0.09
142
0.0
143
25.4
144
1.0
145
0.0
146
1.0
147
0.09
 71
     0
 72
     0
 73
     1
 74
     1
 75
     0
 76
     0
 77
     0
 78
     0
170
     0
171
     2
172
     0
173
     0
174
     0
175
     0
176
     0
177
     0
178
     0
270
     2
271
     4
272
     4
273
     2
274
     2
340
11
275
     0
280
     0
281
     0
282
     0
283
     1
284
     0
285
     0
286
     0
287
     3
288
     0
  0
ENDTAB
  0
TABLE
  2
BLOCK_RECORD
  5
1
330
0
100
AcDbSymbolTable
 70
    54
  0
BLOCK_RECORD
  5
1E
102
{ACAD_XDICTIONARY
360
329
102
}
330
1
100
AcDbSymbolTableRecord
100
AcDbBlockTableRecord
  2
*MODEL_SPACE
  0
BLOCK_RECORD
  5
1A
102
{ACAD_XDICTIONARY
360
327
102
}
330
1
100
AcDbSymbolTableRecord
100
AcDbBlockTableRecord
  2
*PAPER_SPACE
  0
BLOCK_RECORD
  5
3F
330
1
100
AcDbSymbolTableRecord
100
AcDbBlockTableRecord
  2
*D0
  0
BLOCK_RECORD
  5
4A
330
1
100
AcDbSymbolTableRecord
100
AcDbBlockTableRecord
  2
*D1
  0
BLOCK_RECORD
  5
55
330
1
100
AcDbSymbolTableRecord
100
AcDbBlockTableRecord
  2
FXDIM0000
  0
BLOCK_RECORD
  5
5D
330
1
100
AcDbSymbolTableRecord
100
AcDbBlockTableRecord
  2
*D3
  0
BLOCK_RECORD
  5
68
330
1
100
AcDbSymbolTableRecord
100
AcDbBlockTableRecord
  2
*D4
  0
BLOCK_RECORD
  5
73
330
1
100
AcDbSymbolTableRecord
100
AcDbBlockTableRecord
  2
*D5
  0
BLOCK_RECORD
  5
7C
330
1
100
AcDbSymbolTableRecord
100
AcDbBlockTableRecord
  2
*D6
  0
BLOCK_RECORD
  5
83
330
1
100
AcDbSymbolTableRecord
100
AcDbBlockTableRecord
  2
*D7
  0
BLOCK_RECORD
  5
8E
330
1
100
AcDbSymbolTableRecord
100
AcDbBlockTableRecord
  2
*D8
  0
BLOCK_RECORD
  5
99
330
1
100
AcDbSymbolTableRecord
100
AcDbBlockTableRecord
  2
*D9
  0
BLOCK_RECORD
  5
A2
330
1
100
AcDbSymbolTableRecord
100
AcDbBlockTableRecord
  2
*D10
  0
BLOCK_RECORD
  5
AD
330
1
100
AcDbSymbolTableRecord
100
AcDbBlockTableRecord
  2
*D11
  0
BLOCK_RECORD
  5
B8
330
1
100
AcDbSymbolTableRecord
100
AcDbBlockTableRecord
  2
*D12
  0
BLOCK_RECORD
  5
C1
330
1
100
AcDbSymbolTableRecord
100
AcDbBlockTableRecord
  2
*D13
  0
BLOCK_RECORD
  5
CC
330
1
100
AcDbSymbolTableRecord
100
AcDbBlockTableRecord
  2
*D14
  0
BLOCK_RECORD
  5
D7
330
1
100
AcDbSymbolTableRecord
100
AcDbBlockTableRecord
  2
*D15
  0
BLOCK_RECORD
  5
E0
330
1
100
AcDbSymbolTableRecord
100
AcDbBlockTableRecord
  2
*D16
  0
BLOCK_RECORD
  5
EB
330
1
100
AcDbSymbolTableRecord
100
AcDbBlockTableRecord
  2
*D17
  0
BLOCK_RECORD
  5
F6
330
1
100
AcDbSymbolTableRecord
100
AcDbBlockTableRecord
  2
*D18
  0
BLOCK_RECORD
  5
FF
330
1
100
AcDbSymbolTableRecord
100
AcDbBlockTableRecord
  2
*D19
  0
BLOCK_RECORD
  5
10A
330
1
100
AcDbSymbolTableRecord
100
AcDbBlockTableRecord
  2
*D20
  0
BLOCK_RECORD
  5
115
330
1
100
AcDbSymbolTableRecord
100
AcDbBlockTableRecord
  2
*D21
  0
BLOCK_RECORD
  5
11E
330
1
100
AcDbSymbolTableRecord
100
AcDbBlockTableRecord
  2
*D22
  0
BLOCK_RECORD
  5
129
330
1
100
AcDbSymbolTableRecord
100
AcDbBlockTableRecord
  2
*D23
  0
BLOCK_RECORD
  5
134
330
1
100
AcDbSymbolTableRecord
100
AcDbBlockTableRecord
  2
*D24
  0
BLOCK_RECORD
  5
13D
330
1
100
AcDbSymbolTableRecord
100
AcDbBlockTableRecord
  2
*D25
  0
BLOCK_RECORD
  5
148
330
1
100
AcDbSymbolTableRecord
100
AcDbBlockTableRecord
  2
*D26
  0
BLOCK_RECORD
  5
153
330
1
100
AcDbSymbolTableRecord
100
AcDbBlockTableRecord
  2
*D27
  0
BLOCK_RECORD
  5
15C
330
1
100
AcDbSymbolTableRecord
100
AcDbBlockTableRecord
  2
*D28
  0
BLOCK_RECORD
  5
167
330
1
100
AcDbSymbolTableRecord
100
AcDbBlockTableRecord
  2
*D29
  0
BLOCK_RECORD
  5
16E
330
1
100
AcDbSymbolTableRecord
100
AcDbBlockTableRecord
  2
*D30
  0
BLOCK_RECORD
  5
176
330
1
100
AcDbSymbolTableRecord
100
AcDbBlockTableRecord
  2
FXDIM0001
  0
BLOCK_RECORD
  5
17A
330
1
100
AcDbSymbolTableRecord
100
AcDbBlockTableRecord
  2
FXDIM0002
  0
BLOCK_RECORD
  5
17E
330
1
100
AcDbSymbolTableRecord
100
AcDbBlockTableRecord
  2
*D33
  0
BLOCK_RECORD
  5
189
330
1
100
AcDbSymbolTableRecord
100
AcDbBlockTableRecord
  2
FXDIM0003
  0
BLOCK_RECORD
  5
195
330
1
100
AcDbSymbolTableRecord
100
AcDbBlockTableRecord
  2
FXDIM0004
  0
BLOCK_RECORD
  5
1A1
330
1
100
AcDbSymbolTableRecord
100
AcDbBlockTableRecord
  2
*D36
  0
BLOCK_RECORD
  5
1AB
330
1
100
AcDbSymbolTableRecord
100
AcDbBlockTableRecord
  2
*D37
  0
BLOCK_RECORD
  5
1B5
330
1
100
AcDbSymbolTableRecord
100
AcDbBlockTableRecord
  2
FXDIM0005
  0
BLOCK_RECORD
  5
1BD
330
1
100
AcDbSymbolTableRecord
100
AcDbBlockTableRecord
  2
*D39
  0
BLOCK_RECORD
  5
1C8
330
1
100
AcDbSymbolTableRecord
100
AcDbBlockTableRecord
  2
*D40
  0
BLOCK_RECORD
  5
1D5
330
1
100
AcDbSymbolTableRecord
100
AcDbBlockTableRecord
  2
*D41
  0
BLOCK_RECORD
  5
1E2
330
1
100
AcDbSymbolTableRecord
100
AcDbBlockTableRecord
  2
*D42
  0
BLOCK_RECORD
  5
1ED
330
1
100
AcDbSymbolTableRecord
100
AcDbBlockTableRecord
  2
FXDIM0006
  0
BLOCK_RECORD
  5
1F1
330
1
100
AcDbSymbolTableRecord
100
AcDbBlockTableRecord
  2
FXDIM0007
  0
BLOCK_RECORD
  5
1F5
330
1
100
AcDbSymbolTableRecord
100
AcDbBlockTableRecord
  2
*D45
  0
BLOCK_RECORD
  5
32C
330
1
100
AcDbSymbolTableRecord
100
AcDbBlockTableRecord
  2
*D46
  0
BLOCK_RECORD
  5
33B
330
1
100
AcDbSymbolTableRecord
100
AcDbBlockTableRecord
  2
*D47
  0
BLOCK_RECORD
  5
34A
330
1
100
AcDbSymbolTableRecord
100
AcDbBlockTableRecord
  2
*D48
  0
BLOCK_RECORD
  5
359
330
1
100
AcDbSymbolTableRecord
100
AcDbBlockTableRecord
  2
*D49
  0
BLOCK_RECORD
  5
368
330
1
100
AcDbSymbolTableRecord
100
AcDbBlockTableRecord
  2
*D50
  0
BLOCK_RECORD
  5
376
330
1
100
AcDbSymbolTableRecord
100
AcDbBlockTableRecord
  2
*D51
  0
BLOCK_RECORD
  5
385
330
1
100
AcDbSymbolTableRecord
100
AcDbBlockTableRecord
  2
*D52
  0
BLOCK_RECORD
  5
393
330
1
100
AcDbSymbolTableRecord
100
AcDbBlockTableRecord
  2
*D53
  0
ENDTAB
  0
ENDSEC
  0
SECTION
  2
BLOCKS
  0
BLOCK
  5
1F
330
1E
100
AcDbEntity
  8
0
100
AcDbBlockBegin
  2
*MODEL_SPACE
 70
     0
 10
0.0
 20
0.0
 30
0.0
  3
*MODEL_SPACE
  1

  0
ENDBLK
  5
20
330
1E
100
AcDbEntity
  8
0
100
AcDbBlockEnd
  0
BLOCK
  5
1B
330
1A
100
AcDbEntity
 67
     1
  8
0
100
AcDbBlockBegin
  2
*PAPER_SPACE
 70
     0
 10
0.0
 20
0.0
 30
0.0
  3
*PAPER_SPACE
  1

  0
ENDBLK
  5
1C
330
1A
100
AcDbEntity
 67
     1
  8
0
100
AcDbBlockEnd
  0
BLOCK
  5
40
330
3F
100
AcDbEntity
  8
0
100
AcDbBlockBegin
  2
*D0
 70
     1
 10
0.0
 20
0.0
 30
0.0
  3
*D0
  1

  0
TEXT
  5
41
330
3F
100
AcDbEntity
  8
CSLAYER2
 62
     4
100
AcDbText
 10
101.884003
 20
132.8
 30
0.0
 40
3.2
  1
32
 50
90.0
 41
1.199999999999979
 51
15.0
  7
FX_FONT
 72
     5
 11
101.884003
 21
139.1999999999999
 31
0.0
100
AcDbText
  0
LINE
  5
42
330
3F
100
AcDbEntity
  8
CSLAYER2
  6
CONTINUOUS
 62
     4
100
AcDbLine
 10
132.605042
 20
120.0
 30
0.0
 11
101.384
 21
120.0
 31
0.0
  0
LINE
  5
43
330
3F
100
AcDbEntity
  8
CSLAYER2
  6
CONTINUOUS
 62
     4
100
AcDbLine
 10
132.605042
 20
152.0
 30
0.0
 11
101.384
 21
152.0
 31
0.0
  0
LINE
  5
44
330
3F
100
AcDbEntity
  8
CSLAYER2
  6
CONTINUOUS
 62
     4
100
AcDbLine
 10
102.384
 20
120.0
 30
0.0
 11
102.384
 21
152.0
 31
0.0
  0
LINE
  5
45
330
3F
100
AcDbEntity
  8
CSLAYER2
  6
CONTINUOUS
 62
     4
100
AcDbLine
 10
102.384
 20
120.0
 30
0.0
 11
101.607543
 21
122.8977769999999
 31
0.0
  0
LINE
  5
46
330
3F
100
AcDbEntity
  8
CSLAYER2
  6
CONTINUOUS
 62
     4
100
AcDbLine
 10
102.384
 20
120.0
 30
0.0
 11
103.160457
 21
122.8977769999999
 31
0.0
  0
LINE
  5
47
330
3F
100
AcDbEntity
  8
CSLAYER2
  6
CONTINUOUS
 62
     4
100
AcDbLine
 10
102.384
 20
152.0
 30
0.0
 11
101.607543
 21
149.102223
 31
0.0
  0
LINE
  5
48
330
3F
100
AcDbEntity
  8
CSLAYER2
  6
CONTINUOUS
 62
     4
100
AcDbLine
 10
102.384
 20
152.0
 30
0.0
 11
103.160457
 21
149.102223
 31
0.0
  0
ENDBLK
  5
49
330
3F
100
AcDbEntity
  8
0
100
AcDbBlockEnd
  0
BLOCK
  5
4B
330
4A
100
AcDbEntity
  8
0
100
AcDbBlockBegin
  2
*D1
 70
     1
 10
0.0
 20
0.0
 30
0.0
  3
*D1
  1

  0
TEXT
  5
4C
330
4A
100
AcDbEntity
  8
CSLAYER2
 62
     4
100
AcDbText
 10
108.233711
 20
129.6
 30
0.0
 40
3.2
  1
22.5
 50
90.0
 41
1.090909090909091
 51
15.0
  7
FX_FONT
 72
     5
 11
108.233711
 21
142.4
 31
0.0
100
AcDbText
  0
LINE
  5
4D
330
4A
100
AcDbEntity
  8
CSLAYER2
  6
CONTINUOUS
 62
     4
100
AcDbLine
 10
115.0
 20
124.75
 30
0.0
 11
107.733714
 21
124.75
 31
0.0
  0
LINE
  5
4E
330
4A
100
AcDbEntity
  8
CSLAYER2
  6
CONTINUOUS
 62
     4
100
AcDbLine
 10
115.0
 20
147.2499999999999
 30
0.0
 11
107.733714
 21
147.2499999999999
 31
0.0
  0
LINE
  5
4F
330
4A
100
AcDbEntity
  8
CSLAYER2
  6
CONTINUOUS
 62
     4
100
AcDbLine
 10
108.733714
 20
124.75
 30
0.0
 11
108.733714
 21
147.2499999999999
 31
0.0
  0
LINE
  5
50
330
4A
100
AcDbEntity
  8
CSLAYER2
  6
CONTINUOUS
 62
     4
100
AcDbLine
 10
108.733714
 20
124.75
 30
0.0
 11
107.957257
 21
127.647777
 31
0.0
  0
LINE
  5
51
330
4A
100
AcDbEntity
  8
CSLAYER2
  6
CONTINUOUS
 62
     4
100
AcDbLine
 10
108.733714
 20
124.75
 30
0.0
 11
109.5101709999999
 21
127.647777
 31
0.0
  0
LINE
  5
52
330
4A
100
AcDbEntity
  8
CSLAYER2
  6
CONTINUOUS
 62
     4
100
AcDbLine
 10
108.733714
 20
147.2499999999999
 30
0.0
 11
107.957257
 21
144.352223
 31
0.0
  0
LINE
  5
53
330
4A
100
AcDbEntity
  8
CSLAYER2
  6
CONTINUOUS
 62
     4
100
AcDbLine
 10
108.733714
 20
147.2499999999999
 30
0.0
 11
109.5101709999999
 21
144.352223
 31
0.0
  0
ENDBLK
  5
54
330
4A
100
AcDbEntity
  8
0
100
AcDbBlockEnd
  0
BLOCK
  5
56
330
55
100
AcDbEntity
  8
0
100
AcDbBlockBegin
  2
FXDIM0000
 70
     0
 10
0.0
 20
0.0
 30
0.0
  3
FXDIM0000
  1

  0
LINE
  5
57
330
55
100
AcDbEntity
  8
CSLAYER2
  6
CONTINUOUS
 62
     4
100
AcDbLine
 10
164.4
 20
34.43973599999999
 30
0.0
 11
148.4912
 21
34.43973599999999
 31
0.0
  0
LINE
  5
58
330
55
100
AcDbEntity
  8
CSLAYER2
  6
CONTINUOUS
 62
     4
100
AcDbLine
 10
164.4
 20
34.43973599999999
 30
0.0
 11
161.5022229999999
 21
35.216194
 31
0.0
  0
LINE
  5
59
330
55
100
AcDbEntity
  8
CSLAYER2
  6
CONTINUOUS
 62
     4
100
AcDbLine
 10
164.4
 20
34.43973599999999
 30
0.0
 11
161.5022229999999
 21
33.66327899999999
 31
0.0
  0
LINE
  5
5A
330
55
100
AcDbEntity
  8
CSLAYER2
  6
CONTINUOUS
 62
     4
100
AcDbLine
 10
153.864386
 20
34.43973599999999
 30
0.0
 11
153.6912
 21
34.43973599999999
 31
0.0
  0
TEXT
  5
5B
330
55
100
AcDbEntity
  8
CSLAYER2
 62
     4
100
AcDbText
 10
155.4346309999999
 20
34.888378
 30
0.0
 40
3.2
  1
A
 41
1.500000000000048
 51
15.0
  7
FX_FONT
 72
     5
 11
158.634631
 21
34.888378
 31
0.0
100
AcDbText
  0
ENDBLK
  5
5C
330
55
100
AcDbEntity
  8
0
100
AcDbBlockEnd
  0
BLOCK
  5
5E
330
5D
100
AcDbEntity
  8
0
100
AcDbBlockBegin
  2
*D3
 70
     1
 10
0.0
 20
0.0
 30
0.0
  3
*D3
  1

  0
TEXT
  5
5F
330
5D
100
AcDbEntity
  8
CSLAYER2
 62
     4
100
AcDbText
 10
59.374545
 20
72.90969799999998
 30
0.0
 40
3.2
  1
3.5
 41
1.124999999999999
 51
15.0
  7
FX_FONT
 72
     5
 11
68.97454499999999
 21
72.90969799999998
 31
0.0
100
AcDbText
  0
LINE
  5
60
330
5D
100
AcDbEntity
  8
CSLAYER2
  6
CONTINUOUS
 62
     4
100
AcDbLine
 10
39.732727
 20
78.4
 30
0.0
 11
39.732727
 21
71.131515
 31
0.0
  0
LINE
  5
61
330
5D
100
AcDbEntity
  8
CSLAYER2
  6
CONTINUOUS
 62
     4
100
AcDbLine
 10
74.73272699999998
 20
78.4
 30
0.0
 11
74.73272699999998
 21
71.131515
 31
0.0
  0
LINE
  5
62
330
5D
100
AcDbEntity
  8
CSLAYER2
  6
CONTINUOUS
 62
     4
100
AcDbLine
 10
39.732727
 20
72.13151500000002
 30
0.0
 11
74.73272699999998
 21
72.13151500000002
 31
0.0
  0
LINE
  5
63
330
5D
100
AcDbEntity
  8
CSLAYER2
  6
CONTINUOUS
 62
     4
100
AcDbLine
 10
39.732727
 20
72.13151500000002
 30
0.0
 11
42.630505
 21
72.907972
 31
0.0
  0
LINE
  5
64
330
5D
100
AcDbEntity
  8
CSLAYER2
  6
CONTINUOUS
 62
     4
100
AcDbLine
 10
39.732727
 20
72.13151500000002
 30
0.0
 11
42.630505
 21
71.355058
 31
0.0
  0
LINE
  5
65
330
5D
100
AcDbEntity
  8
CSLAYER2
  6
CONTINUOUS
 62
     4
100
AcDbLine
 10
74.73272699999998
 20
72.13151500000002
 30
0.0
 11
71.83495
 21
72.907972
 31
0.0
  0
LINE
  5
66
330
5D
100
AcDbEntity
  8
CSLAYER2
  6
CONTINUOUS
 62
     4
100
AcDbLine
 10
74.73272699999998
 20
72.13151500000002
 30
0.0
 11
71.83495
 21
71.355058
 31
0.0
  0
ENDBLK
  5
67
330
5D
100
AcDbEntity
  8
0
100
AcDbBlockEnd
  0
BLOCK
  5
69
330
68
100
AcDbEntity
  8
0
100
AcDbBlockBegin
  2
*D4
 70
     1
 10
0.0
 20
0.0
 30
0.0
  3
*D4
  1

  0
TEXT
  5
6A
330
68
100
AcDbEntity
  8
CSLAYER2
 62
     4
100
AcDbText
 10
60.152721
 20
60.45878599999999
 30
0.0
 40
3.2
  1
3.5
 41
1.124999999999999
 51
15.0
  7
FX_FONT
 72
     5
 11
69.75272099999999
 21
60.45878599999999
 31
0.0
100
AcDbText
  0
LINE
  5
6B
330
68
100
AcDbEntity
  8
CSLAYER2
  6
CONTINUOUS
 62
     4
100
AcDbLine
 10
39.732727
 20
55.4
 30
0.0
 11
39.732727
 21
60.680606
 31
0.0
  0
LINE
  5
6C
330
68
100
AcDbEntity
  8
CSLAYER2
  6
CONTINUOUS
 62
     4
100
AcDbLine
 10
74.73272699999998
 20
55.4
 30
0.0
 11
74.73272699999998
 21
60.680606
 31
0.0
  0
LINE
  5
6D
330
68
100
AcDbEntity
  8
CSLAYER2
  6
CONTINUOUS
 62
     4
100
AcDbLine
 10
39.732727
 20
59.68060600000001
 30
0.0
 11
74.73272699999998
 21
59.68060600000001
 31
0.0
  0
LINE
  5
6E
330
68
100
AcDbEntity
  8
CSLAYER2
  6
CONTINUOUS
 62
     4
100
AcDbLine
 10
39.732727
 20
59.68060600000001
 30
0.0
 11
42.630505
 21
60.45706299999999
 31
0.0
  0
LINE
  5
6F
330
68
100
AcDbEntity
  8
CSLAYER2
  6
CONTINUOUS
 62
     4
100
AcDbLine
 10
39.732727
 20
59.68060600000001
 30
0.0
 11
42.630505
 21
58.90414899999999
 31
0.0
  0
LINE
  5
70
330
68
100
AcDbEntity
  8
CSLAYER2
  6
CONTINUOUS
 62
     4
100
AcDbLine
 10
74.73272699999998
 20
59.68060600000001
 30
0.0
 11
71.83495
 21
60.45706299999999
 31
0.0
  0
LINE
  5
71
330
68
100
AcDbEntity
  8
CSLAYER2
  6
CONTINUOUS
 62
     4
100
AcDbLine
 10
74.73272699999998
 20
59.68060600000001
 30
0.0
 11
71.83495
 21
58.90414899999999
 31
0.0
  0
ENDBLK
  5
72
330
68
100
AcDbEntity
  8
0
100
AcDbBlockEnd
  0
BLOCK
  5
74
330
73
100
AcDbEntity
  8
0
100
AcDbBlockBegin
  2
*D5
 70
     1
 10
0.0
 20
0.0
 30
0.0
  3
*D5
  1

  0
TEXT
  5
75
330
73
100
AcDbEntity
  8
CSLAYER2
 62
     4
100
AcDbText
 10
76.34113499999997
 20
54.212211
 30
0.0
 40
3.2
  1
45%%d
 50
22.4999991574817
 41
1.285714348609495
 51
15.0
  7
FX_FONT
 72
     5
 11
85.21037900000001
 21
57.88597199999998
 31
0.0
100
AcDbText
  0
ARC
  5
76
330
73
100
AcDbEntity
  8
CSLAYER2
  6
CONTINUOUS
 62
     4
100
AcDbCircle
 10
84.732727
 20
44.4
 30
0.0
 40
9.761333
100
AcDbArc
 50
90.0
 51
135.0
  0
LINE
  5
77
330
73
100
AcDbEntity
  8
CSLAYER2
  6
CONTINUOUS
 62
     4
100
AcDbLine
 10
84.732727
 20
54.161333
 30
0.0
 11
81.83495
 21
54.93778999999999
 31
0.0
  0
LINE
  5
78
330
73
100
AcDbEntity
  8
CSLAYER2
  6
CONTINUOUS
 62
     4
100
AcDbLine
 10
84.732727
 20
54.161333
 30
0.0
 11
81.83495
 21
53.384876
 31
0.0
  0
LINE
  5
79
330
73
100
AcDbEntity
  8
CSLAYER2
  6
CONTINUOUS
 62
     4
100
AcDbLine
 10
77.83042299999998
 20
51.30230499999999
 30
0.0
 11
79.330423
 21
53.900381
 31
0.0
  0
LINE
  5
7A
330
73
100
AcDbEntity
  8
CSLAYER2
  6
CONTINUOUS
 62
     4
100
AcDbLine
 10
77.83042299999998
 20
51.30230499999999
 30
0.0
 11
80.428499
 21
52.802305
 31
0.0
  0
ENDBLK
  5
7B
330
73
100
AcDbEntity
  8
0
100
AcDbBlockEnd
  0
BLOCK
  5
7D
330
7C
100
AcDbEntity
  8
0
100
AcDbBlockBegin
  2
*D6
 70
     1
 10
0.0
 20
0.0
 30
0.0
  3
*D6
  1

  0
TEXT
  5
7E
330
7C
100
AcDbEntity
  8
CSLAYER2
 62
     4
100
AcDbText
 10
117.0302129999999
 20
144.107806
 30
0.0
 40
3.2
  1
R8
 50
348.9227207743452
 41
1.199999968676087
 51
15.0
  7
FX_FONT
 72
     5
 11
123.3109739999999
 21
142.878156
 31
0.0
100
AcDbText
  0
LINE
  5
7F
330
7C
100
AcDbEntity
  8
CSLAYER2
  6
CONTINUOUS
 62
     4
100
AcDbLine
 10
116.1490479999999
 20
143.770831
 30
0.0
 11
122.495555
 21
142.528311
 31
0.0
  0
LINE
  5
80
330
7C
100
AcDbEntity
  8
CSLAYER2
  6
CONTINUOUS
 62
     4
100
AcDbLine
 10
116.1490479999999
 20
143.770831
 30
0.0
 11
119.14202
 21
143.9760649999998
 31
0.0
  0
LINE
  5
81
330
7C
100
AcDbEntity
  8
CSLAYER2
  6
CONTINUOUS
 62
     4
100
AcDbLine
 10
116.1490479999999
 20
143.770831
 30
0.0
 11
118.843654
 21
142.452083
 31
0.0
  0
ENDBLK
  5
82
330
7C
100
AcDbEntity
  8
0
100
AcDbBlockEnd
  0
BLOCK
  5
84
330
83
100
AcDbEntity
  8
0
100
AcDbBlockBegin
  2
*D7
 70
     1
 10
0.0
 20
0.0
 30
0.0
  3
*D7
  1

  0
TEXT
  5
85
330
83
100
AcDbEntity
  8
CSLAYER2
 62
     4
100
AcDbText
 10
59.374545
 20
72.90969799999998
 30
0.0
 40
3.2
  1
3.5
 41
1.124999999999999
 51
15.0
  7
FX_FONT
 72
     5
 11
68.97454499999999
 21
72.90969799999998
 31
0.0
100
AcDbText
  0
LINE
  5
86
330
83
100
AcDbEntity
  8
CSLAYER2
  6
CONTINUOUS
 62
     4
100
AcDbLine
 10
39.732727
 20
78.4
 30
0.0
 11
39.732727
 21
71.131515
 31
0.0
  0
LINE
  5
87
330
83
100
AcDbEntity
  8
CSLAYER2
  6
CONTINUOUS
 62
     4
100
AcDbLine
 10
74.73272699999998
 20
78.4
 30
0.0
 11
74.73272699999998
 21
71.131515
 31
0.0
  0
LINE
  5
88
330
83
100
AcDbEntity
  8
CSLAYER2
  6
CONTINUOUS
 62
     4
100
AcDbLine
 10
39.732727
 20
72.13151500000002
 30
0.0
 11
74.73272699999998
 21
72.13151500000002
 31
0.0
  0
LINE
  5
89
330
83
100
AcDbEntity
  8
CSLAYER2
  6
CONTINUOUS
 62
     4
100
AcDbLine
 10
39.732727
 20
72.13151500000002
 30
0.0
 11
42.630505
 21
72.907972
 31
0.0
  0
LINE
  5
8A
330
83
100
AcDbEntity
  8
CSLAYER2
  6
CONTINUOUS
 62
     4
100
AcDbLine
 10
39.732727
 20
72.13151500000002
 30
0.0
 11
42.630505
 21
71.355058
 31
0.0
  0
LINE
  5
8B
330
83
100
AcDbEntity
  8
CSLAYER2
  6
CONTINUOUS
 62
     4
100
AcDbLine
 10
74.73272699999998
 20
72.13151500000002
 30
0.0
 11
71.83495
 21
72.907972
 31
0.0
  0
LINE
  5
8C
330
83
100
AcDbEntity
  8
CSLAYER2
  6
CONTINUOUS
 62
     4
100
AcDbLine
 10
74.73272699999998
 20
72.13151500000002
 30
0.0
 11
71.83495
 21
71.355058
 31
0.0
  0
ENDBLK
  5
8D
330
83
100
AcDbEntity
  8
0
100
AcDbBlockEnd
  0
BLOCK
  5
8F
330
8E
100
AcDbEntity
  8
0
100
AcDbBlockBegin
  2
*D8
 70
     1
 10
0.0
 20
0.0
 30
0.0
  3
*D8
  1

  0
TEXT
  5
90
330
8E
100
AcDbEntity
  8
CSLAYER2
 62
     4
100
AcDbText
 10
60.152721
 20
60.45878599999999
 30
0.0
 40
3.2
  1
3.5
 41
1.124999999999999
 51
15.0
  7
FX_FONT
 72
     5
 11
69.75272099999999
 21
60.45878599999999
 31
0.0
100
AcDbText
  0
LINE
  5
91
330
8E
100
AcDbEntity
  8
CSLAYER2
  6
CONTINUOUS
 62
     4
100
AcDbLine
 10
39.732727
 20
55.4
 30
0.0
 11
39.732727
 21
60.680606
 31
0.0
  0
LINE
  5
92
330
8E
100
AcDbEntity
  8
CSLAYER2
  6
CONTINUOUS
 62
     4
100
AcDbLine
 10
74.73272699999998
 20
55.4
 30
0.0
 11
74.73272699999998
 21
60.680606
 31
0.0
  0
LINE
  5
93
330
8E
100
AcDbEntity
  8
CSLAYER2
  6
CONTINUOUS
 62
     4
100
AcDbLine
 10
39.732727
 20
59.68060600000001
 30
0.0
 11
74.73272699999998
 21
59.68060600000001
 31
0.0
  0
LINE
  5
94
330
8E
100
AcDbEntity
  8
CSLAYER2
  6
CONTINUOUS
 62
     4
100
AcDbLine
 10
39.732727
 20
59.68060600000001
 30
0.0
 11
42.630505
 21
60.45706299999999
 31
0.0
  0
LINE
  5
95
330
8E
100
AcDbEntity
  8
CSLAYER2
  6
CONTINUOUS
 62
     4
100
AcDbLine
 10
39.732727
 20
59.68060600000001
 30
0.0
 11
42.630505
 21
58.90414899999999
 31
0.0
  0
LINE
  5
96
330
8E
100
AcDbEntity
  8
CSLAYER2
  6
CONTINUOUS
 62
     4
100
AcDbLine
 10
74.73272699999998
 20
59.68060600000001
 30
0.0
 11
71.83495
 21
60.45706299999999
 31
0.0
  0
LINE
  5
97
330
8E
100
AcDbEntity
  8
CSLAYER2
  6
CONTINUOUS
 62
     4
100
AcDbLine
 10
74.73272699999998
 20
59.68060600000001
 30
0.0
 11
71.83495
 21
58.90414899999999
 31
0.0
  0
ENDBLK
  5
98
330
8E
100
AcDbEntity
  8
0
100
AcDbBlockEnd
  0
BLOCK
  5
9A
330
99
100
AcDbEntity
  8
0
100
AcDbBlockBegin
  2
*D9
 70
     1
 10
0.0
 20
0.0
 30
0.0
  3
*D9
  1

  0
TEXT
  5
9B
330
99
100
AcDbEntity
  8
CSLAYER2
 62
     4
100
AcDbText
 10
76.34113499999997
 20
54.212211
 30
0.0
 40
3.2
  1
45%%d
 50
22.4999991574817
 41
1.285714348609495
 51
15.0
  7
FX_FONT
 72
     5
 11
85.21037900000001
 21
57.88597199999998
 31
0.0
100
AcDbText
  0
ARC
  5
9C
330
99
100
AcDbEntity
  8
CSLAYER2
  6
CONTINUOUS
 62
     4
100
AcDbCircle
 10
84.732727
 20
44.4
 30
0.0
 40
9.761333
100
AcDbArc
 50
90.0
 51
135.0
  0
LINE
  5
9D
330
99
100
AcDbEntity
  8
CSLAYER2
  6
CONTINUOUS
 62
     4
100
AcDbLine
 10
84.732727
 20
54.161333
 30
0.0
 11
81.83495
 21
54.93778999999999
 31
0.0
  0
LINE
  5
9E
330
99
100
AcDbEntity
  8
CSLAYER2
  6
CONTINUOUS
 62
     4
100
AcDbLine
 10
84.732727
 20
54.161333
 30
0.0
 11
81.83495
 21
53.384876
 31
0.0
  0
LINE
  5
9F
330
99
100
AcDbEntity
  8
CSLAYER2
  6
CONTINUOUS
 62
     4
100
AcDbLine
 10
77.83042299999998
 20
51.30230499999999
 30
0.0
 11
79.330423
 21
53.900381
 31
0.0
  0
LINE
  5
A0
330
99
100
AcDbEntity
  8
CSLAYER2
  6
CONTINUOUS
 62
     4
100
AcDbLine
 10
77.83042299999998
 20
51.30230499999999
 30
0.0
 11
80.428499
 21
52.802305
 31
0.0
  0
ENDBLK
  5
A1
330
99
100
AcDbEntity
  8
0
100
AcDbBlockEnd
  0
BLOCK
  5
A3
330
A2
100
AcDbEntity
  8
0
100
AcDbBlockBegin
  2
*D10
 70
     1
 10
0.0
 20
0.0
 30
0.0
  3
*D10
  1

  0
TEXT
  5
A4
330
A2
100
AcDbEntity
  8
CSLAYER2
 62
     4
100
AcDbText
 10
59.374545
 20
72.90969799999998
 30
0.0
 40
3.2
  1
3.5
 41
1.124999999999999
 51
15.0
  7
FX_FONT
 72
     5
 11
68.97454499999999
 21
72.90969799999998
 31
0.0
100
AcDbText
  0
LINE
  5
A5
330
A2
100
AcDbEntity
  8
CSLAYER2
  6
CONTINUOUS
 62
     4
100
AcDbLine
 10
39.732727
 20
78.4
 30
0.0
 11
39.732727
 21
71.131515
 31
0.0
  0
LINE
  5
A6
330
A2
100
AcDbEntity
  8
CSLAYER2
  6
CONTINUOUS
 62
     4
100
AcDbLine
 10
74.73272699999998
 20
78.4
 30
0.0
 11
74.73272699999998
 21
71.131515
 31
0.0
  0
LINE
  5
A7
330
A2
100
AcDbEntity
  8
CSLAYER2
  6
CONTINUOUS
 62
     4
100
AcDbLine
 10
39.732727
 20
72.13151500000002
 30
0.0
 11
74.73272699999998
 21
72.13151500000002
 31
0.0
  0
LINE
  5
A8
330
A2
100
AcDbEntity
  8
CSLAYER2
  6
CONTINUOUS
 62
     4
100
AcDbLine
 10
39.732727
 20
72.13151500000002
 30
0.0
 11
42.630505
 21
72.907972
 31
0.0
  0
LINE
  5
A9
330
A2
100
AcDbEntity
  8
CSLAYER2
  6
CONTINUOUS
 62
     4
100
AcDbLine
 10
39.732727
 20
72.13151500000002
 30
0.0
 11
42.630505
 21
71.355058
 31
0.0
  0
LINE
  5
AA
330
A2
100
AcDbEntity
  8
CSLAYER2
  6
CONTINUOUS
 62
     4
100
AcDbLine
 10
74.73272699999998
 20
72.13151500000002
 30
0.0
 11
71.83495
 21
72.907972
 31
0.0
  0
LINE
  5
AB
330
A2
100
AcDbEntity
  8
CSLAYER2
  6
CONTINUOUS
 62
     4
100
AcDbLine
 10
74.73272699999998
 20
72.13151500000002
 30
0.0
 11
71.83495
 21
71.355058
 31
0.0
  0
ENDBLK
  5
AC
330
A2
100
AcDbEntity
  8
0
100
AcDbBlockEnd
  0
BLOCK
  5
AE
330
AD
100
AcDbEntity
  8
0
100
AcDbBlockBegin
  2
*D11
 70
     1
 10
0.0
 20
0.0
 30
0.0
  3
*D11
  1

  0
TEXT
  5
AF
330
AD
100
AcDbEntity
  8
CSLAYER2
 62
     4
100
AcDbText
 10
60.152721
 20
60.45878599999999
 30
0.0
 40
3.2
  1
3.5
 41
1.124999999999999
 51
15.0
  7
FX_FONT
 72
     5
 11
69.75272099999999
 21
60.45878599999999
 31
0.0
100
AcDbText
  0
LINE
  5
B0
330
AD
100
AcDbEntity
  8
CSLAYER2
  6
CONTINUOUS
 62
     4
100
AcDbLine
 10
39.732727
 20
55.4
 30
0.0
 11
39.732727
 21
60.680606
 31
0.0
  0
LINE
  5
B1
330
AD
100
AcDbEntity
  8
CSLAYER2
  6
CONTINUOUS
 62
     4
100
AcDbLine
 10
74.73272699999998
 20
55.4
 30
0.0
 11
74.73272699999998
 21
60.680606
 31
0.0
  0
LINE
  5
B2
330
AD
100
AcDbEntity
  8
CSLAYER2
  6
CONTINUOUS
 62
     4
100
AcDbLine
 10
39.732727
 20
59.68060600000001
 30
0.0
 11
74.73272699999998
 21
59.68060600000001
 31
0.0
  0
LINE
  5
B3
330
AD
100
AcDbEntity
  8
CSLAYER2
  6
CONTINUOUS
 62
     4
100
AcDbLine
 10
39.732727
 20
59.68060600000001
 30
0.0
 11
42.630505
 21
60.45706299999999
 31
0.0
  0
LINE
  5
B4
330
AD
100
AcDbEntity
  8
CSLAYER2
  6
CONTINUOUS
 62
     4
100
AcDbLine
 10
39.732727
 20
59.68060600000001
 30
0.0
 11
42.630505
 21
58.90414899999999
 31
0.0
  0
LINE
  5
B5
330
AD
100
AcDbEntity
  8
CSLAYER2
  6
CONTINUOUS
 62
     4
100
AcDbLine
 10
74.73272699999998
 20
59.68060600000001
 30
0.0
 11
71.83495
 21
60.45706299999999
 31
0.0
  0
LINE
  5
B6
330
AD
100
AcDbEntity
  8
CSLAYER2
  6
CONTINUOUS
 62
     4
100
AcDbLine
 10
74.73272699999998
 20
59.68060600000001
 30
0.0
 11
71.83495
 21
58.90414899999999
 31
0.0
  0
ENDBLK
  5
B7
330
AD
100
AcDbEntity
  8
0
100
AcDbBlockEnd
  0
BLOCK
  5
B9
330
B8
100
AcDbEntity
  8
0
100
AcDbBlockBegin
  2
*D12
 70
     1
 10
0.0
 20
0.0
 30
0.0
  3
*D12
  1

  0
TEXT
  5
BA
330
B8
100
AcDbEntity
  8
CSLAYER2
 62
     4
100
AcDbText
 10
76.34113499999997
 20
54.212211
 30
0.0
 40
3.2
  1
45%%d
 50
22.4999991574817
 41
1.285714348609495
 51
15.0
  7
FX_FONT
 72
     5
 11
85.21037900000001
 21
57.88597199999998
 31
0.0
100
AcDbText
  0
ARC
  5
BB
330
B8
100
AcDbEntity
  8
CSLAYER2
  6
CONTINUOUS
 62
     4
100
AcDbCircle
 10
84.732727
 20
44.4
 30
0.0
 40
9.761333
100
AcDbArc
 50
90.0
 51
135.0
  0
LINE
  5
BC
330
B8
100
AcDbEntity
  8
CSLAYER2
  6
CONTINUOUS
 62
     4
100
AcDbLine
 10
84.732727
 20
54.161333
 30
0.0
 11
81.83495
 21
54.93778999999999
 31
0.0
  0
LINE
  5
BD
330
B8
100
AcDbEntity
  8
CSLAYER2
  6
CONTINUOUS
 62
     4
100
AcDbLine
 10
84.732727
 20
54.161333
 30
0.0
 11
81.83495
 21
53.384876
 31
0.0
  0
LINE
  5
BE
330
B8
100
AcDbEntity
  8
CSLAYER2
  6
CONTINUOUS
 62
     4
100
AcDbLine
 10
77.83042299999998
 20
51.30230499999999
 30
0.0
 11
79.330423
 21
53.900381
 31
0.0
  0
LINE
  5
BF
330
B8
100
AcDbEntity
  8
CSLAYER2
  6
CONTINUOUS
 62
     4
100
AcDbLine
 10
77.83042299999998
 20
51.30230499999999
 30
0.0
 11
80.428499
 21
52.802305
 31
0.0
  0
ENDBLK
  5
C0
330
B8
100
AcDbEntity
  8
0
100
AcDbBlockEnd
  0
BLOCK
  5
C2
330
C1
100
AcDbEntity
  8
0
100
AcDbBlockBegin
  2
*D13
 70
     1
 10
0.0
 20
0.0
 30
0.0
  3
*D13
  1

  0
TEXT
  5
C3
330
C1
100
AcDbEntity
  8
CSLAYER2
 62
     4
100
AcDbText
 10
80.87454499999997
 20
85.40969799999997
 30
0.0
 40
3.2
  1
3.5
 41
1.124999999999999
 51
15.0
  7
FX_FONT
 72
     5
 11
90.47454499999998
 21
85.40969799999997
 31
0.0
100
AcDbText
  0
LINE
  5
C4
330
C1
100
AcDbEntity
  8
CSLAYER2
  6
CONTINUOUS
 62
     4
100
AcDbLine
 10
61.23272700000001
 20
90.90000000000001
 30
0.0
 11
61.23272700000001
 21
83.631515
 31
0.0
  0
LINE
  5
C5
330
C1
100
AcDbEntity
  8
CSLAYER2
  6
CONTINUOUS
 62
     4
100
AcDbLine
 10
96.23272700000001
 20
90.90000000000001
 30
0.0
 11
96.23272700000001
 21
83.631515
 31
0.0
  0
LINE
  5
C6
330
C1
100
AcDbEntity
  8
CSLAYER2
  6
CONTINUOUS
 62
     4
100
AcDbLine
 10
61.23272700000001
 20
84.631515
 30
0.0
 11
96.23272700000001
 21
84.631515
 31
0.0
  0
LINE
  5
C7
330
C1
100
AcDbEntity
  8
CSLAYER2
  6
CONTINUOUS
 62
     4
100
AcDbLine
 10
61.23272700000001
 20
84.631515
 30
0.0
 11
64.130505
 21
85.407972
 31
0.0
  0
LINE
  5
C8
330
C1
100
AcDbEntity
  8
CSLAYER2
  6
CONTINUOUS
 62
     4
100
AcDbLine
 10
61.23272700000001
 20
84.631515
 30
0.0
 11
64.130505
 21
83.855058
 31
0.0
  0
LINE
  5
C9
330
C1
100
AcDbEntity
  8
CSLAYER2
  6
CONTINUOUS
 62
     4
100
AcDbLine
 10
96.23272700000001
 20
84.631515
 30
0.0
 11
93.33495
 21
85.407972
 31
0.0
  0
LINE
  5
CA
330
C1
100
AcDbEntity
  8
CSLAYER2
  6
CONTINUOUS
 62
     4
100
AcDbLine
 10
96.23272700000001
 20
84.631515
 30
0.0
 11
93.33495
 21
83.855058
 31
0.0
  0
ENDBLK
  5
CB
330
C1
100
AcDbEntity
  8
0
100
AcDbBlockEnd
  0
BLOCK
  5
CD
330
CC
100
AcDbEntity
  8
0
100
AcDbBlockBegin
  2
*D14
 70
     1
 10
0.0
 20
0.0
 30
0.0
  3
*D14
  1

  0
TEXT
  5
CE
330
CC
100
AcDbEntity
  8
CSLAYER2
 62
     4
100
AcDbText
 10
81.65272100000001
 20
72.958786
 30
0.0
 40
3.2
  1
3.5
 41
1.124999999999997
 51
15.0
  7
FX_FONT
 72
     5
 11
91.252721
 21
72.958786
 31
0.0
100
AcDbText
  0
LINE
  5
CF
330
CC
100
AcDbEntity
  8
CSLAYER2
  6
CONTINUOUS
 62
     4
100
AcDbLine
 10
61.23272700000001
 20
67.9
 30
0.0
 11
61.23272700000001
 21
73.18060600000002
 31
0.0
  0
LINE
  5
D0
330
CC
100
AcDbEntity
  8
CSLAYER2
  6
CONTINUOUS
 62
     4
100
AcDbLine
 10
96.23272700000001
 20
67.9
 30
0.0
 11
96.23272700000001
 21
73.18060600000002
 31
0.0
  0
LINE
  5
D1
330
CC
100
AcDbEntity
  8
CSLAYER2
  6
CONTINUOUS
 62
     4
100
AcDbLine
 10
61.23272700000001
 20
72.18060600000002
 30
0.0
 11
96.23272700000001
 21
72.18060600000002
 31
0.0
  0
LINE
  5
D2
330
CC
100
AcDbEntity
  8
CSLAYER2
  6
CONTINUOUS
 62
     4
100
AcDbLine
 10
61.23272700000001
 20
72.18060600000002
 30
0.0
 11
64.130505
 21
72.957063
 31
0.0
  0
LINE
  5
D3
330
CC
100
AcDbEntity
  8
CSLAYER2
  6
CONTINUOUS
 62
     4
100
AcDbLine
 10
61.23272700000001
 20
72.18060600000002
 30
0.0
 11
64.130505
 21
71.404149
 31
0.0
  0
LINE
  5
D4
330
CC
100
AcDbEntity
  8
CSLAYER2
  6
CONTINUOUS
 62
     4
100
AcDbLine
 10
96.23272700000001
 20
72.18060600000002
 30
0.0
 11
93.33495
 21
72.957063
 31
0.0
  0
LINE
  5
D5
330
CC
100
AcDbEntity
  8
CSLAYER2
  6
CONTINUOUS
 62
     4
100
AcDbLine
 10
96.23272700000001
 20
72.18060600000002
 30
0.0
 11
93.33495
 21
71.404149
 31
0.0
  0
ENDBLK
  5
D6
330
CC
100
AcDbEntity
  8
0
100
AcDbBlockEnd
  0
BLOCK
  5
D8
330
D7
100
AcDbEntity
  8
0
100
AcDbBlockBegin
  2
*D15
 70
     1
 10
0.0
 20
0.0
 30
0.0
  3
*D15
  1

  0
TEXT
  5
D9
330
D7
100
AcDbEntity
  8
CSLAYER2
 62
     4
100
AcDbText
 10
97.841135
 20
66.71220699999999
 30
0.0
 40
3.2
  1
45%%d
 50
22.49999915748211
 41
1.285714348609481
 51
15.0
  7
FX_FONT
 72
     5
 11
106.7103789999999
 21
70.385968
 31
0.0
100
AcDbText
  0
ARC
  5
DA
330
D7
100
AcDbEntity
  8
CSLAYER2
  6
CONTINUOUS
 62
     4
100
AcDbCircle
 10
106.2327269999999
 20
56.9
 30
0.0
 40
9.761333
100
AcDbArc
 50
90.0
 51
135.0
  0
LINE
  5
DB
330
D7
100
AcDbEntity
  8
CSLAYER2
  6
CONTINUOUS
 62
     4
100
AcDbLine
 10
106.2327269999999
 20
66.661333
 30
0.0
 11
103.33495
 21
67.43779
 31
0.0
  0
LINE
  5
DC
330
D7
100
AcDbEntity
  8
CSLAYER2
  6
CONTINUOUS
 62
     4
100
AcDbLine
 10
106.2327269999999
 20
66.661333
 30
0.0
 11
103.33495
 21
65.884876
 31
0.0
  0
LINE
  5
DD
330
D7
100
AcDbEntity
  8
CSLAYER2
  6
CONTINUOUS
 62
     4
100
AcDbLine
 10
99.330423
 20
63.802305
 30
0.0
 11
100.830423
 21
66.40038100000001
 31
0.0
  0
LINE
  5
DE
330
D7
100
AcDbEntity
  8
CSLAYER2
  6
CONTINUOUS
 62
     4
100
AcDbLine
 10
99.330423
 20
63.802305
 30
0.0
 11
101.928499
 21
65.302305
 31
0.0
  0
ENDBLK
  5
DF
330
D7
100
AcDbEntity
  8
0
100
AcDbBlockEnd
  0
BLOCK
  5
E1
330
E0
100
AcDbEntity
  8
0
100
AcDbBlockBegin
  2
*D16
 70
     1
 10
0.0
 20
0.0
 30
0.0
  3
*D16
  1

  0
TEXT
  5
E2
330
E0
100
AcDbEntity
  8
CSLAYER2
 62
     4
100
AcDbText
 10
62.78228299999999
 20
73.79872900000002
 30
0.0
 40
3.2
  1
3.5
 41
1.125000000000001
 51
15.0
  7
FX_FONT
 72
     5
 11
72.382283
 21
73.79872900000002
 31
0.0
100
AcDbText
  0
LINE
  5
E3
330
E0
100
AcDbEntity
  8
CSLAYER2
  6
CONTINUOUS
 62
     4
100
AcDbLine
 10
43.140461
 20
79.289029
 30
0.0
 11
43.140461
 21
72.020544
 31
0.0
  0
LINE
  5
E4
330
E0
100
AcDbEntity
  8
CSLAYER2
  6
CONTINUOUS
 62
     4
100
AcDbLine
 10
78.140461
 20
79.289029
 30
0.0
 11
78.140461
 21
72.020544
 31
0.0
  0
LINE
  5
E5
330
E0
100
AcDbEntity
  8
CSLAYER2
  6
CONTINUOUS
 62
     4
100
AcDbLine
 10
43.140461
 20
73.020544
 30
0.0
 11
78.140461
 21
73.020544
 31
0.0
  0
LINE
  5
E6
330
E0
100
AcDbEntity
  8
CSLAYER2
  6
CONTINUOUS
 62
     4
100
AcDbLine
 10
43.140461
 20
73.020544
 30
0.0
 11
46.038239
 21
73.79700099999998
 31
0.0
  0
LINE
  5
E7
330
E0
100
AcDbEntity
  8
CSLAYER2
  6
CONTINUOUS
 62
     4
100
AcDbLine
 10
43.140461
 20
73.020544
 30
0.0
 11
46.038239
 21
72.24408699999997
 31
0.0
  0
LINE
  5
E8
330
E0
100
AcDbEntity
  8
CSLAYER2
  6
CONTINUOUS
 62
     4
100
AcDbLine
 10
78.140461
 20
73.020544
 30
0.0
 11
75.242684
 21
73.79700099999998
 31
0.0
  0
LINE
  5
E9
330
E0
100
AcDbEntity
  8
CSLAYER2
  6
CONTINUOUS
 62
     4
100
AcDbLine
 10
78.140461
 20
73.020544
 30
0.0
 11
75.242684
 21
72.24408699999997
 31
0.0
  0
ENDBLK
  5
EA
330
E0
100
AcDbEntity
  8
0
100
AcDbBlockEnd
  0
BLOCK
  5
EC
330
EB
100
AcDbEntity
  8
0
100
AcDbBlockBegin
  2
*D17
 70
     1
 10
0.0
 20
0.0
 30
0.0
  3
*D17
  1

  0
TEXT
  5
ED
330
EB
100
AcDbEntity
  8
CSLAYER2
 62
     4
100
AcDbText
 10
63.560458
 20
61.347816
 30
0.0
 40
3.2
  1
3.5
 41
1.124999999999997
 51
15.0
  7
FX_FONT
 72
     5
 11
73.16045799999997
 21
61.347816
 31
0.0
100
AcDbText
  0
LINE
  5
EE
330
EB
100
AcDbEntity
  8
CSLAYER2
  6
CONTINUOUS
 62
     4
100
AcDbLine
 10
43.140461
 20
56.289029
 30
0.0
 11
43.140461
 21
61.56963499999999
 31
0.0
  0
LINE
  5
EF
330
EB
100
AcDbEntity
  8
CSLAYER2
  6
CONTINUOUS
 62
     4
100
AcDbLine
 10
78.140461
 20
56.289029
 30
0.0
 11
78.140461
 21
61.56963499999999
 31
0.0
  0
LINE
  5
F0
330
EB
100
AcDbEntity
  8
CSLAYER2
  6
CONTINUOUS
 62
     4
100
AcDbLine
 10
43.140461
 20
60.569635
 30
0.0
 11
78.140461
 21
60.569635
 31
0.0
  0
LINE
  5
F1
330
EB
100
AcDbEntity
  8
CSLAYER2
  6
CONTINUOUS
 62
     4
100
AcDbLine
 10
43.140461
 20
60.569635
 30
0.0
 11
46.038239
 21
61.346092
 31
0.0
  0
LINE
  5
F2
330
EB
100
AcDbEntity
  8
CSLAYER2
  6
CONTINUOUS
 62
     4
100
AcDbLine
 10
43.140461
 20
60.569635
 30
0.0
 11
46.038239
 21
59.793178
 31
0.0
  0
LINE
  5
F3
330
EB
100
AcDbEntity
  8
CSLAYER2
  6
CONTINUOUS
 62
     4
100
AcDbLine
 10
78.140461
 20
60.569635
 30
0.0
 11
75.242684
 21
61.346092
 31
0.0
  0
LINE
  5
F4
330
EB
100
AcDbEntity
  8
CSLAYER2
  6
CONTINUOUS
 62
     4
100
AcDbLine
 10
78.140461
 20
60.569635
 30
0.0
 11
75.242684
 21
59.793178
 31
0.0
  0
ENDBLK
  5
F5
330
EB
100
AcDbEntity
  8
0
100
AcDbBlockEnd
  0
BLOCK
  5
F7
330
F6
100
AcDbEntity
  8
0
100
AcDbBlockBegin
  2
*D18
 70
     1
 10
0.0
 20
0.0
 30
0.0
  3
*D18
  1

  0
TEXT
  5
F8
330
F6
100
AcDbEntity
  8
CSLAYER2
 62
     4
100
AcDbText
 10
79.748873
 20
55.101241
 30
0.0
 40
3.2
  1
45%%d
 50
22.50000144145532
 41
1.285714224875627
 51
15.0
  7
FX_FONT
 72
     5
 11
88.61811600000001
 21
58.775002
 31
0.0
100
AcDbText
  0
ARC
  5
F9
330
F6
100
AcDbEntity
  8
CSLAYER2
  6
CONTINUOUS
 62
     4
100
AcDbCircle
 10
88.140461
 20
45.289029
 30
0.0
 40
9.761333
100
AcDbArc
 50
90.0
 51
135.0
  0
LINE
  5
FA
330
F6
100
AcDbEntity
  8
CSLAYER2
  6
CONTINUOUS
 62
     4
100
AcDbLine
 10
88.140461
 20
55.050362
 30
0.0
 11
85.242684
 21
55.82681899999999
 31
0.0
  0
LINE
  5
FB
330
F6
100
AcDbEntity
  8
CSLAYER2
  6
CONTINUOUS
 62
     4
100
AcDbLine
 10
88.140461
 20
55.050362
 30
0.0
 11
85.242684
 21
54.27390500000001
 31
0.0
  0
LINE
  5
FC
330
F6
100
AcDbEntity
  8
CSLAYER2
  6
CONTINUOUS
 62
     4
100
AcDbLine
 10
81.23815699999999
 20
52.191333
 30
0.0
 11
82.738157
 21
54.78940999999998
 31
0.0
  0
LINE
  5
FD
330
F6
100
AcDbEntity
  8
CSLAYER2
  6
CONTINUOUS
 62
     4
100
AcDbLine
 10
81.23815699999999
 20
52.191333
 30
0.0
 11
83.836233
 21
53.69133299999999
 31
0.0
  0
ENDBLK
  5
FE
330
F6
100
AcDbEntity
  8
0
100
AcDbBlockEnd
  0
BLOCK
  5
100
330
FF
100
AcDbEntity
  8
0
100
AcDbBlockBegin
  2
*D19
 70
     1
 10
0.0
 20
0.0
 30
0.0
  3
*D19
  1

  0
TEXT
  5
101
330
FF
100
AcDbEntity
  8
CSLAYER2
 62
     4
100
AcDbText
 10
60.930659
 20
74.90969799999998
 30
0.0
 40
3.2
  1
3.5
 41
1.125000117187499
 51
15.0
  7
FX_FONT
 72
     5
 11
70.53066
 21
74.90969799999998
 31
0.0
100
AcDbText
  0
LINE
  5
102
330
FF
100
AcDbEntity
  8
CSLAYER2
  6
CONTINUOUS
 62
     4
100
AcDbLine
 10
41.288843
 20
80.4
 30
0.0
 11
41.288843
 21
73.131515
 31
0.0
  0
LINE
  5
103
330
FF
100
AcDbEntity
  8
CSLAYER2
  6
CONTINUOUS
 62
     4
100
AcDbLine
 10
76.288843
 20
80.4
 30
0.0
 11
76.288843
 21
73.131515
 31
0.0
  0
LINE
  5
104
330
FF
100
AcDbEntity
  8
CSLAYER2
  6
CONTINUOUS
 62
     4
100
AcDbLine
 10
41.288843
 20
74.13151500000002
 30
0.0
 11
76.288843
 21
74.13151500000002
 31
0.0
  0
LINE
  5
105
330
FF
100
AcDbEntity
  8
CSLAYER2
  6
CONTINUOUS
 62
     4
100
AcDbLine
 10
41.288843
 20
74.13151500000002
 30
0.0
 11
44.18662
 21
74.907972
 31
0.0
  0
LINE
  5
106
330
FF
100
AcDbEntity
  8
CSLAYER2
  6
CONTINUOUS
 62
     4
100
AcDbLine
 10
41.288843
 20
74.13151500000002
 30
0.0
 11
44.18662
 21
73.35505799999999
 31
0.0
  0
LINE
  5
107
330
FF
100
AcDbEntity
  8
CSLAYER2
  6
CONTINUOUS
 62
     4
100
AcDbLine
 10
76.288843
 20
74.13151500000002
 30
0.0
 11
73.39106499999998
 21
74.907972
 31
0.0
  0
LINE
  5
108
330
FF
100
AcDbEntity
  8
CSLAYER2
  6
CONTINUOUS
 62
     4
100
AcDbLine
 10
76.288843
 20
74.13151500000002
 30
0.0
 11
73.39106499999998
 21
73.35505799999999
 31
0.0
  0
ENDBLK
  5
109
330
FF
100
AcDbEntity
  8
0
100
AcDbBlockEnd
  0
BLOCK
  5
10B
330
10A
100
AcDbEntity
  8
0
100
AcDbBlockBegin
  2
*D20
 70
     1
 10
0.0
 20
0.0
 30
0.0
  3
*D20
  1

  0
TEXT
  5
10C
330
10A
100
AcDbEntity
  8
CSLAYER2
 62
     4
100
AcDbText
 10
61.708835
 20
62.458786
 30
0.0
 40
3.2
  1
3.5
 41
1.125
 51
15.0
  7
FX_FONT
 72
     5
 11
71.308835
 21
62.458786
 31
0.0
100
AcDbText
  0
LINE
  5
10D
330
10A
100
AcDbEntity
  8
CSLAYER2
  6
CONTINUOUS
 62
     4
100
AcDbLine
 10
41.288843
 20
57.4
 30
0.0
 11
41.288843
 21
62.680606
 31
0.0
  0
LINE
  5
10E
330
10A
100
AcDbEntity
  8
CSLAYER2
  6
CONTINUOUS
 62
     4
100
AcDbLine
 10
76.288843
 20
57.4
 30
0.0
 11
76.288843
 21
62.680606
 31
0.0
  0
LINE
  5
10F
330
10A
100
AcDbEntity
  8
CSLAYER2
  6
CONTINUOUS
 62
     4
100
AcDbLine
 10
41.288843
 20
61.680606
 30
0.0
 11
76.288843
 21
61.680606
 31
0.0
  0
LINE
  5
110
330
10A
100
AcDbEntity
  8
CSLAYER2
  6
CONTINUOUS
 62
     4
100
AcDbLine
 10
41.288843
 20
61.680606
 30
0.0
 11
44.18662
 21
62.457063
 31
0.0
  0
LINE
  5
111
330
10A
100
AcDbEntity
  8
CSLAYER2
  6
CONTINUOUS
 62
     4
100
AcDbLine
 10
41.288843
 20
61.680606
 30
0.0
 11
44.18662
 21
60.90414899999998
 31
0.0
  0
LINE
  5
112
330
10A
100
AcDbEntity
  8
CSLAYER2
  6
CONTINUOUS
 62
     4
100
AcDbLine
 10
76.288843
 20
61.680606
 30
0.0
 11
73.39106499999998
 21
62.457063
 31
0.0
  0
LINE
  5
113
330
10A
100
AcDbEntity
  8
CSLAYER2
  6
CONTINUOUS
 62
     4
100
AcDbLine
 10
76.288843
 20
61.680606
 30
0.0
 11
73.39106499999998
 21
60.90414899999998
 31
0.0
  0
ENDBLK
  5
114
330
10A
100
AcDbEntity
  8
0
100
AcDbBlockEnd
  0
BLOCK
  5
116
330
115
100
AcDbEntity
  8
0
100
AcDbBlockBegin
  2
*D21
 70
     1
 10
0.0
 20
0.0
 30
0.0
  3
*D21
  1

  0
TEXT
  5
117
330
115
100
AcDbEntity
  8
CSLAYER2
 62
     4
100
AcDbText
 10
77.897249
 20
56.21221099999999
 30
0.0
 40
3.2
  1
45%%d
 50
22.49999915748181
 41
1.285714348609495
 51
15.0
  7
FX_FONT
 72
     5
 11
86.76649300000002
 21
59.885972
 31
0.0
100
AcDbText
  0
ARC
  5
118
330
115
100
AcDbEntity
  8
CSLAYER2
  6
CONTINUOUS
 62
     4
100
AcDbCircle
 10
86.28884300000001
 20
46.39999999999999
 30
0.0
 40
9.761333
100
AcDbArc
 50
90.0
 51
135.0
  0
LINE
  5
119
330
115
100
AcDbEntity
  8
CSLAYER2
  6
CONTINUOUS
 62
     4
100
AcDbLine
 10
86.28884300000001
 20
56.161333
 30
0.0
 11
83.39106499999997
 21
56.93779
 31
0.0
  0
LINE
  5
11A
330
115
100
AcDbEntity
  8
CSLAYER2
  6
CONTINUOUS
 62
     4
100
AcDbLine
 10
86.28884300000001
 20
56.161333
 30
0.0
 11
83.39106499999997
 21
55.38487599999999
 31
0.0
  0
LINE
  5
11B
330
115
100
AcDbEntity
  8
CSLAYER2
  6
CONTINUOUS
 62
     4
100
AcDbLine
 10
79.386538
 20
53.302305
 30
0.0
 11
80.88653800000001
 21
55.90038100000001
 31
0.0
  0
LINE
  5
11C
330
115
100
AcDbEntity
  8
CSLAYER2
  6
CONTINUOUS
 62
     4
100
AcDbLine
 10
79.386538
 20
53.302305
 30
0.0
 11
81.98461400000002
 21
54.80230500000001
 31
0.0
  0
ENDBLK
  5
11D
330
115
100
AcDbEntity
  8
0
100
AcDbBlockEnd
  0
BLOCK
  5
11F
330
11E
100
AcDbEntity
  8
0
100
AcDbBlockBegin
  2
*D22
 70
     1
 10
0.0
 20
0.0
 30
0.0
  3
*D22
  1

  0
TEXT
  5
120
330
11E
100
AcDbEntity
  8
CSLAYER2
 62
     4
100
AcDbText
 10
63.15260600000002
 20
77.501961
 30
0.0
 40
3.2
  1
3.5
 41
1.124999999999998
 51
15.0
  7
FX_FONT
 72
     5
 11
72.752606
 21
77.501961
 31
0.0
100
AcDbText
  0
LINE
  5
121
330
11E
100
AcDbEntity
  8
CSLAYER2
  6
CONTINUOUS
 62
     4
100
AcDbLine
 10
43.51078499999998
 20
82.992266
 30
0.0
 11
43.51078499999998
 21
75.723781
 31
0.0
  0
LINE
  5
122
330
11E
100
AcDbEntity
  8
CSLAYER2
  6
CONTINUOUS
 62
     4
100
AcDbLine
 10
78.51078499999998
 20
82.992266
 30
0.0
 11
78.51078499999998
 21
75.723781
 31
0.0
  0
LINE
  5
123
330
11E
100
AcDbEntity
  8
CSLAYER2
  6
CONTINUOUS
 62
     4
100
AcDbLine
 10
43.51078499999998
 20
76.723781
 30
0.0
 11
78.51078499999998
 21
76.723781
 31
0.0
  0
LINE
  5
124
330
11E
100
AcDbEntity
  8
CSLAYER2
  6
CONTINUOUS
 62
     4
100
AcDbLine
 10
43.51078499999998
 20
76.723781
 30
0.0
 11
46.40856199999999
 21
77.500238
 31
0.0
  0
LINE
  5
125
330
11E
100
AcDbEntity
  8
CSLAYER2
  6
CONTINUOUS
 62
     4
100
AcDbLine
 10
43.51078499999998
 20
76.723781
 30
0.0
 11
46.40856199999999
 21
75.94732399999998
 31
0.0
  0
LINE
  5
126
330
11E
100
AcDbEntity
  8
CSLAYER2
  6
CONTINUOUS
 62
     4
100
AcDbLine
 10
78.51078499999998
 20
76.723781
 30
0.0
 11
75.613007
 21
77.500238
 31
0.0
  0
LINE
  5
127
330
11E
100
AcDbEntity
  8
CSLAYER2
  6
CONTINUOUS
 62
     4
100
AcDbLine
 10
78.51078499999998
 20
76.723781
 30
0.0
 11
75.613007
 21
75.94732399999998
 31
0.0
  0
ENDBLK
  5
128
330
11E
100
AcDbEntity
  8
0
100
AcDbBlockEnd
  0
BLOCK
  5
12A
330
129
100
AcDbEntity
  8
0
100
AcDbBlockBegin
  2
*D23
 70
     1
 10
0.0
 20
0.0
 30
0.0
  3
*D23
  1

  0
TEXT
  5
12B
330
129
100
AcDbEntity
  8
CSLAYER2
 62
     4
100
AcDbText
 10
63.930781
 20
65.05104799999999
 30
0.0
 40
3.2
  1
3.5
 41
1.125000117187498
 51
15.0
  7
FX_FONT
 72
     5
 11
73.53078199999998
 21
65.05104799999999
 31
0.0
100
AcDbText
  0
LINE
  5
12C
330
129
100
AcDbEntity
  8
CSLAYER2
  6
CONTINUOUS
 62
     4
100
AcDbLine
 10
43.51078499999998
 20
59.992266
 30
0.0
 11
43.51078499999998
 21
65.27287199999999
 31
0.0
  0
LINE
  5
12D
330
129
100
AcDbEntity
  8
CSLAYER2
  6
CONTINUOUS
 62
     4
100
AcDbLine
 10
78.51078499999998
 20
59.992266
 30
0.0
 11
78.51078499999998
 21
65.27287199999999
 31
0.0
  0
LINE
  5
12E
330
129
100
AcDbEntity
  8
CSLAYER2
  6
CONTINUOUS
 62
     4
100
AcDbLine
 10
43.51078499999998
 20
64.27287199999999
 30
0.0
 11
78.51078499999998
 21
64.27287199999999
 31
0.0
  0
LINE
  5
12F
330
129
100
AcDbEntity
  8
CSLAYER2
  6
CONTINUOUS
 62
     4
100
AcDbLine
 10
43.51078499999998
 20
64.27287199999999
 30
0.0
 11
46.40856199999999
 21
65.049329
 31
0.0
  0
LINE
  5
130
330
129
100
AcDbEntity
  8
CSLAYER2
  6
CONTINUOUS
 62
     4
100
AcDbLine
 10
43.51078499999998
 20
64.27287199999999
 30
0.0
 11
46.40856199999999
 21
63.496415
 31
0.0
  0
LINE
  5
131
330
129
100
AcDbEntity
  8
CSLAYER2
  6
CONTINUOUS
 62
     4
100
AcDbLine
 10
78.51078499999998
 20
64.27287199999999
 30
0.0
 11
75.613007
 21
65.049329
 31
0.0
  0
LINE
  5
132
330
129
100
AcDbEntity
  8
CSLAYER2
  6
CONTINUOUS
 62
     4
100
AcDbLine
 10
78.51078499999998
 20
64.27287199999999
 30
0.0
 11
75.613007
 21
63.496415
 31
0.0
  0
ENDBLK
  5
133
330
129
100
AcDbEntity
  8
0
100
AcDbBlockEnd
  0
BLOCK
  5
135
330
134
100
AcDbEntity
  8
0
100
AcDbBlockBegin
  2
*D24
 70
     1
 10
0.0
 20
0.0
 30
0.0
  3
*D24
  1

  0
TEXT
  5
136
330
134
100
AcDbEntity
  8
CSLAYER2
 62
     4
100
AcDbText
 10
80.119196
 20
58.804477
 30
0.0
 40
3.2
  1
45%%d
 50
22.49999915748179
 41
1.285714348609491
 51
15.0
  7
FX_FONT
 72
     5
 11
88.98844
 21
62.47823799999999
 31
0.0
100
AcDbText
  0
ARC
  5
137
330
134
100
AcDbEntity
  8
CSLAYER2
  6
CONTINUOUS
 62
     4
100
AcDbCircle
 10
88.51078499999998
 20
48.992266
 30
0.0
 40
9.761333
100
AcDbArc
 50
90.0
 51
135.0
  0
LINE
  5
138
330
134
100
AcDbEntity
  8
CSLAYER2
  6
CONTINUOUS
 62
     4
100
AcDbLine
 10
88.51078499999998
 20
58.753599
 30
0.0
 11
85.613007
 21
59.530056
 31
0.0
  0
LINE
  5
139
330
134
100
AcDbEntity
  8
CSLAYER2
  6
CONTINUOUS
 62
     4
100
AcDbLine
 10
88.51078499999998
 20
58.753599
 30
0.0
 11
85.613007
 21
57.97714200000001
 31
0.0
  0
LINE
  5
13A
330
134
100
AcDbEntity
  8
CSLAYER2
  6
CONTINUOUS
 62
     4
100
AcDbLine
 10
81.60847999999999
 20
55.894571
 30
0.0
 11
83.10848
 21
58.49264699999999
 31
0.0
  0
LINE
  5
13B
330
134
100
AcDbEntity
  8
CSLAYER2
  6
CONTINUOUS
 62
     4
100
AcDbLine
 10
81.60847999999999
 20
55.894571
 30
0.0
 11
84.20655699999997
 21
57.394571
 31
0.0
  0
ENDBLK
  5
13C
330
134
100
AcDbEntity
  8
0
100
AcDbBlockEnd
  0
BLOCK
  5
13E
330
13D
100
AcDbEntity
  8
0
100
AcDbBlockBegin
  2
*D25
 70
     1
 10
0.0
 20
0.0
 30
0.0
  3
*D25
  1

  0
TEXT
  5
13F
330
13D
100
AcDbEntity
  8
CSLAYER2
 62
     4
100
AcDbText
 10
63.52292900000001
 20
77.501961
 30
0.0
 40
3.2
  1
3.5
 41
1.124999999999998
 51
15.0
  7
FX_FONT
 72
     5
 11
73.122929
 21
77.501961
 31
0.0
100
AcDbText
  0
LINE
  5
140
330
13D
100
AcDbEntity
  8
CSLAYER2
  6
CONTINUOUS
 62
     4
100
AcDbLine
 10
43.881109
 20
82.992266
 30
0.0
 11
43.881109
 21
75.723781
 31
0.0
  0
LINE
  5
141
330
13D
100
AcDbEntity
  8
CSLAYER2
  6
CONTINUOUS
 62
     4
100
AcDbLine
 10
78.881109
 20
82.992266
 30
0.0
 11
78.881109
 21
75.723781
 31
0.0
  0
LINE
  5
142
330
13D
100
AcDbEntity
  8
CSLAYER2
  6
CONTINUOUS
 62
     4
100
AcDbLine
 10
43.881109
 20
76.723781
 30
0.0
 11
78.881109
 21
76.723781
 31
0.0
  0
LINE
  5
143
330
13D
100
AcDbEntity
  8
CSLAYER2
  6
CONTINUOUS
 62
     4
100
AcDbLine
 10
43.881109
 20
76.723781
 30
0.0
 11
46.778886
 21
77.500238
 31
0.0
  0
LINE
  5
144
330
13D
100
AcDbEntity
  8
CSLAYER2
  6
CONTINUOUS
 62
     4
100
AcDbLine
 10
43.881109
 20
76.723781
 30
0.0
 11
46.778886
 21
75.94732399999998
 31
0.0
  0
LINE
  5
145
330
13D
100
AcDbEntity
  8
CSLAYER2
  6
CONTINUOUS
 62
     4
100
AcDbLine
 10
78.881109
 20
76.723781
 30
0.0
 11
75.98333100000002
 21
77.500238
 31
0.0
  0
LINE
  5
146
330
13D
100
AcDbEntity
  8
CSLAYER2
  6
CONTINUOUS
 62
     4
100
AcDbLine
 10
78.881109
 20
76.723781
 30
0.0
 11
75.98333100000002
 21
75.94732399999998
 31
0.0
  0
ENDBLK
  5
147
330
13D
100
AcDbEntity
  8
0
100
AcDbBlockEnd
  0
BLOCK
  5
149
330
148
100
AcDbEntity
  8
0
100
AcDbBlockBegin
  2
*D26
 70
     1
 10
0.0
 20
0.0
 30
0.0
  3
*D26
  1

  0
TEXT
  5
14A
330
148
100
AcDbEntity
  8
CSLAYER2
 62
     4
100
AcDbText
 10
64.30110500000001
 20
65.05104799999999
 30
0.0
 40
3.2
  1
3.5
 41
1.124999999999999
 51
15.0
  7
FX_FONT
 72
     5
 11
73.901105
 21
65.05104799999999
 31
0.0
100
AcDbText
  0
LINE
  5
14B
330
148
100
AcDbEntity
  8
CSLAYER2
  6
CONTINUOUS
 62
     4
100
AcDbLine
 10
43.881109
 20
59.992266
 30
0.0
 11
43.881109
 21
65.27287199999999
 31
0.0
  0
LINE
  5
14C
330
148
100
AcDbEntity
  8
CSLAYER2
  6
CONTINUOUS
 62
     4
100
AcDbLine
 10
78.881109
 20
59.992266
 30
0.0
 11
78.881109
 21
65.27287199999999
 31
0.0
  0
LINE
  5
14D
330
148
100
AcDbEntity
  8
CSLAYER2
  6
CONTINUOUS
 62
     4
100
AcDbLine
 10
43.881109
 20
64.27287199999999
 30
0.0
 11
78.881109
 21
64.27287199999999
 31
0.0
  0
LINE
  5
14E
330
148
100
AcDbEntity
  8
CSLAYER2
  6
CONTINUOUS
 62
     4
100
AcDbLine
 10
43.881109
 20
64.27287199999999
 30
0.0
 11
46.778886
 21
65.049329
 31
0.0
  0
LINE
  5
14F
330
148
100
AcDbEntity
  8
CSLAYER2
  6
CONTINUOUS
 62
     4
100
AcDbLine
 10
43.881109
 20
64.27287199999999
 30
0.0
 11
46.778886
 21
63.496415
 31
0.0
  0
LINE
  5
150
330
148
100
AcDbEntity
  8
CSLAYER2
  6
CONTINUOUS
 62
     4
100
AcDbLine
 10
78.881109
 20
64.27287199999999
 30
0.0
 11
75.98333100000002
 21
65.049329
 31
0.0
  0
LINE
  5
151
330
148
100
AcDbEntity
  8
CSLAYER2
  6
CONTINUOUS
 62
     4
100
AcDbLine
 10
78.881109
 20
64.27287199999999
 30
0.0
 11
75.98333100000002
 21
63.496415
 31
0.0
  0
ENDBLK
  5
152
330
148
100
AcDbEntity
  8
0
100
AcDbBlockEnd
  0
BLOCK
  5
154
330
153
100
AcDbEntity
  8
0
100
AcDbBlockBegin
  2
*D27
 70
     1
 10
0.0
 20
0.0
 30
0.0
  3
*D27
  1

  0
TEXT
  5
155
330
153
100
AcDbEntity
  8
CSLAYER2
 62
     4
100
AcDbText
 10
80.489519
 20
58.804477
 30
0.0
 40
3.2
  1
45%%d
 50
22.49999915748179
 41
1.285714348609491
 51
15.0
  7
FX_FONT
 72
     5
 11
89.358763
 21
62.47823799999999
 31
0.0
100
AcDbText
  0
ARC
  5
156
330
153
100
AcDbEntity
  8
CSLAYER2
  6
CONTINUOUS
 62
     4
100
AcDbCircle
 10
88.88110899999999
 20
48.992266
 30
0.0
 40
9.761333
100
AcDbArc
 50
90.0
 51
135.0
  0
LINE
  5
157
330
153
100
AcDbEntity
  8
CSLAYER2
  6
CONTINUOUS
 62
     4
100
AcDbLine
 10
88.88110899999999
 20
58.753599
 30
0.0
 11
85.98333100000003
 21
59.530056
 31
0.0
  0
LINE
  5
158
330
153
100
AcDbEntity
  8
CSLAYER2
  6
CONTINUOUS
 62
     4
100
AcDbLine
 10
88.88110899999999
 20
58.753599
 30
0.0
 11
85.98333100000003
 21
57.97714200000001
 31
0.0
  0
LINE
  5
159
330
153
100
AcDbEntity
  8
CSLAYER2
  6
CONTINUOUS
 62
     4
100
AcDbLine
 10
81.978804
 20
55.894571
 30
0.0
 11
83.47880399999999
 21
58.49264699999999
 31
0.0
  0
LINE
  5
15A
330
153
100
AcDbEntity
  8
CSLAYER2
  6
CONTINUOUS
 62
     4
100
AcDbLine
 10
81.978804
 20
55.894571
 30
0.0
 11
84.57688
 21
57.394571
 31
0.0
  0
ENDBLK
  5
15B
330
153
100
AcDbEntity
  8
0
100
AcDbBlockEnd
  0
BLOCK
  5
15D
330
15C
100
AcDbEntity
  8
0
100
AcDbBlockBegin
  2
*D28
 70
     1
 10
0.0
 20
0.0
 30
0.0
  3
*D28
  1

  0
TEXT
  5
15E
330
15C
100
AcDbEntity
  8
CSLAYER1
 62
     4
100
AcDbText
 10
106.0102919999999
 20
132.8
 30
0.0
 40
3.2
  1
12
 50
90.0
 41
1.199999999999979
 51
15.0
  7
FX_FONT
 72
     5
 11
106.0102919999999
 21
139.1999999999999
 31
0.0
100
AcDbText
  0
LINE
  5
15F
330
15C
100
AcDbEntity
  8
CSLAYER1
  6
CONTINUOUS
 62
     4
100
AcDbLine
 10
116.0
 20
130.0
 30
0.0
 11
105.510284
 21
130.0
 31
0.0
  0
LINE
  5
160
330
15C
100
AcDbEntity
  8
CSLAYER1
  6
CONTINUOUS
 62
     4
100
AcDbLine
 10
116.0
 20
142.0
 30
0.0
 11
105.510284
 21
142.0
 31
0.0
  0
LINE
  5
161
330
15C
100
AcDbEntity
  8
CSLAYER1
  6
CONTINUOUS
 62
     4
100
AcDbLine
 10
106.510284
 20
130.0
 30
0.0
 11
106.510284
 21
142.0
 31
0.0
  0
LINE
  5
162
330
15C
100
AcDbEntity
  8
CSLAYER1
  6
CONTINUOUS
 62
     4
100
AcDbLine
 10
106.510284
 20
130.0
 30
0.0
 11
105.733827
 21
132.8977769999999
 31
0.0
  0
LINE
  5
163
330
15C
100
AcDbEntity
  8
CSLAYER1
  6
CONTINUOUS
 62
     4
100
AcDbLine
 10
106.510284
 20
130.0
 30
0.0
 11
107.2867409999999
 21
132.8977769999999
 31
0.0
  0
LINE
  5
164
330
15C
100
AcDbEntity
  8
CSLAYER1
  6
CONTINUOUS
 62
     4
100
AcDbLine
 10
106.510284
 20
142.0
 30
0.0
 11
105.733827
 21
139.102223
 31
0.0
  0
LINE
  5
165
330
15C
100
AcDbEntity
  8
CSLAYER1
  6
CONTINUOUS
 62
     4
100
AcDbLine
 10
106.510284
 20
142.0
 30
0.0
 11
107.2867409999999
 21
139.102223
 31
0.0
  0
ENDBLK
  5
166
330
15C
100
AcDbEntity
  8
0
100
AcDbBlockEnd
  0
BLOCK
  5
168
330
167
100
AcDbEntity
  8
0
100
AcDbBlockBegin
  2
*D29
 70
     1
 10
0.0
 20
0.0
 30
0.0
  3
*D29
  1

  0
TEXT
  5
169
330
167
100
AcDbEntity
  8
CSLAYER1
 62
     4
100
AcDbText
 10
129.2637029999999
 20
124.75392
 30
0.0
 40
3.2
  1
R35
 50
68.86021289619577
 41
1.125000013218067
 51
15.0
  7
FX_FONT
 72
     5
 11
132.7258909999999
 21
133.707872
 31
0.0
100
AcDbText
  0
LINE
  5
16A
330
167
100
AcDbEntity
  8
CSLAYER1
  6
CONTINUOUS
 62
     4
100
AcDbLine
 10
128.8723379999999
 20
122.3553829999999
 30
0.0
 11
132.651241
 21
132.128428
 31
0.0
  0
LINE
  5
16B
330
167
100
AcDbEntity
  8
CSLAYER1
  6
CONTINUOUS
 62
     4
100
AcDbLine
 10
128.8723379999999
 20
122.3553829999999
 30
0.0
 11
129.193202
 21
125.338175
 31
0.0
  0
LINE
  5
16C
330
167
100
AcDbEntity
  8
CSLAYER1
  6
CONTINUOUS
 62
     4
100
AcDbLine
 10
128.8723379999999
 20
122.3553829999999
 30
0.0
 11
130.64161
 21
124.778125
 31
0.0
  0
ENDBLK
  5
16D
330
167
100
AcDbEntity
  8
0
100
AcDbBlockEnd
  0
BLOCK
  5
16F
330
16E
100
AcDbEntity
  8
0
100
AcDbBlockBegin
  2
*D30
 70
     1
 10
0.0
 20
0.0
 30
0.0
  3
*D30
  1

  0
TEXT
  5
170
330
16E
100
AcDbEntity
  8
CSLAYER1
 62
     4
100
AcDbText
 10
109.6370199999999
 20
122.903598
 30
0.0
 40
3.2
  1
R5
 50
38.78701955459593
 41
1.199999908831006
 51
15.0
  7
FX_FONT
 72
     5
 11
114.6256909999999
 21
126.912732
 31
0.0
100
AcDbText
  0
LINE
  5
171
330
16E
100
AcDbEntity
  8
CSLAYER1
  6
CONTINUOUS
 62
     4
100
AcDbLine
 10
118.102601
 20
129.0654739999999
 30
0.0
 11
122.0
 21
132.19761
 31
0.0
  0
LINE
  5
172
330
16E
100
AcDbEntity
  8
CSLAYER1
  6
CONTINUOUS
 62
     4
100
AcDbLine
 10
118.102601
 20
129.0654739999999
 30
0.0
 11
110.332333
 21
122.8209149999998
 31
0.0
  0
LINE
  5
173
330
16E
100
AcDbEntity
  8
CSLAYER1
  6
CONTINUOUS
 62
     4
100
AcDbLine
 10
118.102601
 20
129.0654739999999
 30
0.0
 11
116.330235
 21
126.6449939999999
 31
0.0
  0
LINE
  5
174
330
16E
100
AcDbEntity
  8
CSLAYER1
  6
CONTINUOUS
 62
     4
100
AcDbLine
 10
118.102601
 20
129.0654739999999
 30
0.0
 11
115.357448
 21
127.85546
 31
0.0
  0
ENDBLK
  5
175
330
16E
100
AcDbEntity
  8
0
100
AcDbBlockEnd
  0
BLOCK
  5
177
330
176
100
AcDbEntity
  8
0
100
AcDbBlockBegin
  2
FXDIM0001
 70
     0
 10
0.0
 20
0.0
 30
0.0
  3
FXDIM0001
  1

  0
TEXT
  5
178
330
176
100
AcDbEntity
  8
CSLAYER1
 62
     4
100
AcDbText
 10
126.184044
 20
138.186829
 30
0.0
 40
2.0
  1
1.25
 50
90.0
 41
1.090909090909091
 51
15.0
  7
FX_FONT
 72
     5
 11
126.184044
 21
146.186829
 31
0.0
100
AcDbText
  0
ENDBLK
  5
179
330
176
100
AcDbEntity
  8
0
100
AcDbBlockEnd
  0
BLOCK
  5
17B
330
17A
100
AcDbEntity
  8
0
100
AcDbBlockBegin
  2
FXDIM0002
 70
     0
 10
0.0
 20
0.0
 30
0.0
  3
FXDIM0002
  1

  0
TEXT
  5
17C
330
17A
100
AcDbEntity
  8
CSLAYER1
 62
     4
100
AcDbText
 10
134.732758
 20
139.1575009999999
 30
0.0
 40
2.0
  1
2.0
 50
90.0
 41
1.125
 51
15.0
  7
FX_FONT
 72
     5
 11
134.732758
 21
145.1575009999999
 31
0.0
100
AcDbText
  0
ENDBLK
  5
17D
330
17A
100
AcDbEntity
  8
0
100
AcDbBlockEnd
  0
BLOCK
  5
17F
330
17E
100
AcDbEntity
  8
0
100
AcDbBlockBegin
  2
*D33
 70
     1
 10
0.0
 20
0.0
 30
0.0
  3
*D33
  1

  0
TEXT
  5
180
330
17E
100
AcDbEntity
  8
CSLAYER1
 62
     4
100
AcDbText
 10
100.7363659999999
 20
129.6
 30
0.0
 40
3.2
  1
(32)
 50
90.0
 41
1.200000000000001
 51
15.0
  7
FX_FONT
 72
     5
 11
100.7363659999999
 21
142.4
 31
0.0
100
AcDbText
  0
LINE
  5
181
330
17E
100
AcDbEntity
  8
CSLAYER1
  6
CONTINUOUS
 62
     4
100
AcDbLine
 10
140.494897
 20
120.0
 30
0.0
 11
100.236364
 21
120.0
 31
0.0
  0
LINE
  5
182
330
17E
100
AcDbEntity
  8
CSLAYER1
  6
CONTINUOUS
 62
     4
100
AcDbLine
 10
140.494897
 20
152.0
 30
0.0
 11
100.236364
 21
152.0
 31
0.0
  0
LINE
  5
183
330
17E
100
AcDbEntity
  8
CSLAYER1
  6
CONTINUOUS
 62
     4
100
AcDbLine
 10
101.236364
 20
120.0
 30
0.0
 11
101.236364
 21
152.0
 31
0.0
  0
LINE
  5
184
330
17E
100
AcDbEntity
  8
CSLAYER1
  6
CONTINUOUS
 62
     4
100
AcDbLine
 10
101.236364
 20
120.0
 30
0.0
 11
100.459907
 21
122.8977769999999
 31
0.0
  0
LINE
  5
185
330
17E
100
AcDbEntity
  8
CSLAYER1
  6
CONTINUOUS
 62
     4
100
AcDbLine
 10
101.236364
 20
120.0
 30
0.0
 11
102.0128209999999
 21
122.8977769999999
 31
0.0
  0
LINE
  5
186
330
17E
100
AcDbEntity
  8
CSLAYER1
  6
CONTINUOUS
 62
     4
100
AcDbLine
 10
101.236364
 20
152.0
 30
0.0
 11
100.459907
 21
149.102223
 31
0.0
  0
LINE
  5
187
330
17E
100
AcDbEntity
  8
CSLAYER1
  6
CONTINUOUS
 62
     4
100
AcDbLine
 10
101.236364
 20
152.0
 30
0.0
 11
102.0128209999999
 21
149.102223
 31
0.0
  0
ENDBLK
  5
188
330
17E
100
AcDbEntity
  8
0
100
AcDbBlockEnd
  0
BLOCK
  5
18A
330
189
100
AcDbEntity
  8
0
100
AcDbBlockBegin
  2
FXDIM0003
 70
     0
 10
0.0
 20
0.0
 30
0.0
  3
FXDIM0003
  1

  0
LINE
  5
18B
330
189
100
AcDbEntity
  8
CSLAYER1
  6
CONTINUOUS
 62
     4
100
AcDbLine
 10
158.718361
 20
75.63383499999997
 30
0.0
 11
160.218361
 21
78.23191099999998
 31
0.0
  0
LINE
  5
18C
330
189
100
AcDbEntity
  8
CSLAYER1
  6
CONTINUOUS
 62
     4
100
AcDbLine
 10
160.218361
 20
78.23191099999998
 30
0.0
 11
157.218361
 21
78.23191099999998
 31
0.0
  0
LINE
  5
18D
330
189
100
AcDbEntity
  8
CSLAYER1
  6
CONTINUOUS
 62
     4
100
AcDbLine
 10
157.218361
 20
78.23191099999998
 30
0.0
 11
158.718361
 21
75.63383499999997
 31
0.0
  0
LINE
  5
18E
330
189
100
AcDbEntity
  8
CSLAYER1
  6
CONTINUOUS
 62
     4
100
AcDbLine
 10
161.718361
 20
75.63383499999997
 30
0.0
 11
163.218361
 21
78.23191099999998
 31
0.0
  0
LINE
  5
18F
330
189
100
AcDbEntity
  8
CSLAYER1
  6
CONTINUOUS
 62
     4
100
AcDbLine
 10
163.218361
 20
78.23191099999998
 30
0.0
 11
160.218361
 21
78.23191099999998
 31
0.0
  0
LINE
  5
190
330
189
100
AcDbEntity
  8
CSLAYER1
  6
CONTINUOUS
 62
     4
100
AcDbLine
 10
160.218361
 20
78.23191099999998
 30
0.0
 11
161.718361
 21
75.63383499999997
 31
0.0
  0
LINE
  5
191
330
189
100
AcDbEntity
  8
CSLAYER1
  6
CONTINUOUS
 62
     4
100
AcDbLine
 10
164.718361
 20
75.63383499999997
 30
0.0
 11
166.218361
 21
78.23191099999998
 31
0.0
  0
LINE
  5
192
330
189
100
AcDbEntity
  8
CSLAYER1
  6
CONTINUOUS
 62
     4
100
AcDbLine
 10
166.218361
 20
78.23191099999998
 30
0.0
 11
163.218361
 21
78.23191099999998
 31
0.0
  0
LINE
  5
193
330
189
100
AcDbEntity
  8
CSLAYER1
  6
CONTINUOUS
 62
     4
100
AcDbLine
 10
163.218361
 20
78.23191099999998
 30
0.0
 11
164.718361
 21
75.63383499999997
 31
0.0
  0
ENDBLK
  5
194
330
189
100
AcDbEntity
  8
0
100
AcDbBlockEnd
  0
BLOCK
  5
196
330
195
100
AcDbEntity
  8
0
100
AcDbBlockBegin
  2
FXDIM0004
 70
     0
 10
0.0
 20
0.0
 30
0.0
  3
FXDIM0004
  1

  0
LINE
  5
197
330
195
100
AcDbEntity
  8
CSLAYER1
  6
CONTINUOUS
 62
     4
100
AcDbLine
 10
159.9865199999999
 20
58.633835
 30
0.0
 11
158.4865199999998
 21
56.035759
 31
0.0
  0
LINE
  5
198
330
195
100
AcDbEntity
  8
CSLAYER1
  6
CONTINUOUS
 62
     4
100
AcDbLine
 10
158.4865199999998
 20
56.035759
 30
0.0
 11
161.4865199999998
 21
56.035759
 31
0.0
  0
LINE
  5
199
330
195
100
AcDbEntity
  8
CSLAYER1
  6
CONTINUOUS
 62
     4
100
AcDbLine
 10
161.4865199999998
 20
56.035759
 30
0.0
 11
159.9865199999999
 21
58.633835
 31
0.0
  0
LINE
  5
19A
330
195
100
AcDbEntity
  8
CSLAYER1
  6
CONTINUOUS
 62
     4
100
AcDbLine
 10
162.9865199999999
 20
58.633835
 30
0.0
 11
161.4865199999998
 21
56.035759
 31
0.0
  0
LINE
  5
19B
330
195
100
AcDbEntity
  8
CSLAYER1
  6
CONTINUOUS
 62
     4
100
AcDbLine
 10
161.4865199999998
 20
56.035759
 30
0.0
 11
164.4865199999999
 21
56.035759
 31
0.0
  0
LINE
  5
19C
330
195
100
AcDbEntity
  8
CSLAYER1
  6
CONTINUOUS
 62
     4
100
AcDbLine
 10
164.4865199999999
 20
56.035759
 30
0.0
 11
162.9865199999999
 21
58.633835
 31
0.0
  0
LINE
  5
19D
330
195
100
AcDbEntity
  8
CSLAYER1
  6
CONTINUOUS
 62
     4
100
AcDbLine
 10
165.9865199999998
 20
58.633835
 30
0.0
 11
164.4865199999999
 21
56.035759
 31
0.0
  0
LINE
  5
19E
330
195
100
AcDbEntity
  8
CSLAYER1
  6
CONTINUOUS
 62
     4
100
AcDbLine
 10
164.4865199999999
 20
56.035759
 30
0.0
 11
167.4865199999999
 21
56.035759
 31
0.0
  0
LINE
  5
19F
330
195
100
AcDbEntity
  8
CSLAYER1
  6
CONTINUOUS
 62
     4
100
AcDbLine
 10
167.4865199999999
 20
56.035759
 30
0.0
 11
165.9865199999998
 21
58.633835
 31
0.0
  0
ENDBLK
  5
1A0
330
195
100
AcDbEntity
  8
0
100
AcDbBlockEnd
  0
BLOCK
  5
1A2
330
1A1
100
AcDbEntity
  8
0
100
AcDbBlockBegin
  2
*D36
 70
     1
 10
0.0
 20
0.0
 30
0.0
  3
*D36
  1

  0
TEXT
  5
1A3
330
1A1
100
AcDbEntity
  8
CSLAYER1
 62
     4
100
AcDbText
 10
114.8999969999999
 20
108.0417629999999
 30
0.0
 40
3.2
  1
8.5
 41
1.12500000000001
 51
15.0
  7
FX_FONT
 72
     5
 11
124.499997
 21
108.0417629999999
 31
0.0
100
AcDbText
  0
LINE
  5
1A4
330
1A1
100
AcDbEntity
  8
CSLAYER1
  6
CONTINUOUS
 62
     4
100
AcDbLine
 10
125.5
 20
107.5417639999999
 30
0.0
 11
134.0
 21
107.5417639999999
 31
0.0
  0
LINE
  5
1A5
330
1A1
100
AcDbEntity
  8
CSLAYER1
  6
CONTINUOUS
 62
     4
100
AcDbLine
 10
125.5
 20
131.234914
 30
0.0
 11
125.5
 21
106.5417639999999
 31
0.0
  0
LINE
  5
1A6
330
1A1
100
AcDbEntity
  8
CSLAYER1
  6
CONTINUOUS
 62
     4
100
AcDbLine
 10
134.0
 20
130.3493399999998
 30
0.0
 11
134.0
 21
106.5417639999999
 31
0.0
  0
LINE
  5
1A7
330
1A1
100
AcDbEntity
  8
CSLAYER1
  6
CONTINUOUS
 62
     4
100
AcDbLine
 10
113.9
 20
107.5417639999999
 30
0.0
 11
125.5
 21
107.5417639999999
 31
0.0
  0
LINE
  5
1A8
330
1A1
100
AcDbEntity
  8
CSLAYER1
  6
CONTINUOUS
 62
     4
100
AcDbLine
 10
125.5
 20
107.5417639999999
 30
0.0
 11
122.6022229999999
 21
108.3182209999999
 31
0.0
  0
LINE
  5
1A9
330
1A1
100
AcDbEntity
  8
CSLAYER1
  6
CONTINUOUS
 62
     4
100
AcDbLine
 10
125.5
 20
107.5417639999999
 30
0.0
 11
122.6022229999999
 21
106.765307
 31
0.0
  0
ENDBLK
  5
1AA
330
1A1
100
AcDbEntity
  8
0
100
AcDbBlockEnd
  0
BLOCK
  5
1AC
330
1AB
100
AcDbEntity
  8
0
100
AcDbBlockBegin
  2
*D37
 70
     1
 10
0.0
 20
0.0
 30
0.0
  3
*D37
  1

  0
TEXT
  5
1AD
330
1AB
100
AcDbEntity
  8
CSLAYER1
 62
     4
100
AcDbText
 10
142.3
 20
108.0417629999999
 30
0.0
 40
3.2
  1
23
 41
1.199999999999979
 51
15.0
  7
FX_FONT
 72
     5
 11
148.6999999999999
 21
108.0417629999999
 31
0.0
100
AcDbText
  0
LINE
  5
1AE
330
1AB
100
AcDbEntity
  8
CSLAYER1
  6
CONTINUOUS
 62
     4
100
AcDbLine
 10
134.0
 20
107.5417639999999
 30
0.0
 11
157.0
 21
107.5417639999999
 31
0.0
  0
LINE
  5
1AF
330
1AB
100
AcDbEntity
  8
CSLAYER1
  6
CONTINUOUS
 62
     4
100
AcDbLine
 10
134.0
 20
107.5417639999999
 30
0.0
 11
136.8977769999998
 21
108.3182209999999
 31
0.0
  0
LINE
  5
1B0
330
1AB
100
AcDbEntity
  8
CSLAYER1
  6
CONTINUOUS
 62
     4
100
AcDbLine
 10
134.0
 20
107.5417639999999
 30
0.0
 11
136.8977769999998
 21
106.765307
 31
0.0
  0
LINE
  5
1B1
330
1AB
100
AcDbEntity
  8
CSLAYER1
  6
CONTINUOUS
 62
     4
100
AcDbLine
 10
157.0
 20
107.5417639999999
 30
0.0
 11
154.102223
 21
108.3182209999999
 31
0.0
  0
LINE
  5
1B2
330
1AB
100
AcDbEntity
  8
CSLAYER1
  6
CONTINUOUS
 62
     4
100
AcDbLine
 10
157.0
 20
107.5417639999999
 30
0.0
 11
154.102223
 21
106.765307
 31
0.0
  0
LINE
  5
1B3
330
1AB
100
AcDbEntity
  8
CSLAYER1
  6
CONTINUOUS
 62
     4
100
AcDbLine
 10
157.0
 20
116.372727
 30
0.0
 11
157.0
 21
106.5417639999999
 31
0.0
  0
ENDBLK
  5
1B4
330
1AB
100
AcDbEntity
  8
0
100
AcDbBlockEnd
  0
BLOCK
  5
1B6
330
1B5
100
AcDbEntity
  8
0
100
AcDbBlockBegin
  2
FXDIM0005
 70
     0
 10
0.0
 20
0.0
 30
0.0
  3
FXDIM0005
  1

  0
LINE
  5
1B7
330
1B5
100
AcDbEntity
  8
CSLAYER1
  6
CONTINUOUS
 62
     4
100
AcDbLine
 10
157.6599889999999
 20
133.536889
 30
0.0
 11
164.625361
 21
107.5417639999999
 31
0.0
  0
LINE
  5
1B8
330
1B5
100
AcDbEntity
  8
CSLAYER1
  6
CONTINUOUS
 62
     4
100
AcDbLine
 10
157.6599889999999
 20
133.536889
 30
0.0
 11
159.1599889999999
 21
130.9388129999998
 31
0.0
  0
LINE
  5
1B9
330
1B5
100
AcDbEntity
  8
CSLAYER1
  6
CONTINUOUS
 62
     4
100
AcDbLine
 10
157.6599889999999
 20
133.536889
 30
0.0
 11
157.6599889999999
 21
130.536889
 31
0.0
  0
LINE
  5
1BA
330
1B5
100
AcDbEntity
  8
CSLAYER1
  6
CONTINUOUS
 62
     4
100
AcDbLine
 10
164.625361
 20
107.5417639999999
 30
0.0
 11
179.425362
 21
107.5417639999999
 31
0.0
  0
TEXT
  5
1BB
330
1B5
100
AcDbEntity
  8
CSLAYER1
 62
     4
100
AcDbText
 10
165.62536
 20
108.0417629999999
 30
0.0
 40
3.2
  1
%%c5.1
 41
1.142857142857143
 51
15.0
  7
FX_FONT
 72
     5
 11
178.42536
 21
108.0417629999999
 31
0.0
100
AcDbText
  0
ENDBLK
  5
1BC
330
1B5
100
AcDbEntity
  8
0
100
AcDbBlockEnd
  0
BLOCK
  5
1BE
330
1BD
100
AcDbEntity
  8
0
100
AcDbBlockBegin
  2
*D39
 70
     1
 10
0.0
 20
0.0
 30
0.0
  3
*D39
  1

  0
TEXT
  5
1BF
330
1BD
100
AcDbEntity
  8
CSLAYER1
 62
     4
100
AcDbText
 10
133.8
 20
166.9095
 30
0.0
 40
3.2
  1
40
 41
1.199999999999979
 51
15.0
  7
FX_FONT
 72
     5
 11
140.1999999999999
 21
166.9095
 31
0.0
100
AcDbText
  0
LINE
  5
1C0
330
1BD
100
AcDbEntity
  8
CSLAYER1
  6
CONTINUOUS
 62
     4
100
AcDbLine
 10
117.0
 20
166.4094949999999
 30
0.0
 11
157.0
 21
166.4094949999999
 31
0.0
  0
LINE
  5
1C1
330
1BD
100
AcDbEntity
  8
CSLAYER1
  6
CONTINUOUS
 62
     4
100
AcDbLine
 10
117.0
 20
166.4094949999999
 30
0.0
 11
119.897777
 21
167.185952
 31
0.0
  0
LINE
  5
1C2
330
1BD
100
AcDbEntity
  8
CSLAYER1
  6
CONTINUOUS
 62
     4
100
AcDbLine
 10
117.0
 20
166.4094949999999
 30
0.0
 11
119.897777
 21
165.6330379999999
 31
0.0
  0
LINE
  5
1C3
330
1BD
100
AcDbEntity
  8
CSLAYER1
  6
CONTINUOUS
 62
     4
100
AcDbLine
 10
157.0
 20
166.4094949999999
 30
0.0
 11
154.102223
 21
167.185952
 31
0.0
  0
LINE
  5
1C4
330
1BD
100
AcDbEntity
  8
CSLAYER1
  6
CONTINUOUS
 62
     4
100
AcDbLine
 10
157.0
 20
166.4094949999999
 30
0.0
 11
154.102223
 21
165.6330379999999
 31
0.0
  0
LINE
  5
1C5
330
1BD
100
AcDbEntity
  8
CSLAYER1
  6
CONTINUOUS
 62
     4
100
AcDbLine
 10
117.0
 20
140.80239
 30
0.0
 11
117.0
 21
167.4094949999999
 31
0.0
  0
LINE
  5
1C6
330
1BD
100
AcDbEntity
  8
CSLAYER1
  6
CONTINUOUS
 62
     4
100
AcDbLine
 10
157.0
 20
156.190909
 30
0.0
 11
157.0
 21
167.4094949999999
 31
0.0
  0
ENDBLK
  5
1C7
330
1BD
100
AcDbEntity
  8
0
100
AcDbBlockEnd
  0
BLOCK
  5
1C9
330
1C8
100
AcDbEntity
  8
0
100
AcDbBlockBegin
  2
*D40
 70
     1
 10
0.0
 20
0.0
 30
0.0
  3
*D40
  1

  0
TEXT
  5
1CA
330
1C8
100
AcDbEntity
  8
CSLAYER1
 62
     4
100
AcDbText
 10
102.215652
 20
63.800233
 30
0.0
 40
3.2
  1
17  
 50
90.0
 41
1.25
 51
15.0
  7
FX_FONT
 72
     5
 11
102.215652
 21
76.600233
 31
0.0
100
AcDbText
  0
TEXT
  5
1CB
330
1C8
100
AcDbEntity
  8
CSLAYER1
 62
     4
100
AcDbText
 10
100.6156519999998
 20
76.600233
 30
0.0
 40
1.6
  1
  0
 50
90.0
 41
1.607143191964284
 51
15.0
  7
FX_FONT
 72
     5
 11
100.6156519999998
 21
81.400234
 31
0.0
100
AcDbText
  0
TEXT
  5
1CC
330
1C8
100
AcDbEntity
  8
CSLAYER1
 62
     4
100
AcDbText
 10
102.215652
 20
76.600233
 30
0.0
 40
1.6
  1
-0.15
 50
90.0
 41
1.071428705357142
 51
15.0
  7
FX_FONT
 72
     5
 11
102.215652
 21
84.600234
 31
0.0
100
AcDbText
  0
LINE
  5
1CD
330
1C8
100
AcDbEntity
  8
CSLAYER1
  6
CONTINUOUS
 62
     4
100
AcDbLine
 10
102.715653
 20
58.633835
 30
0.0
 11
102.715653
 21
75.63383499999997
 31
0.0
  0
LINE
  5
1CE
330
1C8
100
AcDbEntity
  8
CSLAYER1
  6
CONTINUOUS
 62
     4
100
AcDbLine
 10
102.715653
 20
58.633835
 30
0.0
 11
101.9391959999999
 21
61.531613
 31
0.0
  0
LINE
  5
1CF
330
1C8
100
AcDbEntity
  8
CSLAYER1
  6
CONTINUOUS
 62
     4
100
AcDbLine
 10
102.715653
 20
58.633835
 30
0.0
 11
103.4921109999999
 21
61.531613
 31
0.0
  0
LINE
  5
1D0
330
1C8
100
AcDbEntity
  8
CSLAYER1
  6
CONTINUOUS
 62
     4
100
AcDbLine
 10
102.715653
 20
75.63383499999997
 30
0.0
 11
101.9391959999999
 21
72.736058
 31
0.0
  0
LINE
  5
1D1
330
1C8
100
AcDbEntity
  8
CSLAYER1
  6
CONTINUOUS
 62
     4
100
AcDbLine
 10
102.715653
 20
75.63383499999997
 30
0.0
 11
103.4921109999999
 21
72.736058
 31
0.0
  0
LINE
  5
1D2
330
1C8
100
AcDbEntity
  8
CSLAYER1
  6
CONTINUOUS
 62
     4
100
AcDbLine
 10
138.5
 20
58.633835
 30
0.0
 11
101.715653
 21
58.633835
 31
0.0
  0
LINE
  5
1D3
330
1C8
100
AcDbEntity
  8
CSLAYER1
  6
CONTINUOUS
 62
     4
100
AcDbLine
 10
138.5
 20
75.63383499999997
 30
0.0
 11
101.715653
 21
75.63383499999997
 31
0.0
  0
ENDBLK
  5
1D4
330
1C8
100
AcDbEntity
  8
0
100
AcDbBlockEnd
  0
BLOCK
  5
1D6
330
1D5
100
AcDbEntity
  8
0
100
AcDbBlockBegin
  2
*D41
 70
     1
 10
0.0
 20
0.0
 30
0.0
  3
*D41
  1

  0
TEXT
  5
1D7
330
1D5
100
AcDbEntity
  8
CSLAYER1
 62
     4
100
AcDbText
 10
107.810287
 20
62.07097199999999
 30
0.0
 40
3.2
  1
5.5
 50
90.0
 41
1.124999999999998
 51
15.0
  7
FX_FONT
 72
     5
 11
107.810287
 21
71.67097199999997
 31
0.0
100
AcDbText
  0
LINE
  5
1D8
330
1D5
100
AcDbEntity
  8
CSLAYER1
  6
CONTINUOUS
 62
     4
100
AcDbLine
 10
108.715653
 20
64.38383499999999
 30
0.0
 11
108.715653
 21
69.88383499999999
 31
0.0
  0
LINE
  5
1D9
330
1D5
100
AcDbEntity
  8
CSLAYER1
  6
CONTINUOUS
 62
     4
100
AcDbLine
 10
116.0
 20
64.38383499999999
 30
0.0
 11
107.715653
 21
64.38383499999999
 31
0.0
  0
LINE
  5
1DA
330
1D5
100
AcDbEntity
  8
CSLAYER1
  6
CONTINUOUS
 62
     4
100
AcDbLine
 10
116.0
 20
69.88383499999999
 30
0.0
 11
107.715653
 21
69.88383499999999
 31
0.0
  0
LINE
  5
1DB
330
1D5
100
AcDbEntity
  8
CSLAYER1
  6
CONTINUOUS
 62
     4
100
AcDbLine
 10
108.715653
 20
61.38383499999999
 30
0.0
 11
108.715653
 21
64.38383499999999
 31
0.0
  0
LINE
  5
1DC
330
1D5
100
AcDbEntity
  8
CSLAYER1
  6
CONTINUOUS
 62
     4
100
AcDbLine
 10
108.715653
 20
64.38383499999999
 30
0.0
 11
107.9391959999999
 21
61.48605799999999
 31
0.0
  0
LINE
  5
1DD
330
1D5
100
AcDbEntity
  8
CSLAYER1
  6
CONTINUOUS
 62
     4
100
AcDbLine
 10
108.715653
 20
64.38383499999999
 30
0.0
 11
109.492111
 21
61.48605799999999
 31
0.0
  0
LINE
  5
1DE
330
1D5
100
AcDbEntity
  8
CSLAYER1
  6
CONTINUOUS
 62
     4
100
AcDbLine
 10
108.715653
 20
69.88383499999999
 30
0.0
 11
108.715653
 21
72.88383499999998
 31
0.0
  0
LINE
  5
1DF
330
1D5
100
AcDbEntity
  8
CSLAYER1
  6
CONTINUOUS
 62
     4
100
AcDbLine
 10
108.715653
 20
69.88383499999999
 30
0.0
 11
107.9391959999999
 21
72.781613
 31
0.0
  0
LINE
  5
1E0
330
1D5
100
AcDbEntity
  8
CSLAYER1
  6
CONTINUOUS
 62
     4
100
AcDbLine
 10
108.715653
 20
69.88383499999999
 30
0.0
 11
109.492111
 21
72.781613
 31
0.0
  0
ENDBLK
  5
1E1
330
1D5
100
AcDbEntity
  8
0
100
AcDbBlockEnd
  0
BLOCK
  5
1E3
330
1E2
100
AcDbEntity
  8
0
100
AcDbBlockBegin
  2
*D42
 70
     1
 10
0.0
 20
0.0
 30
0.0
  3
*D42
  1

  0
TEXT
  5
1E4
330
1E2
100
AcDbEntity
  8
CSLAYER1
 62
     4
100
AcDbText
 10
141.8499999999999
 20
86.04185499999998
 30
0.0
 40
3.2
  1
17.5
 41
1.090909090909089
 51
15.0
  7
FX_FONT
 72
     5
 11
154.6499999999998
 21
86.04185499999998
 31
0.0
100
AcDbText
  0
LINE
  5
1E5
330
1E2
100
AcDbEntity
  8
CSLAYER1
  6
CONTINUOUS
 62
     4
100
AcDbLine
 10
139.5
 20
85.541853
 30
0.0
 11
157.0
 21
85.541853
 31
0.0
  0
LINE
  5
1E6
330
1E2
100
AcDbEntity
  8
CSLAYER1
  6
CONTINUOUS
 62
     4
100
AcDbLine
 10
139.5
 20
85.541853
 30
0.0
 11
142.397777
 21
86.31831
 31
0.0
  0
LINE
  5
1E7
330
1E2
100
AcDbEntity
  8
CSLAYER1
  6
CONTINUOUS
 62
     4
100
AcDbLine
 10
139.5
 20
85.541853
 30
0.0
 11
142.397777
 21
84.765396
 31
0.0
  0
LINE
  5
1E8
330
1E2
100
AcDbEntity
  8
CSLAYER1
  6
CONTINUOUS
 62
     4
100
AcDbLine
 10
157.0
 20
85.541853
 30
0.0
 11
154.102223
 21
86.31831
 31
0.0
  0
LINE
  5
1E9
330
1E2
100
AcDbEntity
  8
CSLAYER1
  6
CONTINUOUS
 62
     4
100
AcDbLine
 10
157.0
 20
85.541853
 30
0.0
 11
154.102223
 21
84.765396
 31
0.0
  0
LINE
  5
1EA
330
1E2
100
AcDbEntity
  8
CSLAYER1
  6
CONTINUOUS
 62
     4
100
AcDbLine
 10
139.5
 20
76.63383499999998
 30
0.0
 11
139.5
 21
86.54185299999998
 31
0.0
  0
LINE
  5
1EB
330
1E2
100
AcDbEntity
  8
CSLAYER1
  6
CONTINUOUS
 62
     4
100
AcDbLine
 10
157.0
 20
79.265956
 30
0.0
 11
157.0
 21
86.54185299999998
 31
0.0
  0
ENDBLK
  5
1EC
330
1E2
100
AcDbEntity
  8
0
100
AcDbBlockEnd
  0
BLOCK
  5
1EE
330
1ED
100
AcDbEntity
  8
0
100
AcDbBlockBegin
  2
FXDIM0006
 70
     0
 10
0.0
 20
0.0
 30
0.0
  3
FXDIM0006
  1

  0
TEXT
  5
1EF
330
1ED
100
AcDbEntity
  8
CSLAYER1
 62
     4
100
AcDbText
 10
54.715088
 20
36.94825
 30
0.0
 40
2.0
  1
1.25
 50
84.2608291668885
 41
1.090909023496029
 51
15.0
  7
FX_FONT
 72
     5
 11
55.515088
 21
44.908149
 31
0.0
100
AcDbText
  0
ENDBLK
  5
1F0
330
1ED
100
AcDbEntity
  8
0
100
AcDbBlockEnd
  0
BLOCK
  5
1F2
330
1F1
100
AcDbEntity
  8
0
100
AcDbBlockBegin
  2
FXDIM0007
 70
     0
 10
0.0
 20
0.0
 30
0.0
  3
FXDIM0007
  1

  0
TEXT
  5
1F3
330
1F1
100
AcDbEntity
  8
CSLAYER1
 62
     4
100
AcDbText
 10
63.318016
 20
37.059185
 30
0.0
 40
2.0
  1
2.0
 50
84.2608298830857
 41
1.125000070400386
 51
15.0
  7
FX_FONT
 72
     5
 11
63.918016
 21
43.02910999999999
 31
0.0
100
AcDbText
  0
ENDBLK
  5
1F4
330
1F1
100
AcDbEntity
  8
0
100
AcDbBlockEnd
  0
BLOCK
  5
1F6
330
1F5
100
AcDbEntity
  8
0
100
AcDbBlockBegin
  2
*D45
 70
     1
 10
0.0
 20
0.0
 30
0.0
  3
*D45
  1

  0
TEXT
  5
1F7
330
1F5
100
AcDbEntity
  8
CSLAYER1
 62
     4
100
AcDbText
 10
37.01837899999999
 20
30.09079
 30
0.0
 40
3.2
  1
8
 50
90.0
 41
1.499999999999999
 51
15.0
  7
FX_FONT
 72
     5
 11
37.01837899999999
 21
33.29079
 31
0.0
100
AcDbText
  0
LINE
  5
1F8
330
1F5
100
AcDbEntity
  8
CSLAYER1
  6
CONTINUOUS
 62
     4
100
AcDbLine
 10
37.51838
 20
27.690789
 30
0.0
 11
37.51838
 21
35.690789
 31
0.0
  0
LINE
  5
1F9
330
1F5
100
AcDbEntity
  8
CSLAYER1
  6
CONTINUOUS
 62
     4
100
AcDbLine
 10
37.51838
 20
27.690789
 30
0.0
 11
36.741923
 21
30.58856699999999
 31
0.0
  0
LINE
  5
1FA
330
1F5
100
AcDbEntity
  8
CSLAYER1
  6
CONTINUOUS
 62
     4
100
AcDbLine
 10
37.51838
 20
27.690789
 30
0.0
 11
38.294837
 21
30.58856699999999
 31
0.0
  0
LINE
  5
1FB
330
1F5
100
AcDbEntity
  8
CSLAYER1
  6
CONTINUOUS
 62
     4
100
AcDbLine
 10
37.51838
 20
35.690789
 30
0.0
 11
36.741923
 21
32.79301199999999
 31
0.0
  0
LINE
  5
1FC
330
1F5
100
AcDbEntity
  8
CSLAYER1
  6
CONTINUOUS
 62
     4
100
AcDbLine
 10
37.51838
 20
35.690789
 30
0.0
 11
38.294837
 21
32.79301199999999
 31
0.0
  0
LINE
  5
1FD
330
1F5
100
AcDbEntity
  8
CSLAYER1
  6
CONTINUOUS
 62
     4
100
AcDbLine
 10
44.35839699999998
 20
27.690789
 30
0.0
 11
36.51838
 21
27.690789
 31
0.0
  0
LINE
  5
1FE
330
1F5
100
AcDbEntity
  8
CSLAYER1
  6
CONTINUOUS
 62
     4
100
AcDbLine
 10
44.35839699999998
 20
35.690789
 30
0.0
 11
36.51838
 21
35.690789
 31
0.0
  0
ENDBLK
  5
1FF
330
1F5
100
AcDbEntity
  8
0
100
AcDbBlockEnd
  0
BLOCK
  5
339
330
32C
100
AcDbEntity
  8
0
100
AcDbBlockBegin
  2
*D46
 70
     1
 10
0.0
 20
0.0
 30
0.0
  3
*D46
  1

  0
LINE
  5
32D
330
32C
100
AcDbEntity
  8
CSLAYER2
 62
     0
100
AcDbLine
 10
84.73272700110788
 20
54.22383299999999
 30
0.0
 11
84.73272700319077
 21
54.34133305412821
 31
0.0
  0
LINE
  5
32E
330
32C
100
AcDbEntity
  8
CSLAYER2
 62
     0
100
AcDbLine
 10
77.78622883077415
 20
51.34649917842248
 30
0.0
 11
77.70314349663519
 21
51.4295845298512
 31
0.0
  0
ARC
  5
32F
330
32C
100
AcDbEntity
  8
CSLAYER2
 62
     0
100
AcDbCircle
 10
84.732727
 20
44.4
 30
0.0
 40
9.761333054128217
100
AcDbArc
 50
91.05655512224458
 51
110.1182731818258
  0
ARC
  5
330
330
32C
100
AcDbEntity
  8
CSLAYER2
 62
     0
100
AcDbCircle
 10
84.732727
 20
44.4
 30
0.0
 40
9.761333054128217
100
AcDbArc
 50
114.9234882368612
 51
133.9434407272735
  0
SOLID
  5
331
330
32C
100
AcDbEntity
  8
CSLAYER2
 62
     0
100
AcDbTrace
 10
84.55245804944011
 20
54.18967216957023
 30
0.0
 11
84.55301125257028
 21
54.1296747199053
 31
0.0
 12
84.732727
 22
54.16133305412822
 32
0.0
 13
84.732727
 23
54.16133305412822
 33
0.0
  0
SOLID
  5
332
330
32C
100
AcDbEntity
  8
CSLAYER2
 62
     0
100
AcDbTrace
 10
77.97988675809314
 20
51.40699768605081
 30
0.0
 11
77.93785333136745
 21
51.44981346629239
 31
0.0
 12
77.83042270400561
 22
51.30230529599447
 32
0.0
 13
77.83042270400561
 23
51.30230529599447
 33
0.0
  0
MTEXT
  5
333
330
32C
100
AcDbEntity
  8
CSLAYER2
 62
     0
100
AcDbMText
 10
80.99722688902817
 20
53.41829595403396
 30
0.0
 40
0.18
 41
0.0
 71
     5
 72
     1
  1
\A1;45°
1001
ACAD
1000
MTEXTBEGIN
1070
    73
1070
     1
1070
    44
1040
1.0
1070
    74
1070
     0
1000
MTEXTEND
  0
POINT
  5
334
330
32C
100
AcDbEntity
  8
DEFPOINTS
 62
     0
100
AcDbPoint
 10
82.20630832767378
 20
53.82872375699582
 30
0.0
  0
POINT
  5
335
330
32C
100
AcDbEntity
  8
DEFPOINTS
 62
     0
100
AcDbPoint
 10
84.732727
 20
44.4
 30
0.0
  0
POINT
  5
336
330
32C
100
AcDbEntity
  8
DEFPOINTS
 62
     0
100
AcDbPoint
 10
77.83042299999998
 20
51.30230499999999
 30
0.0
  0
POINT
  5
337
330
32C
100
AcDbEntity
  8
DEFPOINTS
 62
     0
100
AcDbPoint
 10
84.732727
 20
44.4
 30
0.0
  0
POINT
  5
338
330
32C
100
AcDbEntity
  8
DEFPOINTS
 62
     0
100
AcDbPoint
 10
84.73272699999998
 20
54.161333
 30
0.0
  0
ENDBLK
  5
33A
330
32C
100
AcDbEntity
  8
0
100
AcDbBlockEnd
  0
BLOCK
  5
348
330
33B
100
AcDbEntity
  8
0
100
AcDbBlockBegin
  2
*D47
 70
     1
 10
0.0
 20
0.0
 30
0.0
  3
*D47
  1

  0
LINE
  5
33C
330
33B
100
AcDbEntity
  8
CSLAYER2
 62
     0
100
AcDbLine
 10
84.73272700110788
 20
54.22383299999999
 30
0.0
 11
84.73272700319077
 21
54.34133305412821
 31
0.0
  0
LINE
  5
33D
330
33B
100
AcDbEntity
  8
CSLAYER2
 62
     0
100
AcDbLine
 10
77.78622883077415
 20
51.34649917842248
 30
0.0
 11
77.70314349663519
 21
51.4295845298512
 31
0.0
  0
ARC
  5
33E
330
33B
100
AcDbEntity
  8
CSLAYER2
 62
     0
100
AcDbCircle
 10
84.732727
 20
44.4
 30
0.0
 40
9.761333054128217
100
AcDbArc
 50
91.05655512224458
 51
110.1182731818258
  0
ARC
  5
33F
330
33B
100
AcDbEntity
  8
CSLAYER2
 62
     0
100
AcDbCircle
 10
84.732727
 20
44.4
 30
0.0
 40
9.761333054128217
100
AcDbArc
 50
114.9234882368612
 51
133.9434407272735
  0
SOLID
  5
340
330
33B
100
AcDbEntity
  8
CSLAYER2
 62
     0
100
AcDbTrace
 10
84.55245804944011
 20
54.18967216957023
 30
0.0
 11
84.55301125257028
 21
54.1296747199053
 31
0.0
 12
84.732727
 22
54.16133305412822
 32
0.0
 13
84.732727
 23
54.16133305412822
 33
0.0
  0
SOLID
  5
341
330
33B
100
AcDbEntity
  8
CSLAYER2
 62
     0
100
AcDbTrace
 10
77.97988675809314
 20
51.40699768605081
 30
0.0
 11
77.93785333136745
 21
51.44981346629239
 31
0.0
 12
77.83042270400561
 22
51.30230529599447
 32
0.0
 13
77.83042270400561
 23
51.30230529599447
 33
0.0
  0
MTEXT
  5
342
330
33B
100
AcDbEntity
  8
CSLAYER2
 62
     0
100
AcDbMText
 10
80.99722688902817
 20
53.41829595403396
 30
0.0
 40
0.18
 41
0.0
 71
     5
 72
     1
  1
\A1;45°
1001
ACAD
1000
MTEXTBEGIN
1070
    73
1070
     1
1070
    44
1040
1.0
1070
    74
1070
     0
1000
MTEXTEND
  0
POINT
  5
343
330
33B
100
AcDbEntity
  8
DEFPOINTS
 62
     0
100
AcDbPoint
 10
82.20630832767378
 20
53.82872375699582
 30
0.0
  0
POINT
  5
344
330
33B
100
AcDbEntity
  8
DEFPOINTS
 62
     0
100
AcDbPoint
 10
84.732727
 20
44.4
 30
0.0
  0
POINT
  5
345
330
33B
100
AcDbEntity
  8
DEFPOINTS
 62
     0
100
AcDbPoint
 10
77.83042299999998
 20
51.30230499999999
 30
0.0
  0
POINT
  5
346
330
33B
100
AcDbEntity
  8
DEFPOINTS
 62
     0
100
AcDbPoint
 10
84.732727
 20
44.4
 30
0.0
  0
POINT
  5
347
330
33B
100
AcDbEntity
  8
DEFPOINTS
 62
     0
100
AcDbPoint
 10
84.73272699999998
 20
54.161333
 30
0.0
  0
ENDBLK
  5
349
330
33B
100
AcDbEntity
  8
0
100
AcDbBlockEnd
  0
BLOCK
  5
357
330
34A
100
AcDbEntity
  8
0
100
AcDbBlockBegin
  2
*D48
 70
     1
 10
0.0
 20
0.0
 30
0.0
  3
*D48
  1

  0
LINE
  5
34B
330
34A
100
AcDbEntity
  8
CSLAYER2
 62
     0
100
AcDbLine
 10
84.73272700110788
 20
54.22383299999999
 30
0.0
 11
84.73272700319077
 21
54.34133305412821
 31
0.0
  0
LINE
  5
34C
330
34A
100
AcDbEntity
  8
CSLAYER2
 62
     0
100
AcDbLine
 10
77.78622883077415
 20
51.34649917842248
 30
0.0
 11
77.70314349663519
 21
51.4295845298512
 31
0.0
  0
ARC
  5
34D
330
34A
100
AcDbEntity
  8
CSLAYER2
 62
     0
100
AcDbCircle
 10
84.732727
 20
44.4
 30
0.0
 40
9.761333054128217
100
AcDbArc
 50
91.05655512224458
 51
110.1182731818258
  0
ARC
  5
34E
330
34A
100
AcDbEntity
  8
CSLAYER2
 62
     0
100
AcDbCircle
 10
84.732727
 20
44.4
 30
0.0
 40
9.761333054128217
100
AcDbArc
 50
114.9234882368612
 51
133.9434407272735
  0
SOLID
  5
34F
330
34A
100
AcDbEntity
  8
CSLAYER2
 62
     0
100
AcDbTrace
 10
84.55245804944011
 20
54.18967216957023
 30
0.0
 11
84.55301125257028
 21
54.1296747199053
 31
0.0
 12
84.732727
 22
54.16133305412822
 32
0.0
 13
84.732727
 23
54.16133305412822
 33
0.0
  0
SOLID
  5
350
330
34A
100
AcDbEntity
  8
CSLAYER2
 62
     0
100
AcDbTrace
 10
77.97988675809314
 20
51.40699768605081
 30
0.0
 11
77.93785333136745
 21
51.44981346629239
 31
0.0
 12
77.83042270400561
 22
51.30230529599447
 32
0.0
 13
77.83042270400561
 23
51.30230529599447
 33
0.0
  0
MTEXT
  5
351
330
34A
100
AcDbEntity
  8
CSLAYER2
 62
     0
100
AcDbMText
 10
80.99722688902817
 20
53.41829595403396
 30
0.0
 40
0.18
 41
0.0
 71
     5
 72
     1
  1
\A1;45°
1001
ACAD
1000
MTEXTBEGIN
1070
    73
1070
     1
1070
    44
1040
1.0
1070
    74
1070
     0
1000
MTEXTEND
  0
POINT
  5
352
330
34A
100
AcDbEntity
  8
DEFPOINTS
 62
     0
100
AcDbPoint
 10
82.20630832767378
 20
53.82872375699582
 30
0.0
  0
POINT
  5
353
330
34A
100
AcDbEntity
  8
DEFPOINTS
 62
     0
100
AcDbPoint
 10
84.732727
 20
44.4
 30
0.0
  0
POINT
  5
354
330
34A
100
AcDbEntity
  8
DEFPOINTS
 62
     0
100
AcDbPoint
 10
77.83042299999998
 20
51.30230499999999
 30
0.0
  0
POINT
  5
355
330
34A
100
AcDbEntity
  8
DEFPOINTS
 62
     0
100
AcDbPoint
 10
84.732727
 20
44.4
 30
0.0
  0
POINT
  5
356
330
34A
100
AcDbEntity
  8
DEFPOINTS
 62
     0
100
AcDbPoint
 10
84.73272699999998
 20
54.161333
 30
0.0
  0
ENDBLK
  5
358
330
34A
100
AcDbEntity
  8
0
100
AcDbBlockEnd
  0
BLOCK
  5
366
330
359
100
AcDbEntity
  8
0
100
AcDbBlockBegin
  2
*D49
 70
     1
 10
0.0
 20
0.0
 30
0.0
  3
*D49
  1

  0
LINE
  5
35A
330
359
100
AcDbEntity
  8
CSLAYER2
 62
     0
100
AcDbLine
 10
106.2327270042474
 20
66.72383300000001
 30
0.0
 11
106.232727012233
 21
66.84133305412821
 31
0.0
  0
LINE
  5
35B
330
359
100
AcDbEntity
  8
CSLAYER2
 62
     0
100
AcDbLine
 10
99.28622883034357
 20
63.84649917799187
 30
0.0
 11
99.20314349539507
 21
63.92958452861106
 31
0.0
  0
ARC
  5
35C
330
359
100
AcDbEntity
  8
CSLAYER2
 62
     0
100
AcDbCircle
 10
106.2327269999999
 20
56.90000000000001
 30
0.0
 40
9.761333054128206
100
AcDbArc
 50
91.05655512224458
 51
110.1182731818258
  0
ARC
  5
35D
330
359
100
AcDbEntity
  8
CSLAYER2
 62
     0
100
AcDbCircle
 10
106.2327269999999
 20
56.90000000000001
 30
0.0
 40
9.761333054128206
100
AcDbArc
 50
114.9234882368613
 51
133.9434407272735
  0
SOLID
  5
35E
330
359
100
AcDbEntity
  8
CSLAYER2
 62
     0
100
AcDbTrace
 10
106.0524580494401
 20
66.68967216957023
 30
0.0
 11
106.0530112525702
 21
66.62967471990531
 31
0.0
 12
106.2327269999999
 22
66.66133305412822
 32
0.0
 13
106.2327269999999
 23
66.66133305412822
 33
0.0
  0
SOLID
  5
35F
330
359
100
AcDbEntity
  8
CSLAYER2
 62
     0
100
AcDbTrace
 10
99.47988675809314
 20
63.90699768605082
 30
0.0
 11
99.43785333136744
 21
63.9498134662924
 31
0.0
 12
99.33042270400559
 22
63.80230529599447
 32
0.0
 13
99.33042270400559
 23
63.80230529599447
 33
0.0
  0
MTEXT
  5
360
330
359
100
AcDbEntity
  8
CSLAYER2
 62
     0
100
AcDbMText
 10
102.497226889028
 20
65.91829595403395
 30
0.0
 40
0.18
 41
0.0
 71
     5
 72
     1
  1
\A1;45°
1001
ACAD
1000
MTEXTBEGIN
1070
    73
1070
     1
1070
    44
1040
1.0
1070
    74
1070
     0
1000
MTEXTEND
  0
POINT
  5
361
330
359
100
AcDbEntity
  8
DEFPOINTS
 62
     0
100
AcDbPoint
 10
103.7063083276738
 20
66.32872375699583
 30
0.0
  0
POINT
  5
362
330
359
100
AcDbEntity
  8
DEFPOINTS
 62
     0
100
AcDbPoint
 10
106.2327269999999
 20
56.90000000000001
 30
0.0
  0
POINT
  5
363
330
359
100
AcDbEntity
  8
DEFPOINTS
 62
     0
100
AcDbPoint
 10
99.330423
 20
63.802305
 30
0.0
  0
POINT
  5
364
330
359
100
AcDbEntity
  8
DEFPOINTS
 62
     0
100
AcDbPoint
 10
106.2327269999999
 20
56.90000000000001
 30
0.0
  0
POINT
  5
365
330
359
100
AcDbEntity
  8
DEFPOINTS
 62
     0
100
AcDbPoint
 10
106.2327269999999
 20
66.66133300000002
 30
0.0
  0
ENDBLK
  5
367
330
359
100
AcDbEntity
  8
0
100
AcDbBlockEnd
  0
BLOCK
  5
374
330
368
100
AcDbEntity
  8
0
100
AcDbBlockBegin
  2
*D50
 70
     1
 10
0.0
 20
0.0
 30
0.0
  3
*D50
  1

  0
LINE
  5
369
330
368
100
AcDbEntity
  8
CSLAYER2
 62
     0
100
AcDbLine
 10
81.19396282616035
 20
52.23552717380866
 30
0.0
 11
81.11087763662883
 21
52.31861236328191
 31
0.0
  0
ARC
  5
36A
330
368
100
AcDbEntity
  8
CSLAYER2
 62
     0
100
AcDbCircle
 10
88.14046099999996
 20
45.28902899999999
 30
0.0
 40
9.761332130248668
100
AcDbArc
 50
91.05655522224708
 51
110.1182750000414
  0
ARC
  5
36B
330
368
100
AcDbEntity
  8
CSLAYER2
 62
     0
100
AcDbCircle
 10
88.14046099999996
 20
45.28902899999999
 30
0.0
 40
9.761332130248668
100
AcDbArc
 50
114.923490582584
 51
133.9434447777529
  0
SOLID
  5
36C
330
368
100
AcDbEntity
  8
CSLAYER2
 62
     0
100
AcDbTrace
 10
87.96019204941538
 20
55.07870024553337
 30
0.0
 11
87.96074525259786
 21
55.0187027958689
 31
0.0
 12
88.140461
 22
55.05036113024867
 32
0.0
 13
88.140461
 23
55.05036113024867
 33
0.0
  0
SOLID
  5
36D
330
368
100
AcDbEntity
  8
CSLAYER2
 62
     0
100
AcDbTrace
 10
81.38762090388208
 20
52.29602554346599
 30
0.0
 11
81.34558747409217
 21
52.33884132069936
 31
0.0
 12
81.23815685728704
 22
52.19133314271296
 32
0.0
 13
81.23815685728704
 23
52.19133314271296
 33
0.0
  0
MTEXT
  5
36E
330
368
100
AcDbEntity
  8
CSLAYER2
 62
     0
100
AcDbMText
 10
84.40496091594081
 20
54.30732396518154
 30
0.0
 40
0.18
 41
0.0
 71
     5
 72
     1
  1
\A1;45°
1001
ACAD
1000
MTEXTBEGIN
1070
    73
1070
     1
1070
    44
1040
1.0
1070
    74
1070
     0
1000
MTEXTEND
  0
POINT
  5
36F
330
368
100
AcDbEntity
  8
DEFPOINTS
 62
     0
100
AcDbPoint
 10
85.61404233912048
 20
54.71775180359246
 30
0.0
  0
POINT
  5
370
330
368
100
AcDbEntity
  8
DEFPOINTS
 62
     0
100
AcDbPoint
 10
88.14046099999998
 20
45.28902899999999
 30
0.0
  0
POINT
  5
371
330
368
100
AcDbEntity
  8
DEFPOINTS
 62
     0
100
AcDbPoint
 10
81.23815699999999
 20
52.19133299999999
 30
0.0
  0
POINT
  5
372
330
368
100
AcDbEntity
  8
DEFPOINTS
 62
     0
100
AcDbPoint
 10
88.14046099999998
 20
45.28902899999999
 30
0.0
  0
POINT
  5
373
330
368
100
AcDbEntity
  8
DEFPOINTS
 62
     0
100
AcDbPoint
 10
88.140461
 20
55.05036199999999
 30
0.0
  0
ENDBLK
  5
375
330
368
100
AcDbEntity
  8
0
100
AcDbBlockEnd
  0
BLOCK
  5
383
330
376
100
AcDbEntity
  8
0
100
AcDbBlockBegin
  2
*D51
 70
     1
 10
0.0
 20
0.0
 30
0.0
  3
*D51
  1

  0
LINE
  5
377
330
376
100
AcDbEntity
  8
CSLAYER2
 62
     0
100
AcDbLine
 10
86.28884300072256
 20
56.223833
 30
0.0
 11
86.2888430020809
 21
56.34133343681162
 31
0.0
  0
LINE
  5
378
330
376
100
AcDbEntity
  8
CSLAYER2
 62
     0
100
AcDbLine
 10
79.34234382716805
 20
53.34649917481637
 30
0.0
 11
79.25925871565148
 21
53.42958429006364
 31
0.0
  0
ARC
  5
379
330
376
100
AcDbEntity
  8
CSLAYER2
 62
     0
100
AcDbCircle
 10
86.28884299999999
 20
46.39999999999998
 30
0.0
 40
9.761333436811639
100
AcDbArc
 50
91.05655508082216
 51
110.1182753163188
  0
ARC
  5
37A
330
376
100
AcDbEntity
  8
CSLAYER2
 62
     0
100
AcDbCircle
 10
86.28884299999999
 20
46.39999999999998
 30
0.0
 40
9.761333436811639
100
AcDbArc
 50
114.9234902551072
 51
133.9434449191776
  0
SOLID
  5
37B
330
376
100
AcDbEntity
  8
CSLAYER2
 62
     0
100
AcDbTrace
 10
86.10857404945035
 20
56.18967255231879
 30
0.0
 11
86.10912725255884
 21
56.12967510265367
 31
0.0
 12
86.28884300000001
 22
56.16133343681163
 32
0.0
 13
86.28884300000001
 23
56.16133343681163
 33
0.0
  0
SOLID
  5
37C
330
376
100
AcDbEntity
  8
CSLAYER2
 62
     0
100
AcDbTrace
 10
79.53600197987332
 20
53.40699746752997
 30
0.0
 11
79.49396855003056
 21
53.44981324471148
 31
0.0
 12
79.38653793340748
 22
53.30230506659248
 32
0.0
 13
79.38653793340748
 23
53.30230506659248
 33
0.0
  0
MTEXT
  5
37D
330
376
100
AcDbEntity
  8
CSLAYER2
 62
     0
100
AcDbMText
 10
82.55334241594081
 20
55.41829617228832
 30
0.0
 40
0.18
 41
0.0
 71
     5
 72
     1
  1
\A1;45°
1001
ACAD
1000
MTEXTBEGIN
1070
    73
1070
     1
1070
    44
1040
1.0
1070
    74
1070
     0
1000
MTEXTEND
  0
POINT
  5
37E
330
376
100
AcDbEntity
  8
DEFPOINTS
 62
     0
100
AcDbPoint
 10
83.7624240009571
 20
55.82872406563538
 30
0.0
  0
POINT
  5
37F
330
376
100
AcDbEntity
  8
DEFPOINTS
 62
     0
100
AcDbPoint
 10
86.28884299999999
 20
46.39999999999999
 30
0.0
  0
POINT
  5
380
330
376
100
AcDbEntity
  8
DEFPOINTS
 62
     0
100
AcDbPoint
 10
79.386538
 20
53.302305
 30
0.0
  0
POINT
  5
381
330
376
100
AcDbEntity
  8
DEFPOINTS
 62
     0
100
AcDbPoint
 10
86.28884299999999
 20
46.39999999999999
 30
0.0
  0
POINT
  5
382
330
376
100
AcDbEntity
  8
DEFPOINTS
 62
     0
100
AcDbPoint
 10
86.28884300000001
 20
56.161333
 30
0.0
  0
ENDBLK
  5
384
330
376
100
AcDbEntity
  8
0
100
AcDbBlockEnd
  0
BLOCK
  5
391
330
385
100
AcDbEntity
  8
0
100
AcDbBlockBegin
  2
*D52
 70
     1
 10
0.0
 20
0.0
 30
0.0
  3
*D52
  1

  0
LINE
  5
386
330
385
100
AcDbEntity
  8
CSLAYER2
 62
     0
100
AcDbLine
 10
88.5107849972743
 20
58.81609899999999
 30
0.0
 11
88.51078499215004
 21
58.93359905412821
 31
0.0
  0
ARC
  5
387
330
385
100
AcDbEntity
  8
CSLAYER2
 62
     0
100
AcDbCircle
 10
88.51078499999998
 20
48.99226599999999
 30
0.0
 40
9.761333054128213
100
AcDbArc
 50
91.05655512224458
 51
110.1182752236832
  0
ARC
  5
388
330
385
100
AcDbEntity
  8
CSLAYER2
 62
     0
100
AcDbCircle
 10
88.51078499999998
 20
48.99226599999999
 30
0.0
 40
9.761333054128213
100
AcDbArc
 50
114.9234903510229
 51
133.9434448777554
  0
SOLID
  5
389
330
385
100
AcDbEntity
  8
CSLAYER2
 62
     0
100
AcDbTrace
 10
88.33051604944008
 20
58.78193816957021
 30
0.0
 11
88.33106925257025
 21
58.72194071990527
 31
0.0
 12
88.51078499999998
 22
58.75359905412818
 32
0.0
 13
88.51078499999998
 23
58.75359905412818
 33
0.0
  0
SOLID
  5
38A
330
385
100
AcDbEntity
  8
CSLAYER2
 62
     0
100
AcDbTrace
 10
81.75794425050922
 20
55.99926319687792
 30
0.0
 11
81.71591082068195
 21
56.0420789740746
 31
0.0
 12
81.60848020400555
 22
55.89457079599443
 32
0.0
 13
81.60848020400555
 23
55.89457079599443
 33
0.0
  0
MTEXT
  5
38B
330
385
100
AcDbEntity
  8
CSLAYER2
 62
     0
100
AcDbMText
 10
84.77528456238742
 20
58.01056181873494
 30
0.0
 40
0.18
 41
0.0
 71
     5
 72
     1
  1
\A1;45°
1001
ACAD
1000
MTEXTBEGIN
1070
    73
1070
     1
1070
    44
1040
1.0
1070
    74
1070
     0
1000
MTEXTEND
  0
POINT
  5
38C
330
385
100
AcDbEntity
  8
DEFPOINTS
 62
     0
100
AcDbPoint
 10
85.98436610000286
 20
58.42098969599158
 30
0.0
  0
POINT
  5
38D
330
385
100
AcDbEntity
  8
DEFPOINTS
 62
     0
100
AcDbPoint
 10
88.51078499999998
 20
48.99226599999999
 30
0.0
  0
POINT
  5
38E
330
385
100
AcDbEntity
  8
DEFPOINTS
 62
     0
100
AcDbPoint
 10
81.60847999999999
 20
55.894571
 30
0.0
  0
POINT
  5
38F
330
385
100
AcDbEntity
  8
DEFPOINTS
 62
     0
100
AcDbPoint
 10
88.51078499999998
 20
48.99226599999999
 30
0.0
  0
POINT
  5
390
330
385
100
AcDbEntity
  8
DEFPOINTS
 62
     0
100
AcDbPoint
 10
88.51078499999998
 20
58.75359899999999
 30
0.0
  0
ENDBLK
  5
392
330
385
100
AcDbEntity
  8
0
100
AcDbBlockEnd
  0
BLOCK
  5
3A0
330
393
100
AcDbEntity
  8
0
100
AcDbBlockBegin
  2
*D53
 70
     1
 10
0.0
 20
0.0
 30
0.0
  3
*D53
  1

  0
LINE
  5
394
330
393
100
AcDbEntity
  8
CSLAYER2
 62
     0
100
AcDbLine
 10
88.8811089999444
 20
58.81609899999999
 30
0.0
 11
88.8811089998399
 21
58.93359943681162
 31
0.0
  0
LINE
  5
395
330
393
100
AcDbEntity
  8
CSLAYER2
 62
     0
100
AcDbLine
 10
81.93460982419694
 20
55.93876517184526
 30
0.0
 11
81.85152470709471
 21
56.02185028150688
 31
0.0
  0
ARC
  5
396
330
393
100
AcDbEntity
  8
CSLAYER2
 62
     0
100
AcDbCircle
 10
88.88110899999997
 20
48.99226599999998
 30
0.0
 40
9.761333436811645
100
AcDbArc
 50
91.05655508082223
 51
110.1182753163188
  0
ARC
  5
397
330
393
100
AcDbEntity
  8
CSLAYER2
 62
     0
100
AcDbCircle
 10
88.88110899999997
 20
48.99226599999998
 30
0.0
 40
9.761333436811645
100
AcDbArc
 50
114.9234902551072
 51
133.9434449191776
  0
SOLID
  5
398
330
393
100
AcDbEntity
  8
CSLAYER2
 62
     0
100
AcDbTrace
 10
88.70084004945033
 20
58.78193855231882
 30
0.0
 11
88.7013932525588
 21
58.72194110265367
 31
0.0
 12
88.88110899999999
 22
58.75359943681162
 32
0.0
 13
88.88110899999999
 23
58.75359943681162
 33
0.0
  0
SOLID
  5
399
330
393
100
AcDbEntity
  8
CSLAYER2
 62
     0
100
AcDbTrace
 10
82.12826797987331
 20
55.99926346753
 30
0.0
 11
82.08623455003056
 21
56.0420792447115
 31
0.0
 12
81.97880393340749
 22
55.89457106659249
 32
0.0
 13
81.97880393340749
 23
55.89457106659249
 33
0.0
  0
MTEXT
  5
39A
330
393
100
AcDbEntity
  8
CSLAYER2
 62
     0
100
AcDbMText
 10
85.1456084159408
 20
58.01056217228833
 30
0.0
 40
0.18
 41
0.0
 71
     5
 72
     1
  1
\A1;45°
1001
ACAD
1000
MTEXTBEGIN
1070
    73
1070
     1
1070
    44
1040
1.0
1070
    74
1070
     0
1000
MTEXTEND
  0
POINT
  5
39B
330
393
100
AcDbEntity
  8
DEFPOINTS
 62
     0
100
AcDbPoint
 10
86.35469000095707
 20
58.4209900656354
 30
0.0
  0
POINT
  5
39C
330
393
100
AcDbEntity
  8
DEFPOINTS
 62
     0
100
AcDbPoint
 10
88.88110899999999
 20
48.99226599999999
 30
0.0
  0
POINT
  5
39D
330
393
100
AcDbEntity
  8
DEFPOINTS
 62
     0
100
AcDbPoint
 10
81.978804
 20
55.894571
 30
0.0
  0
POINT
  5
39E
330
393
100
AcDbEntity
  8
DEFPOINTS
 62
     0
100
AcDbPoint
 10
88.88110899999999
 20
48.99226599999999
 30
0.0
  0
POINT
  5
39F
330
393
100
AcDbEntity
  8
DEFPOINTS
 62
     0
100
AcDbPoint
 10
88.88110899999999
 20
58.75359899999999
 30
0.0
  0
ENDBLK
  5
3A1
330
393
100
AcDbEntity
  8
0
100
AcDbBlockEnd
  0
ENDSEC
  0
SECTION
  2
ENTITIES
  0
LINE
  5
22B
330
1E
100
AcDbEntity
  8
CSLAYER1
  6
CONTINUOUS
 62
     3
100
AcDbLine
 10
76.29999999999999
 20
119.0
 30
0.0
 11
76.29999999999999
 21
153.0
 31
0.0
  0
LINE
  5
22C
330
1E
100
AcDbEntity
  8
CSLAYER1
  6
CONTINUOUS
 62
     3
100
AcDbLine
 10
59.29999999999999
 20
153.0
 30
0.0
 11
59.29999999999999
 21
119.0
 31
0.0
  0
LINE
  5
22E
330
1E
100
AcDbEntity
  8
CSLAYER1
  6
CONTINUOUS
 62
     3
100
AcDbLine
 10
65.04999999999999
 20
136.0
 30
0.0
 11
70.54999999999998
 21
136.0
 31
0.0
  0
LINE
  5
232
330
1E
100
AcDbEntity
  8
CSLAYER1
  6
CONTINUOUS
 62
     3
100
AcDbLine
 10
231.810483
 20
123.263848
 30
0.0
 11
167.0
 21
119.0
 31
0.0
  0
LINE
  5
233
330
1E
100
AcDbEntity
  8
CSLAYER1
  6
CONTINUOUS
 62
     3
100
AcDbLine
 10
162.4893139999999
 20
119.0
 30
0.0
 11
157.6860429999999
 21
120.287033
 31
0.0
  0
LINE
  5
234
330
1E
100
AcDbEntity
  8
CSLAYER1
  6
CONTINUOUS
 62
     3
100
AcDbLine
 10
162.130302
 20
121.904611
 30
0.0
 11
156.897427
 21
120.0
 31
0.0
  0
LINE
  5
235
330
1E
100
AcDbEntity
  8
CSLAYER1
  6
CONTINUOUS
 62
     3
100
AcDbLine
 10
156.897427
 20
152.0
 30
0.0
 11
157.6860429999999
 21
151.7129669999999
 31
0.0
  0
LINE
  5
236
330
1E
100
AcDbEntity
  8
CSLAYER1
  6
CONTINUOUS
 62
     3
100
AcDbLine
 10
153.1177139999998
 20
150.488887
 30
0.0
 11
162.4893139999999
 21
153.0
 31
0.0
  0
LINE
  5
237
330
1E
100
AcDbEntity
  8
CSLAYER1
  6
CONTINUOUS
 62
     3
100
AcDbLine
 10
167.0
 20
153.0
 30
0.0
 11
231.810483
 21
148.736152
 31
0.0
  0
ARC
  5
238
330
1E
100
AcDbEntity
  8
CSLAYER1
  6
CONTINUOUS
 62
     3
100
AcDbCircle
 10
231.0227129999999
 20
136.7620379999999
 30
0.0
 40
12.0
100
AcDbArc
 50
3.525733999999998
 51
86.23596500000003
  0
ARC
  5
239
330
1E
100
AcDbEntity
  8
CSLAYER1
  6
CONTINUOUS
 62
     3
100
AcDbCircle
 10
237.5
 20
137.0
 30
0.0
 40
0.5
100
AcDbArc
 50
90.0
 51
180.0
  0
LINE
  5
23A
330
1E
100
AcDbEntity
  8
CSLAYER1
  6
CONTINUOUS
 62
     3
100
AcDbLine
 10
237.0
 20
137.0
 30
0.0
 11
237.0
 21
135.0
 31
0.0
  0
ARC
  5
23B
330
1E
100
AcDbEntity
  8
CSLAYER1
  6
CONTINUOUS
 62
     3
100
AcDbCircle
 10
237.5
 20
135.0
 30
0.0
 40
0.5
100
AcDbArc
 50
180.0
 51
270.0
  0
ARC
  5
23C
330
1E
100
AcDbEntity
  8
CSLAYER1
  6
CONTINUOUS
 62
     3
100
AcDbCircle
 10
231.0227129999999
 20
135.237962
 30
0.0
 40
12.0
100
AcDbArc
 50
273.764035
 51
356.474266
  0
LINE
  5
23D
330
1E
100
AcDbEntity
  8
CSLAYER1
  6
CONTINUOUS
 62
     3
100
AcDbLine
 10
243.0
 20
134.4999999999999
 30
0.0
 11
172.8
 21
134.4999999999999
 31
0.0
  0
ARC
  5
23E
330
1E
100
AcDbEntity
  8
CSLAYER1
  6
CONTINUOUS
 62
     3
100
AcDbCircle
 10
172.8
 20
135.3
 30
0.0
 40
0.8
100
AcDbArc
 50
180.0
 51
270.0
  0
LINE
  5
23F
330
1E
100
AcDbEntity
  8
CSLAYER1
  6
CONTINUOUS
 62
     3
100
AcDbLine
 10
172.0
 20
135.3
 30
0.0
 11
172.0
 21
136.6999999999999
 31
0.0
  0
ARC
  5
240
330
1E
100
AcDbEntity
  8
CSLAYER1
  6
CONTINUOUS
 62
     3
100
AcDbCircle
 10
172.8
 20
136.6999999999999
 30
0.0
 40
0.8
100
AcDbArc
 50
90.0
 51
180.0
  0
LINE
  5
241
330
1E
100
AcDbEntity
  8
CSLAYER1
  6
CONTINUOUS
 62
     3
100
AcDbLine
 10
172.8
 20
137.5
 30
0.0
 11
243.0
 21
137.5
 31
0.0
  0
ARC
  5
242
330
1E
100
AcDbEntity
  8
CSLAYER1
  6
CONTINUOUS
 62
     3
100
AcDbCircle
 10
228.5
 20
137.0
 30
0.0
 40
0.5
100
AcDbArc
 50
0.0
 51
90.0
  0
LINE
  5
243
330
1E
100
AcDbEntity
  8
CSLAYER1
  6
CONTINUOUS
 62
     3
100
AcDbLine
 10
229.0
 20
137.0
 30
0.0
 11
229.0
 21
135.0
 31
0.0
  0
ARC
  5
244
330
1E
100
AcDbEntity
  8
CSLAYER1
  6
CONTINUOUS
 62
     3
100
AcDbCircle
 10
228.5
 20
135.0
 30
0.0
 40
0.5
100
AcDbArc
 50
270.0
 51
0.0
  0
LINE
  5
245
330
1E
100
AcDbEntity
  8
CSLAYER1
  6
CONTINUOUS
 62
     3
100
AcDbLine
 10
229.0
 20
136.0
 30
0.0
 11
237.0
 21
136.0
 31
0.0
  0
LINE
  5
246
330
1E
100
AcDbEntity
  8
CSLAYER1
  6
CONTINUOUS
 62
     3
100
AcDbLine
 10
173.954585
 20
134.4999999999999
 30
0.0
 11
166.7268169999998
 21
119.0
 31
0.0
  0
ARC
  5
247
330
1E
100
AcDbEntity
  8
CSLAYER1
  6
CONTINUOUS
 62
     3
100
AcDbCircle
 10
157.0
 20
136.0
 30
0.0
 40
15.0
100
AcDbArc
 50
290.0
 51
0.0
  0
CIRCLE
  5
248
330
1E
100
AcDbEntity
  8
CSLAYER1
  6
CONTINUOUS
 62
     3
100
AcDbCircle
 10
157.0
 20
136.0
 30
0.0
 40
9.55
  0
CIRCLE
  5
249
330
1E
100
AcDbEntity
  8
CSLAYER1
  6
CONTINUOUS
 62
     3
100
AcDbCircle
 10
157.0
 20
136.0
 30
0.0
 40
2.549999999999998
  0
ARC
  5
24A
330
1E
100
AcDbEntity
  8
CSLAYER1
  6
CONTINUOUS
 62
     3
100
AcDbCircle
 10
157.0
 20
136.0
 30
0.0
 40
15.0
100
AcDbArc
 50
105.0
 51
170.4059319999998
  0
LINE
  5
24B
330
1E
100
AcDbEntity
  8
CSLAYER1
  6
CONTINUOUS
 62
     3
100
AcDbLine
 10
139.934333
 20
136.078683
 30
0.0
 11
147.3585649999999
 21
152.0
 31
0.0
  0
LINE
  5
24C
330
1E
100
AcDbEntity
  8
CSLAYER1
  6
CONTINUOUS
 62
     3
100
AcDbLine
 10
139.5
 20
151.943102
 30
0.0
 11
139.5
 21
120.0
 31
0.0
  0
POINT
  5
24D
330
1E
100
AcDbEntity
  8
CSLAYER1
 62
     3
100
AcDbPoint
 10
252.0
 20
19.0
 30
0.0
  0
POINT
  5
24E
330
1E
100
AcDbEntity
  8
CSLAYER1
 62
     3
100
AcDbPoint
 10
252.0
 20
8.0
 30
0.0
  0
POINT
  5
24F
330
1E
100
AcDbEntity
  8
CSLAYER1
 62
     3
100
AcDbPoint
 10
157.0
 20
136.0
 30
0.0
  0
TEXT
  5
251
330
1E
100
AcDbEntity
  8
CSLAYER1
 62
     3
100
AcDbText
 10
242.3999999999999
 20
17.4
 30
0.0
 40
3.2
  1
N30ACD
 41
1.05882352941177
  7
FX_FONT
 72
     5
 11
261.6
 21
17.4
 31
0.0
100
AcDbText
  0
TEXT
  5
252
330
1E
100
AcDbEntity
  8
CSLAYER1
 62
     3
100
AcDbText
 10
227.1999999999999
 20
6.4
 30
0.0
 40
3.2
  1
圧着ブレード 1.25&2mm
 41
0.9698275862068962
  7
FX_FONT
 72
     5
 11
275.1999999999999
 21
6.4
 31
0.0
100
AcDbText
  0
TEXT
  5
253
330
1E
100
AcDbEntity
  8
CSLAYER1
 62
     3
100
AcDbText
 10
275.1999999999999
 20
8.0
 30
0.0
 40
1.6
  1
2
 41
1.500000000000074
  7
FX_FONT
 72
     5
 11
276.8
 21
8.0
 31
0.0
100
AcDbText
  0
LINE
  5
265
330
1E
100
AcDbEntity
  8
CSLAYER1
  6
CENTER
 62
     4
100
AcDbLine
 10
139.251761
 20
136.0
 30
0.0
 11
229.0
 21
136.0
 31
0.0
  0
LINE
  5
266
330
1E
100
AcDbEntity
  8
CSLAYER1
  6
CENTER
 62
     4
100
AcDbLine
 10
233.0
 20
141.1685709999999
 30
0.0
 11
233.0
 21
130.579429
 31
0.0
  0
LINE
  5
267
330
1E
100
AcDbEntity
  8
CSLAYER1
  6
CENTER
 62
     4
100
AcDbLine
 10
237.0
 20
136.0
 30
0.0
 11
247.9877459999999
 21
136.0
 31
0.0
  0
LINE
  5
268
330
1E
100
AcDbEntity
  8
CSLAYER1
  6
CENTER
 62
     4
100
AcDbLine
 10
180.0
 20
146.0
 30
0.0
 11
180.0
 21
126.0
 31
0.0
  0
LINE
  5
269
330
1E
100
AcDbEntity
  8
CSLAYER1
  6
CENTER
 62
     4
100
AcDbLine
 10
157.0
 20
117.372727
 30
0.0
 11
157.0
 21
155.190909
 31
0.0
  0
LINE
  5
26D
330
1E
100
AcDbEntity
  8
CSLAYER1
  6
CENTER
 62
     4
100
AcDbLine
 10
81.54685699999998
 20
136.0
 30
0.0
 11
70.54999999999998
 21
136.0
 31
0.0
  0
LINE
  5
26E
330
1E
100
AcDbEntity
  8
CSLAYER1
  6
CENTER
 62
     4
100
AcDbLine
 10
65.04999999999999
 20
136.0
 30
0.0
 11
54.50228599999999
 21
136.0
 31
0.0
  0
LINE
  5
26F
330
1E
100
AcDbEntity
  8
CSLAYER1
  6
CENTER
 62
     4
100
AcDbLine
 10
67.8
 20
116.3399999999999
 30
0.0
 11
67.8
 21
157.065
 31
0.0
  0
LINE
  5
28E
330
1E
100
AcDbEntity
  8
CSLAYER1
  6
CONTINUOUS
 62
     3
100
AcDbLine
 10
139.251761
 20
136.0
 30
0.0
 11
135.727008
 21
136.0
 31
0.0
  0
ARC
  5
28F
330
1E
100
AcDbEntity
  8
CSLAYER1
  6
CONTINUOUS
 62
     3
100
AcDbCircle
 10
139.251761
 20
139.0
 30
0.0
 40
3.0
100
AcDbArc
 50
270.0
 51
350.405932
  0
DIMENSION
  5
290
330
1E
100
AcDbEntity
  8
CSLAYER1
 62
     4
100
AcDbDimension
  2
*D28
 10
106.510284
 20
142.0
 30
0.0
 11
106.0102919999999
 21
136.0
 31
0.0
 70
     1
100
AcDbAlignedDimension
 13
117.0
 23
130.0
 33
0.0
 14
117.0
 24
142.0
 34
0.0
  0
DIMENSION
  5
291
330
1E
100
AcDbEntity
  8
CSLAYER1
 62
     4
100
AcDbDimension
  2
*D29
 10
141.494897
 20
155.0
 30
0.0
 11
130.994797
 21
129.2308959999999
 31
0.0
 70
     4
100
AcDbRadialDimension
 15
128.8723379999999
 25
122.3553829999999
 35
0.0
 40
0.0
  0
DIMENSION
  5
292
330
1E
100
AcDbEntity
  8
CSLAYER1
 62
     4
100
AcDbDimension
  2
*D30
 10
122.0
 20
132.19761
 30
0.0
 11
112.1313549999999
 21
124.9081649999999
 31
0.0
 70
     4
100
AcDbRadialDimension
 15
118.102601
 25
129.0654739999999
 35
0.0
 40
0.0
  0
INSERT
  5
293
330
1E
100
AcDbEntity
  8
CSLAYER1
100
AcDbBlockReference
  2
FXDIM0001
 10
0.0
 20
0.0
 30
0.0
  0
INSERT
  5
294
330
1E
100
AcDbEntity
  8
CSLAYER1
100
AcDbBlockReference
  2
FXDIM0002
 10
0.0
 20
0.0
 30
0.0
  0
DIMENSION
  5
295
330
1E
100
AcDbEntity
  8
CSLAYER1
 62
     4
100
AcDbDimension
  2
*D33
 10
101.236364
 20
152.0
 30
0.0
 11
100.7363659999999
 21
136.0
 31
0.0
 70
     1
100
AcDbAlignedDimension
 13
141.494897
 23
120.0
 33
0.0
 14
141.494897
 24
152.0
 34
0.0
  0
ARC
  5
296
330
1E
100
AcDbEntity
  8
CSLAYER1
  6
CONTINUOUS
 62
     3
100
AcDbCircle
 10
141.494897
 20
117.0
 30
0.0
 40
35.0
100
AcDbArc
 50
90.0
 51
130.528779
  0
ARC
  5
297
330
1E
100
AcDbEntity
  8
CSLAYER1
  6
CONTINUOUS
 62
     3
100
AcDbCircle
 10
122.0
 20
139.80239
 30
0.0
 40
5.0
100
AcDbArc
 50
130.528779
 51
180.0
  0
LINE
  5
298
330
1E
100
AcDbEntity
  8
CSLAYER1
  6
CONTINUOUS
 62
     3
100
AcDbLine
 10
117.0
 20
139.80239
 30
0.0
 11
117.0
 21
132.19761
 31
0.0
  0
ARC
  5
299
330
1E
100
AcDbEntity
  8
CSLAYER1
  6
CONTINUOUS
 62
     3
100
AcDbCircle
 10
122.0
 20
132.19761
 30
0.0
 40
5.0
100
AcDbArc
 50
180.0
 51
229.4712209999999
  0
ARC
  5
29A
330
1E
100
AcDbEntity
  8
CSLAYER1
  6
CONTINUOUS
 62
     3
100
AcDbCircle
 10
141.494897
 20
155.0
 30
0.0
 40
35.0
100
AcDbArc
 50
229.4712209999999
 51
270.0
  0
ARC
  5
29B
330
1E
100
AcDbEntity
  8
CSLAYER1
  6
CONTINUOUS
 62
     3
100
AcDbCircle
 10
135.727008
 20
135.4999999999999
 30
0.0
 40
0.5
100
AcDbArc
 50
90.0
 51
156.370622
  0
LINE
  5
29C
330
1E
100
AcDbEntity
  8
CSLAYER1
  6
CONTINUOUS
 62
     3
100
AcDbLine
 10
135.268929
 20
135.7004089999998
 30
0.0
 11
134.752428
 21
134.5198359999999
 31
0.0
  0
LINE
  5
29D
330
1E
100
AcDbEntity
  8
CSLAYER1
  6
CONTINUOUS
 62
     3
100
AcDbLine
 10
134.569197
 20
134.4
 30
0.0
 11
133.430803
 21
134.4
 31
0.0
  0
LINE
  5
29E
330
1E
100
AcDbEntity
  8
CSLAYER1
  6
CONTINUOUS
 62
     3
100
AcDbLine
 10
133.2475719999999
 20
134.5198359999999
 30
0.0
 11
132.7310709999999
 21
135.7004089999998
 31
0.0
  0
ARC
  5
29F
330
1E
100
AcDbEntity
  8
CSLAYER1
  6
CONTINUOUS
 62
     3
100
AcDbCircle
 10
132.272992
 20
135.4999999999999
 30
0.0
 40
0.5
100
AcDbArc
 50
23.629378
 51
90.0
  0
LINE
  5
2A0
330
1E
100
AcDbEntity
  8
CSLAYER1
  6
CONTINUOUS
 62
     3
100
AcDbLine
 10
132.272992
 20
136.0
 30
0.0
 11
126.8919499999999
 21
136.0
 31
0.0
  0
ARC
  5
2A1
330
1E
100
AcDbEntity
  8
CSLAYER1
  6
CONTINUOUS
 62
     3
100
AcDbCircle
 10
126.8919499999999
 20
135.6999999999999
 30
0.0
 40
0.3
100
AcDbArc
 50
90.0
 51
155.224859
  0
LINE
  5
2A2
330
1E
100
AcDbEntity
  8
CSLAYER1
  6
CONTINUOUS
 62
     3
100
AcDbLine
 10
126.619562
 20
135.8257169999999
 30
0.0
 11
126.153625
 21
134.8161879999999
 31
0.0
  0
ARC
  5
2A3
330
1E
100
AcDbEntity
  8
CSLAYER1
  6
CONTINUOUS
 62
     3
100
AcDbCircle
 10
125.972034
 20
134.8999999999998
 30
0.0
 40
0.2
100
AcDbArc
 50
270.0
 51
335.2248589999998
  0
LINE
  5
2A4
330
1E
100
AcDbEntity
  8
CSLAYER1
  6
CONTINUOUS
 62
     3
100
AcDbLine
 10
125.972034
 20
134.6999999999999
 30
0.0
 11
125.0279659999999
 21
134.6999999999999
 31
0.0
  0
LINE
  5
2A5
330
1E
100
AcDbEntity
  8
CSLAYER1
  6
CONTINUOUS
 62
     3
100
AcDbLine
 10
124.8463749999999
 20
134.8161879999999
 30
0.0
 11
124.3804379999998
 21
135.8257169999999
 31
0.0
  0
ARC
  5
2A6
330
1E
100
AcDbEntity
  8
CSLAYER1
  6
CONTINUOUS
 62
     3
100
AcDbCircle
 10
124.10805
 20
135.6999999999999
 30
0.0
 40
0.3
100
AcDbArc
 50
24.775141
 51
90.0
  0
LINE
  5
2A7
330
1E
100
AcDbEntity
  8
CSLAYER1
  6
CONTINUOUS
 62
     3
100
AcDbLine
 10
124.0920999999999
 20
136.0
 30
0.0
 11
117.0
 21
136.0
 31
0.0
  0
LINE
  5
2A8
330
1E
100
AcDbEntity
  8
CSLAYER1
  6
CONTINUOUS
 62
     3
100
AcDbLine
 10
123.411652
 20
135.653927
 30
0.0
 11
123.959748
 21
134.48054
 31
0.0
  0
ARC
  5
2A9
330
1E
100
AcDbEntity
  8
CSLAYER1
  6
CONTINUOUS
 62
     3
100
AcDbCircle
 10
125.5
 20
135.1999999999998
 30
0.0
 40
1.7
100
AcDbArc
 50
205.0375219999998
 51
334.962478
  0
LINE
  5
2AA
330
1E
100
AcDbEntity
  8
CSLAYER1
  6
CONTINUOUS
 62
     3
100
AcDbLine
 10
127.0402519999999
 20
134.48054
 30
0.0
 11
127.588348
 21
135.653927
 31
0.0
  0
ARC
  5
2AB
330
1E
100
AcDbEntity
  8
CSLAYER1
  6
CONTINUOUS
 62
     3
100
AcDbCircle
 10
128.131966
 20
135.4
 30
0.0
 40
0.6
100
AcDbArc
 50
90.0
 51
154.962478
  0
ARC
  5
2AC
330
1E
100
AcDbEntity
  8
CSLAYER1
  6
CONTINUOUS
 62
     3
100
AcDbCircle
 10
125.0279659999999
 20
134.8999999999998
 30
0.0
 40
0.2
100
AcDbArc
 50
204.775141
 51
270.0
  0
ARC
  5
2AD
330
1E
100
AcDbEntity
  8
CSLAYER1
  6
CONTINUOUS
 62
     3
100
AcDbCircle
 10
122.868034
 20
135.4
 30
0.0
 40
0.6
100
AcDbArc
 50
25.037522
 51
90.0
  0
LINE
  5
2AE
330
1E
100
AcDbEntity
  8
CSLAYER1
  6
CONTINUOUS
 62
     3
100
AcDbLine
 10
131.616258
 20
135.4131989999999
 30
0.0
 11
132.178718
 21
134.173603
 31
0.0
  0
ARC
  5
2AF
330
1E
100
AcDbEntity
  8
CSLAYER1
  6
CONTINUOUS
 62
     3
100
AcDbCircle
 10
134.0
 20
135.0
 30
0.0
 40
2.0
100
AcDbArc
 50
204.4059219999999
 51
335.5940779999999
  0
LINE
  5
2B0
330
1E
100
AcDbEntity
  8
CSLAYER1
  6
CONTINUOUS
 62
     3
100
AcDbLine
 10
135.821282
 20
134.173603
 30
0.0
 11
136.3837419999998
 21
135.4131989999999
 31
0.0
  0
ARC
  5
2B1
330
1E
100
AcDbEntity
  8
CSLAYER1
  6
CONTINUOUS
 62
     3
100
AcDbCircle
 10
137.294383
 20
135.0
 30
0.0
 40
1.0
100
AcDbArc
 50
90.0
 51
155.594078
  0
ARC
  5
2B2
330
1E
100
AcDbEntity
  8
CSLAYER1
  6
CONTINUOUS
 62
     3
100
AcDbCircle
 10
134.569197
 20
134.5999999999999
 30
0.0
 40
0.2
100
AcDbArc
 50
270.0
 51
336.370622
  0
ARC
  5
2B3
330
1E
100
AcDbEntity
  8
CSLAYER1
  6
CONTINUOUS
 62
     3
100
AcDbCircle
 10
133.430803
 20
134.5999999999999
 30
0.0
 40
0.2
100
AcDbArc
 50
203.629378
 51
270.0
  0
ARC
  5
2B4
330
1E
100
AcDbEntity
  8
CSLAYER1
  6
CONTINUOUS
 62
     3
100
AcDbCircle
 10
130.7056169999998
 20
135.0
 30
0.0
 40
1.0
100
AcDbArc
 50
24.40592199999999
 51
90.0
  0
LINE
  5
2B5
330
1E
100
AcDbEntity
  8
CSLAYER1
  6
CENTER
 62
     4
100
AcDbLine
 10
113.066286
 20
136.0
 30
0.0
 11
117.0
 21
136.0
 31
0.0
  0
LINE
  5
2B6
330
1E
100
AcDbEntity
  8
CSLAYER1
  6
CENTER
 62
     4
100
AcDbLine
 10
134.0
 20
131.3493399999998
 30
0.0
 11
134.0
 21
138.360136
 31
0.0
  0
LINE
  5
2B7
330
1E
100
AcDbEntity
  8
CSLAYER1
  6
CENTER
 62
     4
100
AcDbLine
 10
125.5
 20
138.2494389999999
 30
0.0
 11
125.5
 21
132.234914
 31
0.0
  0
LINE
  5
2B8
330
1E
100
AcDbEntity
  8
CSLAYER1
  6
CONTINUOUS
 62
     3
100
AcDbLine
 10
141.494897
 20
152.0
 30
0.0
 11
156.897427
 21
152.0
 31
0.0
  0
LINE
  5
2B9
330
1E
100
AcDbEntity
  8
CSLAYER1
  6
CONTINUOUS
 62
     3
100
AcDbLine
 10
141.494897
 20
120.0
 30
0.0
 11
156.897427
 21
120.0
 31
0.0
  0
LINE
  5
2BA
330
1E
100
AcDbEntity
  8
CSLAYER1
  6
CONTINUOUS
 62
     3
100
AcDbLine
 10
76.29999999999999
 20
152.0
 30
0.0
 11
59.29999999999999
 21
152.0
 31
0.0
  0
LINE
  5
2BB
330
1E
100
AcDbEntity
  8
CSLAYER1
  6
CONTINUOUS
 62
     3
100
AcDbLine
 10
76.29999999999999
 20
120.0
 30
0.0
 11
59.29999999999999
 21
120.0
 31
0.0
  0
LINE
  5
2BC
330
1E
100
AcDbEntity
  8
CSLAYER1
  6
CONTINUOUS
 62
     3
100
AcDbLine
 10
70.54999999999998
 20
120.0
 30
0.0
 11
70.54999999999998
 21
152.0
 31
0.0
  0
LINE
  5
2BD
330
1E
100
AcDbEntity
  8
CSLAYER1
  6
CONTINUOUS
 62
     3
100
AcDbLine
 10
65.04999999999999
 20
120.0
 30
0.0
 11
65.04999999999999
 21
152.0
 31
0.0
  0
LINE
  5
2BE
330
1E
100
AcDbEntity
  8
CSLAYER1
  6
CENTER
 62
     4
100
AcDbLine
 10
135.727008
 20
136.0
 30
0.0
 11
132.272992
 21
136.0
 31
0.0
  0
LINE
  5
2BF
330
1E
100
AcDbEntity
  8
CSLAYER1
  6
CENTER
 62
     4
100
AcDbLine
 10
126.8919499999999
 20
136.0
 30
0.0
 11
124.10805
 21
136.0
 31
0.0
  0
LINE
  5
2C0
330
1E
100
AcDbEntity
  8
CSLAYER1
  6
CONTINUOUS
 62
     3
100
AcDbLine
 10
139.5
 20
75.63383499999997
 30
0.0
 11
183.0
 21
75.63383499999997
 31
0.0
  0
LINE
  5
2C1
330
1E
100
AcDbEntity
  8
CSLAYER1
  6
CONTINUOUS
 62
     3
100
AcDbLine
 10
183.0
 20
58.633835
 30
0.0
 11
139.5
 21
58.633835
 31
0.0
  0
ARC
  5
2C2
330
1E
100
AcDbEntity
  8
CSLAYER1
  6
CONTINUOUS
 62
     3
100
AcDbCircle
 10
148.358565
 20
66.13383499999999
 30
0.0
 40
1.0
100
AcDbArc
 50
90.0
 51
180.0
  0
LINE
  5
2C3
330
1E
100
AcDbEntity
  8
CSLAYER1
  6
CONTINUOUS
 62
     3
100
AcDbLine
 10
148.358565
 20
67.13383499999999
 30
0.0
 11
165.7268169999998
 21
67.13383499999999
 31
0.0
  0
ARC
  5
2C4
330
1E
100
AcDbEntity
  8
CSLAYER1
  6
CONTINUOUS
 62
     3
100
AcDbCircle
 10
165.7268169999998
 20
68.13383499999999
 30
0.0
 40
1.0
100
AcDbArc
 50
270.0
 51
0.0
  0
LINE
  5
2C5
330
1E
100
AcDbEntity
  8
CSLAYER1
  6
CONTINUOUS
 62
     3
100
AcDbLine
 10
166.7268169999998
 20
68.13383499999999
 30
0.0
 11
166.7268169999998
 21
75.63383499999997
 31
0.0
  0
LINE
  5
2C6
330
1E
100
AcDbEntity
  8
CSLAYER1
  6
CONTINUOUS
 62
     3
100
AcDbLine
 10
147.3585649999999
 20
66.13383499999999
 30
0.0
 11
147.3585649999999
 21
58.633835
 31
0.0
  0
POINT
  5
2C7
330
1E
100
AcDbEntity
  8
CSLAYER1
 62
     3
100
AcDbPoint
 10
157.0
 20
67.13383499999999
 30
0.0
  0
LINE
  5
2C8
330
1E
100
AcDbEntity
  8
CSLAYER1
  6
CENTER
 62
     4
100
AcDbLine
 10
142.670375
 20
67.13383499999999
 30
0.0
 11
148.358565
 21
67.13383499999999
 31
0.0
  0
LINE
  5
2C9
330
1E
100
AcDbEntity
  8
CSLAYER1
  6
CENTER
 62
     4
100
AcDbLine
 10
157.0
 20
78.265956
 30
0.0
 11
157.0
 21
55.352017
 31
0.0
  0
LINE
  5
2CA
330
1E
100
AcDbEntity
  8
CSLAYER1
  6
CENTER
 62
     4
100
AcDbLine
 10
166.000198
 20
67.13383499999999
 30
0.0
 11
172.631417
 21
67.13383499999999
 31
0.0
  0
INSERT
  5
2CB
330
1E
100
AcDbEntity
  8
CSLAYER1
100
AcDbBlockReference
  2
FXDIM0003
 10
0.0
 20
0.0
 30
0.0
  0
INSERT
  5
2CC
330
1E
100
AcDbEntity
  8
CSLAYER1
100
AcDbBlockReference
  2
FXDIM0004
 10
0.0
 20
0.0
 30
0.0
  0
LINE
  5
2CD
330
1E
100
AcDbEntity
  8
CSLAYER1
  6
CONTINUOUS
 62
     3
100
AcDbLine
 10
136.4999999999999
 20
69.88383499999999
 30
0.0
 11
117.0
 21
69.88383499999999
 31
0.0
  0
LINE
  5
2CE
330
1E
100
AcDbEntity
  8
CSLAYER1
  6
CONTINUOUS
 62
     3
100
AcDbLine
 10
117.0
 20
69.88383499999999
 30
0.0
 11
117.0
 21
64.38383499999999
 31
0.0
  0
LINE
  5
2CF
330
1E
100
AcDbEntity
  8
CSLAYER1
  6
CONTINUOUS
 62
     3
100
AcDbLine
 10
117.0
 20
64.38383499999999
 30
0.0
 11
136.4999999999999
 21
64.38383499999999
 31
0.0
  0
LINE
  5
2D0
330
1E
100
AcDbEntity
  8
CSLAYER1
  6
CONTINUOUS
 62
     3
100
AcDbLine
 10
139.5
 20
61.38383499999999
 30
0.0
 11
139.5
 21
58.633835
 31
0.0
  0
LINE
  5
2D1
330
1E
100
AcDbEntity
  8
CSLAYER1
  6
CENTER
 62
     4
100
AcDbLine
 10
125.5
 20
72.868121
 30
0.0
 11
125.5
 21
61.135549
 31
0.0
  0
LINE
  5
2D2
330
1E
100
AcDbEntity
  8
CSLAYER1
  6
CENTER
 62
     4
100
AcDbLine
 10
134.0
 20
61.533264
 30
0.0
 11
134.0
 21
72.868121
 31
0.0
  0
LINE
  5
2D3
330
1E
100
AcDbEntity
  8
CSLAYER1
  6
CONTINUOUS
 62
     3
100
AcDbLine
 10
139.5
 20
72.88383499999998
 30
0.0
 11
139.5
 21
75.63383499999997
 31
0.0
  0
ARC
  5
2D4
330
1E
100
AcDbEntity
  8
CSLAYER1
  6
CONTINUOUS
 62
     3
100
AcDbCircle
 10
136.4999999999999
 20
72.88383499999998
 30
0.0
 40
3.0
100
AcDbArc
 50
270.0
 51
0.0
  0
ARC
  5
2D5
330
1E
100
AcDbEntity
  8
CSLAYER1
  6
CONTINUOUS
 62
     3
100
AcDbCircle
 10
136.4999999999999
 20
61.38383499999999
 30
0.0
 40
3.0
100
AcDbArc
 50
0.0
 51
90.0
  0
LINE
  5
2D6
330
1E
100
AcDbEntity
  8
CSLAYER1
  6
CONTINUOUS
 62
     3
100
AcDbLine
 10
162.4893139999999
 20
153.0
 30
0.0
 11
167.0
 21
153.0
 31
0.0
  0
LINE
  5
2D7
330
1E
100
AcDbEntity
  8
CSLAYER1
  6
CONTINUOUS
 62
     3
100
AcDbLine
 10
162.4893139999999
 20
119.0
 30
0.0
 11
167.0
 21
119.0
 31
0.0
  0
LINE
  5
2D8
330
1E
100
AcDbEntity
  8
CSLAYER1
  6
CONTINUOUS
 62
     3
100
AcDbLine
 10
59.29999999999999
 20
153.0
 30
0.0
 11
76.29999999999999
 21
153.0
 31
0.0
  0
LINE
  5
2D9
330
1E
100
AcDbEntity
  8
CSLAYER1
  6
CONTINUOUS
 62
     3
100
AcDbLine
 10
59.29999999999999
 20
119.0
 30
0.0
 11
76.29999999999999
 21
119.0
 31
0.0
  0
DIMENSION
  5
2DA
330
1E
100
AcDbEntity
  8
CSLAYER1
 62
     4
100
AcDbDimension
  2
*D36
 10
134.0
 20
107.5417639999999
 30
0.0
 11
119.699997
 21
108.0417629999999
 31
0.0
 52
270.0
100
AcDbAlignedDimension
 13
125.5
 23
132.234914
 33
0.0
 14
134.0
 24
131.3493399999998
 34
0.0
100
AcDbRotatedDimension
  0
DIMENSION
  5
2DB
330
1E
100
AcDbEntity
  8
CSLAYER1
 62
     4
100
AcDbDimension
  2
*D37
 10
157.0
 20
107.5417639999999
 30
0.0
 11
145.5
 21
108.0417629999999
 31
0.0
 52
270.0
100
AcDbAlignedDimension
 13
134.0
 23
131.3493399999998
 33
0.0
 14
157.0
 24
117.372727
 34
0.0
100
AcDbRotatedDimension
  0
INSERT
  5
2DC
330
1E
100
AcDbEntity
  8
CSLAYER1
100
AcDbBlockReference
  2
FXDIM0005
 10
0.0
 20
0.0
 30
0.0
  0
DIMENSION
  5
2DD
330
1E
100
AcDbEntity
  8
CSLAYER1
 62
     4
100
AcDbDimension
  2
*D39
 10
157.0
 20
166.4094949999999
 30
0.0
 11
137.0
 21
166.9095
 31
0.0
100
AcDbAlignedDimension
 13
117.0
 23
139.80239
 33
0.0
 14
157.0
 24
155.190909
 34
0.0
100
AcDbRotatedDimension
  0
DIMENSION
  5
2DE
330
1E
100
AcDbEntity
  8
CSLAYER1
 62
     4
100
AcDbDimension
  2
*D40
 10
102.715653
 20
75.63383499999997
 30
0.0
 11
102.215652
 21
74.200233
 31
0.0
 70
     1
100
AcDbAlignedDimension
 13
139.5
 23
58.633835
 33
0.0
 14
139.5
 24
75.63383499999997
 34
0.0
  0
DIMENSION
  5
2DF
330
1E
100
AcDbEntity
  8
CSLAYER1
 62
     4
100
AcDbDimension
  2
*D41
 10
108.715653
 20
69.88383499999999
 30
0.0
 11
107.810287
 21
66.870972
 31
0.0
 70
     1
100
AcDbAlignedDimension
 13
117.0
 23
64.38383499999999
 33
0.0
 14
117.0
 24
69.88383499999999
 34
0.0
  0
DIMENSION
  5
2E0
330
1E
100
AcDbEntity
  8
CSLAYER1
 62
     4
100
AcDbDimension
  2
*D42
 10
157.0
 20
85.541853
 30
0.0
 11
148.2499999999999
 21
86.04185499999998
 31
0.0
100
AcDbAlignedDimension
 13
139.5
 23
75.63383499999997
 33
0.0
 14
157.0
 24
78.265956
 34
0.0
100
AcDbRotatedDimension
  0
LINE
  5
2E1
330
1E
100
AcDbEntity
  8
CSLAYER1
  6
CONTINUOUS
 62
     3
100
AcDbLine
 10
183.0
 20
58.633835
 30
0.0
 11
236.054047
 21
60.00592199999999
 31
0.0
  0
LINE
  5
2E2
330
1E
100
AcDbEntity
  8
CSLAYER1
  6
CONTINUOUS
 62
     3
100
AcDbLine
 10
236.054047
 20
74.261748
 30
0.0
 11
183.0
 21
75.63383499999997
 31
0.0
  0
LINE
  5
2E3
330
1E
100
AcDbEntity
  8
CSLAYER1
  6
CENTER
 62
     4
100
AcDbLine
 10
246.9915149999999
 20
67.147774
 30
0.0
 11
234.5503499999999
 21
67.147774
 31
0.0
  0
ARC
  5
2E4
330
1E
100
AcDbEntity
  8
CSLAYER1
  6
CONTINUOUS
 62
     3
100
AcDbCircle
 10
235.869704
 20
67.13383499999999
 30
0.0
 40
7.130296
100
AcDbArc
 50
271.4814569999999
 51
88.51854300000004
  0
LINE
  5
2E5
330
1E
100
AcDbEntity
  8
CSLAYER1
  6
CONTINUOUS
 62
     3
100
AcDbLine
 10
91.67202000000001
 20
18.179084
 30
0.0
 11
86.65583599999997
 21
15.760733
 31
0.0
  0
LINE
  5
2E6
330
1E
100
AcDbEntity
  8
CSLAYER1
  6
CONTINUOUS
 62
     3
100
AcDbLine
 10
79.846181
 20
45.718822
 30
0.0
 11
88.91969300000003
 21
49.154507
 31
0.0
  0
CIRCLE
  5
2E7
330
1E
100
AcDbEntity
  8
CSLAYER1
  6
CONTINUOUS
 62
     3
100
AcDbCircle
 10
85.157895
 20
31.690789
 30
0.0
 40
9.55
  0
CIRCLE
  5
2E8
330
1E
100
AcDbEntity
  8
CSLAYER1
  6
CONTINUOUS
 62
     3
100
AcDbCircle
 10
85.157895
 20
31.690789
 30
0.0
 40
2.549999999999998
  0
ARC
  5
2E9
330
1E
100
AcDbEntity
  8
CSLAYER1
  6
CONTINUOUS
 62
     3
100
AcDbCircle
 10
85.157895
 20
31.690789
 30
0.0
 40
15.0
100
AcDbArc
 50
110.7391699999999
 51
176.145102
  0
LINE
  5
2EA
330
1E
100
AcDbEntity
  8
CSLAYER1
  6
CONTINUOUS
 62
     3
100
AcDbLine
 10
68.10520499999999
 20
33.340389
 30
0.0
 11
77.164788
 21
48.574732
 31
0.0
  0
LINE
  5
2EB
330
1E
100
AcDbEntity
  8
CSLAYER1
  6
CONTINUOUS
 62
     3
100
AcDbLine
 10
69.33992499999999
 20
49.303976
 30
0.0
 11
67.745615
 21
33.440789
 31
0.0
  0
LINE
  5
2EC
330
1E
100
AcDbEntity
  8
CSLAYER1
  6
CONTINUOUS
 62
     3
100
AcDbLine
 10
67.74458599999999
 20
29.951026
 30
0.0
 11
69.345615
 21
14.02098999999999
 31
0.0
  0
POINT
  5
2ED
330
1E
100
AcDbEntity
  8
CSLAYER1
 62
     3
100
AcDbPoint
 10
85.157895
 20
31.690789
 30
0.0
  0
LINE
  5
2EE
330
1E
100
AcDbEntity
  8
CSLAYER1
  6
CENTER
 62
     4
100
AcDbLine
 10
42.58927199999998
 20
31.690789
 30
0.0
 11
97.621164
 21
31.690789
 31
0.0
  0
LINE
  5
2EF
330
1E
100
AcDbEntity
  8
CSLAYER1
  6
CENTER
 62
     4
100
AcDbLine
 10
85.157895
 20
13.063517
 30
0.0
 11
85.157895
 21
50.881699
 31
0.0
  0
LINE
  5
2F0
330
1E
100
AcDbEntity
  8
CSLAYER1
  6
CONTINUOUS
 62
     3
100
AcDbLine
 10
67.49861999999999
 20
33.46561299999999
 30
0.0
 11
63.991535
 21
33.818089
 31
0.0
  0
ARC
  5
2F1
330
1E
100
AcDbEntity
  8
CSLAYER1
  6
CONTINUOUS
 62
     3
100
AcDbCircle
 10
67.19861999999999
 20
32.900928
 30
0.0
 40
3.0
100
AcDbArc
 50
275.7391699999999
 51
356.145102
  0
INSERT
  5
2F2
330
1E
100
AcDbEntity
  8
CSLAYER1
100
AcDbBlockReference
  2
FXDIM0006
 10
0.0
 20
0.0
 30
0.0
  0
INSERT
  5
2F3
330
1E
100
AcDbEntity
  8
CSLAYER1
100
AcDbBlockReference
  2
FXDIM0007
 10
0.0
 20
0.0
 30
0.0
  0
ARC
  5
2F4
330
1E
100
AcDbEntity
  8
CSLAYER1
  6
CONTINUOUS
 62
     3
100
AcDbCircle
 10
67.830512
 20
14.336538
 30
0.0
 40
35.0
100
AcDbArc
 50
84.26083
 51
124.789609
  0
ARC
  5
2F5
330
1E
100
AcDbEntity
  8
CSLAYER1
  6
CONTINUOUS
 62
     3
100
AcDbCircle
 10
50.71357299999998
 20
38.974119
 30
0.0
 40
5.0
100
AcDbArc
 50
124.789609
 51
174.26083
  0
LINE
  5
2F6
330
1E
100
AcDbEntity
  8
CSLAYER1
  6
CONTINUOUS
 62
     3
100
AcDbLine
 10
45.738636
 20
39.474119
 30
0.0
 11
45.35839699999999
 21
35.690789
 31
0.0
  0
ARC
  5
2F7
330
1E
100
AcDbEntity
  8
CSLAYER1
  6
CONTINUOUS
 62
     3
100
AcDbCircle
 10
50.71357299999998
 20
24.40746
 30
0.0
 40
5.0
100
AcDbArc
 50
185.7391699999999
 51
235.210391
  0
ARC
  5
2F8
330
1E
100
AcDbEntity
  8
CSLAYER1
  6
CONTINUOUS
 62
     3
100
AcDbCircle
 10
67.830512
 20
49.045041
 30
0.0
 40
35.0
100
AcDbArc
 50
235.210391
 51
275.7391699999999
  0
ARC
  5
2F9
330
1E
100
AcDbEntity
  8
CSLAYER1
  6
CONTINUOUS
 62
     3
100
AcDbCircle
 10
63.94153499999998
 20
33.320595
 30
0.0
 40
0.5
100
AcDbArc
 50
84.26083
 51
150.631452
  0
LINE
  5
2FA
330
1E
100
AcDbEntity
  8
CSLAYER1
  6
CONTINUOUS
 62
     3
100
AcDbLine
 10
63.505793
 20
33.565808
 30
0.0
 11
62.873824
 21
32.442802
 31
0.0
  0
LINE
  5
2FB
330
1E
100
AcDbEntity
  8
CSLAYER1
  6
CONTINUOUS
 62
     3
100
AcDbLine
 10
62.679527
 20
32.34189
 30
0.0
 11
61.54684
 21
32.45572899999999
 31
0.0
  0
LINE
  5
2FC
330
1E
100
AcDbEntity
  8
CSLAYER1
  6
CONTINUOUS
 62
     3
100
AcDbLine
 10
61.376511
 20
32.593288
 30
0.0
 11
60.980656
 21
33.819594
 31
0.0
  0
ARC
  5
2FD
330
1E
100
AcDbEntity
  8
CSLAYER1
  6
CONTINUOUS
 62
     3
100
AcDbCircle
 10
60.50483299999999
 20
33.665997
 30
0.0
 40
0.5
100
AcDbArc
 50
17.890207
 51
84.26083
  0
LINE
  5
2FE
330
1E
100
AcDbEntity
  8
CSLAYER1
  6
CONTINUOUS
 62
     3
100
AcDbLine
 10
60.55483299999998
 20
34.16349
 30
0.0
 11
55.200763
 21
34.701595
 31
0.0
  0
ARC
  5
2FF
330
1E
100
AcDbEntity
  8
CSLAYER1
  6
CONTINUOUS
 62
     3
100
AcDbCircle
 10
55.170763
 20
34.403098
 30
0.0
 40
0.3
100
AcDbArc
 50
84.26083
 51
149.4856889999998
  0
LINE
  5
300
330
1E
100
AcDbEntity
  8
CSLAYER1
  6
CONTINUOUS
 62
     3
100
AcDbLine
 10
54.912312
 20
34.555424
 30
0.0
 11
54.347758
 21
33.597549
 31
0.0
  0
ARC
  5
301
330
1E
100
AcDbEntity
  8
CSLAYER1
  6
CONTINUOUS
 62
     3
100
AcDbCircle
 10
54.175458
 20
33.6991
 30
0.0
 40
0.2
100
AcDbArc
 50
264.26083
 51
329.485689
  0
LINE
  5
302
330
1E
100
AcDbEntity
  8
CSLAYER1
  6
CONTINUOUS
 62
     3
100
AcDbLine
 10
54.155458
 20
33.500102
 30
0.0
 11
53.21612299999999
 21
33.594509
 31
0.0
  0
LINE
  5
303
330
1E
100
AcDbEntity
  8
CSLAYER1
  6
CONTINUOUS
 62
     3
100
AcDbLine
 10
53.04705999999999
 20
33.728274
 30
0.0
 11
52.684412
 21
34.77933699999999
 31
0.0
  0
ARC
  5
304
330
1E
100
AcDbEntity
  8
CSLAYER1
  6
CONTINUOUS
 62
     3
100
AcDbCircle
 10
52.400818
 20
34.681488
 30
0.0
 40
0.3
100
AcDbArc
 50
19.03597
 51
84.26083
  0
LINE
  5
305
330
1E
100
AcDbEntity
  8
CSLAYER1
  6
CONTINUOUS
 62
     3
100
AcDbLine
 10
52.41494799999999
 20
34.98157899999998
 30
0.0
 11
45.35839699999999
 21
35.690789
 31
0.0
  0
LINE
  5
306
330
1E
100
AcDbEntity
  8
CSLAYER1
  6
CONTINUOUS
 62
     3
100
AcDbLine
 10
51.772518
 20
27.987616
 30
0.0
 11
52.435205
 21
26.874921
 31
0.0
  0
ARC
  5
307
330
1E
100
AcDbEntity
  8
CSLAYER1
  6
CONTINUOUS
 62
     3
100
AcDbCircle
 10
53.89579000000001
 20
27.7448
 30
0.0
 40
1.7
100
AcDbArc
 50
210.7766929999999
 51
340.7016479999998
  0
LINE
  5
308
330
1E
100
AcDbEntity
  8
CSLAYER1
  6
CONTINUOUS
 62
     3
100
AcDbLine
 10
55.50026800000001
 20
27.182971
 30
0.0
 11
55.928277
 21
28.405286
 31
0.0
  0
ARC
  5
309
330
1E
100
AcDbEntity
  8
CSLAYER1
  6
CONTINUOUS
 62
     3
100
AcDbCircle
 10
56.494564
 20
28.206994
 30
0.0
 40
0.6
100
AcDbArc
 50
95.73916999999999
 51
160.701648
  0
ARC
  5
30A
330
1E
100
AcDbEntity
  8
CSLAYER1
  6
CONTINUOUS
 62
     3
100
AcDbCircle
 10
53.236123
 20
33.79350699999999
 30
0.0
 40
0.2
100
AcDbArc
 50
199.0359699999999
 51
264.26083
  0
ARC
  5
30B
330
1E
100
AcDbEntity
  8
CSLAYER1
  6
CONTINUOUS
 62
     3
100
AcDbCircle
 10
51.257017
 20
27.6806
 30
0.0
 40
0.6
100
AcDbArc
 50
30.776693
 51
95.73916999999999
  0
LINE
  5
30C
330
1E
100
AcDbEntity
  8
CSLAYER1
  6
CONTINUOUS
 62
     3
100
AcDbLine
 10
59.96007099999999
 20
28.56855499999999
 30
0.0
 11
60.643671
 21
27.39141899999999
 31
0.0
  0
ARC
  5
30D
330
1E
100
AcDbEntity
  8
CSLAYER1
  6
CONTINUOUS
 62
     3
100
AcDbCircle
 10
62.37318399999999
 20
28.395802
 30
0.0
 40
2.0
100
AcDbArc
 50
210.1450919999999
 51
341.333249
  0
LINE
  5
30E
330
1E
100
AcDbEntity
  8
CSLAYER1
  6
CONTINUOUS
 62
     3
100
AcDbLine
 10
64.267976
 20
27.755676
 30
0.0
 11
64.70365699999999
 21
29.045304
 31
0.0
  0
ARC
  5
30F
330
1E
100
AcDbEntity
  8
CSLAYER1
  6
CONTINUOUS
 62
     3
100
AcDbCircle
 10
65.651053
 20
28.72524
 30
0.0
 40
1.0
100
AcDbArc
 50
95.73916999999999
 51
161.3332489999999
  0
ARC
  5
310
330
1E
100
AcDbEntity
  8
CSLAYER1
  6
CONTINUOUS
 62
     3
100
AcDbCircle
 10
62.69952700000001
 20
32.540887
 30
0.0
 40
0.2
100
AcDbArc
 50
264.26083
 51
330.631452
  0
ARC
  5
311
330
1E
100
AcDbEntity
  8
CSLAYER1
  6
CONTINUOUS
 62
     3
100
AcDbCircle
 10
61.56684
 20
32.654727
 30
0.0
 40
0.2
100
AcDbArc
 50
197.8902069999999
 51
264.26083
  0
ARC
  5
312
330
1E
100
AcDbEntity
  8
CSLAYER1
  6
CONTINUOUS
 62
     3
100
AcDbCircle
 10
59.095314
 20
28.066364
 30
0.0
 40
1.0
100
AcDbArc
 50
30.14509199999999
 51
95.73916999999999
  0
LINE
  5
313
330
1E
100
AcDbEntity
  8
CSLAYER1
  6
CONTINUOUS
 62
     3
100
AcDbLine
 10
71.330512
 20
49.161099
 30
0.0
 11
85.244072
 21
47.762733
 31
0.0
  0
LINE
  5
314
330
1E
100
AcDbEntity
  8
CSLAYER1
  6
CONTINUOUS
 62
     3
100
AcDbLine
 10
71.330512
 20
14.22048
 30
0.0
 11
86.65583599999997
 21
15.760733
 31
0.0
  0
LINE
  5
315
330
1E
100
AcDbEntity
  8
CSLAYER1
  6
CONTINUOUS
 62
     3
100
AcDbLine
 10
88.91969300000003
 20
49.154507
 30
0.0
 11
93.40776899999999
 21
49.605576
 31
0.0
  0
LINE
  5
316
330
1E
100
AcDbEntity
  8
CSLAYER1
  6
CONTINUOUS
 62
     3
100
AcDbLine
 10
45.35839699999999
 20
27.690789
 30
0.0
 11
51.197017
 21
28.277593
 31
0.0
  0
LINE
  5
317
330
1E
100
AcDbEntity
  8
CSLAYER1
  6
CONTINUOUS
 62
     3
100
AcDbLine
 10
56.434564
 20
28.80398599999999
 30
0.0
 11
58.995314
 21
29.061351
 31
0.0
  0
LINE
  5
318
330
1E
100
AcDbEntity
  8
CSLAYER1
  6
CONTINUOUS
 62
     3
100
AcDbLine
 10
65.848192
 20
29.75009099999999
 30
0.0
 11
67.49861999999999
 21
29.91596599999999
 31
0.0
  0
LINE
  5
319
330
1E
100
AcDbEntity
  8
CSLAYER1
  6
CONTINUOUS
 62
     3
100
AcDbLine
 10
45.35839699999999
 20
27.690789
 30
0.0
 11
45.738636
 21
23.90746
 31
0.0
  0
ARC
  5
31A
330
1E
100
AcDbEntity
  8
CSLAYER1
  6
CONTINUOUS
 62
     3
100
AcDbCircle
 10
67.19861999999999
 20
30.480651
 30
0.0
 40
3.0
100
AcDbArc
 50
23.78961499999999
 51
84.26083
  0
DIMENSION
  5
31B
330
1E
100
AcDbEntity
  8
CSLAYER1
 62
     4
100
AcDbDimension
  2
*D45
 10
37.51838
 20
35.690789
 30
0.0
 11
37.01837899999999
 21
31.69079
 31
0.0
 70
     1
100
AcDbAlignedDimension
 13
45.35839699999999
 23
27.690789
 33
0.0
 14
45.35839699999999
 24
35.690789
 34
0.0
  0
LINE
  5
31C
330
1E
100
AcDbEntity
  8
CSLAYER1
  6
DOT
 62
     3
100
AcDbLine
 10
4.0
 20
1.0
 30
0.0
 11
283.0
 21
1.0
 31
0.0
  0
LINE
  5
31D
330
1E
100
AcDbEntity
  8
CSLAYER1
  6
DOT
 62
     3
100
AcDbLine
 10
283.0
 20
1.0
 30
0.0
 11
283.0
 21
195.0
 31
0.0
  0
LINE
  5
31E
330
1E
100
AcDbEntity
  8
CSLAYER1
  6
DOT
 62
     3
100
AcDbLine
 10
283.0
 20
195.0
 30
0.0
 11
4.0
 21
195.0
 31
0.0
  0
LINE
  5
31F
330
1E
100
AcDbEntity
  8
CSLAYER1
  6
DOT
 62
     3
100
AcDbLine
 10
4.0
 20
195.0
 30
0.0
 11
4.0
 21
1.0
 31
0.0
  0
VIEWPORT
  5
3B0
330
1A
100
AcDbEntity
 67
     1
  8
0
100
AcDbViewport
 10
5.649584071842704
 20
3.941250035143273
 30
0.0
 40
13.22551939764819
 41
8.758476746326355
 68
     1
 69
     1
1001
ACAD
1000
MVIEW
1002
{
1070
    16
1010
0.0
1020
0.0
1030
0.0
1010
0.0
1020
0.0
1030
1.0
1040
0.0
1040
8.758476746326355
1040
5.649584071842704
1040
3.941250035143273
1040
50.0
1040
0.0
1040
0.0
1070
     0
1070
   100
1070
     1
1070
     1
1070
     0
1070
     0
1070
     0
1070
     0
1040
0.0
1040
0.0
1040
0.0
1040
10.0
1040
10.0
1040
10.0
1040
10.0
1070
     0
1002
{
1002
}
1002
}
  0
VIEWPORT
  5
3B2
330
1A
100
AcDbEntity
 67
     1
  8
CSLAYER1
100
AcDbViewport
 10
5.649583752699724
 20
3.933750081250047
 30
0.0
 40
9.03933400431956
 41
6.294000130000076
 68
     2
 69
     2
1001
ACAD
1000
MVIEW
1002
{
1070
    16
1010
0.0
1020
0.0
1030
0.0
1010
0.0
1020
0.0
1030
1.0
1040
0.0
1040
196.034965034965
1040
143.5
1040
98.0
1040
50.0
1040
0.0
1040
0.0
1070
     0
1070
   100
1070
     1
1070
     1
1070
     0
1070
     0
1070
     0
1070
     0
1040
0.0
1040
0.0
1040
0.0
1040
1.0
1040
1.0
1040
0.0
1040
0.0
1070
     0
1002
{
1002
}
1002
}
  0
ENDSEC
  0
SECTION
  2
OBJECTS
  0
DICTIONARY
  5
C
330
0
100
AcDbDictionary
  3
ACAD_GROUP
350
D
  3
ACAD_LAYOUT
350
19
  3
ACAD_MLINESTYLE
350
16
  3
ACAD_PLOTSETTINGS
350
18
1001
ACAD
1000
TREAT_AS_HARD
1070
     0
1000
TREAT_AS_HARD
1070
     0
  0
DICTIONARY
  5
329
330
1E
100
AcDbDictionary
  3
ACAD_LAYOUTSELFREF
350
3B5
1001
ACAD
1000
TREAT_AS_HARD
1070
     0
  0
DICTIONARY
  5
327
330
1A
100
AcDbDictionary
  3
ACAD_LAYOUTSELFREF
350
3B4
1001
ACAD
1000
TREAT_AS_HARD
1070
     0
  0
DICTIONARY
  5
D
102
{ACAD_REACTORS
330
C
102
}
330
C
100
AcDbDictionary
1001
ACAD
1000
TREAT_AS_HARD
1070
     0
1000
TREAT_AS_HARD
1070
     0
  0
DICTIONARY
  5
19
102
{ACAD_REACTORS
330
C
102
}
330
C
100
AcDbDictionary
1001
ACAD
1000
TREAT_AS_HARD
1070
     0
1000
TREAT_AS_HARD
1070
     0
  0
DICTIONARY
  5
16
102
{ACAD_REACTORS
330
C
102
}
330
C
100
AcDbDictionary
  3
STANDARD
350
17
1001
ACAD
1000
TREAT_AS_HARD
1070
     0
1000
TREAT_AS_HARD
1070
     0
  0
DICTIONARY
  5
18
102
{ACAD_REACTORS
330
C
102
}
330
C
100
AcDbDictionary
1001
ACAD
1000
TREAT_AS_HARD
1070
     0
1000
TREAT_AS_HARD
1070
     0
  0
XRECORD
  5
3B5
102
{ACAD_REACTORS
330
329
102
}
330
329
100
AcDbXrecord
340
1E
  0
XRECORD
  5
3B4
102
{ACAD_REACTORS
330
327
102
}
330
327
100
AcDbXrecord
340
1A
  0
MLINESTYLE
  5
17
102
{ACAD_REACTORS
330
16
102
}
330
16
100
AcDbMlineStyle
  2
STANDARD
 70
     0
  3

 62
   256
 51
90.0
 52
90.0
 71
     2
 49
0.5
 62
   256
  6
BYLAYER
 49
-0.5
 62
   256
  6
BYLAYER
  0
ENDSEC
  0
EOF
