  0
SECTION
  2
HEADER
  9
$ACADVER
  1
AC1012
  9
$DWGCODEPAGE
  3
dos932
  9
$INSBASE
 10
0.0
 20
0.0
 30
0.0
  9
$EXTMIN
 10
-0.0090630292066862
 20
0.9869389666558276
 30
-0.0015258207003583
  9
$EXTMAX
 10
287.0163123253922
 20
199.0155034058442
 30
0.0000000349246037
  9
$LIMMIN
 10
0.0
 20
0.0
  9
$LIMMAX
 10
297.0
 20
210.0
  9
$ORTHOMODE
 70
     0
  9
$REGENMODE
 70
     1
  9
$FILLMODE
 70
     1
  9
$QTEXTMODE
 70
     0
  9
$MIRRTEXT
 70
     1
  9
$DRAGMODE
 70
     2
  9
$LTSCALE
 40
15.0
  9
$OSMODE
 70
    37
  9
$ATTMODE
 70
     1
  9
$TEXTSIZE
 40
0.2
  9
$TRACEWID
 40
0.05
  9
$TEXTSTYLE
  7
GOTHIC
  9
$CLAYER
  8
CSLAYER1
  9
$CELTYPE
  6
BYLAYER
  9
$CECOLOR
 62
   256
  9
$CELTSCALE
 40
1.0
  9
$DELOBJ
 70
     1
  9
$DISPSILH
 70
     0
  9
$DIMSCALE
 40
1.0
  9
$DIMASZ
 40
0.18
  9
$DIMEXO
 40
0.0625
  9
$DIMDLI
 40
0.38
  9
$DIMRND
 40
0.0
  9
$DIMDLE
 40
0.0
  9
$DIMEXE
 40
0.18
  9
$DIMTP
 40
0.0
  9
$DIMTM
 40
0.0
  9
$DIMTXT
 40
0.18
  9
$DIMCEN
 40
0.09
  9
$DIMTSZ
 40
0.0
  9
$DIMTOL
 70
     0
  9
$DIMLIM
 70
     0
  9
$DIMTIH
 70
     1
  9
$DIMTOH
 70
     1
  9
$DIMSE1
 70
     0
  9
$DIMSE2
 70
     0
  9
$DIMTAD
 70
     0
  9
$DIMZIN
 70
     0
  9
$DIMBLK
  1

  9
$DIMASO
 70
     1
  9
$DIMSHO
 70
     1
  9
$DIMPOST
  1

  9
$DIMAPOST
  1

  9
$DIMALT
 70
     0
  9
$DIMALTD
 70
     2
  9
$DIMALTF
 40
25.4
  9
$DIMLFAC
 40
1.0
  9
$DIMTOFL
 70
     0
  9
$DIMTVP
 40
0.0
  9
$DIMTIX
 70
     0
  9
$DIMSOXD
 70
     0
  9
$DIMSAH
 70
     0
  9
$DIMBLK1
  1

  9
$DIMBLK2
  1

  9
$DIMSTYLE
  2
STANDARD
  9
$DIMCLRD
 70
     0
  9
$DIMCLRE
 70
     0
  9
$DIMCLRT
 70
     0
  9
$DIMTFAC
 40
1.0
  9
$DIMGAP
 40
0.09
  9
$DIMJUST
 70
     0
  9
$DIMSD1
 70
     0
  9
$DIMSD2
 70
     0
  9
$DIMTOLJ
 70
     1
  9
$DIMTZIN
 70
     0
  9
$DIMALTZ
 70
     0
  9
$DIMALTTZ
 70
     0
  9
$DIMFIT
 70
     3
  9
$DIMUPT
 70
     0
  9
$DIMUNIT
 70
     2
  9
$DIMDEC
 70
     4
  9
$DIMTDEC
 70
     4
  9
$DIMALTU
 70
     2
  9
$DIMALTTD
 70
     2
  9
$DIMTXSTY
  7
STANDARD
  9
$DIMAUNIT
 70
     0
  9
$LUNITS
 70
     2
  9
$LUPREC
 70
     4
  9
$SKETCHINC
 40
0.1
  9
$FILLETRAD
 40
0.0
  9
$AUNITS
 70
     0
  9
$AUPREC
 70
     0
  9
$MENU
  1
ACAD
  9
$ELEVATION
 40
0.0
  9
$PELEVATION
 40
0.0
  9
$THICKNESS
 40
0.0
  9
$LIMCHECK
 70
     0
  9
$BLIPMODE
 70
     1
  9
$CHAMFERA
 40
0.0
  9
$CHAMFERB
 40
0.0
  9
$CHAMFERC
 40
0.0
  9
$CHAMFERD
 40
0.0
  9
$SKPOLY
 70
     0
  9
$TDCREATE
 40
2453476.999999999
  9
$TDUPDATE
 40
2453516.492148854
  9
$TDINDWG
 40
0.0002278704
  9
$TDUSRTIMER
 40
0.0002278704
  9
$USRTIMER
 70
     1
  9
$ANGBASE
 50
0.0
  9
$ANGDIR
 70
     0
  9
$PDMODE
 70
     0
  9
$PDSIZE
 40
0.0
  9
$PLINEWID
 40
0.0
  9
$COORDS
 70
     0
  9
$SPLFRAME
 70
     0
  9
$SPLINETYPE
 70
     6
  9
$SPLINESEGS
 70
     8
  9
$ATTDIA
 70
     0
  9
$ATTREQ
 70
     1
  9
$HANDLING
 70
-16383
  9
$HANDSEED
  5
187
  9
$SURFTAB1
 70
     6
  9
$SURFTAB2
 70
     6
  9
$SURFTYPE
 70
     6
  9
$SURFU
 70
     6
  9
$SURFV
 70
     6
  9
$UCSNAME
  2

  9
$UCSORG
 10
0.0
 20
0.0
 30
0.0
  9
$UCSXDIR
 10
1.0
 20
0.0
 30
0.0
  9
$UCSYDIR
 10
0.0
 20
1.0
 30
0.0
  9
$PUCSNAME
  2

  9
$PUCSORG
 10
0.0
 20
0.0
 30
0.0
  9
$PUCSXDIR
 10
1.0
 20
0.0
 30
0.0
  9
$PUCSYDIR
 10
0.0
 20
1.0
 30
0.0
  9
$USERI1
 70
     0
  9
$USERI2
 70
     0
  9
$USERI3
 70
     0
  9
$USERI4
 70
     0
  9
$USERI5
 70
     0
  9
$USERR1
 40
0.0
  9
$USERR2
 40
0.0
  9
$USERR3
 40
0.0
  9
$USERR4
 40
0.0
  9
$USERR5
 40
0.0
  9
$WORLDVIEW
 70
     1
  9
$SHADEDGE
 70
     3
  9
$SHADEDIF
 70
    70
  9
$TILEMODE
 70
     1
  9
$MAXACTVP
 70
    64
  9
$PINSBASE
 10
0.0
 20
0.0
 30
0.0
  9
$PLIMCHECK
 70
     0
  9
$PEXTMIN
 10
1.000000000000000E+20
 20
1.000000000000000E+20
 30
1.000000000000000E+20
  9
$PEXTMAX
 10
-1.000000000000000E+20
 20
-1.000000000000000E+20
 30
-1.000000000000000E+20
  9
$PLIMMIN
 10
0.0
 20
0.0
  9
$PLIMMAX
 10
12.0
 20
9.0
  9
$UNITMODE
 70
     0
  9
$VISRETAIN
 70
     1
  9
$PLINEGEN
 70
     0
  9
$PSLTSCALE
 70
     1
  9
$TREEDEPTH
 70
  3020
  9
$PICKSTYLE
 70
     3
  9
$CMLSTYLE
  2
STANDARD
  9
$CMLJUST
 70
     0
  9
$CMLSCALE
 40
1.0
  9
$SAVEIMAGES
 70
     1
  0
ENDSEC
  0
SECTION
  2
CLASSES
  0
CLASS
  1
ACDBDICTIONARYWDFLT
  2
AcDbDictionaryWithDefault
  3
AutoCAD 2000
 90
    32768
280
     0
281
     0
  0
CLASS
  1
ACDBPLACEHOLDER
  2
AcDbPlaceHolder
  3
AutoCAD 2000
 90
    32768
280
     0
281
     0
  0
CLASS
  1
LAYOUT
  2
AcDbLayout
  3
AutoCAD 2000
 90
    32768
280
     0
281
     0
  0
CLASS
  1
DICTIONARYVAR
  2
AcDbDictionaryVar
  3
AutoCAD 2000
 90
    32768
280
     0
281
     0
  0
CLASS
  1
LONG_TRANSACTION
  2
AcDbLongTransaction
  3
AutoCAD 2000
 90
    32768
280
     0
281
     0
  0
CLASS
  1
LWPOLYLINE
  2
AcDbPolyline
  3
AutoCAD 2000
 90
    32768
280
     0
281
     1
  0
CLASS
  1
HATCH
  2
AcDbHatch
  3
AutoCAD 2000
 90
    32768
280
     0
281
     1
  0
CLASS
  1
XRECORD
  2
AcDbXrecord
  3
AutoCAD 2000
 90
    32768
280
     0
281
     0
  0
CLASS
  1
LONG_TRANSACTION
  2
AcDbLongTransaction
  3
AutoCAD 2000
 90
    32768
280
     0
281
     0
  0
CLASS
  1
LWPOLYLINE
  2
AcDbPolyline
  3
AutoCAD 2000
 90
    32768
280
     0
281
     1
  0
CLASS
  1
HATCH
  2
AcDbHatch
  3
AutoCAD 2000
 90
    32768
280
     0
281
     1
  0
CLASS
  1
XRECORD
  2
AcDbXrecord
  3
AutoCAD 2000
 90
    32768
280
     0
281
     0
  0
ENDSEC
  0
SECTION
  2
TABLES
  0
TABLE
  2
VPORT
  5
8
330
0
100
AcDbSymbolTable
 70
     2
  0
VPORT
  5
184
330
8
100
AcDbSymbolTableRecord
100
AcDbViewportTableRecord
  2
*ACTIVE
 70
     0
 10
0.0
 20
0.0
 11
1.0
 21
1.0
 12
143.5036246480927
 22
100.00122118625
 13
0.0
 23
0.0
 14
1.0
 24
1.0
 15
0.0
 25
0.0
 16
0.0
 26
0.0
 36
1.0
 17
0.0
 27
0.0
 37
0.0
 40
199.5156375138256
 41
1.510025062656641
 42
50.0
 43
0.0
 44
0.0
 50
0.0
 51
0.0
 71
     0
 72
   100
 73
     1
 74
     1
 75
     0
 76
     0
 77
     0
 78
     0
  0
ENDTAB
  0
TABLE
  2
LTYPE
  5
5
330
0
100
AcDbSymbolTable
 70
     4
  0
LTYPE
  5
13
330
5
100
AcDbSymbolTableRecord
100
AcDbLinetypeTableRecord
  2
BYBLOCK
 70
     0
  3

 72
    65
 73
     0
 40
0.0
  0
LTYPE
  5
14
330
5
100
AcDbSymbolTableRecord
100
AcDbLinetypeTableRecord
  2
BYLAYER
 70
     0
  3

 72
    65
 73
     0
 40
0.0
  0
LTYPE
  5
15
330
5
100
AcDbSymbolTableRecord
100
AcDbLinetypeTableRecord
  2
CONTINUOUS
 70
     0
  3
Solid line
 72
    65
 73
     0
 40
0.0
  0
LTYPE
  5
23
330
5
100
AcDbSymbolTableRecord
100
AcDbLinetypeTableRecord
  2
DASHED
 70
     0
  3
__ __ __ __ __ __ __ __ __ __ __ __ __ __ __
 72
    65
 73
     2
 40
0.75
 49
0.5
 74
     0
 49
-0.25
 74
     0
  0
LTYPE
  5
25
330
5
100
AcDbSymbolTableRecord
100
AcDbLinetypeTableRecord
  2
DOT
 70
     0
  3
...............................................
 72
    65
 73
     2
 40
0.25
 49
0.0
 74
     0
 49
-0.25
 74
     0
  0
LTYPE
  5
28
330
5
100
AcDbSymbolTableRecord
100
AcDbLinetypeTableRecord
  2
CENTER
 70
     0
  3
____ _ ____ _ ____ _ ____ _ ____ _ ____ _ ____ 
 72
    65
 73
     4
 40
2.0
 49
1.25
 74
     0
 49
-0.25
 74
     0
 49
0.25
 74
     0
 49
-0.25
 74
     0
  0
ENDTAB
  0
TABLE
  2
LAYER
  5
2
330
0
100
AcDbSymbolTable
 70
     3
  0
LAYER
  5
10
330
2
100
AcDbSymbolTableRecord
100
AcDbLayerTableRecord
  2
0
 70
     0
 62
     7
  6
CONTINUOUS
  0
LAYER
  5
22
330
2
100
AcDbSymbolTableRecord
100
AcDbLayerTableRecord
  2
CSLAYER1
 70
     0
 62
     7
  6
CONTINUOUS
  0
LAYER
  5
169
330
2
100
AcDbSymbolTableRecord
100
AcDbLayerTableRecord
  2
DEFPOINTS
 70
     0
 62
     7
  6
CONTINUOUS
  0
ENDTAB
  0
TABLE
  2
STYLE
  5
3
330
0
100
AcDbSymbolTable
 70
     3
  0
STYLE
  5
11
330
3
100
AcDbSymbolTableRecord
100
AcDbTextStyleTableRecord
  2
STANDARD
 70
     0
 40
0.0
 41
1.0
 50
0.0
 71
     0
 42
0.2
  3
txt
  4
extfont.shx
  0
STYLE
  5
3A
330
3
100
AcDbSymbolTableRecord
100
AcDbTextStyleTableRecord
  2
FX_FONT
 70
     0
 40
1.0
 41
1.0
 50
0.0
 71
     0
 42
1.0
  3
monotxt
  4
bigfont
  0
STYLE
  5
161
330
3
100
AcDbSymbolTableRecord
100
AcDbTextStyleTableRecord
  2
GOTHIC
 70
     0
 40
0.0
 41
1.0
 50
0.0
 71
     0
 42
0.2
  3
txt.shx
  4
extfont.shx
  0
ENDTAB
  0
TABLE
  2
VIEW
  5
6
330
0
100
AcDbSymbolTable
 70
     0
  0
ENDTAB
  0
TABLE
  2
UCS
  5
7
330
0
100
AcDbSymbolTable
 70
     0
  0
ENDTAB
  0
TABLE
  2
APPID
  5
9
330
0
100
AcDbSymbolTable
 70
     1
  0
APPID
  5
12
330
9
100
AcDbSymbolTableRecord
100
AcDbRegAppTableRecord
  2
ACAD
 70
     0
  0
ENDTAB
  0
TABLE
  2
DIMSTYLE
  5
A
330
0
100
AcDbSymbolTable
 70
     1
  0
DIMSTYLE
105
15E
330
A
100
AcDbSymbolTableRecord
100
AcDbDimStyleTableRecord
  2
STANDARD
 70
     0
  3

  4

  5

  6

  7

 40
1.0
 41
0.18
 42
0.0625
 43
0.38
 44
0.18
 45
0.0
 46
0.0
 47
0.0
 48
0.0
140
0.18
141
0.09
142
0.0
143
25.4
144
1.0
145
0.0
146
1.0
147
0.09
 71
     0
 72
     0
 73
     1
 74
     1
 75
     0
 76
     0
 77
     0
 78
     0
170
     0
171
     2
172
     0
173
     0
174
     0
175
     0
176
     0
177
     0
178
     0
270
     2
271
     4
272
     4
273
     2
274
     2
340
11
275
     0
280
     0
281
     0
282
     0
283
     1
284
     0
285
     0
286
     0
287
     3
288
     0
  0
ENDTAB
  0
TABLE
  2
BLOCK_RECORD
  5
1
330
0
100
AcDbSymbolTable
 70
    14
  0
BLOCK_RECORD
  5
1E
102
{ACAD_XDICTIONARY
360
167
102
}
330
1
100
AcDbSymbolTableRecord
100
AcDbBlockTableRecord
  2
*MODEL_SPACE
  0
BLOCK_RECORD
  5
1A
102
{ACAD_XDICTIONARY
360
165
102
}
330
1
100
AcDbSymbolTableRecord
100
AcDbBlockTableRecord
  2
*PAPER_SPACE
  0
BLOCK_RECORD
  5
3F
330
1
100
AcDbSymbolTableRecord
100
AcDbBlockTableRecord
  2
FXDIM0000
  0
BLOCK_RECORD
  5
47
330
1
100
AcDbSymbolTableRecord
100
AcDbBlockTableRecord
  2
FXDIM0001
  0
BLOCK_RECORD
  5
51
330
1
100
AcDbSymbolTableRecord
100
AcDbBlockTableRecord
  2
FXDIM0002
  0
BLOCK_RECORD
  5
5B
330
1
100
AcDbSymbolTableRecord
100
AcDbBlockTableRecord
  2
*D3
  0
BLOCK_RECORD
  5
67
330
1
100
AcDbSymbolTableRecord
100
AcDbBlockTableRecord
  2
*D4
  0
BLOCK_RECORD
  5
74
330
1
100
AcDbSymbolTableRecord
100
AcDbBlockTableRecord
  2
*D5
  0
BLOCK_RECORD
  5
7B
330
1
100
AcDbSymbolTableRecord
100
AcDbBlockTableRecord
  2
*D6
  0
BLOCK_RECORD
  5
85
330
1
100
AcDbSymbolTableRecord
100
AcDbBlockTableRecord
  2
*D7
  0
BLOCK_RECORD
  5
90
330
1
100
AcDbSymbolTableRecord
100
AcDbBlockTableRecord
  2
*D8
  0
BLOCK_RECORD
  5
9B
330
1
100
AcDbSymbolTableRecord
100
AcDbBlockTableRecord
  2
*D9
  0
BLOCK_RECORD
  5
A2
330
1
100
AcDbSymbolTableRecord
100
AcDbBlockTableRecord
  2
*D10
  0
BLOCK_RECORD
  5
AD
330
1
100
AcDbSymbolTableRecord
100
AcDbBlockTableRecord
  2
*D11
  0
BLOCK_RECORD
  5
B8
330
1
100
AcDbSymbolTableRecord
100
AcDbBlockTableRecord
  2
*D12
  0
BLOCK_RECORD
  5
16A
330
1
100
AcDbSymbolTableRecord
100
AcDbBlockTableRecord
  2
*D13
  0
ENDTAB
  0
ENDSEC
  0
SECTION
  2
BLOCKS
  0
BLOCK
  5
1F
330
1E
100
AcDbEntity
  8
0
100
AcDbBlockBegin
  2
*MODEL_SPACE
 70
     0
 10
0.0
 20
0.0
 30
0.0
  3
*MODEL_SPACE
  1

  0
ENDBLK
  5
20
330
1E
100
AcDbEntity
  8
0
100
AcDbBlockEnd
  0
BLOCK
  5
1B
330
1A
100
AcDbEntity
 67
     1
  8
0
100
AcDbBlockBegin
  2
*PAPER_SPACE
 70
     0
 10
0.0
 20
0.0
 30
0.0
  3
*PAPER_SPACE
  1

  0
ENDBLK
  5
1C
330
1A
100
AcDbEntity
 67
     1
  8
0
100
AcDbBlockEnd
  0
BLOCK
  5
40
330
3F
100
AcDbEntity
  8
0
100
AcDbBlockBegin
  2
FXDIM0000
 70
     0
 10
0.0
 20
0.0
 30
0.0
  3
FXDIM0000
  1

  0
LINE
  5
41
330
3F
100
AcDbEntity
  8
CSLAYER1
  6
CONTINUOUS
 62
     4
100
AcDbLine
 10
155.30015
 20
136.0731609999999
 30
0.0
 11
148.4210479999999
 21
110.4
 31
0.0
  0
LINE
  5
42
330
3F
100
AcDbEntity
  8
CSLAYER1
  6
CONTINUOUS
 62
     4
100
AcDbLine
 10
155.30015
 20
136.0731609999999
 30
0.0
 11
155.30015
 21
133.0731609999999
 31
0.0
  0
LINE
  5
43
330
3F
100
AcDbEntity
  8
CSLAYER1
  6
CONTINUOUS
 62
     4
100
AcDbLine
 10
155.30015
 20
136.0731609999999
 30
0.0
 11
153.80015
 21
133.475084
 31
0.0
  0
LINE
  5
44
330
3F
100
AcDbEntity
  8
CSLAYER1
  6
CONTINUOUS
 62
     4
100
AcDbLine
 10
148.4210479999999
 20
110.4
 30
0.0
 11
134.4210479999998
 21
110.4
 31
0.0
  0
TEXT
  5
45
330
3F
100
AcDbEntity
  8
CSLAYER1
 62
     4
100
AcDbText
 10
134.621081
 20
111.4000019999999
 30
0.0
 40
3.2
  1
%%c4.1
 41
1.142857232142858
 51
15.0
  7
FX_FONT
 72
     5
 11
147.421082
 21
111.4000019999999
 31
0.0
100
AcDbText
  0
ENDBLK
  5
46
330
3F
100
AcDbEntity
  8
0
100
AcDbBlockEnd
  0
BLOCK
  5
48
330
47
100
AcDbEntity
  8
0
100
AcDbBlockBegin
  2
FXDIM0001
 70
     0
 10
0.0
 20
0.0
 30
0.0
  3
FXDIM0001
  1

  0
LINE
  5
49
330
47
100
AcDbEntity
  8
CSLAYER1
  6
CONTINUOUS
 62
     4
100
AcDbLine
 10
160.352727
 20
85.5625
 30
0.0
 11
161.852727
 21
88.160576
 31
0.0
  0
LINE
  5
4A
330
47
100
AcDbEntity
  8
CSLAYER1
  6
CONTINUOUS
 62
     4
100
AcDbLine
 10
158.852727
 20
88.160576
 30
0.0
 11
167.852727
 21
88.160576
 31
0.0
  0
LINE
  5
4B
330
47
100
AcDbEntity
  8
CSLAYER1
  6
CONTINUOUS
 62
     4
100
AcDbLine
 10
158.852727
 20
88.160576
 30
0.0
 11
160.352727
 21
85.5625
 31
0.0
  0
LINE
  5
4C
330
47
100
AcDbEntity
  8
CSLAYER1
  6
CONTINUOUS
 62
     4
100
AcDbLine
 10
163.352727
 20
85.5625
 30
0.0
 11
164.852727
 21
88.160576
 31
0.0
  0
LINE
  5
4D
330
47
100
AcDbEntity
  8
CSLAYER1
  6
CONTINUOUS
 62
     4
100
AcDbLine
 10
161.852727
 20
88.160576
 30
0.0
 11
163.352727
 21
85.5625
 31
0.0
  0
LINE
  5
4E
330
47
100
AcDbEntity
  8
CSLAYER1
  6
CONTINUOUS
 62
     4
100
AcDbLine
 10
166.352727
 20
85.5625
 30
0.0
 11
167.852727
 21
88.160576
 31
0.0
  0
LINE
  5
4F
330
47
100
AcDbEntity
  8
CSLAYER1
  6
CONTINUOUS
 62
     4
100
AcDbLine
 10
164.852727
 20
88.160576
 30
0.0
 11
166.352727
 21
85.5625
 31
0.0
  0
ENDBLK
  5
50
330
47
100
AcDbEntity
  8
0
100
AcDbBlockEnd
  0
BLOCK
  5
52
330
51
100
AcDbEntity
  8
0
100
AcDbBlockBegin
  2
FXDIM0002
 70
     0
 10
0.0
 20
0.0
 30
0.0
  3
FXDIM0002
  1

  0
LINE
  5
53
330
51
100
AcDbEntity
  8
CSLAYER1
  6
CONTINUOUS
 62
     4
100
AcDbLine
 10
160.876364
 20
73.5625
 30
0.0
 11
159.3763639999998
 21
70.96442399999998
 31
0.0
  0
LINE
  5
54
330
51
100
AcDbEntity
  8
CSLAYER1
  6
CONTINUOUS
 62
     4
100
AcDbLine
 10
159.3763639999998
 20
70.96442399999998
 30
0.0
 11
168.376364
 21
70.96442399999998
 31
0.0
  0
LINE
  5
55
330
51
100
AcDbEntity
  8
CSLAYER1
  6
CONTINUOUS
 62
     4
100
AcDbLine
 10
162.3763639999999
 20
70.96442399999998
 30
0.0
 11
160.876364
 21
73.5625
 31
0.0
  0
LINE
  5
56
330
51
100
AcDbEntity
  8
CSLAYER1
  6
CONTINUOUS
 62
     4
100
AcDbLine
 10
163.876364
 20
73.5625
 30
0.0
 11
162.3763639999999
 21
70.96442399999998
 31
0.0
  0
LINE
  5
57
330
51
100
AcDbEntity
  8
CSLAYER1
  6
CONTINUOUS
 62
     4
100
AcDbLine
 10
165.376364
 20
70.96442399999998
 30
0.0
 11
163.876364
 21
73.5625
 31
0.0
  0
LINE
  5
58
330
51
100
AcDbEntity
  8
CSLAYER1
  6
CONTINUOUS
 62
     4
100
AcDbLine
 10
166.8763639999999
 20
73.5625
 30
0.0
 11
165.376364
 21
70.96442399999998
 31
0.0
  0
LINE
  5
59
330
51
100
AcDbEntity
  8
CSLAYER1
  6
CONTINUOUS
 62
     4
100
AcDbLine
 10
168.376364
 20
70.96442399999998
 30
0.0
 11
166.8763639999999
 21
73.5625
 31
0.0
  0
ENDBLK
  5
5A
330
51
100
AcDbEntity
  8
0
100
AcDbBlockEnd
  0
BLOCK
  5
5C
330
5B
100
AcDbEntity
  8
0
100
AcDbBlockBegin
  2
*D3
 70
     1
 10
0.0
 20
0.0
 30
0.0
  3
*D3
  1

  0
TEXT
  5
5D
330
5B
100
AcDbEntity
  8
CSLAYER1
 62
     4
100
AcDbText
 10
67.76716
 20
158.696806
 30
0.0
 40
3.2
  1
35%%d
 50
342.4999986410726
 41
1.285714333640239
 51
15.0
  7
FX_FONT
 72
     5
 11
76.922843
 21
155.81003
 31
0.0
100
AcDbText
  0
ARC
  5
5E
330
5B
100
AcDbEntity
  8
CSLAYER1
  6
CONTINUOUS
 62
     4
100
AcDbCircle
 10
66.274417
 20
138.0
 30
0.0
 40
19.687777
100
AcDbArc
 50
55.0
 51
90.0
  0
LINE
  5
5F
330
5B
100
AcDbEntity
  8
CSLAYER1
  6
CONTINUOUS
 62
     4
100
AcDbLine
 10
77.566862
 20
154.127282
 30
0.0
 11
74.74778399999998
 21
155.153343
 31
0.0
  0
LINE
  5
60
330
5B
100
AcDbEntity
  8
CSLAYER1
  6
CONTINUOUS
 62
     4
100
AcDbLine
 10
77.566862
 20
154.127282
 30
0.0
 11
75.638499
 21
156.4254159999999
 31
0.0
  0
LINE
  5
61
330
5B
100
AcDbEntity
  8
CSLAYER1
  6
CONTINUOUS
 62
     4
100
AcDbLine
 10
66.274417
 20
157.687777
 30
0.0
 11
69.17219399999999
 21
158.464234
 31
0.0
  0
LINE
  5
62
330
5B
100
AcDbEntity
  8
CSLAYER1
  6
CONTINUOUS
 62
     4
100
AcDbLine
 10
66.274417
 20
157.687777
 30
0.0
 11
69.17219399999999
 21
156.9113189999999
 31
0.0
  0
LINE
  5
63
330
5B
100
AcDbEntity
  8
CSLAYER1
  6
CONTINUOUS
 62
     4
100
AcDbLine
 10
67.9794
 20
140.4349679999999
 30
0.0
 11
74.082702
 21
149.151387
 31
0.0
  0
LINE
  5
64
330
5B
100
AcDbEntity
  8
CSLAYER1
  6
CONTINUOUS
 62
     4
100
AcDbLine
 10
66.274417
 20
150.5
 30
0.0
 11
66.274417
 21
158.687777
 31
0.0
  0
LINE
  5
65
330
5B
100
AcDbEntity
  8
CSLAYER1
  6
CONTINUOUS
 62
     4
100
AcDbLine
 10
74.32680400000002
 20
149.5
 30
0.0
 11
78.140438
 21
154.946434
 31
0.0
  0
ENDBLK
  5
66
330
5B
100
AcDbEntity
  8
0
100
AcDbBlockEnd
  0
BLOCK
  5
68
330
67
100
AcDbEntity
  8
0
100
AcDbBlockBegin
  2
*D4
 70
     1
 10
0.0
 20
0.0
 30
0.0
  3
*D4
  1

  0
TEXT
  5
69
330
67
100
AcDbEntity
  8
CSLAYER1
 62
     4
100
AcDbText
 10
105.603432
 20
77.29506999999998
 30
0.0
 40
3.2
  1
12 
 50
90.0
 41
1.153846153846153
 51
15.0
  7
FX_FONT
 72
     5
 11
105.603432
 21
86.89506999999997
 31
0.0
100
AcDbText
  0
TEXT
  5
6A
330
67
100
AcDbEntity
  8
CSLAYER1
 62
     4
100
AcDbText
 10
104.0034319999999
 20
86.89506999999997
 30
0.0
 40
1.6
  1
  0
 50
90.0
 41
1.607142857142865
 51
15.0
  7
FX_FONT
 72
     5
 11
104.0034319999999
 21
91.69507000000001
 31
0.0
100
AcDbText
  0
TEXT
  5
6B
330
67
100
AcDbEntity
  8
CSLAYER1
 62
     4
100
AcDbText
 10
105.603432
 20
86.89506999999997
 30
0.0
 40
1.6
  1
-0.15
 50
90.0
 41
1.071428571428575
 51
15.0
  7
FX_FONT
 72
     5
 11
105.603432
 21
94.89507000000001
 31
0.0
100
AcDbText
  0
LINE
  5
6C
330
67
100
AcDbEntity
  8
CSLAYER1
  6
CONTINUOUS
 62
     4
100
AcDbLine
 10
120.0
 20
73.5625
 30
0.0
 11
105.853333
 21
73.5625
 31
0.0
  0
LINE
  5
6D
330
67
100
AcDbEntity
  8
CSLAYER1
  6
CONTINUOUS
 62
     4
100
AcDbLine
 10
138.6685709999998
 20
85.5625
 30
0.0
 11
105.853333
 21
85.5625
 31
0.0
  0
LINE
  5
6E
330
67
100
AcDbEntity
  8
CSLAYER1
  6
CONTINUOUS
 62
     4
100
AcDbLine
 10
106.853333
 20
73.5625
 30
0.0
 11
106.853333
 21
85.5625
 31
0.0
  0
LINE
  5
6F
330
67
100
AcDbEntity
  8
CSLAYER1
  6
CONTINUOUS
 62
     4
100
AcDbLine
 10
106.853333
 20
73.5625
 30
0.0
 11
106.0768759999999
 21
76.46027700000002
 31
0.0
  0
LINE
  5
70
330
67
100
AcDbEntity
  8
CSLAYER1
  6
CONTINUOUS
 62
     4
100
AcDbLine
 10
106.853333
 20
73.5625
 30
0.0
 11
107.6297899999999
 21
76.46027700000002
 31
0.0
  0
LINE
  5
71
330
67
100
AcDbEntity
  8
CSLAYER1
  6
CONTINUOUS
 62
     4
100
AcDbLine
 10
106.853333
 20
85.5625
 30
0.0
 11
106.0768759999999
 21
82.664723
 31
0.0
  0
LINE
  5
72
330
67
100
AcDbEntity
  8
CSLAYER1
  6
CONTINUOUS
 62
     4
100
AcDbLine
 10
106.853333
 20
85.5625
 30
0.0
 11
107.6297899999999
 21
82.664723
 31
0.0
  0
ENDBLK
  5
73
330
67
100
AcDbEntity
  8
0
100
AcDbBlockEnd
  0
BLOCK
  5
75
330
74
100
AcDbEntity
  8
0
100
AcDbBlockBegin
  2
*D5
 70
     1
 10
0.0
 20
0.0
 30
0.0
  3
*D5
  1

  0
TEXT
  5
76
330
74
100
AcDbEntity
  8
CSLAYER1
 62
     4
100
AcDbText
 10
73.723511
 20
128.496336
 30
0.0
 40
3.2
  1
R12.5
 50
38.24590204072034
 41
1.071428628378394
 51
15.0
  7
FX_FONT
 72
     5
 11
86.289291
 21
138.4009409999999
 31
0.0
100
AcDbText
  0
LINE
  5
77
330
74
100
AcDbEntity
  8
CSLAYER1
  6
CONTINUOUS
 62
     4
100
AcDbLine
 10
69.957402
 20
130.262028
 30
0.0
 11
79.77441699999999
 21
138.0
 31
0.0
  0
LINE
  5
78
330
74
100
AcDbEntity
  8
CSLAYER1
  6
CONTINUOUS
 62
     4
100
AcDbLine
 10
69.957402
 20
130.262028
 30
0.0
 11
71.75254699999998
 21
132.665661
 31
0.0
  0
LINE
  5
79
330
74
100
AcDbEntity
  8
CSLAYER1
  6
CONTINUOUS
 62
     4
100
AcDbLine
 10
69.957402
 20
130.262028
 30
0.0
 11
72.71385999999998
 21
131.446062
 31
0.0
  0
ENDBLK
  5
7A
330
74
100
AcDbEntity
  8
0
100
AcDbBlockEnd
  0
BLOCK
  5
7C
330
7B
100
AcDbEntity
  8
0
100
AcDbBlockBegin
  2
*D6
 70
     1
 10
0.0
 20
0.0
 30
0.0
  3
*D6
  1

  0
TEXT
  5
7D
330
7B
100
AcDbEntity
  8
CSLAYER1
 62
     4
100
AcDbText
 10
112.024849
 20
72.7625
 30
0.0
 40
3.2
  1
(8)
 50
90.0
 41
1.285714285714285
 51
15.0
  7
FX_FONT
 72
     5
 11
112.024849
 21
82.3625
 31
0.0
100
AcDbText
  0
LINE
  5
7E
330
7B
100
AcDbEntity
  8
CSLAYER1
  6
CONTINUOUS
 62
     4
100
AcDbLine
 10
135.198684
 20
81.5625
 30
0.0
 11
111.5248479999999
 21
81.5625
 31
0.0
  0
LINE
  5
7F
330
7B
100
AcDbEntity
  8
CSLAYER1
  6
CONTINUOUS
 62
     4
100
AcDbLine
 10
112.5248479999999
 20
73.5625
 30
0.0
 11
112.5248479999999
 21
81.5625
 31
0.0
  0
LINE
  5
80
330
7B
100
AcDbEntity
  8
CSLAYER1
  6
CONTINUOUS
 62
     4
100
AcDbLine
 10
112.5248479999999
 20
73.5625
 30
0.0
 11
111.748391
 21
76.46027700000002
 31
0.0
  0
LINE
  5
81
330
7B
100
AcDbEntity
  8
CSLAYER1
  6
CONTINUOUS
 62
     4
100
AcDbLine
 10
112.5248479999999
 20
73.5625
 30
0.0
 11
113.301306
 21
76.46027700000002
 31
0.0
  0
LINE
  5
82
330
7B
100
AcDbEntity
  8
CSLAYER1
  6
CONTINUOUS
 62
     4
100
AcDbLine
 10
112.5248479999999
 20
81.5625
 30
0.0
 11
111.748391
 21
78.66472299999998
 31
0.0
  0
LINE
  5
83
330
7B
100
AcDbEntity
  8
CSLAYER1
  6
CONTINUOUS
 62
     4
100
AcDbLine
 10
112.5248479999999
 20
81.5625
 30
0.0
 11
113.301306
 21
78.66472299999998
 31
0.0
  0
ENDBLK
  5
84
330
7B
100
AcDbEntity
  8
0
100
AcDbBlockEnd
  0
BLOCK
  5
86
330
85
100
AcDbEntity
  8
0
100
AcDbBlockBegin
  2
*D7
 70
     1
 10
0.0
 20
0.0
 30
0.0
  3
*D7
  1

  0
TEXT
  5
87
330
85
100
AcDbEntity
  8
CSLAYER1
 62
     4
100
AcDbText
 10
141.3499999999999
 20
96.06821400000001
 30
0.0
 40
3.2
  1
16.5
 41
1.090909090909099
 51
15.0
  7
FX_FONT
 72
     5
 11
154.15
 21
96.06821400000001
 31
0.0
100
AcDbText
  0
LINE
  5
88
330
85
100
AcDbEntity
  8
CSLAYER1
  6
CONTINUOUS
 62
     4
100
AcDbLine
 10
139.5
 20
86.5625
 30
0.0
 11
139.5
 21
96.568214
 31
0.0
  0
LINE
  5
89
330
85
100
AcDbEntity
  8
CSLAYER1
  6
CONTINUOUS
 62
     4
100
AcDbLine
 10
156.0
 20
90.22424499999999
 30
0.0
 11
156.0
 21
96.568214
 31
0.0
  0
LINE
  5
8A
330
85
100
AcDbEntity
  8
CSLAYER1
  6
CONTINUOUS
 62
     4
100
AcDbLine
 10
139.5
 20
95.568214
 30
0.0
 11
156.0
 21
95.568214
 31
0.0
  0
LINE
  5
8B
330
85
100
AcDbEntity
  8
CSLAYER1
  6
CONTINUOUS
 62
     4
100
AcDbLine
 10
139.5
 20
95.568214
 30
0.0
 11
142.397777
 21
96.344671
 31
0.0
  0
LINE
  5
8C
330
85
100
AcDbEntity
  8
CSLAYER1
  6
CONTINUOUS
 62
     4
100
AcDbLine
 10
139.5
 20
95.568214
 30
0.0
 11
142.397777
 21
94.79175699999997
 31
0.0
  0
LINE
  5
8D
330
85
100
AcDbEntity
  8
CSLAYER1
  6
CONTINUOUS
 62
     4
100
AcDbLine
 10
156.0
 20
95.568214
 30
0.0
 11
153.102223
 21
96.344671
 31
0.0
  0
LINE
  5
8E
330
85
100
AcDbEntity
  8
CSLAYER1
  6
CONTINUOUS
 62
     4
100
AcDbLine
 10
156.0
 20
95.568214
 30
0.0
 11
153.102223
 21
94.79175699999997
 31
0.0
  0
ENDBLK
  5
8F
330
85
100
AcDbEntity
  8
0
100
AcDbBlockEnd
  0
BLOCK
  5
91
330
90
100
AcDbEntity
  8
0
100
AcDbBlockBegin
  2
*D8
 70
     1
 10
0.0
 20
0.0
 30
0.0
  3
*D8
  1

  0
TEXT
  5
92
330
90
100
AcDbEntity
  8
CSLAYER1
 62
     4
100
AcDbText
 10
135.3
 20
164.176376
 30
0.0
 40
3.2
  1
35
 41
1.199999999999979
 51
15.0
  7
FX_FONT
 72
     5
 11
141.6999999999999
 21
164.176376
 31
0.0
100
AcDbText
  0
LINE
  5
93
330
90
100
AcDbEntity
  8
CSLAYER1
  6
CONTINUOUS
 62
     4
100
AcDbLine
 10
121.0
 20
163.676374
 30
0.0
 11
156.0
 21
163.676374
 31
0.0
  0
LINE
  5
94
330
90
100
AcDbEntity
  8
CSLAYER1
  6
CONTINUOUS
 62
     4
100
AcDbLine
 10
121.0
 20
163.676374
 30
0.0
 11
123.8977769999999
 21
164.452831
 31
0.0
  0
LINE
  5
95
330
90
100
AcDbEntity
  8
CSLAYER1
  6
CONTINUOUS
 62
     4
100
AcDbLine
 10
121.0
 20
163.676374
 30
0.0
 11
123.8977769999999
 21
162.899916
 31
0.0
  0
LINE
  5
96
330
90
100
AcDbEntity
  8
CSLAYER1
  6
CONTINUOUS
 62
     4
100
AcDbLine
 10
156.0
 20
163.676374
 30
0.0
 11
153.102223
 21
164.452831
 31
0.0
  0
LINE
  5
97
330
90
100
AcDbEntity
  8
CSLAYER1
  6
CONTINUOUS
 62
     4
100
AcDbLine
 10
156.0
 20
163.676374
 30
0.0
 11
153.102223
 21
162.899916
 31
0.0
  0
LINE
  5
98
330
90
100
AcDbEntity
  8
CSLAYER1
  6
CONTINUOUS
 62
     4
100
AcDbLine
 10
121.0
 20
139.0
 30
0.0
 11
121.0
 21
164.676374
 31
0.0
  0
LINE
  5
99
330
90
100
AcDbEntity
  8
CSLAYER1
  6
CONTINUOUS
 62
     4
100
AcDbLine
 10
156.0
 20
153.563033
 30
0.0
 11
156.0
 21
164.676374
 31
0.0
  0
ENDBLK
  5
9A
330
90
100
AcDbEntity
  8
0
100
AcDbBlockEnd
  0
BLOCK
  5
9C
330
9B
100
AcDbEntity
  8
0
100
AcDbBlockBegin
  2
*D9
 70
     1
 10
0.0
 20
0.0
 30
0.0
  3
*D9
  1

  0
TEXT
  5
9D
330
9B
100
AcDbEntity
  8
CSLAYER1
 62
     4
100
AcDbText
 10
133.7968379999999
 20
127.339659
 30
0.0
 40
3.029129999999998
  1
R20
 50
75.95942651463285
 41
1.049277314209669
 51
15.0
  7
FX_FONT
 72
     5
 11
135.853125
 21
135.5621659999999
 31
0.0
100
AcDbText
  0
LINE
  5
9E
330
9B
100
AcDbEntity
  8
CSLAYER1
  6
CONTINUOUS
 62
     4
100
AcDbLine
 10
134.2516889999999
 20
127.0975159999998
 30
0.0
 11
139.1038669999999
 21
146.5
 31
0.0
  0
LINE
  5
9F
330
9B
100
AcDbEntity
  8
CSLAYER1
  6
CONTINUOUS
 62
     4
100
AcDbLine
 10
134.2516889999999
 20
127.0975159999998
 30
0.0
 11
134.201456
 21
130.0970959999999
 31
0.0
  0
LINE
  5
A0
330
9B
100
AcDbEntity
  8
CSLAYER1
  6
CONTINUOUS
 62
     4
100
AcDbLine
 10
134.2516889999999
 20
127.0975159999998
 30
0.0
 11
135.707975
 21
129.720345
 31
0.0
  0
ENDBLK
  5
A1
330
9B
100
AcDbEntity
  8
0
100
AcDbBlockEnd
  0
BLOCK
  5
A3
330
A2
100
AcDbEntity
  8
0
100
AcDbBlockBegin
  2
*D10
 70
     1
 10
0.0
 20
0.0
 30
0.0
  3
*D10
  1

  0
TEXT
  5
A4
330
A2
100
AcDbEntity
  8
CSLAYER1
 62
     4
100
AcDbText
 10
110.909729
 20
126.8
 30
0.0
 40
3.2
  1
22.5~24
 50
90.0
 41
1.049999999999995
 51
15.0
  7
FX_FONT
 72
     5
 11
110.909729
 21
149.1999999999999
 31
0.0
100
AcDbText
  0
LINE
  5
A5
330
A2
100
AcDbEntity
  8
CSLAYER1
  6
CONTINUOUS
 62
     4
100
AcDbLine
 10
111.40973
 20
126.5
 30
0.0
 11
111.40973
 21
149.5
 31
0.0
  0
LINE
  5
A6
330
A2
100
AcDbEntity
  8
CSLAYER1
  6
CONTINUOUS
 62
     4
100
AcDbLine
 10
111.40973
 20
126.5
 30
0.0
 11
110.633273
 21
129.3977769999999
 31
0.0
  0
LINE
  5
A7
330
A2
100
AcDbEntity
  8
CSLAYER1
  6
CONTINUOUS
 62
     4
100
AcDbLine
 10
111.40973
 20
126.5
 30
0.0
 11
112.186187
 21
129.3977769999999
 31
0.0
  0
LINE
  5
A8
330
A2
100
AcDbEntity
  8
CSLAYER1
  6
CONTINUOUS
 62
     4
100
AcDbLine
 10
111.40973
 20
149.5
 30
0.0
 11
110.633273
 21
146.602223
 31
0.0
  0
LINE
  5
A9
330
A2
100
AcDbEntity
  8
CSLAYER1
  6
CONTINUOUS
 62
     4
100
AcDbLine
 10
111.40973
 20
149.5
 30
0.0
 11
112.186187
 21
146.602223
 31
0.0
  0
LINE
  5
AA
330
A2
100
AcDbEntity
  8
CSLAYER1
  6
CONTINUOUS
 62
     4
100
AcDbLine
 10
138.1038669999999
 20
126.5
 30
0.0
 11
110.40973
 21
126.5
 31
0.0
  0
LINE
  5
AB
330
A2
100
AcDbEntity
  8
CSLAYER1
  6
CONTINUOUS
 62
     4
100
AcDbLine
 10
138.1038669999999
 20
149.5
 30
0.0
 11
110.40973
 21
149.5
 31
0.0
  0
ENDBLK
  5
AC
330
A2
100
AcDbEntity
  8
0
100
AcDbBlockEnd
  0
BLOCK
  5
AE
330
AD
100
AcDbEntity
  8
0
100
AcDbBlockBegin
  2
*D11
 70
     1
 10
0.0
 20
0.0
 30
0.0
  3
*D11
  1

  0
TEXT
  5
AF
330
AD
100
AcDbEntity
  8
CSLAYER1
 62
     4
100
AcDbText
 10
118.2716029999999
 20
60.120277
 30
0.0
 40
3.2
  1
切刃部有効18
 41
0.9130435190217434
 51
15.0
  7
FX_FONT
 72
     5
 11
140.671604
 21
60.120277
 31
0.0
100
AcDbText
  0
LINE
  5
B0
330
AD
100
AcDbEntity
  8
CSLAYER1
  6
CONTINUOUS
 62
     4
100
AcDbLine
 10
121.0
 20
64.76654599999999
 30
0.0
 11
139.0
 21
64.76654599999999
 31
0.0
  0
LINE
  5
B1
330
AD
100
AcDbEntity
  8
CSLAYER1
  6
CONTINUOUS
 62
     4
100
AcDbLine
 10
121.0
 20
64.76654599999999
 30
0.0
 11
123.8977769999999
 21
65.543003
 31
0.0
  0
LINE
  5
B2
330
AD
100
AcDbEntity
  8
CSLAYER1
  6
CONTINUOUS
 62
     4
100
AcDbLine
 10
121.0
 20
64.76654599999999
 30
0.0
 11
123.8977769999999
 21
63.990089
 31
0.0
  0
LINE
  5
B3
330
AD
100
AcDbEntity
  8
CSLAYER1
  6
CONTINUOUS
 62
     4
100
AcDbLine
 10
139.0
 20
64.76654599999999
 30
0.0
 11
136.102223
 21
65.543003
 31
0.0
  0
LINE
  5
B4
330
AD
100
AcDbEntity
  8
CSLAYER1
  6
CONTINUOUS
 62
     4
100
AcDbLine
 10
139.0
 20
64.76654599999999
 30
0.0
 11
136.102223
 21
63.990089
 31
0.0
  0
LINE
  5
B5
330
AD
100
AcDbEntity
  8
CSLAYER1
  6
CONTINUOUS
 62
     4
100
AcDbLine
 10
121.0
 20
72.5625
 30
0.0
 11
121.0
 21
63.766546
 31
0.0
  0
LINE
  5
B6
330
AD
100
AcDbEntity
  8
CSLAYER1
  6
CONTINUOUS
 62
     4
100
AcDbLine
 10
139.0
 20
72.5625
 30
0.0
 11
139.0
 21
63.766546
 31
0.0
  0
ENDBLK
  5
B7
330
AD
100
AcDbEntity
  8
0
100
AcDbBlockEnd
  0
BLOCK
  5
B9
330
B8
100
AcDbEntity
  8
0
100
AcDbBlockBegin
  2
*D12
 70
     1
 10
0.0
 20
0.0
 30
0.0
  3
*D12
  1

  0
TEXT
  5
BA
330
B8
100
AcDbEntity
  8
CSLAYER1
 62
     4
100
AcDbText
 10
57.678757
 20
31.42049899999999
 30
0.0
 40
3.2
  1
11
 50
90.0
 41
1.333333333333335
 51
15.0
  7
FX_FONT
 72
     5
 11
57.678757
 21
37.820499
 31
0.0
100
AcDbText
  0
LINE
  5
BB
330
B8
100
AcDbEntity
  8
CSLAYER1
  6
CONTINUOUS
 62
     4
100
AcDbLine
 10
58.178756
 20
29.12049699999998
 30
0.0
 11
58.178756
 21
40.120497
 31
0.0
  0
LINE
  5
BC
330
B8
100
AcDbEntity
  8
CSLAYER1
  6
CONTINUOUS
 62
     4
100
AcDbLine
 10
58.178756
 20
29.12049699999998
 30
0.0
 11
57.402299
 21
32.01827399999999
 31
0.0
  0
LINE
  5
BD
330
B8
100
AcDbEntity
  8
CSLAYER1
  6
CONTINUOUS
 62
     4
100
AcDbLine
 10
58.178756
 20
29.12049699999998
 30
0.0
 11
58.955213
 21
32.01827399999999
 31
0.0
  0
LINE
  5
BE
330
B8
100
AcDbEntity
  8
CSLAYER1
  6
CONTINUOUS
 62
     4
100
AcDbLine
 10
58.178756
 20
40.120497
 30
0.0
 11
57.402299
 21
37.22271899999999
 31
0.0
  0
LINE
  5
BF
330
B8
100
AcDbEntity
  8
CSLAYER1
  6
CONTINUOUS
 62
     4
100
AcDbLine
 10
58.178756
 20
40.120497
 30
0.0
 11
58.955213
 21
37.22271899999999
 31
0.0
  0
LINE
  5
C0
330
B8
100
AcDbEntity
  8
CSLAYER1
  6
CONTINUOUS
 62
     4
100
AcDbLine
 10
65.550782
 20
29.12049699999998
 30
0.0
 11
57.17875600000001
 21
29.12049699999998
 31
0.0
  0
LINE
  5
C1
330
B8
100
AcDbEntity
  8
CSLAYER1
  6
CONTINUOUS
 62
     4
100
AcDbLine
 10
65.550782
 20
40.120497
 30
0.0
 11
57.17875600000001
 21
40.120497
 31
0.0
  0
ENDBLK
  5
C2
330
B8
100
AcDbEntity
  8
0
100
AcDbBlockEnd
  0
BLOCK
  5
177
330
16A
100
AcDbEntity
  8
0
100
AcDbBlockBegin
  2
*D13
 70
     1
 10
0.0
 20
0.0
 30
0.0
  3
*D13
  1

  0
LINE
  5
16B
330
16A
100
AcDbEntity
  8
CSLAYER1
 62
     0
100
AcDbLine
 10
73.78907552635823
 20
148.7320450034078
 30
0.0
 11
77.67010496051222
 21
154.2747296644334
 31
0.0
  0
LINE
  5
16C
330
16A
100
AcDbEntity
  8
CSLAYER1
 62
     0
100
AcDbLine
 10
66.274417
 20
149.5624999999999
 30
0.0
 11
66.274417
 21
157.8677761650304
 31
0.0
  0
ARC
  5
16D
330
16A
100
AcDbEntity
  8
CSLAYER1
 62
     0
100
AcDbCircle
 10
66.274417
 20
138.0
 30
0.0
 40
19.68777616503044
100
AcDbArc
 50
55.52384262587365
 51
71.34278866594984
  0
ARC
  5
16E
330
16A
100
AcDbEntity
  8
CSLAYER1
 62
     0
100
AcDbCircle
 10
66.274417
 20
138.0
 30
0.0
 40
19.68777616503044
100
AcDbArc
 50
73.64988832668378
 51
89.47615839665278
  0
SOLID
  5
16F
330
16A
100
AcDbEntity
  8
CSLAYER1
 62
     0
100
AcDbTrace
 10
77.4360381841702
 20
154.2545039017674
 30
0.0
 11
77.40184863701006
 21
154.2051979704308
 31
0.0
 12
77.56686120460044
 22
154.1272822946188
 32
0.0
 13
77.56686120460044
 23
154.1272822946188
 33
0.0
  0
SOLID
  5
170
330
16A
100
AcDbEntity
  8
CSLAYER1
 62
     0
100
AcDbTrace
 10
66.45427797829319
 20
157.656953632892
 30
0.0
 11
66.45455226016001
 21
157.7169530059677
 31
0.0
 12
66.274417
 22
157.6877761650303
 32
0.0
 13
66.274417
 23
157.6877761650303
 33
0.0
  0
MTEXT
  5
171
330
16A
100
AcDbEntity
  8
CSLAYER1
 62
     0
100
AcDbMText
 10
72.19464530461909
 20
156.7765659039539
 30
0.0
 40
0.18
 41
0.0
 71
     5
 72
     1
  1
\A1;35°
1001
ACAD
1000
MTEXTBEGIN
1070
    73
1070
     1
1070
    44
1040
1.0
1070
    74
1070
     0
1000
MTEXTEND
  0
POINT
  5
172
330
16A
100
AcDbEntity
  8
DEFPOINTS
 62
     0
100
AcDbPoint
 10
74.07234656219547
 20
156.0776332761614
 30
0.0
  0
POINT
  5
173
330
16A
100
AcDbEntity
  8
DEFPOINTS
 62
     0
100
AcDbPoint
 10
66.274417
 20
138.0
 30
0.0
  0
POINT
  5
174
330
16A
100
AcDbEntity
  8
DEFPOINTS
 62
     0
100
AcDbPoint
 10
66.274417
 20
149.5
 30
0.0
  0
POINT
  5
175
330
16A
100
AcDbEntity
  8
DEFPOINTS
 62
     0
100
AcDbPoint
 10
66.274417
 20
138.0
 30
0.0
  0
POINT
  5
176
330
16A
100
AcDbEntity
  8
DEFPOINTS
 62
     0
100
AcDbPoint
 10
73.75322699999998
 20
148.680848
 30
0.0
  0
ENDBLK
  5
178
330
16A
100
AcDbEntity
  8
0
100
AcDbBlockEnd
  0
ENDSEC
  0
SECTION
  2
ENTITIES
  0
POINT
  5
C3
330
1E
100
AcDbEntity
  8
CSLAYER1
 62
     3
100
AcDbPoint
 10
245.5
 20
41.5
 30
0.0
  0
POINT
  5
C4
330
1E
100
AcDbEntity
  8
CSLAYER1
 62
     3
100
AcDbPoint
 10
266.0
 20
41.5
 30
0.0
  0
POINT
  5
C5
330
1E
100
AcDbEntity
  8
CSLAYER1
 62
     3
100
AcDbPoint
 10
266.0
 20
51.5
 30
0.0
  0
POINT
  5
C6
330
1E
100
AcDbEntity
  8
CSLAYER1
 62
     3
100
AcDbPoint
 10
245.5
 20
51.5
 30
0.0
  0
TEXT
  5
C7
330
1E
100
AcDbEntity
  8
CSLAYER1
 62
     3
100
AcDbText
 10
233.0999849999999
 20
49.00000399999999
 30
0.0
 40
5.0
  1
刃開キハ
 41
1.110447761194034
  7
FX_FONT
 72
     5
 11
257.899985
 21
49.00000399999999
 31
0.0
100
AcDbText
  0
TEXT
  5
C8
330
1E
100
AcDbEntity
  8
CSLAYER1
 62
     3
100
AcDbText
 10
232.999985
 20
39.00000399999999
 30
0.0
 40
5.0
  1
切刃部有効
 41
0.872093023255811
  7
FX_FONT
 72
     5
 11
257.9999849999999
 21
39.00000399999999
 31
0.0
100
AcDbText
  0
POINT
  5
C9
330
1E
100
AcDbEntity
  8
CSLAYER1
 62
     3
100
AcDbPoint
 10
166.0
 20
138.0
 30
0.0
  0
POINT
  5
CA
330
1E
100
AcDbEntity
  8
CSLAYER1
 62
     3
100
AcDbPoint
 10
166.0
 20
79.5625
 30
0.0
  0
POINT
  5
CB
330
1E
100
AcDbEntity
  8
CSLAYER1
 62
     3
100
AcDbPoint
 10
156.0
 20
138.0
 30
0.0
  0
POINT
  5
CC
330
1E
100
AcDbEntity
  8
CSLAYER1
 62
     3
100
AcDbPoint
 10
156.0
 20
79.5625
 30
0.0
  0
POINT
  5
CD
330
1E
100
AcDbEntity
  8
CSLAYER1
 62
     3
100
AcDbPoint
 10
252.0
 20
19.0
 30
0.0
  0
INSERT
  5
CE
330
1E
100
AcDbEntity
  8
CSLAYER1
100
AcDbBlockReference
  2
FXDIM0000
 10
0.0
 20
0.0
 30
0.0
  0
INSERT
  5
CF
330
1E
100
AcDbEntity
  8
CSLAYER1
100
AcDbBlockReference
  2
FXDIM0001
 10
0.0
 20
0.0
 30
0.0
  0
INSERT
  5
D0
330
1E
100
AcDbEntity
  8
CSLAYER1
100
AcDbBlockReference
  2
FXDIM0002
 10
0.0
 20
0.0
 30
0.0
  0
DIMENSION
  5
D2
330
1E
100
AcDbEntity
  8
CSLAYER1
 62
     4
100
AcDbDimension
  2
*D4
 10
106.853333
 20
85.5625
 30
0.0
 11
105.603432
 21
86.09506999999998
 31
0.0
100
AcDbAlignedDimension
 13
121.0
 23
73.5625
 33
0.0
 14
139.6685709999998
 24
85.5625
 34
0.0
 50
90.0
100
AcDbRotatedDimension
  0
TEXT
  5
D3
330
1E
100
AcDbEntity
  8
CSLAYER1
 62
     3
100
AcDbText
 10
261.0
 20
49.0
 30
0.0
 40
5.0
  1
11
 41
1.333333333333333
  7
FX_FONT
 72
     5
 11
271.0
 21
49.0
 31
0.0
100
AcDbText
  0
TEXT
  5
D4
330
1E
100
AcDbEntity
  8
CSLAYER1
 62
     3
100
AcDbText
 10
261.0
 20
39.0
 30
0.0
 40
5.0
  1
18
 41
1.199999999999999
  7
FX_FONT
 72
     5
 11
271.0
 21
39.0
 31
0.0
100
AcDbText
  0
TEXT
  5
D5
330
1E
100
AcDbEntity
  8
CSLAYER1
 62
     3
100
AcDbText
 10
243.25
 20
17.25
 30
0.0
 40
3.5
  1
N20AJ
 41
1.071428571428567
  7
FX_FONT
 72
     5
 11
260.7499999999999
 21
17.25
 31
0.0
100
AcDbText
  0
DIMENSION
  5
D6
330
1E
100
AcDbEntity
  8
CSLAYER1
 62
     4
100
AcDbDimension
  2
*D5
 10
79.77441699999999
 20
138.0
 30
0.0
 11
80.006401
 21
133.4486389999999
 31
0.0
 70
     4
100
AcDbRadialDimension
 15
69.957402
 25
130.262028
 35
0.0
 40
0.0
  0
DIMENSION
  5
D7
330
1E
100
AcDbEntity
  8
CSLAYER1
 62
     4
100
AcDbDimension
  2
*D6
 10
112.5248479999999
 20
81.5625
 30
0.0
 11
112.024849
 21
77.5625
 31
0.0
 70
     1
100
AcDbAlignedDimension
 13
136.198684
 23
73.5625
 33
0.0
 14
136.198684
 24
81.5625
 34
0.0
  0
LINE
  5
D8
330
1E
100
AcDbEntity
  8
CSLAYER1
  6
CONTINUOUS
 62
     3
100
AcDbLine
 10
274.0
 20
38.0
 30
0.0
 11
233.0
 21
38.0
 31
0.0
  0
LINE
  5
D9
330
1E
100
AcDbEntity
  8
CSLAYER1
  6
CONTINUOUS
 62
     3
100
AcDbLine
 10
233.0
 20
48.0
 30
0.0
 11
274.0
 21
48.0
 31
0.0
  0
ARC
  5
DA
330
1E
100
AcDbEntity
  8
CSLAYER1
  6
CONTINUOUS
 62
     3
100
AcDbCircle
 10
210.7509049999999
 20
79.659998
 30
0.0
 40
5.25
100
AcDbArc
 50
358.935899
 51
88.92583
  0
LINE
  5
DB
330
1E
100
AcDbEntity
  8
CSLAYER1
  6
CONTINUOUS
 62
     3
100
AcDbLine
 10
210.8493259999999
 20
84.909075
 30
0.0
 11
176.0
 21
85.5625
 31
0.0
  0
LINE
  5
DC
330
1E
100
AcDbEntity
  8
CSLAYER1
  6
CONTINUOUS
 62
     3
100
AcDbLine
 10
176.0
 20
85.5625
 30
0.0
 11
139.5
 21
85.5625
 31
0.0
  0
LINE
  5
DD
330
1E
100
AcDbEntity
  8
CSLAYER1
  6
CONTINUOUS
 62
     3
100
AcDbLine
 10
139.5
 20
85.5625
 30
0.0
 11
139.5
 21
82.56249999999999
 31
0.0
  0
LINE
  5
DE
330
1E
100
AcDbEntity
  8
CSLAYER1
  6
CONTINUOUS
 62
     3
100
AcDbLine
 10
138.5
 20
81.5625
 30
0.0
 11
136.198684
 21
81.5625
 31
0.0
  0
ARC
  5
DF
330
1E
100
AcDbEntity
  8
CSLAYER1
  6
CONTINUOUS
 62
     3
100
AcDbCircle
 10
136.198684
 20
61.5625
 30
0.0
 40
20.0
100
AcDbArc
 50
90.0
 51
139.458398
  0
LINE
  5
E0
330
1E
100
AcDbEntity
  8
CSLAYER1
  6
CONTINUOUS
 62
     3
100
AcDbLine
 10
121.0
 20
74.5625
 30
0.0
 11
121.0
 21
73.5625
 31
0.0
  0
LINE
  5
E1
330
1E
100
AcDbEntity
  8
CSLAYER1
  6
CONTINUOUS
 62
     3
100
AcDbLine
 10
121.0
 20
73.5625
 30
0.0
 11
176.0
 21
73.5625
 31
0.0
  0
LINE
  5
E2
330
1E
100
AcDbEntity
  8
CSLAYER1
  6
CONTINUOUS
 62
     3
100
AcDbLine
 10
176.0
 20
73.5625
 30
0.0
 11
210.8493259999999
 21
74.215925
 31
0.0
  0
ARC
  5
E3
330
1E
100
AcDbEntity
  8
CSLAYER1
  6
CONTINUOUS
 62
     3
100
AcDbCircle
 10
210.7509049999999
 20
79.465002
 30
0.0
 40
5.25
100
AcDbArc
 50
271.0741699999999
 51
1.064100999999998
  0
LINE
  5
E4
330
1E
100
AcDbEntity
  8
CSLAYER1
  6
CONTINUOUS
 62
     3
100
AcDbLine
 10
66.274417
 20
126.5
 30
0.0
 11
66.274417
 21
149.5
 31
0.0
  0
LINE
  5
E5
330
1E
100
AcDbEntity
  8
CSLAYER1
  6
CONTINUOUS
 62
     3
100
AcDbLine
 10
66.274417
 20
149.5
 30
0.0
 11
74.32680400000002
 21
149.5
 31
0.0
  0
LINE
  5
E6
330
1E
100
AcDbEntity
  8
CSLAYER1
  6
CONTINUOUS
 62
     3
100
AcDbLine
 10
74.32680400000002
 20
149.5
 30
0.0
 11
74.05823199999997
 21
149.1164389999999
 31
0.0
  0
ARC
  5
E7
330
1E
100
AcDbEntity
  8
CSLAYER1
  6
CONTINUOUS
 62
     3
100
AcDbCircle
 10
79.77441699999999
 20
138.0
 30
0.0
 40
12.5
100
AcDbArc
 50
117.212685
 51
172.7873149999999
  0
LINE
  5
E8
330
1E
100
AcDbEntity
  8
CSLAYER1
  6
CONTINUOUS
 62
     3
100
AcDbLine
 10
67.37333000000001
 20
139.5694109999999
 30
0.0
 11
66.274417
 21
138.0
 31
0.0
  0
LINE
  5
E9
330
1E
100
AcDbEntity
  8
CSLAYER1
  6
CONTINUOUS
 62
     3
100
AcDbLine
 10
66.274417
 20
138.0
 30
0.0
 11
67.37333000000001
 21
136.430589
 31
0.0
  0
ARC
  5
EA
330
1E
100
AcDbEntity
  8
CSLAYER1
  6
CONTINUOUS
 62
     3
100
AcDbCircle
 10
79.77441699999999
 20
138.0
 30
0.0
 40
12.5
100
AcDbArc
 50
187.212685
 51
242.7873149999999
  0
LINE
  5
EB
330
1E
100
AcDbEntity
  8
CSLAYER1
  6
CONTINUOUS
 62
     3
100
AcDbLine
 10
74.05823199999997
 20
126.883561
 30
0.0
 11
74.32680400000002
 21
126.5
 31
0.0
  0
LINE
  5
EC
330
1E
100
AcDbEntity
  8
CSLAYER1
  6
CONTINUOUS
 62
     3
100
AcDbLine
 10
74.32680400000002
 20
126.5
 30
0.0
 11
66.274417
 21
126.5
 31
0.0
  0
LINE
  5
ED
330
1E
100
AcDbEntity
  8
CSLAYER1
  6
CONTINUOUS
 62
     3
100
AcDbLine
 10
121.0
 20
138.0
 30
0.0
 11
139.0
 21
138.0
 31
0.0
  0
ARC
  5
EE
330
1E
100
AcDbEntity
  8
CSLAYER1
  6
CONTINUOUS
 62
     3
100
AcDbCircle
 10
138.5
 20
138.6158159999999
 30
0.0
 40
1.0
100
AcDbArc
 50
0.0
 51
90.0
  0
LINE
  5
EF
330
1E
100
AcDbEntity
  8
CSLAYER1
  6
CONTINUOUS
 62
     3
100
AcDbLine
 10
138.5
 20
139.6158159999999
 30
0.0
 11
121.850743
 21
139.6158159999999
 31
0.0
  0
ARC
  5
F0
330
1E
100
AcDbEntity
  8
CSLAYER1
  6
CONTINUOUS
 62
     3
100
AcDbCircle
 10
139.1038669999999
 20
146.5
 30
0.0
 40
20.0
100
AcDbArc
 50
205.1506629999999
 51
270.0
  0
LINE
  5
F1
330
1E
100
AcDbEntity
  8
CSLAYER1
  6
CONTINUOUS
 62
     3
100
AcDbLine
 10
139.1038669999999
 20
126.5
 30
0.0
 11
166.0
 21
126.5
 31
0.0
  0
LINE
  5
F2
330
1E
100
AcDbEntity
  8
CSLAYER1
  6
CONTINUOUS
 62
     3
100
AcDbLine
 10
166.0
 20
126.5
 30
0.0
 11
210.0183439999999
 21
130.021468
 31
0.0
  0
ARC
  5
F3
330
1E
100
AcDbEntity
  8
CSLAYER1
  6
CONTINUOUS
 62
     3
100
AcDbCircle
 10
209.5
 20
136.500767
 30
0.0
 40
6.5
100
AcDbArc
 50
274.5739209999999
 51
359.993241
  0
LINE
  5
F4
330
1E
100
AcDbEntity
  8
CSLAYER1
  6
CONTINUOUS
 62
     3
100
AcDbLine
 10
216.0
 20
136.4999999999999
 30
0.0
 11
169.3
 21
136.4999999999999
 31
0.0
  0
LINE
  5
F5
330
1E
100
AcDbEntity
  8
CSLAYER1
  6
CONTINUOUS
 62
     3
100
AcDbLine
 10
169.658243
 20
136.4999999999999
 30
0.0
 11
166.663577
 21
126.7048909999999
 31
0.0
  0
ARC
  5
F6
330
1E
100
AcDbEntity
  8
CSLAYER1
  6
CONTINUOUS
 62
     3
100
AcDbCircle
 10
156.0
 20
138.0
 30
0.0
 40
12.5
100
AcDbArc
 50
293.0739179999999
 51
0.0
  0
LINE
  5
F7
330
1E
100
AcDbEntity
  8
CSLAYER1
  6
CONTINUOUS
 62
     3
100
AcDbLine
 10
168.5
 20
138.7
 30
0.0
 11
168.5
 21
137.3
 31
0.0
  0
ARC
  5
F8
330
1E
100
AcDbEntity
  8
CSLAYER1
  6
CONTINUOUS
 62
     3
100
AcDbCircle
 10
169.3
 20
137.3
 30
0.0
 40
0.8
100
AcDbArc
 50
180.0
 51
270.0
  0
ARC
  5
F9
330
1E
100
AcDbEntity
  8
CSLAYER1
  6
CONTINUOUS
 62
     3
100
AcDbCircle
 10
169.3
 20
138.7
 30
0.0
 40
0.8
100
AcDbArc
 50
90.0
 51
180.0
  0
LINE
  5
FA
330
1E
100
AcDbEntity
  8
CSLAYER1
  6
CONTINUOUS
 62
     3
100
AcDbLine
 10
169.3
 20
139.5
 30
0.0
 11
216.0
 21
139.5
 31
0.0
  0
ARC
  5
FB
330
1E
100
AcDbEntity
  8
CSLAYER1
  6
CONTINUOUS
 62
     3
100
AcDbCircle
 10
209.5
 20
139.499233
 30
0.0
 40
6.5
100
AcDbArc
 50
0.006759
 51
85.42607900000001
  0
LINE
  5
FC
330
1E
100
AcDbEntity
  8
CSLAYER1
  6
CONTINUOUS
 62
     3
100
AcDbLine
 10
210.0183439999999
 20
145.9785319999999
 30
0.0
 11
166.0
 21
149.5
 31
0.0
  0
LINE
  5
FD
330
1E
100
AcDbEntity
  8
CSLAYER1
  6
CONTINUOUS
 62
     3
100
AcDbLine
 10
166.0
 20
149.5
 30
0.0
 11
139.1038669999999
 21
149.5
 31
0.0
  0
ARC
  5
FE
330
1E
100
AcDbEntity
  8
CSLAYER1
  6
CONTINUOUS
 62
     3
100
AcDbCircle
 10
139.1038669999999
 20
129.4999999999999
 30
0.0
 40
20.0
100
AcDbArc
 50
90.0
 51
154.849337
  0
LINE
  5
FF
330
1E
100
AcDbEntity
  8
CSLAYER1
  6
CONTINUOUS
 62
     3
100
AcDbLine
 10
121.850743
 20
136.384184
 30
0.0
 11
138.5
 21
136.384184
 31
0.0
  0
ARC
  5
100
330
1E
100
AcDbEntity
  8
CSLAYER1
  6
CONTINUOUS
 62
     3
100
AcDbCircle
 10
138.5
 20
137.384184
 30
0.0
 40
1.0
100
AcDbArc
 50
270.0
 51
0.0
  0
LINE
  5
101
330
1E
100
AcDbEntity
  8
CSLAYER1
  6
CONTINUOUS
 62
     3
100
AcDbLine
 10
141.947098
 20
138.2091269999999
 30
0.0
 11
145.3990639999998
 21
149.5
 31
0.0
  0
LINE
  5
102
330
1E
100
AcDbEntity
  8
CSLAYER1
  6
CONTINUOUS
 62
     3
100
AcDbLine
 10
139.5
 20
149.5
 30
0.0
 11
139.5
 21
138.477605
 31
0.0
  0
ARC
  5
103
330
1E
100
AcDbEntity
  8
CSLAYER1
  6
CONTINUOUS
 62
     3
100
AcDbCircle
 10
138.5
 20
128.322922
 30
0.0
 40
1.0
100
AcDbArc
 50
270.0
 51
0.0
  0
LINE
  5
104
330
1E
100
AcDbEntity
  8
CSLAYER1
  6
CONTINUOUS
 62
     3
100
AcDbLine
 10
138.5
 20
127.3229219999999
 30
0.0
 11
133.4258679999998
 21
127.3229219999999
 31
0.0
  0
LINE
  5
105
330
1E
100
AcDbEntity
  8
CSLAYER1
  6
CONTINUOUS
 62
     3
100
AcDbLine
 10
133.4258679999998
 20
148.677078
 30
0.0
 11
138.5
 21
148.677078
 31
0.0
  0
ARC
  5
106
330
1E
100
AcDbEntity
  8
CSLAYER1
  6
CONTINUOUS
 62
     3
100
AcDbCircle
 10
138.5
 20
147.677078
 30
0.0
 40
1.0
100
AcDbArc
 50
0.0
 51
90.0
  0
ARC
  5
107
330
1E
100
AcDbEntity
  8
CSLAYER1
  6
CONTINUOUS
 62
     3
100
AcDbCircle
 10
156.0
 20
138.0
 30
0.0
 40
12.5
100
AcDbArc
 50
113.0739179999999
 51
170.6343099999999
  0
CIRCLE
  5
108
330
1E
100
AcDbEntity
  8
CSLAYER1
  6
CONTINUOUS
 62
     3
100
AcDbCircle
 10
156.0
 20
138.0
 30
0.0
 40
2.049999999999998
  0
CIRCLE
  5
109
330
1E
100
AcDbEntity
  8
CSLAYER1
  6
CONTINUOUS
 62
     3
100
AcDbCircle
 10
156.0
 20
138.0
 30
0.0
 40
8.55
  0
LINE
  5
10A
330
1E
100
AcDbEntity
  8
CSLAYER1
  6
CONTINUOUS
 62
     3
100
AcDbLine
 10
206.4999999999999
 20
139.5
 30
0.0
 11
206.4999999999999
 21
136.4999999999999
 31
0.0
  0
LINE
  5
10B
330
1E
100
AcDbEntity
  8
CSLAYER1
  6
CONTINUOUS
 62
     3
100
AcDbLine
 10
212.5
 20
136.4999999999999
 30
0.0
 11
212.5
 21
139.5
 31
0.0
  0
LINE
  5
10C
330
1E
100
AcDbEntity
  8
CSLAYER1
  6
CONTINUOUS
 62
     3
100
AcDbLine
 10
166.663577
 20
85.5625
 30
0.0
 11
166.663577
 21
80.5625
 31
0.0
  0
LINE
  5
10D
330
1E
100
AcDbEntity
  8
CSLAYER1
  6
CONTINUOUS
 62
     3
100
AcDbLine
 10
165.663577
 20
79.5625
 30
0.0
 11
146.3990639999998
 21
79.5625
 31
0.0
  0
ARC
  5
10E
330
1E
100
AcDbEntity
  8
CSLAYER1
  6
CONTINUOUS
 62
     3
100
AcDbCircle
 10
146.3990639999998
 20
78.5625
 30
0.0
 40
1.0
100
AcDbArc
 50
90.0
 51
180.0
  0
LINE
  5
10F
330
1E
100
AcDbEntity
  8
CSLAYER1
  6
CONTINUOUS
 62
     3
100
AcDbLine
 10
145.3990639999998
 20
78.5625
 30
0.0
 11
145.3990639999998
 21
73.5625
 31
0.0
  0
LINE
  5
110
330
1E
100
AcDbEntity
  8
CSLAYER1
  6
CONTINUOUS
 62
     3
100
AcDbLine
 10
151.101021
 20
73.5625
 30
0.0
 11
151.101021
 21
79.0625
 31
0.0
  0
LINE
  5
111
330
1E
100
AcDbEntity
  8
CSLAYER1
  6
CONTINUOUS
 62
     3
100
AcDbLine
 10
151.101021
 20
79.0625
 30
0.0
 11
151.601021
 21
79.5625
 31
0.0
  0
LINE
  5
112
330
1E
100
AcDbEntity
  8
CSLAYER1
  6
CONTINUOUS
 62
     3
100
AcDbLine
 10
160.3989789999999
 20
79.5625
 30
0.0
 11
160.898979
 21
80.06249999999999
 31
0.0
  0
LINE
  5
113
330
1E
100
AcDbEntity
  8
CSLAYER1
  6
CONTINUOUS
 62
     3
100
AcDbLine
 10
160.898979
 20
80.06249999999999
 30
0.0
 11
160.898979
 21
85.5625
 31
0.0
  0
ARC
  5
114
330
1E
100
AcDbEntity
  8
CSLAYER1
  6
CONTINUOUS
 62
     3
100
AcDbCircle
 10
165.663577
 20
80.5625
 30
0.0
 40
1.0
100
AcDbArc
 50
270.0
 51
0.0
  0
ARC
  5
115
330
1E
100
AcDbEntity
  8
CSLAYER1
  6
CONTINUOUS
 62
     3
100
AcDbCircle
 10
138.5
 20
82.56249999999999
 30
0.0
 40
1.0
100
AcDbArc
 50
270.0
 51
0.0
  0
LINE
  5
116
330
1E
100
AcDbEntity
  8
CSLAYER1
  6
CENTER
 62
     4
100
AcDbLine
 10
61.810872
 20
138.0
 30
0.0
 11
78.95088299999997
 21
138.0
 31
0.0
  0
LINE
  5
117
330
1E
100
AcDbEntity
  8
CSLAYER1
  6
CENTER
 62
     4
100
AcDbLine
 10
139.0
 20
138.0
 30
0.0
 11
218.5060609999999
 21
138.0
 31
0.0
  0
LINE
  5
118
330
1E
100
AcDbEntity
  8
CSLAYER1
  6
CENTER
 62
     4
100
AcDbLine
 10
209.5
 20
142.7882129999999
 30
0.0
 11
209.5
 21
131.4892979999999
 31
0.0
  0
LINE
  5
119
330
1E
100
AcDbEntity
  8
CSLAYER1
  6
CENTER
 62
     4
100
AcDbLine
 10
174.0
 20
132.1250779999999
 30
0.0
 11
174.0
 21
144.2249979999999
 31
0.0
  0
LINE
  5
11A
330
1E
100
AcDbEntity
  8
CSLAYER1
  6
CENTER
 62
     4
100
AcDbLine
 10
156.0
 20
152.563033
 30
0.0
 11
156.0
 21
123.314107
 31
0.0
  0
LINE
  5
11B
330
1E
100
AcDbEntity
  8
CSLAYER1
  6
DASHED
 62
     4
100
AcDbLine
 10
139.5
 20
82.56249999999999
 30
0.0
 11
139.5
 21
74.5625
 31
0.0
  0
ARC
  5
11C
330
1E
100
AcDbEntity
  8
CSLAYER1
  6
DASHED
 62
     4
100
AcDbCircle
 10
138.5
 20
74.5625
 30
0.0
 40
1.0
100
AcDbArc
 50
270.0
 51
0.0
  0
LINE
  5
11D
330
1E
100
AcDbEntity
  8
CSLAYER1
  6
CENTER
 62
     4
100
AcDbLine
 10
140.2937899999999
 20
79.5625
 30
0.0
 11
145.3990639999998
 21
79.5625
 31
0.0
  0
LINE
  5
11E
330
1E
100
AcDbEntity
  8
CSLAYER1
  6
CENTER
 62
     4
100
AcDbLine
 10
156.0
 20
70.02729999999999
 30
0.0
 11
156.0
 21
89.22424499999998
 31
0.0
  0
LINE
  5
11F
330
1E
100
AcDbEntity
  8
CSLAYER1
  6
CENTER
 62
     4
100
AcDbLine
 10
166.663577
 20
79.5625
 30
0.0
 11
172.0
 21
79.5625
 31
0.0
  0
LINE
  5
120
330
1E
100
AcDbEntity
  8
CSLAYER1
  6
CENTER
 62
     4
100
AcDbLine
 10
209.592282
 20
79.5625
 30
0.0
 11
220.973019
 21
79.5625
 31
0.0
  0
DIMENSION
  5
121
330
1E
100
AcDbEntity
  8
CSLAYER1
 62
     4
100
AcDbDimension
  2
*D7
 10
156.0
 20
95.568214
 30
0.0
 11
147.75
 21
96.06821400000001
 31
0.0
100
AcDbAlignedDimension
 13
139.5
 23
85.5625
 33
0.0
 14
156.0
 24
89.22424499999998
 34
0.0
100
AcDbRotatedDimension
  0
LINE
  5
122
330
1E
100
AcDbEntity
  8
CSLAYER1
  6
CONTINUOUS
 62
     3
100
AcDbLine
 10
140.7066179999999
 20
138.477605
 30
0.0
 11
139.0
 21
138.477605
 31
0.0
  0
LINE
  5
123
330
1E
100
AcDbEntity
  8
CSLAYER1
  6
CONTINUOUS
 62
     3
100
AcDbLine
 10
140.7066179999999
 20
137.5223949999998
 30
0.0
 11
139.0
 21
137.5223949999998
 31
0.0
  0
ARC
  5
124
330
1E
100
AcDbEntity
  8
CSLAYER1
  6
CONTINUOUS
 62
     3
100
AcDbCircle
 10
140.7066179999999
 20
140.5223949999999
 30
0.0
 40
3.0
100
AcDbArc
 50
270.0
 51
350.63431
  0
ARC
  5
125
330
1E
100
AcDbEntity
  8
CSLAYER1
  6
CONTINUOUS
 62
     3
100
AcDbCircle
 10
140.7066179999999
 20
135.477605
 30
0.0
 40
3.0
100
AcDbArc
 50
57.224516
 51
90.0
  0
LINE
  5
126
330
1E
100
AcDbEntity
  8
CSLAYER1
  6
CENTER
 62
     4
100
AcDbLine
 10
121.0
 20
138.0
 30
0.0
 11
116.8590899999999
 21
138.0
 31
0.0
  0
LINE
  5
127
330
1E
100
AcDbEntity
  8
CSLAYER1
  6
CONTINUOUS
 62
     3
100
AcDbLine
 10
139.0
 20
138.477605
 30
0.0
 11
139.0
 21
137.5223949999998
 31
0.0
  0
LINE
  5
128
330
1E
100
AcDbEntity
  8
CSLAYER1
  6
CONTINUOUS
 62
     3
100
AcDbLine
 10
139.5
 20
137.5223949999998
 30
0.0
 11
139.5
 21
126.5
 31
0.0
  0
DIMENSION
  5
129
330
1E
100
AcDbEntity
  8
CSLAYER1
 62
     4
100
AcDbDimension
  2
*D8
 10
156.0
 20
163.676374
 30
0.0
 11
138.5
 21
164.176376
 31
0.0
100
AcDbAlignedDimension
 13
121.0
 23
138.0
 33
0.0
 14
156.0
 24
152.563033
 34
0.0
100
AcDbRotatedDimension
  0
DIMENSION
  5
12A
330
1E
100
AcDbEntity
  8
CSLAYER1
 62
     4
100
AcDbDimension
  2
*D9
 10
139.1038669999999
 20
146.5
 30
0.0
 11
134.824982
 21
131.450912
 31
0.0
 70
     4
100
AcDbRadialDimension
 15
134.2516889999999
 25
127.0975159999998
 35
0.0
 40
0.0
  0
DIMENSION
  5
12B
330
1E
100
AcDbEntity
  8
CSLAYER1
 62
     4
100
AcDbDimension
  2
*D10
 10
111.40973
 20
149.5
 30
0.0
 11
110.909729
 21
138.0
 31
0.0
 70
     1
100
AcDbAlignedDimension
 13
139.1038669999999
 23
126.5
 33
0.0
 14
139.1038669999999
 24
149.5
 34
0.0
  0
DIMENSION
  5
12C
330
1E
100
AcDbEntity
  8
CSLAYER1
 62
     4
100
AcDbDimension
  2
*D11
 10
139.0
 20
64.76654599999999
 30
0.0
 11
129.471603
 21
60.120277
 31
0.0
 70
     1
 52
270.0
100
AcDbAlignedDimension
 13
121.0
 23
73.5625
 33
0.0
 14
139.0
 24
73.5625
 34
0.0
  0
POINT
  5
12D
330
1E
100
AcDbEntity
  8
CSLAYER1
 62
     3
100
AcDbPoint
 10
101.115938
 20
34.620497
 30
0.0
  0
LINE
  5
12E
330
1E
100
AcDbEntity
  8
CSLAYER1
  6
CONTINUOUS
 62
     3
100
AcDbLine
 10
28.813867
 20
40.120497
 30
0.0
 11
28.813867
 21
51.620497
 31
0.0
  0
LINE
  5
12F
330
1E
100
AcDbEntity
  8
CSLAYER1
  6
CONTINUOUS
 62
     3
100
AcDbLine
 10
28.813867
 20
51.620497
 30
0.0
 11
36.866253
 21
51.620497
 31
0.0
  0
LINE
  5
130
330
1E
100
AcDbEntity
  8
CSLAYER1
  6
CONTINUOUS
 62
     3
100
AcDbLine
 10
36.866253
 20
51.620497
 30
0.0
 11
36.597681
 21
51.236936
 31
0.0
  0
ARC
  5
131
330
1E
100
AcDbEntity
  8
CSLAYER1
  6
CONTINUOUS
 62
     3
100
AcDbCircle
 10
42.313867
 20
40.120497
 30
0.0
 40
12.5
100
AcDbArc
 50
117.212685
 51
172.7873149999999
  0
LINE
  5
132
330
1E
100
AcDbEntity
  8
CSLAYER1
  6
CONTINUOUS
 62
     3
100
AcDbLine
 10
29.91277999999999
 20
41.689908
 30
0.0
 11
28.813867
 21
40.120497
 31
0.0
  0
LINE
  5
133
330
1E
100
AcDbEntity
  8
CSLAYER1
  6
CONTINUOUS
 62
     3
100
AcDbLine
 10
66.550782
 20
40.120497
 30
0.0
 11
84.32714799999997
 21
37.29192499999999
 31
0.0
  0
ARC
  5
134
330
1E
100
AcDbEntity
  8
CSLAYER1
  6
CONTINUOUS
 62
     3
100
AcDbCircle
 10
83.93013100000002
 20
37.978662
 30
0.0
 40
1.0
100
AcDbArc
 50
350.958904
 51
80.958904
  0
LINE
  5
135
330
1E
100
AcDbEntity
  8
CSLAYER1
  6
CONTINUOUS
 62
     3
100
AcDbLine
 10
84.087274
 20
38.966238
 30
0.0
 11
67.64486999999999
 21
41.582549
 31
0.0
  0
LINE
  5
136
330
1E
100
AcDbEntity
  8
CSLAYER1
  6
CONTINUOUS
 62
     3
100
AcDbLine
 10
101.115938
 20
46.265172
 30
0.0
 11
86.236867
 21
48.632726
 31
0.0
  0
ARC
  5
137
330
1E
100
AcDbEntity
  8
CSLAYER1
  6
CONTINUOUS
 62
     3
100
AcDbCircle
 10
83.09400999999999
 20
28.881208
 30
0.0
 40
20.0
100
AcDbArc
 50
80.958904
 51
145.8082399999999
  0
LINE
  5
138
330
1E
100
AcDbEntity
  8
CSLAYER1
  6
CONTINUOUS
 62
     3
100
AcDbLine
 10
87.270493
 20
37.035339
 30
0.0
 11
92.45385199999999
 21
47.643481
 31
0.0
  0
LINE
  5
139
330
1E
100
AcDbEntity
  8
CSLAYER1
  6
CONTINUOUS
 62
     3
100
AcDbLine
 10
86.628079
 20
48.570477
 30
0.0
 11
84.89598800000001
 21
37.685025
 31
0.0
  0
LINE
  5
13A
330
1E
100
AcDbEntity
  8
CSLAYER1
  6
CONTINUOUS
 62
     3
100
AcDbLine
 10
80.500096
 20
48.71228499999999
 30
0.0
 11
85.51118699999998
 21
47.91492199999999
 31
0.0
  0
ARC
  5
13B
330
1E
100
AcDbEntity
  8
CSLAYER1
  6
CONTINUOUS
 62
     3
100
AcDbCircle
 10
85.35404399999999
 20
46.927346
 30
0.0
 40
1.0
100
AcDbArc
 50
350.958904
 51
80.958904
  0
ARC
  5
13C
330
1E
100
AcDbEntity
  8
CSLAYER1
  6
CONTINUOUS
 62
     3
100
AcDbCircle
 10
101.115938
 20
34.620497
 30
0.0
 40
12.5
100
AcDbArc
 50
122.1150139999999
 51
179.675406
  0
CIRCLE
  5
13D
330
1E
100
AcDbEntity
  8
CSLAYER1
  6
CONTINUOUS
 62
     3
100
AcDbCircle
 10
101.115938
 20
34.620497
 30
0.0
 40
2.049999999999998
  0
CIRCLE
  5
13E
330
1E
100
AcDbEntity
  8
CSLAYER1
  6
CONTINUOUS
 62
     3
100
AcDbCircle
 10
101.115938
 20
34.620497
 30
0.0
 40
8.55
  0
LINE
  5
13F
330
1E
100
AcDbEntity
  8
CSLAYER1
  6
CENTER
 62
     4
100
AcDbLine
 10
24.350322
 20
34.620497
 30
0.0
 11
41.490333
 21
34.620497
 31
0.0
  0
LINE
  5
140
330
1E
100
AcDbEntity
  8
CSLAYER1
  6
CENTER
 62
     4
100
AcDbLine
 10
61.975028
 20
34.620497
 30
0.0
 11
111.39471
 21
34.620497
 31
0.0
  0
LINE
  5
141
330
1E
100
AcDbEntity
  8
CSLAYER1
  6
CENTER
 62
     4
100
AcDbLine
 10
101.115938
 20
49.18352999999999
 30
0.0
 11
101.115938
 21
19.93460299999998
 31
0.0
  0
LINE
  5
142
330
1E
100
AcDbEntity
  8
CSLAYER1
  6
CONTINUOUS
 62
     3
100
AcDbLine
 10
86.08761499999998
 20
37.495414
 30
0.0
 11
84.4022
 21
37.76359699999999
 31
0.0
  0
ARC
  5
143
330
1E
100
AcDbEntity
  8
CSLAYER1
  6
CONTINUOUS
 62
     3
100
AcDbCircle
 10
85.616187
 20
34.53268599999999
 30
0.0
 40
3.0
100
AcDbArc
 50
0.324594
 51
80.958904
  0
LINE
  5
144
330
1E
100
AcDbEntity
  8
CSLAYER1
  6
CONTINUOUS
 62
     3
100
AcDbLine
 10
84.4022
 20
37.76359699999999
 30
0.0
 11
84.32714799999997
 21
37.29192499999999
 31
0.0
  0
LINE
  5
145
330
1E
100
AcDbEntity
  8
CSLAYER1
  6
CONTINUOUS
 62
     3
100
AcDbLine
 10
66.550782
 20
29.12049699999998
 30
0.0
 11
84.32714799999997
 21
31.949068
 31
0.0
  0
ARC
  5
146
330
1E
100
AcDbEntity
  8
CSLAYER1
  6
CONTINUOUS
 62
     3
100
AcDbCircle
 10
83.93013100000002
 20
31.262332
 30
0.0
 40
1.0
100
AcDbArc
 50
279.0410959999999
 51
9.041095999999999
  0
LINE
  5
147
330
1E
100
AcDbEntity
  8
CSLAYER1
  6
CONTINUOUS
 62
     3
100
AcDbLine
 10
84.087274
 20
30.274756
 30
0.0
 11
67.64486999999999
 21
27.658444
 31
0.0
  0
LINE
  5
148
330
1E
100
AcDbEntity
  8
CSLAYER1
  6
CONTINUOUS
 62
     3
100
AcDbLine
 10
109.557954
 20
24.319114
 30
0.0
 11
86.236867
 21
20.608268
 31
0.0
  0
ARC
  5
149
330
1E
100
AcDbEntity
  8
CSLAYER1
  6
CONTINUOUS
 62
     3
100
AcDbCircle
 10
83.09400999999999
 20
40.35978499999998
 30
0.0
 40
20.0
100
AcDbArc
 50
214.19176
 51
279.0410959999999
  0
LINE
  5
14A
330
1E
100
AcDbEntity
  8
CSLAYER1
  6
CONTINUOUS
 62
     3
100
AcDbLine
 10
86.628079
 20
20.67051699999999
 30
0.0
 11
84.89598800000001
 21
31.555968
 31
0.0
  0
LINE
  5
14B
330
1E
100
AcDbEntity
  8
CSLAYER1
  6
CONTINUOUS
 62
     3
100
AcDbLine
 10
80.500096
 20
20.52870799999998
 30
0.0
 11
85.51118699999998
 21
21.326072
 31
0.0
  0
ARC
  5
14C
330
1E
100
AcDbEntity
  8
CSLAYER1
  6
CONTINUOUS
 62
     3
100
AcDbCircle
 10
85.35404399999999
 20
22.313648
 30
0.0
 40
1.0
100
AcDbArc
 50
279.0410959999999
 51
9.041095999999999
  0
LINE
  5
14D
330
1E
100
AcDbEntity
  8
CSLAYER1
  6
CONTINUOUS
 62
     3
100
AcDbLine
 10
86.08761499999998
 20
31.74558
 30
0.0
 11
84.4022
 21
31.47739699999998
 31
0.0
  0
ARC
  5
14E
330
1E
100
AcDbEntity
  8
CSLAYER1
  6
CONTINUOUS
 62
     3
100
AcDbCircle
 10
85.616187
 20
34.708308
 30
0.0
 40
3.0
100
AcDbArc
 50
279.0410959999999
 51
359.675406
  0
LINE
  5
14F
330
1E
100
AcDbEntity
  8
CSLAYER1
  6
CONTINUOUS
 62
     3
100
AcDbLine
 10
84.4022
 20
31.47739699999998
 30
0.0
 11
84.32714799999997
 21
31.949068
 31
0.0
  0
LINE
  5
150
330
1E
100
AcDbEntity
  8
CSLAYER1
  6
CONTINUOUS
 62
     3
100
AcDbLine
 10
106.2189339999999
 20
47.077159
 30
0.0
 11
94.470681
 21
45.20777999999999
 31
0.0
  0
DIMENSION
  5
151
330
1E
100
AcDbEntity
  8
CSLAYER1
 62
     4
100
AcDbDimension
  2
*D12
 10
58.178756
 20
40.120497
 30
0.0
 11
57.678757
 21
34.620499
 31
0.0
 70
     1
100
AcDbAlignedDimension
 13
66.550782
 23
29.12049699999998
 33
0.0
 14
66.550782
 24
40.120497
 34
0.0
  0
LINE
  5
152
330
1E
100
AcDbEntity
  8
CSLAYER1
  6
CONTINUOUS
 62
     3
100
AcDbLine
 10
28.813867
 20
29.12049699999998
 30
0.0
 11
28.813867
 21
17.620497
 31
0.0
  0
LINE
  5
153
330
1E
100
AcDbEntity
  8
CSLAYER1
  6
CONTINUOUS
 62
     3
100
AcDbLine
 10
28.813867
 20
17.620497
 30
0.0
 11
36.866253
 21
17.620497
 31
0.0
  0
LINE
  5
154
330
1E
100
AcDbEntity
  8
CSLAYER1
  6
CONTINUOUS
 62
     3
100
AcDbLine
 10
36.866253
 20
17.620497
 30
0.0
 11
36.597681
 21
18.00405699999998
 31
0.0
  0
ARC
  5
155
330
1E
100
AcDbEntity
  8
CSLAYER1
  6
CONTINUOUS
 62
     3
100
AcDbCircle
 10
42.313867
 20
29.12049699999998
 30
0.0
 40
12.5
100
AcDbArc
 50
187.212685
 51
242.7873149999999
  0
LINE
  5
156
330
1E
100
AcDbEntity
  8
CSLAYER1
  6
CONTINUOUS
 62
     3
100
AcDbLine
 10
29.91277999999999
 20
27.55108599999999
 30
0.0
 11
28.813867
 21
29.12049699999998
 31
0.0
  0
LINE
  5
157
330
1E
100
AcDbEntity
  8
CSLAYER1
  6
DOT
 62
     3
100
AcDbLine
 10
4.0
 20
1.0
 30
0.0
 11
283.0
 21
1.0
 31
0.0
  0
LINE
  5
158
330
1E
100
AcDbEntity
  8
CSLAYER1
  6
DOT
 62
     3
100
AcDbLine
 10
283.0
 20
1.0
 30
0.0
 11
283.0
 21
195.0
 31
0.0
  0
LINE
  5
159
330
1E
100
AcDbEntity
  8
CSLAYER1
  6
DOT
 62
     3
100
AcDbLine
 10
283.0
 20
195.0
 30
0.0
 11
4.0
 21
195.0
 31
0.0
  0
LINE
  5
15A
330
1E
100
AcDbEntity
  8
CSLAYER1
  6
DOT
 62
     3
100
AcDbLine
 10
4.0
 20
195.0
 30
0.0
 11
4.0
 21
1.0
 31
0.0
  0
LINE
  5
15B
330
1E
100
AcDbEntity
  8
CSLAYER1
  6
DOT
 62
     3
100
AcDbLine
 10
283.0
 20
98.0
 30
0.0
 11
287.0
 21
98.0
 31
0.0
  0
LINE
  5
15C
330
1E
100
AcDbEntity
  8
CSLAYER1
  6
DOT
 62
     3
100
AcDbLine
 10
4.0
 20
98.0
 30
0.0
 11
0.0
 21
98.0
 31
0.0
  0
LINE
  5
15D
330
1E
100
AcDbEntity
  8
CSLAYER1
  6
DOT
 62
     3
100
AcDbLine
 10
143.5
 20
195.0
 30
0.0
 11
143.5
 21
199.0
 31
0.0
  0
ENDSEC
  0
SECTION
  2
OBJECTS
  0
DICTIONARY
  5
C
330
0
100
AcDbDictionary
  3
ACAD_GROUP
350
D
  3
ACAD_LAYOUT
350
19
  3
ACAD_MLINESTYLE
350
16
  3
ACAD_PLOTSETTINGS
350
18
1001
ACAD
1000
TREAT_AS_HARD
1070
     0
1000
TREAT_AS_HARD
1070
     0
  0
DICTIONARY
  5
167
330
1E
100
AcDbDictionary
  3
ACAD_LAYOUTSELFREF
350
186
1001
ACAD
1000
TREAT_AS_HARD
1070
     0
  0
DICTIONARY
  5
165
330
1A
100
AcDbDictionary
  3
ACAD_LAYOUTSELFREF
350
185
1001
ACAD
1000
TREAT_AS_HARD
1070
     0
  0
DICTIONARY
  5
D
102
{ACAD_REACTORS
330
C
102
}
330
C
100
AcDbDictionary
1001
ACAD
1000
TREAT_AS_HARD
1070
     0
1000
TREAT_AS_HARD
1070
     0
  0
DICTIONARY
  5
19
102
{ACAD_REACTORS
330
C
102
}
330
C
100
AcDbDictionary
1001
ACAD
1000
TREAT_AS_HARD
1070
     0
1000
TREAT_AS_HARD
1070
     0
  0
DICTIONARY
  5
16
102
{ACAD_REACTORS
330
C
102
}
330
C
100
AcDbDictionary
  3
STANDARD
350
17
1001
ACAD
1000
TREAT_AS_HARD
1070
     0
1000
TREAT_AS_HARD
1070
     0
  0
DICTIONARY
  5
18
102
{ACAD_REACTORS
330
C
102
}
330
C
100
AcDbDictionary
1001
ACAD
1000
TREAT_AS_HARD
1070
     0
1000
TREAT_AS_HARD
1070
     0
  0
XRECORD
  5
186
102
{ACAD_REACTORS
330
167
102
}
330
167
100
AcDbXrecord
340
1E
  0
XRECORD
  5
185
102
{ACAD_REACTORS
330
165
102
}
330
165
100
AcDbXrecord
340
1A
  0
MLINESTYLE
  5
17
102
{ACAD_REACTORS
330
16
102
}
330
16
100
AcDbMlineStyle
  2
STANDARD
 70
     0
  3

 62
   256
 51
90.0
 52
90.0
 71
     2
 49
0.5
 62
   256
  6
BYLAYER
 49
-0.5
 62
   256
  6
BYLAYER
  0
ENDSEC
  0
EOF
