  0
SECTION
  2
HEADER
  9
$ACADVER
  1
AC1012
  9
$DWGCODEPAGE
  3
dos932
  9
$INSBASE
 10
0.0
 20
0.0
 30
0.0
  9
$EXTMIN
 10
-0.0090630292066862
 20
0.9869389666558276
 30
-0.0015258207003583
  9
$EXTMAX
 10
283.0056159095904
 20
199.0155034058442
 30
0.0000000349246037
  9
$LIMMIN
 10
0.0
 20
0.0
  9
$LIMMAX
 10
297.0
 20
210.0
  9
$ORTHOMODE
 70
     0
  9
$REGENMODE
 70
     1
  9
$FILLMODE
 70
     1
  9
$QTEXTMODE
 70
     0
  9
$MIRRTEXT
 70
     1
  9
$DRAGMODE
 70
     2
  9
$LTSCALE
 40
15.0
  9
$OSMODE
 70
    37
  9
$ATTMODE
 70
     1
  9
$TEXTSIZE
 40
0.2
  9
$TRACEWID
 40
0.05
  9
$TEXTSTYLE
  7
GOTHIC
  9
$CLAYER
  8
CSLAYER1
  9
$CELTYPE
  6
BYLAYER
  9
$CECOLOR
 62
   256
  9
$CELTSCALE
 40
1.0
  9
$DELOBJ
 70
     1
  9
$DISPSILH
 70
     0
  9
$DIMSCALE
 40
1.0
  9
$DIMASZ
 40
0.18
  9
$DIMEXO
 40
0.0625
  9
$DIMDLI
 40
0.38
  9
$DIMRND
 40
0.0
  9
$DIMDLE
 40
0.0
  9
$DIMEXE
 40
0.18
  9
$DIMTP
 40
0.0
  9
$DIMTM
 40
0.0
  9
$DIMTXT
 40
0.18
  9
$DIMCEN
 40
0.09
  9
$DIMTSZ
 40
0.0
  9
$DIMTOL
 70
     0
  9
$DIMLIM
 70
     0
  9
$DIMTIH
 70
     1
  9
$DIMTOH
 70
     1
  9
$DIMSE1
 70
     0
  9
$DIMSE2
 70
     0
  9
$DIMTAD
 70
     0
  9
$DIMZIN
 70
     0
  9
$DIMBLK
  1

  9
$DIMASO
 70
     1
  9
$DIMSHO
 70
     1
  9
$DIMPOST
  1

  9
$DIMAPOST
  1

  9
$DIMALT
 70
     0
  9
$DIMALTD
 70
     2
  9
$DIMALTF
 40
25.4
  9
$DIMLFAC
 40
1.0
  9
$DIMTOFL
 70
     0
  9
$DIMTVP
 40
0.0
  9
$DIMTIX
 70
     0
  9
$DIMSOXD
 70
     0
  9
$DIMSAH
 70
     0
  9
$DIMBLK1
  1

  9
$DIMBLK2
  1

  9
$DIMSTYLE
  2
STANDARD
  9
$DIMCLRD
 70
     0
  9
$DIMCLRE
 70
     0
  9
$DIMCLRT
 70
     0
  9
$DIMTFAC
 40
1.0
  9
$DIMGAP
 40
0.09
  9
$DIMJUST
 70
     0
  9
$DIMSD1
 70
     0
  9
$DIMSD2
 70
     0
  9
$DIMTOLJ
 70
     1
  9
$DIMTZIN
 70
     0
  9
$DIMALTZ
 70
     0
  9
$DIMALTTZ
 70
     0
  9
$DIMFIT
 70
     3
  9
$DIMUPT
 70
     0
  9
$DIMUNIT
 70
     2
  9
$DIMDEC
 70
     4
  9
$DIMTDEC
 70
     4
  9
$DIMALTU
 70
     2
  9
$DIMALTTD
 70
     2
  9
$DIMTXSTY
  7
STANDARD
  9
$DIMAUNIT
 70
     0
  9
$LUNITS
 70
     2
  9
$LUPREC
 70
     4
  9
$SKETCHINC
 40
0.1
  9
$FILLETRAD
 40
0.0
  9
$AUNITS
 70
     0
  9
$AUPREC
 70
     0
  9
$MENU
  1
ACAD
  9
$ELEVATION
 40
0.0
  9
$PELEVATION
 40
0.0
  9
$THICKNESS
 40
0.0
  9
$LIMCHECK
 70
     0
  9
$BLIPMODE
 70
     1
  9
$CHAMFERA
 40
0.0
  9
$CHAMFERB
 40
0.0
  9
$CHAMFERC
 40
0.0
  9
$CHAMFERD
 40
0.0
  9
$SKPOLY
 70
     0
  9
$TDCREATE
 40
2453476.999999999
  9
$TDUPDATE
 40
2453516.491375162
  9
$TDINDWG
 40
0.0002767824
  9
$TDUSRTIMER
 40
0.0002765509
  9
$USRTIMER
 70
     1
  9
$ANGBASE
 50
0.0
  9
$ANGDIR
 70
     0
  9
$PDMODE
 70
     0
  9
$PDSIZE
 40
0.0
  9
$PLINEWID
 40
0.0
  9
$COORDS
 70
     0
  9
$SPLFRAME
 70
     0
  9
$SPLINETYPE
 70
     6
  9
$SPLINESEGS
 70
     8
  9
$ATTDIA
 70
     0
  9
$ATTREQ
 70
     1
  9
$HANDLING
 70
-16383
  9
$HANDSEED
  5
1B3
  9
$SURFTAB1
 70
     6
  9
$SURFTAB2
 70
     6
  9
$SURFTYPE
 70
     6
  9
$SURFU
 70
     6
  9
$SURFV
 70
     6
  9
$UCSNAME
  2

  9
$UCSORG
 10
0.0
 20
0.0
 30
0.0
  9
$UCSXDIR
 10
1.0
 20
0.0
 30
0.0
  9
$UCSYDIR
 10
0.0
 20
1.0
 30
0.0
  9
$PUCSNAME
  2

  9
$PUCSORG
 10
0.0
 20
0.0
 30
0.0
  9
$PUCSXDIR
 10
1.0
 20
0.0
 30
0.0
  9
$PUCSYDIR
 10
0.0
 20
1.0
 30
0.0
  9
$USERI1
 70
     0
  9
$USERI2
 70
     0
  9
$USERI3
 70
     0
  9
$USERI4
 70
     0
  9
$USERI5
 70
     0
  9
$USERR1
 40
0.0
  9
$USERR2
 40
0.0
  9
$USERR3
 40
0.0
  9
$USERR4
 40
0.0
  9
$USERR5
 40
0.0
  9
$WORLDVIEW
 70
     1
  9
$SHADEDGE
 70
     3
  9
$SHADEDIF
 70
    70
  9
$TILEMODE
 70
     1
  9
$MAXACTVP
 70
    64
  9
$PINSBASE
 10
0.0
 20
0.0
 30
0.0
  9
$PLIMCHECK
 70
     0
  9
$PEXTMIN
 10
1.000000000000000E+20
 20
1.000000000000000E+20
 30
1.000000000000000E+20
  9
$PEXTMAX
 10
-1.000000000000000E+20
 20
-1.000000000000000E+20
 30
-1.000000000000000E+20
  9
$PLIMMIN
 10
0.0
 20
0.0
  9
$PLIMMAX
 10
12.0
 20
9.0
  9
$UNITMODE
 70
     0
  9
$VISRETAIN
 70
     1
  9
$PLINEGEN
 70
     0
  9
$PSLTSCALE
 70
     1
  9
$TREEDEPTH
 70
  3020
  9
$PICKSTYLE
 70
     3
  9
$CMLSTYLE
  2
STANDARD
  9
$CMLJUST
 70
     0
  9
$CMLSCALE
 40
1.0
  9
$SAVEIMAGES
 70
     1
  0
ENDSEC
  0
SECTION
  2
CLASSES
  0
CLASS
  1
ACDBDICTIONARYWDFLT
  2
AcDbDictionaryWithDefault
  3
AutoCAD 2000
 90
    32768
280
     0
281
     0
  0
CLASS
  1
ACDBPLACEHOLDER
  2
AcDbPlaceHolder
  3
AutoCAD 2000
 90
    32768
280
     0
281
     0
  0
CLASS
  1
LAYOUT
  2
AcDbLayout
  3
AutoCAD 2000
 90
    32768
280
     0
281
     0
  0
CLASS
  1
DICTIONARYVAR
  2
AcDbDictionaryVar
  3
AutoCAD 2000
 90
    32768
280
     0
281
     0
  0
CLASS
  1
LONG_TRANSACTION
  2
AcDbLongTransaction
  3
AutoCAD 2000
 90
    32768
280
     0
281
     0
  0
CLASS
  1
LWPOLYLINE
  2
AcDbPolyline
  3
AutoCAD 2000
 90
    32768
280
     0
281
     1
  0
CLASS
  1
HATCH
  2
AcDbHatch
  3
AutoCAD 2000
 90
    32768
280
     0
281
     1
  0
CLASS
  1
XRECORD
  2
AcDbXrecord
  3
AutoCAD 2000
 90
    32768
280
     0
281
     0
  0
CLASS
  1
LONG_TRANSACTION
  2
AcDbLongTransaction
  3
AutoCAD 2000
 90
    32768
280
     0
281
     0
  0
CLASS
  1
LWPOLYLINE
  2
AcDbPolyline
  3
AutoCAD 2000
 90
    32768
280
     0
281
     1
  0
CLASS
  1
HATCH
  2
AcDbHatch
  3
AutoCAD 2000
 90
    32768
280
     0
281
     1
  0
CLASS
  1
XRECORD
  2
AcDbXrecord
  3
AutoCAD 2000
 90
    32768
280
     0
281
     0
  0
ENDSEC
  0
SECTION
  2
TABLES
  0
TABLE
  2
VPORT
  5
8
330
0
100
AcDbSymbolTable
 70
     2
  0
VPORT
  5
1B0
330
8
100
AcDbSymbolTableRecord
100
AcDbViewportTableRecord
  2
*ACTIVE
 70
     0
 10
0.0
 20
0.0
 11
1.0
 21
1.0
 12
141.4982764401918
 22
100.00122118625
 13
0.0
 23
0.0
 14
1.0
 24
1.0
 15
0.0
 25
0.0
 16
0.0
 26
0.0
 36
1.0
 17
0.0
 27
0.0
 37
0.0
 40
199.5156375138256
 41
1.510025062656641
 42
50.0
 43
0.0
 44
0.0
 50
0.0
 51
0.0
 71
     0
 72
   100
 73
     1
 74
     1
 75
     0
 76
     0
 77
     0
 78
     0
  0
ENDTAB
  0
TABLE
  2
LTYPE
  5
5
330
0
100
AcDbSymbolTable
 70
     4
  0
LTYPE
  5
13
330
5
100
AcDbSymbolTableRecord
100
AcDbLinetypeTableRecord
  2
BYBLOCK
 70
     0
  3

 72
    65
 73
     0
 40
0.0
  0
LTYPE
  5
14
330
5
100
AcDbSymbolTableRecord
100
AcDbLinetypeTableRecord
  2
BYLAYER
 70
     0
  3

 72
    65
 73
     0
 40
0.0
  0
LTYPE
  5
15
330
5
100
AcDbSymbolTableRecord
100
AcDbLinetypeTableRecord
  2
CONTINUOUS
 70
     0
  3
Solid line
 72
    65
 73
     0
 40
0.0
  0
LTYPE
  5
23
330
5
100
AcDbSymbolTableRecord
100
AcDbLinetypeTableRecord
  2
DASHED
 70
     0
  3
__ __ __ __ __ __ __ __ __ __ __ __ __ __ __
 72
    65
 73
     2
 40
0.75
 49
0.5
 74
     0
 49
-0.25
 74
     0
  0
LTYPE
  5
25
330
5
100
AcDbSymbolTableRecord
100
AcDbLinetypeTableRecord
  2
DOT
 70
     0
  3
...............................................
 72
    65
 73
     2
 40
0.25
 49
0.0
 74
     0
 49
-0.25
 74
     0
  0
LTYPE
  5
28
330
5
100
AcDbSymbolTableRecord
100
AcDbLinetypeTableRecord
  2
CENTER
 70
     0
  3
____ _ ____ _ ____ _ ____ _ ____ _ ____ _ ____ 
 72
    65
 73
     4
 40
2.0
 49
1.25
 74
     0
 49
-0.25
 74
     0
 49
0.25
 74
     0
 49
-0.25
 74
     0
  0
ENDTAB
  0
TABLE
  2
LAYER
  5
2
330
0
100
AcDbSymbolTable
 70
     3
  0
LAYER
  5
10
330
2
100
AcDbSymbolTableRecord
100
AcDbLayerTableRecord
  2
0
 70
     0
 62
     7
  6
CONTINUOUS
  0
LAYER
  5
22
330
2
100
AcDbSymbolTableRecord
100
AcDbLayerTableRecord
  2
CSLAYER1
 70
     0
 62
     7
  6
CONTINUOUS
  0
LAYER
  5
195
330
2
100
AcDbSymbolTableRecord
100
AcDbLayerTableRecord
  2
DEFPOINTS
 70
     0
 62
     7
  6
CONTINUOUS
  0
ENDTAB
  0
TABLE
  2
STYLE
  5
3
330
0
100
AcDbSymbolTable
 70
     3
  0
STYLE
  5
11
330
3
100
AcDbSymbolTableRecord
100
AcDbTextStyleTableRecord
  2
STANDARD
 70
     0
 40
0.0
 41
1.0
 50
0.0
 71
     0
 42
0.2
  3
txt
  4
extfont.shx
  0
STYLE
  5
3A
330
3
100
AcDbSymbolTableRecord
100
AcDbTextStyleTableRecord
  2
FX_FONT
 70
     0
 40
1.0
 41
1.0
 50
0.0
 71
     0
 42
1.0
  3
monotxt
  4
bigfont
  0
STYLE
  5
18D
330
3
100
AcDbSymbolTableRecord
100
AcDbTextStyleTableRecord
  2
GOTHIC
 70
     0
 40
0.0
 41
1.0
 50
0.0
 71
     0
 42
0.2
  3
txt.shx
  4
extfont.shx
  0
ENDTAB
  0
TABLE
  2
VIEW
  5
6
330
0
100
AcDbSymbolTable
 70
     0
  0
ENDTAB
  0
TABLE
  2
UCS
  5
7
330
0
100
AcDbSymbolTable
 70
     0
  0
ENDTAB
  0
TABLE
  2
APPID
  5
9
330
0
100
AcDbSymbolTable
 70
     1
  0
APPID
  5
12
330
9
100
AcDbSymbolTableRecord
100
AcDbRegAppTableRecord
  2
ACAD
 70
     0
  0
ENDTAB
  0
TABLE
  2
DIMSTYLE
  5
A
330
0
100
AcDbSymbolTable
 70
     1
  0
DIMSTYLE
105
18A
330
A
100
AcDbSymbolTableRecord
100
AcDbDimStyleTableRecord
  2
STANDARD
 70
     0
  3

  4

  5

  6

  7

 40
1.0
 41
0.18
 42
0.0625
 43
0.38
 44
0.18
 45
0.0
 46
0.0
 47
0.0
 48
0.0
140
0.18
141
0.09
142
0.0
143
25.4
144
1.0
145
0.0
146
1.0
147
0.09
 71
     0
 72
     0
 73
     1
 74
     1
 75
     0
 76
     0
 77
     0
 78
     0
170
     0
171
     2
172
     0
173
     0
174
     0
175
     0
176
     0
177
     0
178
     0
270
     2
271
     4
272
     4
273
     2
274
     2
340
11
275
     0
280
     0
281
     0
282
     0
283
     1
284
     0
285
     0
286
     0
287
     3
288
     0
  0
ENDTAB
  0
TABLE
  2
BLOCK_RECORD
  5
1
330
0
100
AcDbSymbolTable
 70
    16
  0
BLOCK_RECORD
  5
1E
102
{ACAD_XDICTIONARY
360
193
102
}
330
1
100
AcDbSymbolTableRecord
100
AcDbBlockTableRecord
  2
*MODEL_SPACE
  0
BLOCK_RECORD
  5
1A
102
{ACAD_XDICTIONARY
360
191
102
}
330
1
100
AcDbSymbolTableRecord
100
AcDbBlockTableRecord
  2
*PAPER_SPACE
  0
BLOCK_RECORD
  5
3F
330
1
100
AcDbSymbolTableRecord
100
AcDbBlockTableRecord
  2
FXDIM0000
  0
BLOCK_RECORD
  5
47
330
1
100
AcDbSymbolTableRecord
100
AcDbBlockTableRecord
  2
FXDIM0001
  0
BLOCK_RECORD
  5
51
330
1
100
AcDbSymbolTableRecord
100
AcDbBlockTableRecord
  2
FXDIM0002
  0
BLOCK_RECORD
  5
5B
330
1
100
AcDbSymbolTableRecord
100
AcDbBlockTableRecord
  2
*D3
  0
BLOCK_RECORD
  5
66
330
1
100
AcDbSymbolTableRecord
100
AcDbBlockTableRecord
  2
*D4
  0
BLOCK_RECORD
  5
71
330
1
100
AcDbSymbolTableRecord
100
AcDbBlockTableRecord
  2
*D5
  0
BLOCK_RECORD
  5
7C
330
1
100
AcDbSymbolTableRecord
100
AcDbBlockTableRecord
  2
*D6
  0
BLOCK_RECORD
  5
87
330
1
100
AcDbSymbolTableRecord
100
AcDbBlockTableRecord
  2
*D7
  0
BLOCK_RECORD
  5
8E
330
1
100
AcDbSymbolTableRecord
100
AcDbBlockTableRecord
  2
*D8
  0
BLOCK_RECORD
  5
98
330
1
100
AcDbSymbolTableRecord
100
AcDbBlockTableRecord
  2
*D9
  0
BLOCK_RECORD
  5
A3
330
1
100
AcDbSymbolTableRecord
100
AcDbBlockTableRecord
  2
*D10
  0
BLOCK_RECORD
  5
AE
330
1
100
AcDbSymbolTableRecord
100
AcDbBlockTableRecord
  2
*D11
  0
BLOCK_RECORD
  5
B8
330
1
100
AcDbSymbolTableRecord
100
AcDbBlockTableRecord
  2
*D12
  0
BLOCK_RECORD
  5
C2
330
1
100
AcDbSymbolTableRecord
100
AcDbBlockTableRecord
  2
*D13
  0
BLOCK_RECORD
  5
CD
330
1
100
AcDbSymbolTableRecord
100
AcDbBlockTableRecord
  2
*D14
  0
BLOCK_RECORD
  5
196
330
1
100
AcDbSymbolTableRecord
100
AcDbBlockTableRecord
  2
*D15
  0
ENDTAB
  0
ENDSEC
  0
SECTION
  2
BLOCKS
  0
BLOCK
  5
1F
330
1E
100
AcDbEntity
  8
0
100
AcDbBlockBegin
  2
*MODEL_SPACE
 70
     0
 10
0.0
 20
0.0
 30
0.0
  3
*MODEL_SPACE
  1

  0
ENDBLK
  5
20
330
1E
100
AcDbEntity
  8
0
100
AcDbBlockEnd
  0
BLOCK
  5
1B
330
1A
100
AcDbEntity
 67
     1
  8
0
100
AcDbBlockBegin
  2
*PAPER_SPACE
 70
     0
 10
0.0
 20
0.0
 30
0.0
  3
*PAPER_SPACE
  1

  0
ENDBLK
  5
1C
330
1A
100
AcDbEntity
 67
     1
  8
0
100
AcDbBlockEnd
  0
BLOCK
  5
40
330
3F
100
AcDbEntity
  8
0
100
AcDbBlockBegin
  2
FXDIM0000
 70
     0
 10
0.0
 20
0.0
 30
0.0
  3
FXDIM0000
  1

  0
LINE
  5
41
330
3F
100
AcDbEntity
  8
CSLAYER1
  6
CONTINUOUS
 62
     4
100
AcDbLine
 10
182.782473
 20
148.454126
 30
0.0
 11
175.779208
 21
125.5474779999999
 31
0.0
  0
LINE
  5
42
330
3F
100
AcDbEntity
  8
CSLAYER1
  6
CONTINUOUS
 62
     4
100
AcDbLine
 10
182.782473
 20
148.454126
 30
0.0
 11
182.6777749999999
 21
145.455953
 31
0.0
  0
LINE
  5
43
330
3F
100
AcDbEntity
  8
CSLAYER1
  6
CONTINUOUS
 62
     4
100
AcDbLine
 10
182.782473
 20
148.454126
 30
0.0
 11
181.1927149999999
 21
145.909982
 31
0.0
  0
LINE
  5
44
330
3F
100
AcDbEntity
  8
CSLAYER1
  6
CONTINUOUS
 62
     4
100
AcDbLine
 10
175.779208
 20
125.5474779999999
 30
0.0
 11
160.979208
 21
125.5474779999999
 31
0.0
  0
TEXT
  5
45
330
3F
100
AcDbEntity
  8
CSLAYER1
 62
     4
100
AcDbText
 10
161.979205
 20
126.0474929999999
 30
0.0
 40
3.2
  1
%%c4.1
 41
1.142857142857143
 51
15.0
  7
FX_FONT
 72
     5
 11
174.779205
 21
126.0474929999999
 31
0.0
100
AcDbText
  0
ENDBLK
  5
46
330
3F
100
AcDbEntity
  8
0
100
AcDbBlockEnd
  0
BLOCK
  5
48
330
47
100
AcDbEntity
  8
0
100
AcDbBlockBegin
  2
FXDIM0001
 70
     0
 10
0.0
 20
0.0
 30
0.0
  3
FXDIM0001
  1

  0
LINE
  5
49
330
47
100
AcDbEntity
  8
CSLAYER1
  6
CONTINUOUS
 62
     4
100
AcDbLine
 10
187.311532
 20
107.3521189999999
 30
0.0
 11
188.8115319999999
 21
109.950195
 31
0.0
  0
LINE
  5
4A
330
47
100
AcDbEntity
  8
CSLAYER1
  6
CONTINUOUS
 62
     4
100
AcDbLine
 10
185.8115319999999
 20
109.950195
 30
0.0
 11
194.811532
 21
109.950195
 31
0.0
  0
LINE
  5
4B
330
47
100
AcDbEntity
  8
CSLAYER1
  6
CONTINUOUS
 62
     4
100
AcDbLine
 10
185.8115319999999
 20
109.950195
 30
0.0
 11
187.311532
 21
107.3521189999999
 31
0.0
  0
LINE
  5
4C
330
47
100
AcDbEntity
  8
CSLAYER1
  6
CONTINUOUS
 62
     4
100
AcDbLine
 10
190.3115319999999
 20
107.3521189999999
 30
0.0
 11
191.811532
 21
109.950195
 31
0.0
  0
LINE
  5
4D
330
47
100
AcDbEntity
  8
CSLAYER1
  6
CONTINUOUS
 62
     4
100
AcDbLine
 10
188.8115319999999
 20
109.950195
 30
0.0
 11
190.3115319999999
 21
107.3521189999999
 31
0.0
  0
LINE
  5
4E
330
47
100
AcDbEntity
  8
CSLAYER1
  6
CONTINUOUS
 62
     4
100
AcDbLine
 10
193.3115319999999
 20
107.3521189999999
 30
0.0
 11
194.811532
 21
109.950195
 31
0.0
  0
LINE
  5
4F
330
47
100
AcDbEntity
  8
CSLAYER1
  6
CONTINUOUS
 62
     4
100
AcDbLine
 10
191.811532
 20
109.950195
 30
0.0
 11
193.3115319999999
 21
107.3521189999999
 31
0.0
  0
ENDBLK
  5
50
330
47
100
AcDbEntity
  8
0
100
AcDbBlockEnd
  0
BLOCK
  5
52
330
51
100
AcDbEntity
  8
0
100
AcDbBlockBegin
  2
FXDIM0002
 70
     0
 10
0.0
 20
0.0
 30
0.0
  3
FXDIM0002
  1

  0
LINE
  5
53
330
51
100
AcDbEntity
  8
CSLAYER1
  6
CONTINUOUS
 62
     4
100
AcDbLine
 10
189.111532
 20
95.35211899999998
 30
0.0
 11
187.611532
 21
92.75404299999999
 31
0.0
  0
LINE
  5
54
330
51
100
AcDbEntity
  8
CSLAYER1
  6
CONTINUOUS
 62
     4
100
AcDbLine
 10
187.611532
 20
92.75404299999999
 30
0.0
 11
196.611532
 21
92.75404299999999
 31
0.0
  0
LINE
  5
55
330
51
100
AcDbEntity
  8
CSLAYER1
  6
CONTINUOUS
 62
     4
100
AcDbLine
 10
190.6115319999999
 20
92.75404299999999
 30
0.0
 11
189.111532
 21
95.35211899999998
 31
0.0
  0
LINE
  5
56
330
51
100
AcDbEntity
  8
CSLAYER1
  6
CONTINUOUS
 62
     4
100
AcDbLine
 10
192.111532
 20
95.35211899999998
 30
0.0
 11
190.6115319999999
 21
92.75404299999999
 31
0.0
  0
LINE
  5
57
330
51
100
AcDbEntity
  8
CSLAYER1
  6
CONTINUOUS
 62
     4
100
AcDbLine
 10
193.611532
 20
92.75404299999999
 30
0.0
 11
192.111532
 21
95.35211899999998
 31
0.0
  0
LINE
  5
58
330
51
100
AcDbEntity
  8
CSLAYER1
  6
CONTINUOUS
 62
     4
100
AcDbLine
 10
195.111532
 20
95.35211899999998
 30
0.0
 11
193.611532
 21
92.75404299999999
 31
0.0
  0
LINE
  5
59
330
51
100
AcDbEntity
  8
CSLAYER1
  6
CONTINUOUS
 62
     4
100
AcDbLine
 10
196.611532
 20
92.75404299999999
 30
0.0
 11
195.111532
 21
95.35211899999998
 31
0.0
  0
ENDBLK
  5
5A
330
51
100
AcDbEntity
  8
0
100
AcDbBlockEnd
  0
BLOCK
  5
5C
330
5B
100
AcDbEntity
  8
0
100
AcDbBlockBegin
  2
*D3
 70
     1
 10
0.0
 20
0.0
 30
0.0
  3
*D3
  1

  0
TEXT
  5
5D
330
5B
100
AcDbEntity
  8
CSLAYER1
 62
     4
100
AcDbText
 10
161.566666
 20
98.43526
 30
0.0
 40
3.2
  1
12 
 50
90.0
 41
1.153846153846154
 51
15.0
  7
FX_FONT
 72
     5
 11
161.566666
 21
108.03526
 31
0.0
100
AcDbText
  0
TEXT
  5
5E
330
5B
100
AcDbEntity
  8
CSLAYER1
 62
     4
100
AcDbText
 10
159.966666
 20
108.03526
 30
0.0
 40
1.6
  1
  0
 50
90.0
 41
1.607142857142856
 51
15.0
  7
FX_FONT
 72
     5
 11
159.966666
 21
112.83526
 31
0.0
100
AcDbText
  0
TEXT
  5
5F
330
5B
100
AcDbEntity
  8
CSLAYER1
 62
     4
100
AcDbText
 10
161.566666
 20
108.03526
 30
0.0
 40
1.6
  1
-0.15
 50
90.0
 41
1.071428571428571
 51
15.0
  7
FX_FONT
 72
     5
 11
161.566666
 21
116.03526
 31
0.0
100
AcDbText
  0
LINE
  5
60
330
5B
100
AcDbEntity
  8
CSLAYER1
  6
CONTINUOUS
 62
     4
100
AcDbLine
 10
162.2306039999999
 20
95.35211899999998
 30
0.0
 11
162.2306039999999
 21
107.3521189999999
 31
0.0
  0
LINE
  5
61
330
5B
100
AcDbEntity
  8
CSLAYER1
  6
CONTINUOUS
 62
     4
100
AcDbLine
 10
162.2306039999999
 20
95.35211899999998
 30
0.0
 11
161.4541469999998
 21
98.24989700000001
 31
0.0
  0
LINE
  5
62
330
5B
100
AcDbEntity
  8
CSLAYER1
  6
CONTINUOUS
 62
     4
100
AcDbLine
 10
162.2306039999999
 20
95.35211899999998
 30
0.0
 11
163.007061
 21
98.24989700000001
 31
0.0
  0
LINE
  5
63
330
5B
100
AcDbEntity
  8
CSLAYER1
  6
CONTINUOUS
 62
     4
100
AcDbLine
 10
162.2306039999999
 20
107.3521189999999
 30
0.0
 11
161.4541469999998
 21
104.454342
 31
0.0
  0
LINE
  5
64
330
5B
100
AcDbEntity
  8
CSLAYER1
  6
CONTINUOUS
 62
     4
100
AcDbLine
 10
162.2306039999999
 20
107.3521189999999
 30
0.0
 11
163.007061
 21
104.454342
 31
0.0
  0
ENDBLK
  5
65
330
5B
100
AcDbEntity
  8
0
100
AcDbBlockEnd
  0
BLOCK
  5
67
330
66
100
AcDbEntity
  8
0
100
AcDbBlockBegin
  2
*D4
 70
     1
 10
0.0
 20
0.0
 30
0.0
  3
*D4
  1

  0
TEXT
  5
68
330
66
100
AcDbEntity
  8
CSLAYER1
 62
     4
100
AcDbText
 10
108.866524
 20
139.2145509999999
 30
0.0
 40
3.2
  1
27.5~29
 50
90.0
 41
1.050000000000004
 51
15.0
  7
FX_FONT
 72
     5
 11
108.866524
 21
161.614551
 31
0.0
100
AcDbText
  0
LINE
  5
69
330
66
100
AcDbEntity
  8
CSLAYER1
  6
CONTINUOUS
 62
     4
100
AcDbLine
 10
123.381835
 20
136.4145509999999
 30
0.0
 11
108.3665209999999
 21
136.4145509999999
 31
0.0
  0
LINE
  5
6A
330
66
100
AcDbEntity
  8
CSLAYER1
  6
CONTINUOUS
 62
     4
100
AcDbLine
 10
123.381835
 20
164.4145509999999
 30
0.0
 11
108.3665209999999
 21
164.4145509999999
 31
0.0
  0
LINE
  5
6B
330
66
100
AcDbEntity
  8
CSLAYER1
  6
CONTINUOUS
 62
     4
100
AcDbLine
 10
109.3665209999999
 20
136.4145509999999
 30
0.0
 11
109.3665209999999
 21
164.4145509999999
 31
0.0
  0
LINE
  5
6C
330
66
100
AcDbEntity
  8
CSLAYER1
  6
CONTINUOUS
 62
     4
100
AcDbLine
 10
109.3665209999999
 20
136.4145509999999
 30
0.0
 11
108.5900639999999
 21
139.312328
 31
0.0
  0
LINE
  5
6D
330
66
100
AcDbEntity
  8
CSLAYER1
  6
CONTINUOUS
 62
     4
100
AcDbLine
 10
109.3665209999999
 20
136.4145509999999
 30
0.0
 11
110.1429779999999
 21
139.312328
 31
0.0
  0
LINE
  5
6E
330
66
100
AcDbEntity
  8
CSLAYER1
  6
CONTINUOUS
 62
     4
100
AcDbLine
 10
109.3665209999999
 20
164.4145509999999
 30
0.0
 11
108.5900639999999
 21
161.516773
 31
0.0
  0
LINE
  5
6F
330
66
100
AcDbEntity
  8
CSLAYER1
  6
CONTINUOUS
 62
     4
100
AcDbLine
 10
109.3665209999999
 20
164.4145509999999
 30
0.0
 11
110.1429779999999
 21
161.516773
 31
0.0
  0
ENDBLK
  5
70
330
66
100
AcDbEntity
  8
0
100
AcDbBlockEnd
  0
BLOCK
  5
72
330
71
100
AcDbEntity
  8
0
100
AcDbBlockBegin
  2
*D5
 70
     1
 10
0.0
 20
0.0
 30
0.0
  3
*D5
  1

  0
TEXT
  5
73
330
71
100
AcDbEntity
  8
CSLAYER1
 62
     4
100
AcDbText
 10
162.681836
 20
119.817024
 30
0.0
 40
3.2
  1
35
 41
1.200000000000001
 51
15.0
  7
FX_FONT
 72
     5
 11
169.081836
 21
119.817024
 31
0.0
100
AcDbText
  0
LINE
  5
74
330
71
100
AcDbEntity
  8
CSLAYER1
  6
CONTINUOUS
 62
     4
100
AcDbLine
 10
148.3818349999999
 20
108.3521189999999
 30
0.0
 11
148.3818349999999
 21
120.317023
 31
0.0
  0
LINE
  5
75
330
71
100
AcDbEntity
  8
CSLAYER1
  6
CONTINUOUS
 62
     4
100
AcDbLine
 10
183.3818349999999
 20
111.696816
 30
0.0
 11
183.3818349999999
 21
120.317023
 31
0.0
  0
LINE
  5
76
330
71
100
AcDbEntity
  8
CSLAYER1
  6
CONTINUOUS
 62
     4
100
AcDbLine
 10
148.3818349999999
 20
119.3170229999999
 30
0.0
 11
183.3818349999999
 21
119.3170229999999
 31
0.0
  0
LINE
  5
77
330
71
100
AcDbEntity
  8
CSLAYER1
  6
CONTINUOUS
 62
     4
100
AcDbLine
 10
148.3818349999999
 20
119.3170229999999
 30
0.0
 11
151.2796129999999
 21
120.0934799999999
 31
0.0
  0
LINE
  5
78
330
71
100
AcDbEntity
  8
CSLAYER1
  6
CONTINUOUS
 62
     4
100
AcDbLine
 10
148.3818349999999
 20
119.3170229999999
 30
0.0
 11
151.2796129999999
 21
118.540566
 31
0.0
  0
LINE
  5
79
330
71
100
AcDbEntity
  8
CSLAYER1
  6
CONTINUOUS
 62
     4
100
AcDbLine
 10
183.3818349999999
 20
119.3170229999999
 30
0.0
 11
180.484058
 21
120.0934799999999
 31
0.0
  0
LINE
  5
7A
330
71
100
AcDbEntity
  8
CSLAYER1
  6
CONTINUOUS
 62
     4
100
AcDbLine
 10
183.3818349999999
 20
119.3170229999999
 30
0.0
 11
180.484058
 21
118.540566
 31
0.0
  0
ENDBLK
  5
7B
330
71
100
AcDbEntity
  8
0
100
AcDbBlockEnd
  0
BLOCK
  5
7D
330
7C
100
AcDbEntity
  8
0
100
AcDbBlockBegin
  2
*D6
 70
     1
 10
0.0
 20
0.0
 30
0.0
  3
*D6
  1

  0
TEXT
  5
7E
330
7C
100
AcDbEntity
  8
CSLAYER1
 62
     4
100
AcDbText
 10
67.779931
 20
177.547651
 30
0.0
 40
3.2
  1
35%%d
 50
342.4999986410726
 41
1.285714333640239
 51
15.0
  7
FX_FONT
 72
     5
 11
76.935614
 21
174.660875
 31
0.0
100
AcDbText
  0
ARC
  5
7F
330
7C
100
AcDbEntity
  8
CSLAYER1
  6
CONTINUOUS
 62
     4
100
AcDbCircle
 10
64.257835
 20
150.4145509999998
 30
0.0
 40
26.436413
100
AcDbArc
 50
55.0
 51
90.0
  0
LINE
  5
80
330
7C
100
AcDbEntity
  8
CSLAYER1
  6
CONTINUOUS
 62
     4
100
AcDbLine
 10
79.42113899999998
 20
172.0699929999999
 30
0.0
 11
76.60206099999998
 21
173.096053
 31
0.0
  0
LINE
  5
81
330
7C
100
AcDbEntity
  8
CSLAYER1
  6
CONTINUOUS
 62
     4
100
AcDbLine
 10
79.42113899999998
 20
172.0699929999999
 30
0.0
 11
77.492776
 21
174.3681259999999
 31
0.0
  0
LINE
  5
82
330
7C
100
AcDbEntity
  8
CSLAYER1
  6
CONTINUOUS
 62
     4
100
AcDbLine
 10
64.257835
 20
176.8509639999999
 30
0.0
 11
67.155613
 21
177.6274209999999
 31
0.0
  0
LINE
  5
83
330
7C
100
AcDbEntity
  8
CSLAYER1
  6
CONTINUOUS
 62
     4
100
AcDbLine
 10
64.257835
 20
176.8509639999999
 30
0.0
 11
67.155613
 21
176.074507
 31
0.0
  0
LINE
  5
84
330
7C
100
AcDbEntity
  8
CSLAYER1
  6
CONTINUOUS
 62
     4
100
AcDbLine
 10
66.528521
 20
153.6574259999999
 30
0.0
 11
79.994715
 21
172.8891449999999
 31
0.0
  0
LINE
  5
85
330
7C
100
AcDbEntity
  8
CSLAYER1
  6
CONTINUOUS
 62
     4
100
AcDbLine
 10
64.257835
 20
165.414551
 30
0.0
 11
64.257835
 21
177.8509639999999
 31
0.0
  0
ENDBLK
  5
86
330
7C
100
AcDbEntity
  8
0
100
AcDbBlockEnd
  0
BLOCK
  5
88
330
87
100
AcDbEntity
  8
0
100
AcDbBlockBegin
  2
*D7
 70
     1
 10
0.0
 20
0.0
 30
0.0
  3
*D7
  1

  0
TEXT
  5
89
330
87
100
AcDbEntity
  8
CSLAYER1
 62
     4
100
AcDbText
 10
71.83084699999998
 20
140.1649169999999
 30
0.0
 40
3.2
  1
R12.5
 50
39.28715008089069
 41
1.071428584242077
 51
15.0
  7
FX_FONT
 72
     5
 11
84.214563
 21
150.296234
 31
0.0
100
AcDbText
  0
LINE
  5
8A
330
87
100
AcDbEntity
  8
CSLAYER1
  6
CONTINUOUS
 62
     4
100
AcDbLine
 10
68.58305699999999
 20
142.499459
 30
0.0
 11
78.257835
 21
150.4145509999998
 31
0.0
  0
LINE
  5
8B
330
87
100
AcDbEntity
  8
CSLAYER1
  6
CONTINUOUS
 62
     4
100
AcDbLine
 10
68.58305699999999
 20
142.499459
 30
0.0
 11
70.334227
 21
144.935317
 31
0.0
  0
LINE
  5
8C
330
87
100
AcDbEntity
  8
CSLAYER1
  6
CONTINUOUS
 62
     4
100
AcDbLine
 10
68.58305699999999
 20
142.499459
 30
0.0
 11
71.317544
 21
143.7333889999998
 31
0.0
  0
ENDBLK
  5
8D
330
87
100
AcDbEntity
  8
0
100
AcDbBlockEnd
  0
BLOCK
  5
8F
330
8E
100
AcDbEntity
  8
0
100
AcDbBlockBegin
  2
*D8
 70
     1
 10
0.0
 20
0.0
 30
0.0
  3
*D8
  1

  0
TEXT
  5
90
330
8E
100
AcDbEntity
  8
CSLAYER1
 62
     4
100
AcDbText
 10
161.7306059999999
 20
82.652119
 30
0.0
 40
3.2
  1
19
 50
90.0
 41
1.199999999999995
 51
15.0
  7
FX_FONT
 72
     5
 11
161.7306059999999
 21
89.05211899999997
 31
0.0
100
AcDbText
  0
LINE
  5
91
330
8E
100
AcDbEntity
  8
CSLAYER1
  6
CONTINUOUS
 62
     4
100
AcDbLine
 10
162.2306039999999
 20
76.35211899999998
 30
0.0
 11
162.2306039999999
 21
95.35211899999998
 31
0.0
  0
LINE
  5
92
330
8E
100
AcDbEntity
  8
CSLAYER1
  6
CONTINUOUS
 62
     4
100
AcDbLine
 10
162.2306039999999
 20
76.35211899999998
 30
0.0
 11
161.4541469999998
 21
79.24989700000002
 31
0.0
  0
LINE
  5
93
330
8E
100
AcDbEntity
  8
CSLAYER1
  6
CONTINUOUS
 62
     4
100
AcDbLine
 10
162.2306039999999
 20
76.35211899999998
 30
0.0
 11
163.007061
 21
79.24989700000002
 31
0.0
  0
LINE
  5
94
330
8E
100
AcDbEntity
  8
CSLAYER1
  6
CONTINUOUS
 62
     4
100
AcDbLine
 10
162.2306039999999
 20
95.35211899999998
 30
0.0
 11
161.4541469999998
 21
92.454342
 31
0.0
  0
LINE
  5
95
330
8E
100
AcDbEntity
  8
CSLAYER1
  6
CONTINUOUS
 62
     4
100
AcDbLine
 10
162.2306039999999
 20
95.35211899999998
 30
0.0
 11
163.007061
 21
92.454342
 31
0.0
  0
LINE
  5
96
330
8E
100
AcDbEntity
  8
CSLAYER1
  6
CONTINUOUS
 62
     4
100
AcDbLine
 10
157.3818349999999
 20
76.35211899999998
 30
0.0
 11
163.230604
 21
76.35211899999998
 31
0.0
  0
ENDBLK
  5
97
330
8E
100
AcDbEntity
  8
0
100
AcDbBlockEnd
  0
BLOCK
  5
99
330
98
100
AcDbEntity
  8
0
100
AcDbBlockBegin
  2
*D9
 70
     1
 10
0.0
 20
0.0
 30
0.0
  3
*D9
  1

  0
TEXT
  5
9A
330
98
100
AcDbEntity
  8
CSLAYER1
 62
     4
100
AcDbText
 10
114.7484439999999
 20
88.652119
 30
0.0
 40
3.2
  1
31
 50
90.0
 41
1.333333333333334
 51
15.0
  7
FX_FONT
 72
     5
 11
114.7484439999999
 21
95.052119
 31
0.0
100
AcDbText
  0
LINE
  5
9B
330
98
100
AcDbEntity
  8
CSLAYER1
  6
CONTINUOUS
 62
     4
100
AcDbLine
 10
115.2484419999999
 20
76.35211899999998
 30
0.0
 11
115.2484419999999
 21
107.3521189999999
 31
0.0
  0
LINE
  5
9C
330
98
100
AcDbEntity
  8
CSLAYER1
  6
CONTINUOUS
 62
     4
100
AcDbLine
 10
115.2484419999999
 20
76.35211899999998
 30
0.0
 11
114.4719849999999
 21
79.24989700000002
 31
0.0
  0
LINE
  5
9D
330
98
100
AcDbEntity
  8
CSLAYER1
  6
CONTINUOUS
 62
     4
100
AcDbLine
 10
115.2484419999999
 20
76.35211899999998
 30
0.0
 11
116.024899
 21
79.24989700000002
 31
0.0
  0
LINE
  5
9E
330
98
100
AcDbEntity
  8
CSLAYER1
  6
CONTINUOUS
 62
     4
100
AcDbLine
 10
115.2484419999999
 20
107.3521189999999
 30
0.0
 11
114.4719849999999
 21
104.454342
 31
0.0
  0
LINE
  5
9F
330
98
100
AcDbEntity
  8
CSLAYER1
  6
CONTINUOUS
 62
     4
100
AcDbLine
 10
115.2484419999999
 20
107.3521189999999
 30
0.0
 11
116.024899
 21
104.454342
 31
0.0
  0
LINE
  5
A0
330
98
100
AcDbEntity
  8
CSLAYER1
  6
CONTINUOUS
 62
     4
100
AcDbLine
 10
122.381835
 20
76.35211899999998
 30
0.0
 11
114.2484419999999
 21
76.35211899999998
 31
0.0
  0
LINE
  5
A1
330
98
100
AcDbEntity
  8
CSLAYER1
  6
CONTINUOUS
 62
     4
100
AcDbLine
 10
147.3818349999999
 20
107.3521189999999
 30
0.0
 11
114.2484419999999
 21
107.3521189999999
 31
0.0
  0
ENDBLK
  5
A2
330
98
100
AcDbEntity
  8
0
100
AcDbBlockEnd
  0
BLOCK
  5
A4
330
A3
100
AcDbEntity
  8
0
100
AcDbBlockBegin
  2
*D10
 70
     1
 10
0.0
 20
0.0
 30
0.0
  3
*D10
  1

  0
TEXT
  5
A5
330
A3
100
AcDbEntity
  8
CSLAYER1
 62
     4
100
AcDbText
 10
136.681836
 20
61.00297199999999
 30
0.0
 40
3.2
  1
33
 41
1.200000000000001
 51
15.0
  7
FX_FONT
 72
     5
 11
143.081836
 21
61.00297199999999
 31
0.0
100
AcDbText
  0
LINE
  5
A6
330
A3
100
AcDbEntity
  8
CSLAYER1
  6
CONTINUOUS
 62
     4
100
AcDbLine
 10
123.381835
 20
60.502973
 30
0.0
 11
156.381835
 21
60.502973
 31
0.0
  0
LINE
  5
A7
330
A3
100
AcDbEntity
  8
CSLAYER1
  6
CONTINUOUS
 62
     4
100
AcDbLine
 10
123.381835
 20
60.502973
 30
0.0
 11
126.2796129999999
 21
61.27943000000001
 31
0.0
  0
LINE
  5
A8
330
A3
100
AcDbEntity
  8
CSLAYER1
  6
CONTINUOUS
 62
     4
100
AcDbLine
 10
123.381835
 20
60.502973
 30
0.0
 11
126.2796129999999
 21
59.726516
 31
0.0
  0
LINE
  5
A9
330
A3
100
AcDbEntity
  8
CSLAYER1
  6
CONTINUOUS
 62
     4
100
AcDbLine
 10
156.381835
 20
60.502973
 30
0.0
 11
153.484058
 21
61.27943000000001
 31
0.0
  0
LINE
  5
AA
330
A3
100
AcDbEntity
  8
CSLAYER1
  6
CONTINUOUS
 62
     4
100
AcDbLine
 10
156.381835
 20
60.502973
 30
0.0
 11
153.484058
 21
59.726516
 31
0.0
  0
LINE
  5
AB
330
A3
100
AcDbEntity
  8
CSLAYER1
  6
CONTINUOUS
 62
     4
100
AcDbLine
 10
123.381835
 20
75.35211899999999
 30
0.0
 11
123.381835
 21
59.50297299999999
 31
0.0
  0
LINE
  5
AC
330
A3
100
AcDbEntity
  8
CSLAYER1
  6
CONTINUOUS
 62
     4
100
AcDbLine
 10
156.381835
 20
75.35211899999999
 30
0.0
 11
156.381835
 21
59.50297299999999
 31
0.0
  0
ENDBLK
  5
AD
330
A3
100
AcDbEntity
  8
0
100
AcDbBlockEnd
  0
BLOCK
  5
AF
330
AE
100
AcDbEntity
  8
0
100
AcDbBlockBegin
  2
*D11
 70
     1
 10
0.0
 20
0.0
 30
0.0
  3
*D11
  1

  0
TEXT
  5
B0
330
AE
100
AcDbEntity
  8
CSLAYER1
 62
     4
100
AcDbText
 10
166.681836
 20
61.00297199999999
 30
0.0
 40
3.2
  1
27
 41
1.200000000000001
 51
15.0
  7
FX_FONT
 72
     5
 11
173.081836
 21
61.00297199999999
 31
0.0
100
AcDbText
  0
LINE
  5
B1
330
AE
100
AcDbEntity
  8
CSLAYER1
  6
CONTINUOUS
 62
     4
100
AcDbLine
 10
156.381835
 20
60.502973
 30
0.0
 11
183.3818349999999
 21
60.502973
 31
0.0
  0
LINE
  5
B2
330
AE
100
AcDbEntity
  8
CSLAYER1
  6
CONTINUOUS
 62
     4
100
AcDbLine
 10
156.381835
 20
60.502973
 30
0.0
 11
159.2796129999999
 21
61.27943000000001
 31
0.0
  0
LINE
  5
B3
330
AE
100
AcDbEntity
  8
CSLAYER1
  6
CONTINUOUS
 62
     4
100
AcDbLine
 10
156.381835
 20
60.502973
 30
0.0
 11
159.2796129999999
 21
59.726516
 31
0.0
  0
LINE
  5
B4
330
AE
100
AcDbEntity
  8
CSLAYER1
  6
CONTINUOUS
 62
     4
100
AcDbLine
 10
183.3818349999999
 20
60.502973
 30
0.0
 11
180.484058
 21
61.27943000000001
 31
0.0
  0
LINE
  5
B5
330
AE
100
AcDbEntity
  8
CSLAYER1
  6
CONTINUOUS
 62
     4
100
AcDbLine
 10
183.3818349999999
 20
60.502973
 30
0.0
 11
180.484058
 21
59.726516
 31
0.0
  0
LINE
  5
B6
330
AE
100
AcDbEntity
  8
CSLAYER1
  6
CONTINUOUS
 62
     4
100
AcDbLine
 10
183.3818349999999
 20
91.698675
 30
0.0
 11
183.3818349999999
 21
59.50297299999999
 31
0.0
  0
ENDBLK
  5
B7
330
AE
100
AcDbEntity
  8
0
100
AcDbBlockEnd
  0
BLOCK
  5
B9
330
B8
100
AcDbEntity
  8
0
100
AcDbBlockBegin
  2
*D12
 70
     1
 10
0.0
 20
0.0
 30
0.0
  3
*D12
  1

  0
TEXT
  5
BA
330
B8
100
AcDbEntity
  8
CSLAYER1
 62
     4
100
AcDbText
 10
125.827851
 20
67.00297500000001
 30
0.0
 40
3.280997
  1
切刃部有効23
 41
0.7331929103045278
 51
15.0
  7
FX_FONT
 72
     5
 11
144.2708129999999
 21
67.00297500000001
 31
0.0
100
AcDbText
  0
LINE
  5
BB
330
B8
100
AcDbEntity
  8
CSLAYER1
  6
CONTINUOUS
 62
     4
100
AcDbLine
 10
123.381835
 20
66.502973
 30
0.0
 11
146.3818349999999
 21
66.502973
 31
0.0
  0
LINE
  5
BC
330
B8
100
AcDbEntity
  8
CSLAYER1
  6
CONTINUOUS
 62
     4
100
AcDbLine
 10
123.381835
 20
66.502973
 30
0.0
 11
126.2796129999999
 21
67.27943
 31
0.0
  0
LINE
  5
BD
330
B8
100
AcDbEntity
  8
CSLAYER1
  6
CONTINUOUS
 62
     4
100
AcDbLine
 10
123.381835
 20
66.502973
 30
0.0
 11
126.2796129999999
 21
65.726516
 31
0.0
  0
LINE
  5
BE
330
B8
100
AcDbEntity
  8
CSLAYER1
  6
CONTINUOUS
 62
     4
100
AcDbLine
 10
146.3818349999999
 20
66.502973
 30
0.0
 11
143.484058
 21
67.27943
 31
0.0
  0
LINE
  5
BF
330
B8
100
AcDbEntity
  8
CSLAYER1
  6
CONTINUOUS
 62
     4
100
AcDbLine
 10
146.3818349999999
 20
66.502973
 30
0.0
 11
143.484058
 21
65.726516
 31
0.0
  0
LINE
  5
C0
330
B8
100
AcDbEntity
  8
CSLAYER1
  6
CONTINUOUS
 62
     4
100
AcDbLine
 10
146.3818349999999
 20
75.35211899999999
 30
0.0
 11
146.3818349999999
 21
65.502973
 31
0.0
  0
ENDBLK
  5
C1
330
B8
100
AcDbEntity
  8
0
100
AcDbBlockEnd
  0
BLOCK
  5
C3
330
C2
100
AcDbEntity
  8
0
100
AcDbBlockBegin
  2
*D13
 70
     1
 10
0.0
 20
0.0
 30
0.0
  3
*D13
  1

  0
TEXT
  5
C4
330
C2
100
AcDbEntity
  8
CSLAYER1
 62
     4
100
AcDbText
 10
150.181836
 20
181.3373719999999
 30
0.0
 40
3.2
  1
60
 41
1.200000000000001
 51
15.0
  7
FX_FONT
 72
     5
 11
156.581836
 21
181.3373719999999
 31
0.0
100
AcDbText
  0
LINE
  5
C5
330
C2
100
AcDbEntity
  8
CSLAYER1
  6
CONTINUOUS
 62
     4
100
AcDbLine
 10
123.381835
 20
180.8373639999999
 30
0.0
 11
183.3818349999999
 21
180.8373639999999
 31
0.0
  0
LINE
  5
C6
330
C2
100
AcDbEntity
  8
CSLAYER1
  6
CONTINUOUS
 62
     4
100
AcDbLine
 10
123.381835
 20
180.8373639999999
 30
0.0
 11
126.2796129999999
 21
181.613821
 31
0.0
  0
LINE
  5
C7
330
C2
100
AcDbEntity
  8
CSLAYER1
  6
CONTINUOUS
 62
     4
100
AcDbLine
 10
123.381835
 20
180.8373639999999
 30
0.0
 11
126.2796129999999
 21
180.060907
 31
0.0
  0
LINE
  5
C8
330
C2
100
AcDbEntity
  8
CSLAYER1
  6
CONTINUOUS
 62
     4
100
AcDbLine
 10
183.3818349999999
 20
180.8373639999999
 30
0.0
 11
180.484058
 21
181.613821
 31
0.0
  0
LINE
  5
C9
330
C2
100
AcDbEntity
  8
CSLAYER1
  6
CONTINUOUS
 62
     4
100
AcDbLine
 10
183.3818349999999
 20
180.8373639999999
 30
0.0
 11
180.484058
 21
180.060907
 31
0.0
  0
LINE
  5
CA
330
C2
100
AcDbEntity
  8
CSLAYER1
  6
CONTINUOUS
 62
     4
100
AcDbLine
 10
123.381835
 20
163.4145509999999
 30
0.0
 11
123.381835
 21
181.8373639999999
 31
0.0
  0
LINE
  5
CB
330
C2
100
AcDbEntity
  8
CSLAYER1
  6
CONTINUOUS
 62
     4
100
AcDbLine
 10
183.3818349999999
 20
169.3345309999999
 30
0.0
 11
183.3818349999999
 21
181.8373639999999
 31
0.0
  0
ENDBLK
  5
CC
330
C2
100
AcDbEntity
  8
0
100
AcDbBlockEnd
  0
BLOCK
  5
CE
330
CD
100
AcDbEntity
  8
0
100
AcDbBlockBegin
  2
*D14
 70
     1
 10
0.0
 20
0.0
 30
0.0
  3
*D14
  1

  0
TEXT
  5
CF
330
CD
100
AcDbEntity
  8
CSLAYER1
 62
     4
100
AcDbText
 10
51.669689
 20
28.023026
 30
0.0
 40
3.2
  1
16
 50
90.0
 41
1.199999999999999
 51
15.0
  7
FX_FONT
 72
     5
 11
51.669689
 21
34.423026
 31
0.0
100
AcDbText
  0
LINE
  5
D0
330
CD
100
AcDbEntity
  8
CSLAYER1
  6
CONTINUOUS
 62
     4
100
AcDbLine
 10
52.169688
 20
23.22302599999999
 30
0.0
 11
52.169688
 21
39.223026
 31
0.0
  0
LINE
  5
D1
330
CD
100
AcDbEntity
  8
CSLAYER1
  6
CONTINUOUS
 62
     4
100
AcDbLine
 10
52.169688
 20
23.22302599999999
 30
0.0
 11
51.393231
 21
26.120803
 31
0.0
  0
LINE
  5
D2
330
CD
100
AcDbEntity
  8
CSLAYER1
  6
CONTINUOUS
 62
     4
100
AcDbLine
 10
52.169688
 20
23.22302599999999
 30
0.0
 11
52.94614499999998
 21
26.120803
 31
0.0
  0
LINE
  5
D3
330
CD
100
AcDbEntity
  8
CSLAYER1
  6
CONTINUOUS
 62
     4
100
AcDbLine
 10
52.169688
 20
39.223026
 30
0.0
 11
51.393231
 21
36.32524799999998
 31
0.0
  0
LINE
  5
D4
330
CD
100
AcDbEntity
  8
CSLAYER1
  6
CONTINUOUS
 62
     4
100
AcDbLine
 10
52.169688
 20
39.223026
 30
0.0
 11
52.94614499999998
 21
36.32524799999998
 31
0.0
  0
LINE
  5
D5
330
CD
100
AcDbEntity
  8
CSLAYER1
  6
CONTINUOUS
 62
     4
100
AcDbLine
 10
61.52626999999998
 20
23.22302599999999
 30
0.0
 11
51.169688
 21
23.22302599999999
 31
0.0
  0
LINE
  5
D6
330
CD
100
AcDbEntity
  8
CSLAYER1
  6
CONTINUOUS
 62
     4
100
AcDbLine
 10
61.52626999999998
 20
39.223026
 30
0.0
 11
51.169688
 21
39.223026
 31
0.0
  0
ENDBLK
  5
D7
330
CD
100
AcDbEntity
  8
0
100
AcDbBlockEnd
  0
BLOCK
  5
1A3
330
196
100
AcDbEntity
  8
0
100
AcDbBlockBegin
  2
*D15
 70
     1
 10
0.0
 20
0.0
 30
0.0
  3
*D15
  1

  0
LINE
  5
197
330
196
100
AcDbEntity
  8
CSLAYER1
 62
     0
100
AcDbLine
 10
65.99079353981398
 20
152.889470993986
 30
0.0
 11
79.52438760196979
 21
172.217436300366
 31
0.0
  0
LINE
  5
198
330
196
100
AcDbEntity
  8
CSLAYER1
 62
     0
100
AcDbLine
 10
64.257835
 20
164.4770509999998
 30
0.0
 11
64.257835
 21
177.0309639019977
 31
0.0
  0
ARC
  5
199
330
196
100
AcDbEntity
  8
CSLAYER1
 62
     0
100
AcDbCircle
 10
64.25783499999998
 20
150.4145509999998
 30
0.0
 40
26.43641290199777
100
AcDbArc
 50
55.39010168314803
 51
71.63892199400628
  0
ARC
  5
19A
330
196
100
AcDbEntity
  8
CSLAYER1
 62
     0
100
AcDbCircle
 10
64.25783499999998
 20
150.4145509999998
 30
0.0
 40
26.43641290199777
100
AcDbArc
 50
73.35700262328832
 51
89.60988428073525
  0
SOLID
  5
19B
330
196
100
AcDbEntity
  8
CSLAYER1
 62
     0
100
AcDbTrace
 10
79.29046937427681
 20
172.1973631801674
 30
0.0
 11
79.25622229850074
 21
172.1480971898618
 31
0.0
 12
79.42114380730547
 22
172.0699889576864
 32
0.0
 13
79.42114380730547
 23
172.0699889576864
 33
0.0
  0
SOLID
  5
19C
330
196
100
AcDbEntity
  8
CSLAYER1
 62
     0
100
AcDbTrace
 10
64.4377318250461
 20
176.8203512846915
 30
0.0
 11
64.4379360887645
 21
176.8803509369934
 31
0.0
 12
64.25783499999998
 22
176.8509639019976
 32
0.0
 13
64.25783499999998
 23
176.8509639019976
 33
0.0
  0
MTEXT
  5
19D
330
196
100
AcDbEntity
  8
CSLAYER1
 62
     0
100
AcDbMText
 10
72.20742076599815
 20
175.6274051278838
 30
0.0
 40
0.18
 41
0.0
 71
     5
 72
     1
  1
\A1;35°
1001
ACAD
1000
MTEXTBEGIN
1070
    73
1070
     1
1070
    44
1040
1.0
1070
    74
1070
     0
1000
MTEXTEND
  0
POINT
  5
19E
330
196
100
AcDbEntity
  8
DEFPOINTS
 62
     0
100
AcDbPoint
 10
74.72876720156548
 20
174.6888894246641
 30
0.0
  0
POINT
  5
19F
330
196
100
AcDbEntity
  8
DEFPOINTS
 62
     0
100
AcDbPoint
 10
64.257835
 20
150.4145509999998
 30
0.0
  0
POINT
  5
1A0
330
196
100
AcDbEntity
  8
DEFPOINTS
 62
     0
100
AcDbPoint
 10
64.257835
 20
164.4145509999999
 30
0.0
  0
POINT
  5
1A1
330
196
100
AcDbEntity
  8
DEFPOINTS
 62
     0
100
AcDbPoint
 10
64.257835
 20
150.4145509999998
 30
0.0
  0
POINT
  5
1A2
330
196
100
AcDbEntity
  8
DEFPOINTS
 62
     0
100
AcDbPoint
 10
65.95494499999998
 20
152.8382739999998
 30
0.0
  0
ENDBLK
  5
1A4
330
196
100
AcDbEntity
  8
0
100
AcDbBlockEnd
  0
ENDSEC
  0
SECTION
  2
ENTITIES
  0
LINE
  5
D8
330
1E
100
AcDbEntity
  8
CSLAYER1
  6
CONTINUOUS
 62
     3
100
AcDbLine
 10
123.381835
 20
76.35211899999998
 30
0.0
 11
156.381835
 21
76.35211899999998
 31
0.0
  0
LINE
  5
D9
330
1E
100
AcDbEntity
  8
CSLAYER1
  6
CONTINUOUS
 62
     3
100
AcDbLine
 10
156.381835
 20
76.35211899999998
 30
0.0
 11
156.381835
 21
92.35211900000001
 31
0.0
  0
ARC
  5
DA
330
1E
100
AcDbEntity
  8
CSLAYER1
  6
CONTINUOUS
 62
     3
100
AcDbCircle
 10
159.381835
 20
92.35211900000001
 30
0.0
 40
3.0
100
AcDbArc
 50
90.0
 51
180.0
  0
LINE
  5
DB
330
1E
100
AcDbEntity
  8
CSLAYER1
  6
CONTINUOUS
 62
     3
100
AcDbLine
 10
159.381835
 20
95.35211899999998
 30
0.0
 11
198.3818349999999
 21
95.35211899999998
 31
0.0
  0
LINE
  5
DC
330
1E
100
AcDbEntity
  8
CSLAYER1
  6
CONTINUOUS
 62
     3
100
AcDbLine
 10
198.3818349999999
 20
95.35211899999998
 30
0.0
 11
237.101785
 21
95.78234100000001
 31
0.0
  0
ARC
  5
DD
330
1E
100
AcDbEntity
  8
CSLAYER1
  6
CONTINUOUS
 62
     3
100
AcDbCircle
 10
237.0295669999999
 20
102.28194
 30
0.0
 40
6.5
100
AcDbArc
 50
270.6365939999999
 51
341.944376
  0
ARC
  5
DE
330
1E
100
AcDbEntity
  8
CSLAYER1
  6
CONTINUOUS
 62
     3
100
AcDbCircle
 10
239.8818349999999
 20
101.3521189999998
 30
0.0
 40
3.5
100
AcDbArc
 50
341.944376
 51
18.05562399999999
  0
ARC
  5
DF
330
1E
100
AcDbEntity
  8
CSLAYER1
  6
CONTINUOUS
 62
     3
100
AcDbCircle
 10
237.0295669999999
 20
100.4222989999999
 30
0.0
 40
6.5
100
AcDbArc
 50
18.05562399999999
 51
89.36340600000004
  0
LINE
  5
E0
330
1E
100
AcDbEntity
  8
CSLAYER1
  6
CONTINUOUS
 62
     3
100
AcDbLine
 10
237.101785
 20
106.921898
 30
0.0
 11
198.3818349999999
 21
107.3521189999999
 31
0.0
  0
LINE
  5
E1
330
1E
100
AcDbEntity
  8
CSLAYER1
  6
CONTINUOUS
 62
     3
100
AcDbLine
 10
198.3818349999999
 20
107.3521189999999
 30
0.0
 11
148.3818349999999
 21
107.3521189999999
 31
0.0
  0
LINE
  5
E2
330
1E
100
AcDbEntity
  8
CSLAYER1
  6
CONTINUOUS
 62
     3
100
AcDbLine
 10
148.3818349999999
 20
107.3521189999999
 30
0.0
 11
148.3818349999999
 21
85.35211899999998
 31
0.0
  0
ARC
  5
E3
330
1E
100
AcDbEntity
  8
CSLAYER1
  6
CONTINUOUS
 62
     3
100
AcDbCircle
 10
146.3818349999999
 20
85.35211899999998
 30
0.0
 40
2.0
100
AcDbArc
 50
270.0
 51
0.0
  0
LINE
  5
E4
330
1E
100
AcDbEntity
  8
CSLAYER1
  6
CONTINUOUS
 62
     3
100
AcDbLine
 10
146.3818349999999
 20
83.35211899999999
 30
0.0
 11
125.381835
 21
83.35211899999999
 31
0.0
  0
ARC
  5
E5
330
1E
100
AcDbEntity
  8
CSLAYER1
  6
CONTINUOUS
 62
     3
100
AcDbCircle
 10
125.381835
 20
81.35211899999999
 30
0.0
 40
2.0
100
AcDbArc
 50
90.0
 51
180.0
  0
LINE
  5
E6
330
1E
100
AcDbEntity
  8
CSLAYER1
  6
CONTINUOUS
 62
     3
100
AcDbLine
 10
123.381835
 20
81.35211899999999
 30
0.0
 11
123.381835
 21
76.35211899999998
 31
0.0
  0
LINE
  5
E7
330
1E
100
AcDbEntity
  8
CSLAYER1
  6
CONTINUOUS
 62
     3
100
AcDbLine
 10
168.8396129999999
 20
95.35211899999998
 30
0.0
 11
168.8396129999999
 21
100.3521189999998
 31
0.0
  0
ARC
  5
E8
330
1E
100
AcDbEntity
  8
CSLAYER1
  6
CONTINUOUS
 62
     3
100
AcDbCircle
 10
169.8396129999999
 20
100.3521189999998
 30
0.0
 40
1.0
100
AcDbArc
 50
90.0
 51
180.0
  0
LINE
  5
E9
330
1E
100
AcDbEntity
  8
CSLAYER1
  6
CONTINUOUS
 62
     3
100
AcDbLine
 10
169.8396129999999
 20
101.3521189999998
 30
0.0
 11
197.3818349999999
 21
101.3521189999998
 31
0.0
  0
ARC
  5
EA
330
1E
100
AcDbEntity
  8
CSLAYER1
  6
CONTINUOUS
 62
     3
100
AcDbCircle
 10
197.3818349999999
 20
102.3521189999998
 30
0.0
 40
1.0
100
AcDbArc
 50
270.0
 51
0.0
  0
LINE
  5
EB
330
1E
100
AcDbEntity
  8
CSLAYER1
  6
CONTINUOUS
 62
     3
100
AcDbLine
 10
198.3818349999999
 20
102.3521189999998
 30
0.0
 11
198.3818349999999
 21
107.3521189999999
 31
0.0
  0
LINE
  5
EC
330
1E
100
AcDbEntity
  8
CSLAYER1
  6
CONTINUOUS
 62
     3
100
AcDbLine
 10
194.5649689999999
 20
107.3521189999999
 30
0.0
 11
194.5649689999999
 21
102.3521189999998
 31
0.0
  0
LINE
  5
ED
330
1E
100
AcDbEntity
  8
CSLAYER1
  6
CONTINUOUS
 62
     3
100
AcDbLine
 10
194.5649689999999
 20
102.3521189999998
 30
0.0
 11
193.5649689999999
 21
101.3521189999998
 31
0.0
  0
LINE
  5
EE
330
1E
100
AcDbEntity
  8
CSLAYER1
  6
CONTINUOUS
 62
     3
100
AcDbLine
 10
172.3818349999999
 20
101.3521189999998
 30
0.0
 11
171.3818349999999
 21
100.3521189999998
 31
0.0
  0
LINE
  5
EF
330
1E
100
AcDbEntity
  8
CSLAYER1
  6
CONTINUOUS
 62
     3
100
AcDbLine
 10
171.3818349999999
 20
100.3521189999998
 30
0.0
 11
171.3818349999999
 21
95.35211899999998
 31
0.0
  0
LINE
  5
F0
330
1E
100
AcDbEntity
  8
CSLAYER1
  6
CONTINUOUS
 62
     3
100
AcDbLine
 10
171.3818349999999
 20
136.4145509999999
 30
0.0
 11
125.381835
 21
136.4145509999999
 31
0.0
  0
ARC
  5
F1
330
1E
100
AcDbEntity
  8
CSLAYER1
  6
CONTINUOUS
 62
     3
100
AcDbCircle
 10
125.381835
 20
138.4145509999999
 30
0.0
 40
2.0
100
AcDbArc
 50
180.0
 51
270.0
  0
LINE
  5
F2
330
1E
100
AcDbEntity
  8
CSLAYER1
  6
CONTINUOUS
 62
     3
100
AcDbLine
 10
123.381835
 20
138.4145509999999
 30
0.0
 11
123.381835
 21
162.4145509999999
 31
0.0
  0
ARC
  5
F3
330
1E
100
AcDbEntity
  8
CSLAYER1
  6
CONTINUOUS
 62
     3
100
AcDbCircle
 10
125.381835
 20
162.4145509999999
 30
0.0
 40
2.0
100
AcDbArc
 50
90.0
 51
180.0
  0
LINE
  5
F4
330
1E
100
AcDbEntity
  8
CSLAYER1
  6
CONTINUOUS
 62
     3
100
AcDbLine
 10
125.381835
 20
164.4145509999999
 30
0.0
 11
171.3818349999999
 21
164.4145509999999
 31
0.0
  0
LINE
  5
F5
330
1E
100
AcDbEntity
  8
CSLAYER1
  6
CONTINUOUS
 62
     3
100
AcDbLine
 10
171.3818349999999
 20
164.4145509999999
 30
0.0
 11
233.9829579999999
 21
160.93671
 31
0.0
  0
ARC
  5
F6
330
1E
100
AcDbEntity
  8
CSLAYER1
  6
CONTINUOUS
 62
     3
100
AcDbCircle
 10
233.4282579999999
 20
150.952107
 30
0.0
 40
10.0
100
AcDbArc
 50
5.522944999999999
 51
86.82017
  0
LINE
  5
F7
330
1E
100
AcDbEntity
  8
CSLAYER1
  6
CONTINUOUS
 62
     3
100
AcDbLine
 10
243.381835
 20
151.9145509999999
 30
0.0
 11
201.381835
 21
151.9145509999999
 31
0.0
  0
ARC
  5
F8
330
1E
100
AcDbEntity
  8
CSLAYER1
  6
CONTINUOUS
 62
     3
100
AcDbCircle
 10
201.381835
 20
150.9145509999999
 30
0.0
 40
1.0
100
AcDbArc
 50
90.0
 51
180.0
  0
LINE
  5
F9
330
1E
100
AcDbEntity
  8
CSLAYER1
  6
CONTINUOUS
 62
     3
100
AcDbLine
 10
200.3818349999999
 20
150.9145509999999
 30
0.0
 11
200.3818349999999
 21
150.4145509999998
 31
0.0
  0
LINE
  5
FA
330
1E
100
AcDbEntity
  8
CSLAYER1
  6
CONTINUOUS
 62
     3
100
AcDbLine
 10
200.3818349999999
 20
150.4145509999998
 30
0.0
 11
200.315529
 21
150.4145509999998
 31
0.0
  0
ARC
  5
FB
330
1E
100
AcDbEntity
  8
CSLAYER1
  6
CONTINUOUS
 62
     3
100
AcDbCircle
 10
183.3818349999999
 20
150.4145509999998
 30
0.0
 40
17.0
100
AcDbArc
 50
311.6339709999998
 51
0.0
  0
LINE
  5
FC
330
1E
100
AcDbEntity
  8
CSLAYER1
  6
CONTINUOUS
 62
     3
100
AcDbLine
 10
198.382667
 20
137.9145969999999
 30
0.0
 11
201.7456909999999
 21
148.9145509999999
 31
0.0
  0
ARC
  5
FD
330
1E
100
AcDbEntity
  8
CSLAYER1
  6
CONTINUOUS
 62
     3
100
AcDbCircle
 10
201.381835
 20
149.9145509999999
 30
0.0
 40
1.0
100
AcDbArc
 50
180.0
 51
270.0
  0
LINE
  5
FE
330
1E
100
AcDbEntity
  8
CSLAYER1
  6
CONTINUOUS
 62
     3
100
AcDbLine
 10
201.381835
 20
148.9145509999999
 30
0.0
 11
243.381835
 21
148.9145509999999
 31
0.0
  0
ARC
  5
FF
330
1E
100
AcDbEntity
  8
CSLAYER1
  6
CONTINUOUS
 62
     3
100
AcDbCircle
 10
233.4282579999999
 20
149.876994
 30
0.0
 40
10.0
100
AcDbArc
 50
273.1798299999999
 51
354.4770549999999
  0
LINE
  5
100
330
1E
100
AcDbEntity
  8
CSLAYER1
  6
CONTINUOUS
 62
     3
100
AcDbLine
 10
233.9829579999999
 20
139.892391
 30
0.0
 11
171.3818349999999
 21
136.4145509999999
 31
0.0
  0
ARC
  5
101
330
1E
100
AcDbEntity
  8
CSLAYER1
  6
CONTINUOUS
 62
     3
100
AcDbCircle
 10
163.995242
 20
148.3145509999999
 30
0.0
 40
2.5
100
AcDbArc
 50
57.14012
 51
90.0
  0
LINE
  5
102
330
1E
100
AcDbEntity
  8
CSLAYER1
  6
CONTINUOUS
 62
     3
100
AcDbLine
 10
164.181676
 20
150.814551
 30
0.0
 11
164.901858
 21
151.534732
 31
0.0
  0
LINE
  5
103
330
1E
100
AcDbEntity
  8
CSLAYER1
  6
CONTINUOUS
 62
     3
100
AcDbLine
 10
164.901858
 20
151.534732
 30
0.0
 11
168.8396129999999
 21
164.4145509999999
 31
0.0
  0
ARC
  5
104
330
1E
100
AcDbEntity
  8
CSLAYER1
  6
CONTINUOUS
 62
     3
100
AcDbCircle
 10
183.3818349999999
 20
150.4145509999998
 30
0.0
 40
17.0
100
AcDbArc
 50
125.274311
 51
173.8176959999999
  0
ARC
  5
105
330
1E
100
AcDbEntity
  8
CSLAYER1
  6
CONTINUOUS
 62
     3
100
AcDbCircle
 10
163.995242
 20
152.514551
 30
0.0
 40
2.5
100
AcDbArc
 50
270.0
 51
353.817696
  0
LINE
  5
106
330
1E
100
AcDbEntity
  8
CSLAYER1
  6
CONTINUOUS
 62
     3
100
AcDbLine
 10
163.995242
 20
150.014551
 30
0.0
 11
151.381835
 21
150.014551
 31
0.0
  0
LINE
  5
107
330
1E
100
AcDbEntity
  8
CSLAYER1
  6
CONTINUOUS
 62
     3
100
AcDbLine
 10
151.381835
 20
150.014551
 30
0.0
 11
151.381835
 21
150.814551
 31
0.0
  0
LINE
  5
108
330
1E
100
AcDbEntity
  8
CSLAYER1
  6
CONTINUOUS
 62
     3
100
AcDbLine
 10
151.381835
 20
150.814551
 30
0.0
 11
164.181676
 21
150.814551
 31
0.0
  0
LINE
  5
109
330
1E
100
AcDbEntity
  8
CSLAYER1
  6
CONTINUOUS
 62
     3
100
AcDbLine
 10
151.381835
 20
150.4145509999998
 30
0.0
 11
148.3818349999999
 21
150.4145509999998
 31
0.0
  0
LINE
  5
10A
330
1E
100
AcDbEntity
  8
CSLAYER1
  6
CONTINUOUS
 62
     3
100
AcDbLine
 10
123.381835
 20
152.9186489999998
 30
0.0
 11
147.3818349999999
 21
152.9186489999998
 31
0.0
  0
ARC
  5
10B
330
1E
100
AcDbEntity
  8
CSLAYER1
  6
CONTINUOUS
 62
     3
100
AcDbCircle
 10
147.3818349999999
 20
151.9186489999999
 30
0.0
 40
1.0
100
AcDbArc
 50
0.0
 51
90.0
  0
ARC
  5
10C
330
1E
100
AcDbEntity
  8
CSLAYER1
  6
CONTINUOUS
 62
     3
100
AcDbCircle
 10
147.3818349999999
 20
148.9104519999998
 30
0.0
 40
1.0
100
AcDbArc
 50
270.0
 51
0.0
  0
LINE
  5
10D
330
1E
100
AcDbEntity
  8
CSLAYER1
  6
CONTINUOUS
 62
     3
100
AcDbLine
 10
147.3818349999999
 20
147.9104519999999
 30
0.0
 11
123.381835
 21
147.9104519999999
 31
0.0
  0
LINE
  5
10E
330
1E
100
AcDbEntity
  8
CSLAYER1
  6
CONTINUOUS
 62
     3
100
AcDbLine
 10
123.381835
 20
140.0583929999999
 30
0.0
 11
146.881835
 21
140.0583929999999
 31
0.0
  0
ARC
  5
10F
330
1E
100
AcDbEntity
  8
CSLAYER1
  6
CONTINUOUS
 62
     3
100
AcDbCircle
 10
146.881835
 20
141.5583929999999
 30
0.0
 40
1.5
100
AcDbArc
 50
270.0
 51
0.0
  0
LINE
  5
110
330
1E
100
AcDbEntity
  8
CSLAYER1
  6
CONTINUOUS
 62
     3
100
AcDbLine
 10
148.3818349999999
 20
136.4145509999999
 30
0.0
 11
148.3818349999999
 21
164.4145509999999
 31
0.0
  0
LINE
  5
111
330
1E
100
AcDbEntity
  8
CSLAYER1
  6
CONTINUOUS
 62
     3
100
AcDbLine
 10
146.881835
 20
160.770708
 30
0.0
 11
123.381835
 21
160.770708
 31
0.0
  0
ARC
  5
112
330
1E
100
AcDbEntity
  8
CSLAYER1
  6
CONTINUOUS
 62
     3
100
AcDbCircle
 10
146.881835
 20
159.270708
 30
0.0
 40
1.5
100
AcDbArc
 50
0.0
 51
90.0
  0
CIRCLE
  5
113
330
1E
100
AcDbEntity
  8
CSLAYER1
  6
CONTINUOUS
 62
     3
100
AcDbCircle
 10
183.3818349999999
 20
150.4145509999998
 30
0.0
 40
2.049999999999998
  0
CIRCLE
  5
114
330
1E
100
AcDbEntity
  8
CSLAYER1
  6
CONTINUOUS
 62
     3
100
AcDbCircle
 10
183.3818349999999
 20
150.4145509999998
 30
0.0
 40
8.5
  0
LINE
  5
115
330
1E
100
AcDbEntity
  8
CSLAYER1
  6
CONTINUOUS
 62
     3
100
AcDbLine
 10
233.8818349999999
 20
148.9145509999999
 30
0.0
 11
233.8818349999999
 21
151.9145509999999
 31
0.0
  0
LINE
  5
116
330
1E
100
AcDbEntity
  8
CSLAYER1
  6
CONTINUOUS
 62
     3
100
AcDbLine
 10
239.8818349999999
 20
151.9145509999999
 30
0.0
 11
239.8818349999999
 21
148.9145509999999
 31
0.0
  0
LINE
  5
117
330
1E
100
AcDbEntity
  8
CSLAYER1
  6
CONTINUOUS
 62
     3
100
AcDbLine
 10
236.0
 20
50.0
 30
0.0
 11
279.793714
 21
50.0
 31
0.0
  0
LINE
  5
118
330
1E
100
AcDbEntity
  8
CSLAYER1
  6
CONTINUOUS
 62
     3
100
AcDbLine
 10
279.793714
 20
40.0
 30
0.0
 11
236.0
 21
40.0
 31
0.0
  0
LINE
  5
119
330
1E
100
AcDbEntity
  8
CSLAYER1
  6
CONTINUOUS
 62
     3
100
AcDbLine
 10
71.286142
 20
136.4145509999999
 30
0.0
 11
64.257835
 21
136.4145509999999
 31
0.0
  0
LINE
  5
11A
330
1E
100
AcDbEntity
  8
CSLAYER1
  6
CONTINUOUS
 62
     3
100
AcDbLine
 10
64.257835
 20
136.4145509999999
 30
0.0
 11
64.257835
 21
164.4145509999999
 31
0.0
  0
LINE
  5
11B
330
1E
100
AcDbEntity
  8
CSLAYER1
  6
CONTINUOUS
 62
     3
100
AcDbLine
 10
64.257835
 20
164.4145509999999
 30
0.0
 11
71.286142
 21
164.4145509999999
 31
0.0
  0
LINE
  5
11C
330
1E
100
AcDbEntity
  8
CSLAYER1
  6
CONTINUOUS
 62
     3
100
AcDbLine
 10
71.257835
 20
164.4145509999999
 30
0.0
 11
71.257835
 21
160.770708
 31
0.0
  0
ARC
  5
11D
330
1E
100
AcDbEntity
  8
CSLAYER1
  6
CONTINUOUS
 62
     3
100
AcDbCircle
 10
78.257835
 20
150.4145509999998
 30
0.0
 40
12.5
100
AcDbArc
 50
124.0557979999999
 51
168.4438669999998
  0
LINE
  5
11E
330
1E
100
AcDbEntity
  8
CSLAYER1
  6
CONTINUOUS
 62
     3
100
AcDbLine
 10
66.011224
 20
152.9186489999998
 30
0.0
 11
64.257835
 21
150.4145509999998
 31
0.0
  0
LINE
  5
11F
330
1E
100
AcDbEntity
  8
CSLAYER1
  6
CONTINUOUS
 62
     3
100
AcDbLine
 10
64.257835
 20
150.4145509999998
 30
0.0
 11
66.011224
 21
147.9104519999999
 31
0.0
  0
ARC
  5
120
330
1E
100
AcDbEntity
  8
CSLAYER1
  6
CONTINUOUS
 62
     3
100
AcDbCircle
 10
78.257835
 20
150.4145509999998
 30
0.0
 40
12.5
100
AcDbArc
 50
191.556133
 51
235.944202
  0
LINE
  5
121
330
1E
100
AcDbEntity
  8
CSLAYER1
  6
CONTINUOUS
 62
     3
100
AcDbLine
 10
71.257835
 20
140.0583929999999
 30
0.0
 11
71.257835
 21
136.4145509999999
 31
0.0
  0
POINT
  5
122
330
1E
100
AcDbEntity
  8
CSLAYER1
 62
     3
100
AcDbPoint
 10
248.4999999999998
 20
43.5
 30
0.0
  0
POINT
  5
123
330
1E
100
AcDbEntity
  8
CSLAYER1
 62
     3
100
AcDbPoint
 10
269.0
 20
43.5
 30
0.0
  0
POINT
  5
124
330
1E
100
AcDbEntity
  8
CSLAYER1
 62
     3
100
AcDbPoint
 10
269.0
 20
53.5
 30
0.0
  0
POINT
  5
125
330
1E
100
AcDbEntity
  8
CSLAYER1
 62
     3
100
AcDbPoint
 10
248.4999999999998
 20
53.5
 30
0.0
  0
TEXT
  5
126
330
1E
100
AcDbEntity
  8
CSLAYER1
 62
     3
100
AcDbText
 10
236.099985
 20
51.00000399999998
 30
0.0
 40
5.0
  1
刃開キハ
 41
1.11044776119403
  7
FX_FONT
 72
     5
 11
260.899985
 21
51.00000399999998
 31
0.0
100
AcDbText
  0
TEXT
  5
127
330
1E
100
AcDbEntity
  8
CSLAYER1
 62
     3
100
AcDbText
 10
235.999985
 20
41.00000399999998
 30
0.0
 40
5.0
  1
切刃部有効
 41
0.872093023255811
  7
FX_FONT
 72
     5
 11
260.9999849999999
 21
41.00000399999998
 31
0.0
100
AcDbText
  0
POINT
  5
128
330
1E
100
AcDbEntity
  8
CSLAYER1
 62
     3
100
AcDbPoint
 10
193.3818349999999
 20
101.3521189999998
 30
0.0
  0
POINT
  5
129
330
1E
100
AcDbEntity
  8
CSLAYER1
 62
     3
100
AcDbPoint
 10
183.3818349999999
 20
101.3521189999998
 30
0.0
  0
POINT
  5
12A
330
1E
100
AcDbEntity
  8
CSLAYER1
 62
     3
100
AcDbPoint
 10
173.3818349999999
 20
101.3521189999998
 30
0.0
  0
TEXT
  5
12B
330
1E
100
AcDbEntity
  8
CSLAYER1
 62
     3
100
AcDbText
 10
264.0
 20
41.0
 30
0.0
 40
5.0
  1
23
 41
1.199999999999999
  7
FX_FONT
 72
     5
 11
274.0
 21
41.0
 31
0.0
100
AcDbText
  0
TEXT
  5
12C
330
1E
100
AcDbEntity
  8
CSLAYER1
 62
     3
100
AcDbText
 10
264.0
 20
51.0
 30
0.0
 40
5.0
  1
16
 41
1.199999999999999
  7
FX_FONT
 72
     5
 11
274.0
 21
51.0
 31
0.0
100
AcDbText
  0
POINT
  5
12D
330
1E
100
AcDbEntity
  8
CSLAYER1
 62
     3
100
AcDbPoint
 10
252.0
 20
19.0
 30
0.0
  0
TEXT
  5
12E
330
1E
100
AcDbEntity
  8
CSLAYER1
 62
     3
100
AcDbText
 10
243.25
 20
17.25
 30
0.0
 40
3.5
  1
N20AH
 41
1.071428571428567
  7
FX_FONT
 72
     5
 11
260.7499999999999
 21
17.25
 31
0.0
100
AcDbText
  0
ARC
  5
12F
330
1E
100
AcDbEntity
  8
CSLAYER1
  6
DASHED
 62
     4
100
AcDbCircle
 10
147.3818349999999
 20
77.35211899999999
 30
0.0
 40
1.0
100
AcDbArc
 50
270.0
 51
0.0
  0
LINE
  5
130
330
1E
100
AcDbEntity
  8
CSLAYER1
  6
DASHED
 62
     4
100
AcDbLine
 10
148.3818349999999
 20
77.35211899999999
 30
0.0
 11
148.3818349999999
 21
85.35211899999998
 31
0.0
  0
LINE
  5
131
330
1E
100
AcDbEntity
  8
CSLAYER1
  6
DASHED
 62
     4
100
AcDbLine
 10
148.3818349999999
 20
104.3521189999998
 30
0.0
 11
151.381835
 21
104.3521189999998
 31
0.0
  0
LINE
  5
132
330
1E
100
AcDbEntity
  8
CSLAYER1
  6
DASHED
 62
     4
100
AcDbLine
 10
151.381835
 20
104.3521189999998
 30
0.0
 11
151.381835
 21
107.3521189999999
 31
0.0
  0
LINE
  5
133
330
1E
100
AcDbEntity
  8
CSLAYER1
  6
CENTER
 62
     4
100
AcDbLine
 10
165.113846
 20
101.3521189999998
 30
0.0
 11
169.8396129999999
 21
101.3521189999998
 31
0.0
  0
LINE
  5
134
330
1E
100
AcDbEntity
  8
CSLAYER1
  6
CENTER
 62
     4
100
AcDbLine
 10
236.3818349999998
 20
101.3521189999998
 30
0.0
 11
245.694114
 21
101.3521189999998
 31
0.0
  0
LINE
  5
135
330
1E
100
AcDbEntity
  8
CSLAYER1
  6
CENTER
 62
     4
100
AcDbLine
 10
183.3818349999999
 20
110.696816
 30
0.0
 11
183.3818349999999
 21
92.698675
 31
0.0
  0
LINE
  5
136
330
1E
100
AcDbEntity
  8
CSLAYER1
  6
CENTER
 62
     4
100
AcDbLine
 10
197.3818349999999
 20
101.3521189999998
 30
0.0
 11
205.181835
 21
101.3521189999998
 31
0.0
  0
LINE
  5
137
330
1E
100
AcDbEntity
  8
CSLAYER1
  6
CENTER
 62
     4
100
AcDbLine
 10
183.3818349999999
 20
132.42244
 30
0.0
 11
183.3818349999999
 21
168.3345309999999
 31
0.0
  0
LINE
  5
138
330
1E
100
AcDbEntity
  8
CSLAYER1
  6
CENTER
 62
     4
100
AcDbLine
 10
206.381835
 20
156.0396749999999
 30
0.0
 11
206.381835
 21
143.382745
 31
0.0
  0
LINE
  5
139
330
1E
100
AcDbEntity
  8
CSLAYER1
  6
CENTER
 62
     4
100
AcDbLine
 10
236.881835
 20
145.2326909999999
 30
0.0
 11
236.881835
 21
156.2416969999999
 31
0.0
  0
LINE
  5
13A
330
1E
100
AcDbEntity
  8
CSLAYER1
  6
CENTER
 62
     4
100
AcDbLine
 10
246.538199
 20
150.4145509999998
 30
0.0
 11
151.381835
 21
150.4145509999998
 31
0.0
  0
LINE
  5
13B
330
1E
100
AcDbEntity
  8
CSLAYER1
  6
CENTER
 62
     4
100
AcDbLine
 10
123.381835
 20
150.4145509999998
 30
0.0
 11
119.107959
 21
150.4145509999998
 31
0.0
  0
LINE
  5
13C
330
1E
100
AcDbEntity
  8
CSLAYER1
  6
CENTER
 62
     4
100
AcDbLine
 10
76.385863
 20
150.4145509999998
 30
0.0
 11
60.957632
 21
150.4145509999998
 31
0.0
  0
INSERT
  5
13D
330
1E
100
AcDbEntity
  8
CSLAYER1
100
AcDbBlockReference
  2
FXDIM0000
 10
0.0
 20
0.0
 30
0.0
  0
INSERT
  5
13E
330
1E
100
AcDbEntity
  8
CSLAYER1
100
AcDbBlockReference
  2
FXDIM0001
 10
0.0
 20
0.0
 30
0.0
  0
INSERT
  5
13F
330
1E
100
AcDbEntity
  8
CSLAYER1
100
AcDbBlockReference
  2
FXDIM0002
 10
0.0
 20
0.0
 30
0.0
  0
DIMENSION
  5
140
330
1E
100
AcDbEntity
  8
CSLAYER1
 62
     4
100
AcDbDimension
  2
*D3
 10
162.2306039999999
 20
95.35211899999998
 30
0.0
 11
161.566666
 21
107.23526
 31
0.0
 70
     1
100
AcDbAlignedDimension
 13
162.2306039999999
 23
107.3521189999999
 33
0.0
 14
162.2306039999999
 24
95.35211899999998
 34
0.0
  0
DIMENSION
  5
141
330
1E
100
AcDbEntity
  8
CSLAYER1
 62
     4
100
AcDbDimension
  2
*D4
 10
109.3665209999999
 20
164.4145509999999
 30
0.0
 11
108.866524
 21
150.4145509999998
 31
0.0
 70
     1
100
AcDbAlignedDimension
 13
124.381835
 23
136.4145509999999
 33
0.0
 14
124.381835
 24
164.4145509999999
 34
0.0
  0
DIMENSION
  5
142
330
1E
100
AcDbEntity
  8
CSLAYER1
 62
     4
100
AcDbDimension
  2
*D5
 10
183.3818349999999
 20
119.3170229999999
 30
0.0
 11
165.881836
 21
119.817024
 31
0.0
100
AcDbAlignedDimension
 13
148.3818349999999
 23
107.3521189999999
 33
0.0
 14
183.3818349999999
 24
110.696816
 34
0.0
100
AcDbRotatedDimension
  0
DIMENSION
  5
144
330
1E
100
AcDbEntity
  8
CSLAYER1
 62
     4
100
AcDbDimension
  2
*D7
 10
78.257835
 20
150.4145509999998
 30
0.0
 11
78.022705
 21
145.230576
 31
0.0
 70
     4
100
AcDbRadialDimension
 15
68.58305699999999
 25
142.499459
 35
0.0
 40
0.0
  0
DIMENSION
  5
145
330
1E
100
AcDbEntity
  8
CSLAYER1
 62
     4
100
AcDbDimension
  2
*D8
 10
162.2306039999999
 20
76.35211899999998
 30
0.0
 11
161.7306059999999
 21
85.85211899999999
 31
0.0
100
AcDbAlignedDimension
 13
162.2306039999999
 23
95.35211899999998
 33
0.0
 14
156.381835
 24
76.35211899999998
 34
0.0
 50
90.0
100
AcDbRotatedDimension
  0
DIMENSION
  5
146
330
1E
100
AcDbEntity
  8
CSLAYER1
 62
     4
100
AcDbDimension
  2
*D9
 10
115.2484419999999
 20
107.3521189999999
 30
0.0
 11
114.7484439999999
 21
91.85211899999998
 31
0.0
100
AcDbAlignedDimension
 13
123.381835
 23
76.35211899999998
 33
0.0
 14
148.3818349999999
 24
107.3521189999999
 34
0.0
 50
90.0
100
AcDbRotatedDimension
  0
LINE
  5
147
330
1E
100
AcDbEntity
  8
CSLAYER1
  6
CONTINUOUS
 62
     3
100
AcDbLine
 10
146.3818349999999
 20
150.814551
 30
0.0
 11
146.3818349999999
 21
150.014551
 31
0.0
  0
DIMENSION
  5
148
330
1E
100
AcDbEntity
  8
CSLAYER1
 62
     4
100
AcDbDimension
  2
*D10
 10
156.381835
 20
60.502973
 30
0.0
 11
139.881836
 21
61.00297199999999
 31
0.0
 70
     1
 52
270.0
100
AcDbAlignedDimension
 13
123.381835
 23
76.35211899999998
 33
0.0
 14
156.381835
 24
76.35211899999998
 34
0.0
  0
DIMENSION
  5
149
330
1E
100
AcDbEntity
  8
CSLAYER1
 62
     4
100
AcDbDimension
  2
*D11
 10
183.3818349999999
 20
60.502973
 30
0.0
 11
169.881836
 21
61.00297199999999
 31
0.0
 52
270.0
100
AcDbAlignedDimension
 13
156.381835
 23
76.35211899999998
 33
0.0
 14
183.3818349999999
 24
92.698675
 34
0.0
100
AcDbRotatedDimension
  0
DIMENSION
  5
14A
330
1E
100
AcDbEntity
  8
CSLAYER1
 62
     4
100
AcDbDimension
  2
*D12
 10
146.3818349999999
 20
66.502973
 30
0.0
 11
135.0493319999999
 21
67.00297500000001
 31
0.0
 70
     1
 52
270.0
100
AcDbAlignedDimension
 13
123.381835
 23
76.35211899999998
 33
0.0
 14
146.3818349999999
 24
76.35211899999998
 34
0.0
  0
LINE
  5
14B
330
1E
100
AcDbEntity
  8
CSLAYER1
  6
CONTINUOUS
 62
     3
100
AcDbLine
 10
146.3818349999999
 20
150.4145509999998
 30
0.0
 11
123.381835
 21
150.4145509999998
 31
0.0
  0
LINE
  5
14C
330
1E
100
AcDbEntity
  8
CSLAYER1
  6
CENTER
 62
     4
100
AcDbLine
 10
148.3818349999999
 20
150.4145509999998
 30
0.0
 11
146.3818349999999
 21
150.4145509999998
 31
0.0
  0
LINE
  5
14D
330
1E
100
AcDbEntity
  8
CSLAYER1
  6
CONTINUOUS
 62
     3
100
AcDbLine
 10
148.3818349999999
 20
150.814551
 30
0.0
 11
146.3818349999999
 21
150.814551
 31
0.0
  0
LINE
  5
14E
330
1E
100
AcDbEntity
  8
CSLAYER1
  6
CONTINUOUS
 62
     3
100
AcDbLine
 10
148.3818349999999
 20
150.014551
 30
0.0
 11
146.3818349999999
 21
150.014551
 31
0.0
  0
DIMENSION
  5
14F
330
1E
100
AcDbEntity
  8
CSLAYER1
 62
     4
100
AcDbDimension
  2
*D13
 10
183.3818349999999
 20
180.8373639999999
 30
0.0
 11
153.381836
 21
181.3373719999999
 31
0.0
100
AcDbAlignedDimension
 13
123.381835
 23
162.4145509999999
 33
0.0
 14
183.3818349999999
 24
168.3345309999999
 34
0.0
100
AcDbRotatedDimension
  0
LINE
  5
150
330
1E
100
AcDbEntity
  8
CSLAYER1
  6
CONTINUOUS
 62
     3
100
AcDbLine
 10
62.52627
 20
39.223026
 30
0.0
 11
64.12626999999999
 21
51.115881
 31
0.0
  0
ARC
  5
151
330
1E
100
AcDbEntity
  8
CSLAYER1
  6
CONTINUOUS
 62
     3
100
AcDbCircle
 10
66.108412
 20
50.849214
 30
0.0
 40
2.0
100
AcDbArc
 50
82.33774399999999
 51
172.3377439999999
  0
LINE
  5
152
330
1E
100
AcDbEntity
  8
CSLAYER1
  6
CONTINUOUS
 62
     3
100
AcDbLine
 10
66.375079
 20
52.83135699999998
 30
0.0
 11
111.964356
 21
46.69802299999999
 31
0.0
  0
LINE
  5
153
330
1E
100
AcDbEntity
  8
CSLAYER1
  6
CONTINUOUS
 62
     3
100
AcDbLine
 10
111.964356
 20
46.69802299999999
 30
0.0
 11
122.735659
 21
44.635087
 31
0.0
  0
ARC
  5
154
330
1E
100
AcDbEntity
  8
CSLAYER1
  6
CONTINUOUS
 62
     3
100
AcDbCircle
 10
102.497049
 20
31.72665499999999
 30
0.0
 40
2.5
100
AcDbArc
 50
358.520049
 51
82.33774399999999
  0
LINE
  5
155
330
1E
100
AcDbEntity
  8
CSLAYER1
  6
CONTINUOUS
 62
     3
100
AcDbLine
 10
103.0151519999999
 20
34.179476
 30
0.0
 11
103.824928
 21
34.797203
 31
0.0
  0
LINE
  5
156
330
1E
100
AcDbEntity
  8
CSLAYER1
  6
CONTINUOUS
 62
     3
100
AcDbLine
 10
103.824928
 20
34.797203
 30
0.0
 11
109.444833
 21
47.036986
 31
0.0
  0
ARC
  5
157
330
1E
100
AcDbEntity
  8
CSLAYER1
  6
CONTINUOUS
 62
     3
100
AcDbCircle
 10
121.9905449999999
 20
31.223026
 30
0.0
 40
17.0
100
AcDbArc
 50
132.936567
 51
181.479951
  0
LINE
  5
158
330
1E
100
AcDbEntity
  8
CSLAYER1
  6
CONTINUOUS
 62
     3
100
AcDbLine
 10
90.276265
 20
35.489693
 30
0.0
 11
90.329598
 21
35.886121
 31
0.0
  0
LINE
  5
159
330
1E
100
AcDbEntity
  8
CSLAYER1
  6
CONTINUOUS
 62
     3
100
AcDbLine
 10
90.329598
 20
35.886121
 30
0.0
 11
103.0151519999999
 21
34.179476
 31
0.0
  0
LINE
  5
15A
330
1E
100
AcDbEntity
  8
CSLAYER1
  6
CONTINUOUS
 62
     3
100
AcDbLine
 10
90.276265
 20
35.489693
 30
0.0
 11
87.303051
 21
35.889693
 31
0.0
  0
LINE
  5
15B
330
1E
100
AcDbEntity
  8
CSLAYER1
  6
CONTINUOUS
 62
     3
100
AcDbLine
 10
62.86014999999999
 20
41.70476599999999
 30
0.0
 11
86.64585999999998
 21
38.504766
 31
0.0
  0
ARC
  5
15C
330
1E
100
AcDbEntity
  8
CSLAYER1
  6
CONTINUOUS
 62
     3
100
AcDbCircle
 10
86.51252599999997
 20
37.513695
 30
0.0
 40
1.0
100
AcDbArc
 50
352.3377439999998
 51
82.33774399999999
  0
LINE
  5
15D
330
1E
100
AcDbEntity
  8
CSLAYER1
  6
CONTINUOUS
 62
     3
100
AcDbLine
 10
87.303051
 20
35.889693
 30
0.0
 11
89.169718
 21
49.76469
 31
0.0
  0
LINE
  5
15E
330
1E
100
AcDbEntity
  8
CSLAYER1
  6
CONTINUOUS
 62
     3
100
AcDbLine
 10
87.197265
 20
46.35338299999999
 30
0.0
 11
63.907091
 21
49.48671599999999
 31
0.0
  0
ARC
  5
15F
330
1E
100
AcDbEntity
  8
CSLAYER1
  6
CONTINUOUS
 62
     3
100
AcDbCircle
 10
86.997265
 20
44.866776
 30
0.0
 40
1.5
100
AcDbArc
 50
352.3377439999998
 51
82.33774399999999
  0
CIRCLE
  5
160
330
1E
100
AcDbEntity
  8
CSLAYER1
  6
CONTINUOUS
 62
     3
100
AcDbCircle
 10
121.9905449999999
 20
31.223026
 30
0.0
 40
2.049999999999998
  0
CIRCLE
  5
161
330
1E
100
AcDbEntity
  8
CSLAYER1
  6
CONTINUOUS
 62
     3
100
AcDbCircle
 10
121.9905449999999
 20
31.223026
 30
0.0
 40
8.5
  0
LINE
  5
162
330
1E
100
AcDbEntity
  8
CSLAYER1
  6
CONTINUOUS
 62
     3
100
AcDbLine
 10
27.80990599999999
 20
39.223026
 30
0.0
 11
27.80990599999999
 21
53.223026
 31
0.0
  0
LINE
  5
163
330
1E
100
AcDbEntity
  8
CSLAYER1
  6
CONTINUOUS
 62
     3
100
AcDbLine
 10
27.80990599999999
 20
53.223026
 30
0.0
 11
34.838213
 21
53.223026
 31
0.0
  0
LINE
  5
164
330
1E
100
AcDbEntity
  8
CSLAYER1
  6
CONTINUOUS
 62
     3
100
AcDbLine
 10
34.809906
 20
53.223026
 30
0.0
 11
34.809906
 21
49.579183
 31
0.0
  0
ARC
  5
165
330
1E
100
AcDbEntity
  8
CSLAYER1
  6
CONTINUOUS
 62
     3
100
AcDbCircle
 10
41.809906
 20
39.223026
 30
0.0
 40
12.5
100
AcDbArc
 50
124.0557979999999
 51
168.4438669999998
  0
LINE
  5
166
330
1E
100
AcDbEntity
  8
CSLAYER1
  6
CONTINUOUS
 62
     3
100
AcDbLine
 10
29.56329399999999
 20
41.72712399999999
 30
0.0
 11
27.80990599999999
 21
39.223026
 31
0.0
  0
LINE
  5
167
330
1E
100
AcDbEntity
  8
CSLAYER1
  6
CENTER
 62
     4
100
AcDbLine
 10
121.9905449999999
 20
13.230916
 30
0.0
 11
121.9905449999999
 21
49.143006
 31
0.0
  0
LINE
  5
168
330
1E
100
AcDbEntity
  8
CSLAYER1
  6
CENTER
 62
     4
100
AcDbLine
 10
132.799683
 20
31.223026
 30
0.0
 11
56.075924
 21
31.223026
 31
0.0
  0
LINE
  5
169
330
1E
100
AcDbEntity
  8
CSLAYER1
  6
CENTER
 62
     4
100
AcDbLine
 10
39.937934
 20
31.223026
 30
0.0
 11
24.50970199999999
 21
31.223026
 31
0.0
  0
LINE
  5
16A
330
1E
100
AcDbEntity
  8
CSLAYER1
  6
CONTINUOUS
 62
     3
100
AcDbLine
 10
85.37424200000002
 20
36.552788
 30
0.0
 11
85.320908
 21
36.156359
 31
0.0
  0
LINE
  5
16B
330
1E
100
AcDbEntity
  8
CSLAYER1
  6
CONTINUOUS
 62
     3
100
AcDbLine
 10
85.320908
 20
36.156359
 30
0.0
 11
62.52627
 21
39.223026
 31
0.0
  0
LINE
  5
16C
330
1E
100
AcDbEntity
  8
CSLAYER1
  6
CONTINUOUS
 62
     3
100
AcDbLine
 10
87.35638399999997
 20
36.286121
 30
0.0
 11
85.37424200000002
 21
36.552788
 31
0.0
  0
LINE
  5
16D
330
1E
100
AcDbEntity
  8
CSLAYER1
  6
CONTINUOUS
 62
     3
100
AcDbLine
 10
62.52627
 20
23.22302599999999
 30
0.0
 11
64.12626999999999
 21
11.33017099999999
 31
0.0
  0
ARC
  5
16E
330
1E
100
AcDbEntity
  8
CSLAYER1
  6
CONTINUOUS
 62
     3
100
AcDbCircle
 10
66.108412
 20
11.596838
 30
0.0
 40
2.0
100
AcDbArc
 50
187.662256
 51
277.662256
  0
LINE
  5
16F
330
1E
100
AcDbEntity
  8
CSLAYER1
  6
CONTINUOUS
 62
     3
100
AcDbLine
 10
66.375079
 20
9.614694999999999
 30
0.0
 11
111.964356
 21
15.748028
 31
0.0
  0
LINE
  5
170
330
1E
100
AcDbEntity
  8
CSLAYER1
  6
CONTINUOUS
 62
     3
100
AcDbLine
 10
111.964356
 20
15.748028
 30
0.0
 11
131.208845
 21
19.43376299999998
 31
0.0
  0
ARC
  5
171
330
1E
100
AcDbEntity
  8
CSLAYER1
  6
CONTINUOUS
 62
     3
100
AcDbCircle
 10
102.497049
 20
30.719396
 30
0.0
 40
2.5
100
AcDbArc
 50
277.662256
 51
1.479950999999999
  0
LINE
  5
172
330
1E
100
AcDbEntity
  8
CSLAYER1
  6
CONTINUOUS
 62
     3
100
AcDbLine
 10
90.276265
 20
26.956359
 30
0.0
 11
90.329598
 21
26.55993099999999
 31
0.0
  0
LINE
  5
173
330
1E
100
AcDbEntity
  8
CSLAYER1
  6
CONTINUOUS
 62
     3
100
AcDbLine
 10
90.329598
 20
26.55993099999999
 30
0.0
 11
103.0151519999999
 21
28.266576
 31
0.0
  0
LINE
  5
174
330
1E
100
AcDbEntity
  8
CSLAYER1
  6
CONTINUOUS
 62
     3
100
AcDbLine
 10
90.276265
 20
26.956359
 30
0.0
 11
87.303051
 21
26.556359
 31
0.0
  0
LINE
  5
175
330
1E
100
AcDbEntity
  8
CSLAYER1
  6
CONTINUOUS
 62
     3
100
AcDbLine
 10
62.86014999999999
 20
20.74128599999998
 30
0.0
 11
86.64585999999998
 21
23.94128599999999
 31
0.0
  0
ARC
  5
176
330
1E
100
AcDbEntity
  8
CSLAYER1
  6
CONTINUOUS
 62
     3
100
AcDbCircle
 10
86.51252599999997
 20
24.932357
 30
0.0
 40
1.0
100
AcDbArc
 50
277.662256
 51
7.662256000000001
  0
LINE
  5
177
330
1E
100
AcDbEntity
  8
CSLAYER1
  6
CONTINUOUS
 62
     3
100
AcDbLine
 10
87.303051
 20
26.556359
 30
0.0
 11
89.169718
 21
12.681362
 31
0.0
  0
LINE
  5
178
330
1E
100
AcDbEntity
  8
CSLAYER1
  6
CONTINUOUS
 62
     3
100
AcDbLine
 10
87.197265
 20
16.092669
 30
0.0
 11
63.907091
 21
12.959336
 31
0.0
  0
ARC
  5
179
330
1E
100
AcDbEntity
  8
CSLAYER1
  6
CONTINUOUS
 62
     3
100
AcDbCircle
 10
86.997265
 20
17.579276
 30
0.0
 40
1.5
100
AcDbArc
 50
277.662256
 51
7.662256000000001
  0
LINE
  5
17A
330
1E
100
AcDbEntity
  8
CSLAYER1
  6
CONTINUOUS
 62
     3
100
AcDbLine
 10
85.37424200000002
 20
25.893264
 30
0.0
 11
85.320908
 21
26.289693
 31
0.0
  0
LINE
  5
17B
330
1E
100
AcDbEntity
  8
CSLAYER1
  6
CONTINUOUS
 62
     3
100
AcDbLine
 10
85.320908
 20
26.289693
 30
0.0
 11
62.52627
 21
23.22302599999999
 31
0.0
  0
LINE
  5
17C
330
1E
100
AcDbEntity
  8
CSLAYER1
  6
CONTINUOUS
 62
     3
100
AcDbLine
 10
87.35638399999997
 20
26.159931
 30
0.0
 11
85.37424200000002
 21
25.893264
 31
0.0
  0
LINE
  5
17D
330
1E
100
AcDbEntity
  8
CSLAYER1
  6
CONTINUOUS
 62
     3
100
AcDbLine
 10
110.4103449999999
 20
43.668867
 30
0.0
 11
127.7562389999999
 21
45.028665
 31
0.0
  0
LINE
  5
17E
330
1E
100
AcDbEntity
  8
CSLAYER1
  6
CONTINUOUS
 62
     3
100
AcDbLine
 10
27.80990599999999
 20
23.22302599999999
 30
0.0
 11
27.80990599999999
 21
9.223026
 31
0.0
  0
LINE
  5
17F
330
1E
100
AcDbEntity
  8
CSLAYER1
  6
CONTINUOUS
 62
     3
100
AcDbLine
 10
27.80990599999999
 20
9.223026
 30
0.0
 11
34.838213
 21
9.223026
 31
0.0
  0
LINE
  5
180
330
1E
100
AcDbEntity
  8
CSLAYER1
  6
CONTINUOUS
 62
     3
100
AcDbLine
 10
34.809906
 20
9.223026
 30
0.0
 11
34.809906
 21
12.866868
 31
0.0
  0
ARC
  5
181
330
1E
100
AcDbEntity
  8
CSLAYER1
  6
CONTINUOUS
 62
     3
100
AcDbCircle
 10
41.809906
 20
23.22302599999999
 30
0.0
 40
12.5
100
AcDbArc
 50
191.556133
 51
235.944202
  0
LINE
  5
182
330
1E
100
AcDbEntity
  8
CSLAYER1
  6
CONTINUOUS
 62
     3
100
AcDbLine
 10
29.56329399999999
 20
20.71892699999998
 30
0.0
 11
27.80990599999999
 21
23.22302599999999
 31
0.0
  0
DIMENSION
  5
183
330
1E
100
AcDbEntity
  8
CSLAYER1
 62
     4
100
AcDbDimension
  2
*D14
 10
52.169688
 20
39.223026
 30
0.0
 11
51.669689
 21
31.223026
 31
0.0
 70
     1
100
AcDbAlignedDimension
 13
62.52627
 23
23.22302599999999
 33
0.0
 14
62.52627
 24
39.223026
 34
0.0
  0
LINE
  5
184
330
1E
100
AcDbEntity
  8
CSLAYER1
  6
DOT
 62
     3
100
AcDbLine
 10
4.0
 20
1.0
 30
0.0
 11
283.0
 21
1.0
 31
0.0
  0
LINE
  5
185
330
1E
100
AcDbEntity
  8
CSLAYER1
  6
DOT
 62
     3
100
AcDbLine
 10
283.0
 20
1.0
 30
0.0
 11
283.0
 21
195.0
 31
0.0
  0
LINE
  5
186
330
1E
100
AcDbEntity
  8
CSLAYER1
  6
DOT
 62
     3
100
AcDbLine
 10
283.0
 20
195.0
 30
0.0
 11
4.0
 21
195.0
 31
0.0
  0
LINE
  5
187
330
1E
100
AcDbEntity
  8
CSLAYER1
  6
DOT
 62
     3
100
AcDbLine
 10
4.0
 20
195.0
 30
0.0
 11
4.0
 21
1.0
 31
0.0
  0
LINE
  5
188
330
1E
100
AcDbEntity
  8
CSLAYER1
  6
DOT
 62
     3
100
AcDbLine
 10
143.5
 20
195.0
 30
0.0
 11
143.5
 21
199.0
 31
0.0
  0
LINE
  5
189
330
1E
100
AcDbEntity
  8
CSLAYER1
  6
DOT
 62
     3
100
AcDbLine
 10
4.0
 20
98.0
 30
0.0
 11
0.0
 21
98.0
 31
0.0
  0
ENDSEC
  0
SECTION
  2
OBJECTS
  0
DICTIONARY
  5
C
330
0
100
AcDbDictionary
  3
ACAD_GROUP
350
D
  3
ACAD_LAYOUT
350
19
  3
ACAD_MLINESTYLE
350
16
  3
ACAD_PLOTSETTINGS
350
18
1001
ACAD
1000
TREAT_AS_HARD
1070
     0
1000
TREAT_AS_HARD
1070
     0
  0
DICTIONARY
  5
193
330
1E
100
AcDbDictionary
  3
ACAD_LAYOUTSELFREF
350
1B2
1001
ACAD
1000
TREAT_AS_HARD
1070
     0
  0
DICTIONARY
  5
191
330
1A
100
AcDbDictionary
  3
ACAD_LAYOUTSELFREF
350
1B1
1001
ACAD
1000
TREAT_AS_HARD
1070
     0
  0
DICTIONARY
  5
D
102
{ACAD_REACTORS
330
C
102
}
330
C
100
AcDbDictionary
1001
ACAD
1000
TREAT_AS_HARD
1070
     0
1000
TREAT_AS_HARD
1070
     0
  0
DICTIONARY
  5
19
102
{ACAD_REACTORS
330
C
102
}
330
C
100
AcDbDictionary
1001
ACAD
1000
TREAT_AS_HARD
1070
     0
1000
TREAT_AS_HARD
1070
     0
  0
DICTIONARY
  5
16
102
{ACAD_REACTORS
330
C
102
}
330
C
100
AcDbDictionary
  3
STANDARD
350
17
1001
ACAD
1000
TREAT_AS_HARD
1070
     0
1000
TREAT_AS_HARD
1070
     0
  0
DICTIONARY
  5
18
102
{ACAD_REACTORS
330
C
102
}
330
C
100
AcDbDictionary
1001
ACAD
1000
TREAT_AS_HARD
1070
     0
1000
TREAT_AS_HARD
1070
     0
  0
XRECORD
  5
1B2
102
{ACAD_REACTORS
330
193
102
}
330
193
100
AcDbXrecord
340
1E
  0
XRECORD
  5
1B1
102
{ACAD_REACTORS
330
191
102
}
330
191
100
AcDbXrecord
340
1A
  0
MLINESTYLE
  5
17
102
{ACAD_REACTORS
330
16
102
}
330
16
100
AcDbMlineStyle
  2
STANDARD
 70
     0
  3

 62
   256
 51
90.0
 52
90.0
 71
     2
 49
0.5
 62
   256
  6
BYLAYER
 49
-0.5
 62
   256
  6
BYLAYER
  0
ENDSEC
  0
EOF
