  0
SECTION
  2
HEADER
  9
$ACADVER
  1
AC1012
  9
$DWGCODEPAGE
  3
dos932
  9
$INSBASE
 10
0.0
 20
0.0
 30
0.0
  9
$EXTMIN
 10
-0.0090630292066862
 20
0.9869389666558276
 30
-0.0015258207003583
  9
$EXTMAX
 10
283.0056159095904
 20
199.0155034058442
 30
0.0000000349246037
  9
$LIMMIN
 10
0.0
 20
0.0
  9
$LIMMAX
 10
297.0
 20
210.0
  9
$ORTHOMODE
 70
     0
  9
$REGENMODE
 70
     1
  9
$FILLMODE
 70
     1
  9
$QTEXTMODE
 70
     0
  9
$MIRRTEXT
 70
     1
  9
$DRAGMODE
 70
     2
  9
$LTSCALE
 40
15.0
  9
$OSMODE
 70
    37
  9
$ATTMODE
 70
     1
  9
$TEXTSIZE
 40
0.2
  9
$TRACEWID
 40
0.05
  9
$TEXTSTYLE
  7
GOTHIC
  9
$CLAYER
  8
CSLAYER1
  9
$CELTYPE
  6
BYLAYER
  9
$CECOLOR
 62
   256
  9
$CELTSCALE
 40
1.0
  9
$DELOBJ
 70
     1
  9
$DISPSILH
 70
     0
  9
$DIMSCALE
 40
1.0
  9
$DIMASZ
 40
0.18
  9
$DIMEXO
 40
0.0625
  9
$DIMDLI
 40
0.38
  9
$DIMRND
 40
0.0
  9
$DIMDLE
 40
0.0
  9
$DIMEXE
 40
0.18
  9
$DIMTP
 40
0.0
  9
$DIMTM
 40
0.0
  9
$DIMTXT
 40
0.18
  9
$DIMCEN
 40
0.09
  9
$DIMTSZ
 40
0.0
  9
$DIMTOL
 70
     0
  9
$DIMLIM
 70
     0
  9
$DIMTIH
 70
     1
  9
$DIMTOH
 70
     1
  9
$DIMSE1
 70
     0
  9
$DIMSE2
 70
     0
  9
$DIMTAD
 70
     0
  9
$DIMZIN
 70
     0
  9
$DIMBLK
  1

  9
$DIMASO
 70
     1
  9
$DIMSHO
 70
     1
  9
$DIMPOST
  1

  9
$DIMAPOST
  1

  9
$DIMALT
 70
     0
  9
$DIMALTD
 70
     2
  9
$DIMALTF
 40
25.4
  9
$DIMLFAC
 40
1.0
  9
$DIMTOFL
 70
     0
  9
$DIMTVP
 40
0.0
  9
$DIMTIX
 70
     0
  9
$DIMSOXD
 70
     0
  9
$DIMSAH
 70
     0
  9
$DIMBLK1
  1

  9
$DIMBLK2
  1

  9
$DIMSTYLE
  2
STANDARD
  9
$DIMCLRD
 70
     0
  9
$DIMCLRE
 70
     0
  9
$DIMCLRT
 70
     0
  9
$DIMTFAC
 40
1.0
  9
$DIMGAP
 40
0.09
  9
$DIMJUST
 70
     0
  9
$DIMSD1
 70
     0
  9
$DIMSD2
 70
     0
  9
$DIMTOLJ
 70
     1
  9
$DIMTZIN
 70
     0
  9
$DIMALTZ
 70
     0
  9
$DIMALTTZ
 70
     0
  9
$DIMFIT
 70
     3
  9
$DIMUPT
 70
     0
  9
$DIMUNIT
 70
     2
  9
$DIMDEC
 70
     4
  9
$DIMTDEC
 70
     4
  9
$DIMALTU
 70
     2
  9
$DIMALTTD
 70
     2
  9
$DIMTXSTY
  7
STANDARD
  9
$DIMAUNIT
 70
     0
  9
$LUNITS
 70
     2
  9
$LUPREC
 70
     4
  9
$SKETCHINC
 40
0.1
  9
$FILLETRAD
 40
0.0
  9
$AUNITS
 70
     0
  9
$AUPREC
 70
     0
  9
$MENU
  1
ACAD
  9
$ELEVATION
 40
0.0
  9
$PELEVATION
 40
0.0
  9
$THICKNESS
 40
0.0
  9
$LIMCHECK
 70
     0
  9
$BLIPMODE
 70
     1
  9
$CHAMFERA
 40
0.0
  9
$CHAMFERB
 40
0.0
  9
$CHAMFERC
 40
0.0
  9
$CHAMFERD
 40
0.0
  9
$SKPOLY
 70
     0
  9
$TDCREATE
 40
2453476.999999999
  9
$TDUPDATE
 40
2453516.490467384
  9
$TDINDWG
 40
0.0003284838
  9
$TDUSRTIMER
 40
0.0003283681
  9
$USRTIMER
 70
     1
  9
$ANGBASE
 50
0.0
  9
$ANGDIR
 70
     0
  9
$PDMODE
 70
     0
  9
$PDSIZE
 40
0.0
  9
$PLINEWID
 40
0.0
  9
$COORDS
 70
     0
  9
$SPLFRAME
 70
     0
  9
$SPLINETYPE
 70
     6
  9
$SPLINESEGS
 70
     8
  9
$ATTDIA
 70
     0
  9
$ATTREQ
 70
     1
  9
$HANDLING
 70
-16383
  9
$HANDSEED
  5
1DB
  9
$SURFTAB1
 70
     6
  9
$SURFTAB2
 70
     6
  9
$SURFTYPE
 70
     6
  9
$SURFU
 70
     6
  9
$SURFV
 70
     6
  9
$UCSNAME
  2

  9
$UCSORG
 10
0.0
 20
0.0
 30
0.0
  9
$UCSXDIR
 10
1.0
 20
0.0
 30
0.0
  9
$UCSYDIR
 10
0.0
 20
1.0
 30
0.0
  9
$PUCSNAME
  2

  9
$PUCSORG
 10
0.0
 20
0.0
 30
0.0
  9
$PUCSXDIR
 10
1.0
 20
0.0
 30
0.0
  9
$PUCSYDIR
 10
0.0
 20
1.0
 30
0.0
  9
$USERI1
 70
     0
  9
$USERI2
 70
     0
  9
$USERI3
 70
     0
  9
$USERI4
 70
     0
  9
$USERI5
 70
     0
  9
$USERR1
 40
0.0
  9
$USERR2
 40
0.0
  9
$USERR3
 40
0.0
  9
$USERR4
 40
0.0
  9
$USERR5
 40
0.0
  9
$WORLDVIEW
 70
     1
  9
$SHADEDGE
 70
     3
  9
$SHADEDIF
 70
    70
  9
$TILEMODE
 70
     1
  9
$MAXACTVP
 70
    64
  9
$PINSBASE
 10
0.0
 20
0.0
 30
0.0
  9
$PLIMCHECK
 70
     0
  9
$PEXTMIN
 10
1.000000000000000E+20
 20
1.000000000000000E+20
 30
1.000000000000000E+20
  9
$PEXTMAX
 10
-1.000000000000000E+20
 20
-1.000000000000000E+20
 30
-1.000000000000000E+20
  9
$PLIMMIN
 10
0.0
 20
0.0
  9
$PLIMMAX
 10
12.0
 20
9.0
  9
$UNITMODE
 70
     0
  9
$VISRETAIN
 70
     1
  9
$PLINEGEN
 70
     0
  9
$PSLTSCALE
 70
     1
  9
$TREEDEPTH
 70
  3020
  9
$PICKSTYLE
 70
     3
  9
$CMLSTYLE
  2
STANDARD
  9
$CMLJUST
 70
     0
  9
$CMLSCALE
 40
1.0
  9
$SAVEIMAGES
 70
     1
  0
ENDSEC
  0
SECTION
  2
CLASSES
  0
CLASS
  1
ACDBDICTIONARYWDFLT
  2
AcDbDictionaryWithDefault
  3
AutoCAD 2000
 90
    32768
280
     0
281
     0
  0
CLASS
  1
ACDBPLACEHOLDER
  2
AcDbPlaceHolder
  3
AutoCAD 2000
 90
    32768
280
     0
281
     0
  0
CLASS
  1
LAYOUT
  2
AcDbLayout
  3
AutoCAD 2000
 90
    32768
280
     0
281
     0
  0
CLASS
  1
DICTIONARYVAR
  2
AcDbDictionaryVar
  3
AutoCAD 2000
 90
    32768
280
     0
281
     0
  0
CLASS
  1
LONG_TRANSACTION
  2
AcDbLongTransaction
  3
AutoCAD 2000
 90
    32768
280
     0
281
     0
  0
CLASS
  1
LWPOLYLINE
  2
AcDbPolyline
  3
AutoCAD 2000
 90
    32768
280
     0
281
     1
  0
CLASS
  1
HATCH
  2
AcDbHatch
  3
AutoCAD 2000
 90
    32768
280
     0
281
     1
  0
CLASS
  1
XRECORD
  2
AcDbXrecord
  3
AutoCAD 2000
 90
    32768
280
     0
281
     0
  0
CLASS
  1
LONG_TRANSACTION
  2
AcDbLongTransaction
  3
AutoCAD 2000
 90
    32768
280
     0
281
     0
  0
CLASS
  1
LWPOLYLINE
  2
AcDbPolyline
  3
AutoCAD 2000
 90
    32768
280
     0
281
     1
  0
CLASS
  1
HATCH
  2
AcDbHatch
  3
AutoCAD 2000
 90
    32768
280
     0
281
     1
  0
CLASS
  1
XRECORD
  2
AcDbXrecord
  3
AutoCAD 2000
 90
    32768
280
     0
281
     0
  0
ENDSEC
  0
SECTION
  2
TABLES
  0
TABLE
  2
VPORT
  5
8
330
0
100
AcDbSymbolTable
 70
     2
  0
VPORT
  5
1D8
330
8
100
AcDbSymbolTableRecord
100
AcDbViewportTableRecord
  2
*ACTIVE
 70
     0
 10
0.0
 20
0.0
 11
1.0
 21
1.0
 12
141.4982764401918
 22
100.00122118625
 13
0.0
 23
0.0
 14
1.0
 24
1.0
 15
0.0
 25
0.0
 16
0.0
 26
0.0
 36
1.0
 17
0.0
 27
0.0
 37
0.0
 40
199.5156375138256
 41
1.510025062656641
 42
50.0
 43
0.0
 44
0.0
 50
0.0
 51
0.0
 71
     0
 72
   100
 73
     1
 74
     1
 75
     0
 76
     0
 77
     0
 78
     0
  0
ENDTAB
  0
TABLE
  2
LTYPE
  5
5
330
0
100
AcDbSymbolTable
 70
     4
  0
LTYPE
  5
13
330
5
100
AcDbSymbolTableRecord
100
AcDbLinetypeTableRecord
  2
BYBLOCK
 70
     0
  3

 72
    65
 73
     0
 40
0.0
  0
LTYPE
  5
14
330
5
100
AcDbSymbolTableRecord
100
AcDbLinetypeTableRecord
  2
BYLAYER
 70
     0
  3

 72
    65
 73
     0
 40
0.0
  0
LTYPE
  5
15
330
5
100
AcDbSymbolTableRecord
100
AcDbLinetypeTableRecord
  2
CONTINUOUS
 70
     0
  3
Solid line
 72
    65
 73
     0
 40
0.0
  0
LTYPE
  5
23
330
5
100
AcDbSymbolTableRecord
100
AcDbLinetypeTableRecord
  2
DASHED
 70
     0
  3
__ __ __ __ __ __ __ __ __ __ __ __ __ __ __
 72
    65
 73
     2
 40
0.75
 49
0.5
 74
     0
 49
-0.25
 74
     0
  0
LTYPE
  5
25
330
5
100
AcDbSymbolTableRecord
100
AcDbLinetypeTableRecord
  2
DOT
 70
     0
  3
...............................................
 72
    65
 73
     2
 40
0.25
 49
0.0
 74
     0
 49
-0.25
 74
     0
  0
LTYPE
  5
28
330
5
100
AcDbSymbolTableRecord
100
AcDbLinetypeTableRecord
  2
CENTER
 70
     0
  3
____ _ ____ _ ____ _ ____ _ ____ _ ____ _ ____ 
 72
    65
 73
     4
 40
2.0
 49
1.25
 74
     0
 49
-0.25
 74
     0
 49
0.25
 74
     0
 49
-0.25
 74
     0
  0
ENDTAB
  0
TABLE
  2
LAYER
  5
2
330
0
100
AcDbSymbolTable
 70
     3
  0
LAYER
  5
10
330
2
100
AcDbSymbolTableRecord
100
AcDbLayerTableRecord
  2
0
 70
     0
 62
     7
  6
CONTINUOUS
  0
LAYER
  5
22
330
2
100
AcDbSymbolTableRecord
100
AcDbLayerTableRecord
  2
CSLAYER1
 70
     0
 62
     7
  6
CONTINUOUS
  0
LAYER
  5
193
330
2
100
AcDbSymbolTableRecord
100
AcDbLayerTableRecord
  2
DEFPOINTS
 70
     0
 62
     7
  6
CONTINUOUS
  0
ENDTAB
  0
TABLE
  2
STYLE
  5
3
330
0
100
AcDbSymbolTable
 70
     3
  0
STYLE
  5
11
330
3
100
AcDbSymbolTableRecord
100
AcDbTextStyleTableRecord
  2
STANDARD
 70
     0
 40
0.0
 41
1.0
 50
0.0
 71
     0
 42
0.2
  3
txt
  4
extfont.shx
  0
STYLE
  5
3A
330
3
100
AcDbSymbolTableRecord
100
AcDbTextStyleTableRecord
  2
FX_FONT
 70
     0
 40
1.0
 41
1.0
 50
0.0
 71
     0
 42
1.0
  3
monotxt
  4
bigfont
  0
STYLE
  5
18B
330
3
100
AcDbSymbolTableRecord
100
AcDbTextStyleTableRecord
  2
GOTHIC
 70
     0
 40
0.0
 41
1.0
 50
0.0
 71
     0
 42
0.2
  3
txt.shx
  4
extfont.shx
  0
ENDTAB
  0
TABLE
  2
VIEW
  5
6
330
0
100
AcDbSymbolTable
 70
     0
  0
ENDTAB
  0
TABLE
  2
UCS
  5
7
330
0
100
AcDbSymbolTable
 70
     0
  0
ENDTAB
  0
TABLE
  2
APPID
  5
9
330
0
100
AcDbSymbolTable
 70
     1
  0
APPID
  5
12
330
9
100
AcDbSymbolTableRecord
100
AcDbRegAppTableRecord
  2
ACAD
 70
     0
  0
ENDTAB
  0
TABLE
  2
DIMSTYLE
  5
A
330
0
100
AcDbSymbolTable
 70
     1
  0
DIMSTYLE
105
188
330
A
100
AcDbSymbolTableRecord
100
AcDbDimStyleTableRecord
  2
STANDARD
 70
     0
  3

  4

  5

  6

  7

 40
1.0
 41
0.18
 42
0.0625
 43
0.38
 44
0.18
 45
0.0
 46
0.0
 47
0.0
 48
0.0
140
0.18
141
0.09
142
0.0
143
25.4
144
1.0
145
0.0
146
1.0
147
0.09
 71
     0
 72
     0
 73
     1
 74
     1
 75
     0
 76
     0
 77
     0
 78
     0
170
     0
171
     2
172
     0
173
     0
174
     0
175
     0
176
     0
177
     0
178
     0
270
     2
271
     4
272
     4
273
     2
274
     2
340
11
275
     0
280
     0
281
     0
282
     0
283
     1
284
     0
285
     0
286
     0
287
     3
288
     0
  0
ENDTAB
  0
TABLE
  2
BLOCK_RECORD
  5
1
330
0
100
AcDbSymbolTable
 70
    20
  0
BLOCK_RECORD
  5
1E
102
{ACAD_XDICTIONARY
360
191
102
}
330
1
100
AcDbSymbolTableRecord
100
AcDbBlockTableRecord
  2
*MODEL_SPACE
  0
BLOCK_RECORD
  5
1A
102
{ACAD_XDICTIONARY
360
18F
102
}
330
1
100
AcDbSymbolTableRecord
100
AcDbBlockTableRecord
  2
*PAPER_SPACE
  0
BLOCK_RECORD
  5
3F
330
1
100
AcDbSymbolTableRecord
100
AcDbBlockTableRecord
  2
FXDIM0000
  0
BLOCK_RECORD
  5
47
330
1
100
AcDbSymbolTableRecord
100
AcDbBlockTableRecord
  2
FXDIM0001
  0
BLOCK_RECORD
  5
53
330
1
100
AcDbSymbolTableRecord
100
AcDbBlockTableRecord
  2
FXDIM0002
  0
BLOCK_RECORD
  5
5F
330
1
100
AcDbSymbolTableRecord
100
AcDbBlockTableRecord
  2
*D3
  0
BLOCK_RECORD
  5
6C
330
1
100
AcDbSymbolTableRecord
100
AcDbBlockTableRecord
  2
*D4
  0
BLOCK_RECORD
  5
76
330
1
100
AcDbSymbolTableRecord
100
AcDbBlockTableRecord
  2
*D5
  0
BLOCK_RECORD
  5
81
330
1
100
AcDbSymbolTableRecord
100
AcDbBlockTableRecord
  2
*D6
  0
BLOCK_RECORD
  5
8B
330
1
100
AcDbSymbolTableRecord
100
AcDbBlockTableRecord
  2
*D7
  0
BLOCK_RECORD
  5
96
330
1
100
AcDbSymbolTableRecord
100
AcDbBlockTableRecord
  2
*D8
  0
BLOCK_RECORD
  5
A3
330
1
100
AcDbSymbolTableRecord
100
AcDbBlockTableRecord
  2
*D9
  0
BLOCK_RECORD
  5
AE
330
1
100
AcDbSymbolTableRecord
100
AcDbBlockTableRecord
  2
*D10
  0
BLOCK_RECORD
  5
B9
330
1
100
AcDbSymbolTableRecord
100
AcDbBlockTableRecord
  2
*D11
  0
BLOCK_RECORD
  5
C4
330
1
100
AcDbSymbolTableRecord
100
AcDbBlockTableRecord
  2
*D12
  0
BLOCK_RECORD
  5
CB
330
1
100
AcDbSymbolTableRecord
100
AcDbBlockTableRecord
  2
*D13
  0
BLOCK_RECORD
  5
D6
330
1
100
AcDbSymbolTableRecord
100
AcDbBlockTableRecord
  2
*D14
  0
BLOCK_RECORD
  5
E1
330
1
100
AcDbSymbolTableRecord
100
AcDbBlockTableRecord
  2
*D15
  0
BLOCK_RECORD
  5
194
330
1
100
AcDbSymbolTableRecord
100
AcDbBlockTableRecord
  2
*D16
  0
BLOCK_RECORD
  5
1A2
330
1
100
AcDbSymbolTableRecord
100
AcDbBlockTableRecord
  2
*D17
  0
BLOCK_RECORD
  5
1B1
330
1
100
AcDbSymbolTableRecord
100
AcDbBlockTableRecord
  2
*D18
  0
BLOCK_RECORD
  5
1C0
330
1
100
AcDbSymbolTableRecord
100
AcDbBlockTableRecord
  2
*D19
  0
ENDTAB
  0
ENDSEC
  0
SECTION
  2
BLOCKS
  0
BLOCK
  5
1F
330
1E
100
AcDbEntity
  8
0
100
AcDbBlockBegin
  2
*MODEL_SPACE
 70
     0
 10
0.0
 20
0.0
 30
0.0
  3
*MODEL_SPACE
  1

  0
ENDBLK
  5
20
330
1E
100
AcDbEntity
  8
0
100
AcDbBlockEnd
  0
BLOCK
  5
1B
330
1A
100
AcDbEntity
 67
     1
  8
0
100
AcDbBlockBegin
  2
*PAPER_SPACE
 70
     0
 10
0.0
 20
0.0
 30
0.0
  3
*PAPER_SPACE
  1

  0
ENDBLK
  5
1C
330
1A
100
AcDbEntity
 67
     1
  8
0
100
AcDbBlockEnd
  0
BLOCK
  5
40
330
3F
100
AcDbEntity
  8
0
100
AcDbBlockBegin
  2
FXDIM0000
 70
     0
 10
0.0
 20
0.0
 30
0.0
  3
FXDIM0000
  1

  0
LINE
  5
41
330
3F
100
AcDbEntity
  8
CSLAYER1
  6
CONTINUOUS
 62
     4
100
AcDbLine
 10
182.891556
 20
138.626336
 30
0.0
 11
176.7665479999999
 21
115.767496
 31
0.0
  0
LINE
  5
42
330
3F
100
AcDbEntity
  8
CSLAYER1
  6
CONTINUOUS
 62
     4
100
AcDbLine
 10
182.891556
 20
138.626336
 30
0.0
 11
182.891556
 21
135.626336
 31
0.0
  0
LINE
  5
43
330
3F
100
AcDbEntity
  8
CSLAYER1
  6
CONTINUOUS
 62
     4
100
AcDbLine
 10
182.891556
 20
138.626336
 30
0.0
 11
181.391556
 21
136.02826
 31
0.0
  0
LINE
  5
44
330
3F
100
AcDbEntity
  8
CSLAYER1
  6
CONTINUOUS
 62
     4
100
AcDbLine
 10
176.7665479999999
 20
115.767496
 30
0.0
 11
162.766548
 21
115.767496
 31
0.0
  0
TEXT
  5
45
330
3F
100
AcDbEntity
  8
CSLAYER1
 62
     4
100
AcDbText
 10
162.966556
 20
116.7674939999999
 30
0.0
 40
3.2
  1
%%c4.1
 41
1.142857142857143
 51
15.0
  7
FX_FONT
 72
     5
 11
175.766556
 21
116.7674939999999
 31
0.0
100
AcDbText
  0
ENDBLK
  5
46
330
3F
100
AcDbEntity
  8
0
100
AcDbBlockEnd
  0
BLOCK
  5
48
330
47
100
AcDbEntity
  8
0
100
AcDbBlockBegin
  2
FXDIM0001
 70
     0
 10
0.0
 20
0.0
 30
0.0
  3
FXDIM0001
  1

  0
LINE
  5
49
330
47
100
AcDbEntity
  8
CSLAYER1
  6
CONTINUOUS
 62
     4
100
AcDbLine
 10
187.347839
 20
87.553175
 30
0.0
 11
188.8478389999999
 21
90.151251
 31
0.0
  0
LINE
  5
4A
330
47
100
AcDbEntity
  8
CSLAYER1
  6
CONTINUOUS
 62
     4
100
AcDbLine
 10
188.8478389999999
 20
90.151251
 30
0.0
 11
185.8478389999999
 21
90.151251
 31
0.0
  0
LINE
  5
4B
330
47
100
AcDbEntity
  8
CSLAYER1
  6
CONTINUOUS
 62
     4
100
AcDbLine
 10
185.8478389999999
 20
90.151251
 30
0.0
 11
187.347839
 21
87.553175
 31
0.0
  0
LINE
  5
4C
330
47
100
AcDbEntity
  8
CSLAYER1
  6
CONTINUOUS
 62
     4
100
AcDbLine
 10
190.347839
 20
87.553175
 30
0.0
 11
191.8478389999999
 21
90.151251
 31
0.0
  0
LINE
  5
4D
330
47
100
AcDbEntity
  8
CSLAYER1
  6
CONTINUOUS
 62
     4
100
AcDbLine
 10
191.8478389999999
 20
90.151251
 30
0.0
 11
188.8478389999999
 21
90.151251
 31
0.0
  0
LINE
  5
4E
330
47
100
AcDbEntity
  8
CSLAYER1
  6
CONTINUOUS
 62
     4
100
AcDbLine
 10
188.8478389999999
 20
90.151251
 30
0.0
 11
190.347839
 21
87.553175
 31
0.0
  0
LINE
  5
4F
330
47
100
AcDbEntity
  8
CSLAYER1
  6
CONTINUOUS
 62
     4
100
AcDbLine
 10
193.3478389999999
 20
87.553175
 30
0.0
 11
194.847839
 21
90.151251
 31
0.0
  0
LINE
  5
50
330
47
100
AcDbEntity
  8
CSLAYER1
  6
CONTINUOUS
 62
     4
100
AcDbLine
 10
194.847839
 20
90.151251
 30
0.0
 11
191.8478389999999
 21
90.151251
 31
0.0
  0
LINE
  5
51
330
47
100
AcDbEntity
  8
CSLAYER1
  6
CONTINUOUS
 62
     4
100
AcDbLine
 10
191.8478389999999
 20
90.151251
 30
0.0
 11
193.3478389999999
 21
87.553175
 31
0.0
  0
ENDBLK
  5
52
330
47
100
AcDbEntity
  8
0
100
AcDbBlockEnd
  0
BLOCK
  5
54
330
53
100
AcDbEntity
  8
0
100
AcDbBlockBegin
  2
FXDIM0002
 70
     0
 10
0.0
 20
0.0
 30
0.0
  3
FXDIM0002
  1

  0
LINE
  5
55
330
53
100
AcDbEntity
  8
CSLAYER1
  6
CONTINUOUS
 62
     4
100
AcDbLine
 10
189.631661
 20
75.553175
 30
0.0
 11
188.131661
 21
72.955099
 31
0.0
  0
LINE
  5
56
330
53
100
AcDbEntity
  8
CSLAYER1
  6
CONTINUOUS
 62
     4
100
AcDbLine
 10
188.131661
 20
72.955099
 30
0.0
 11
191.131661
 21
72.955099
 31
0.0
  0
LINE
  5
57
330
53
100
AcDbEntity
  8
CSLAYER1
  6
CONTINUOUS
 62
     4
100
AcDbLine
 10
191.131661
 20
72.955099
 30
0.0
 11
189.631661
 21
75.553175
 31
0.0
  0
LINE
  5
58
330
53
100
AcDbEntity
  8
CSLAYER1
  6
CONTINUOUS
 62
     4
100
AcDbLine
 10
192.631661
 20
75.553175
 30
0.0
 11
191.131661
 21
72.955099
 31
0.0
  0
LINE
  5
59
330
53
100
AcDbEntity
  8
CSLAYER1
  6
CONTINUOUS
 62
     4
100
AcDbLine
 10
191.131661
 20
72.955099
 30
0.0
 11
194.131661
 21
72.955099
 31
0.0
  0
LINE
  5
5A
330
53
100
AcDbEntity
  8
CSLAYER1
  6
CONTINUOUS
 62
     4
100
AcDbLine
 10
194.131661
 20
72.955099
 30
0.0
 11
192.631661
 21
75.553175
 31
0.0
  0
LINE
  5
5B
330
53
100
AcDbEntity
  8
CSLAYER1
  6
CONTINUOUS
 62
     4
100
AcDbLine
 10
195.631661
 20
75.553175
 30
0.0
 11
194.131661
 21
72.955099
 31
0.0
  0
LINE
  5
5C
330
53
100
AcDbEntity
  8
CSLAYER1
  6
CONTINUOUS
 62
     4
100
AcDbLine
 10
194.131661
 20
72.955099
 30
0.0
 11
197.131661
 21
72.955099
 31
0.0
  0
LINE
  5
5D
330
53
100
AcDbEntity
  8
CSLAYER1
  6
CONTINUOUS
 62
     4
100
AcDbLine
 10
197.131661
 20
72.955099
 30
0.0
 11
195.631661
 21
75.553175
 31
0.0
  0
ENDBLK
  5
5E
330
53
100
AcDbEntity
  8
0
100
AcDbBlockEnd
  0
BLOCK
  5
60
330
5F
100
AcDbEntity
  8
0
100
AcDbBlockBegin
  2
*D3
 70
     1
 10
0.0
 20
0.0
 30
0.0
  3
*D3
  1

  0
TEXT
  5
61
330
5F
100
AcDbEntity
  8
CSLAYER1
 62
     4
100
AcDbText
 10
72.43652299999998
 20
149.501068
 30
0.0
 40
3.2
  1
(0.8)
 41
1.153846225961541
 51
15.0
  7
FX_FONT
 72
     5
 11
88.43652400000001
 21
149.501068
 31
0.0
100
AcDbText
  0
LINE
  5
62
330
5F
100
AcDbEntity
  8
CSLAYER1
  6
CONTINUOUS
 62
     4
100
AcDbLine
 10
84.15287099999998
 20
148.501049
 30
0.0
 11
84.952871
 21
148.501049
 31
0.0
  0
LINE
  5
63
330
5F
100
AcDbEntity
  8
CSLAYER1
  6
CONTINUOUS
 62
     4
100
AcDbLine
 10
91.39363799999999
 20
141.260282
 30
0.0
 11
83.445765
 21
149.208156
 31
0.0
  0
LINE
  5
64
330
5F
100
AcDbEntity
  8
CSLAYER1
  6
CONTINUOUS
 62
     4
100
AcDbLine
 10
92.19363800000001
 20
141.260282
 30
0.0
 11
84.245765
 21
149.208156
 31
0.0
  0
LINE
  5
65
330
5F
100
AcDbEntity
  8
CSLAYER1
  6
CONTINUOUS
 62
     4
100
AcDbLine
 10
76.720178
 20
148.501049
 30
0.0
 11
84.15287099999998
 21
148.501049
 31
0.0
  0
LINE
  5
66
330
5F
100
AcDbEntity
  8
CSLAYER1
  6
CONTINUOUS
 62
     4
100
AcDbLine
 10
84.15287099999998
 20
148.501049
 30
0.0
 11
81.255094
 21
149.277506
 31
0.0
  0
LINE
  5
67
330
5F
100
AcDbEntity
  8
CSLAYER1
  6
CONTINUOUS
 62
     4
100
AcDbLine
 10
84.15287099999998
 20
148.501049
 30
0.0
 11
81.255094
 21
147.724592
 31
0.0
  0
LINE
  5
68
330
5F
100
AcDbEntity
  8
CSLAYER1
  6
CONTINUOUS
 62
     4
100
AcDbLine
 10
84.952871
 20
148.501049
 30
0.0
 11
90.952871
 21
148.501049
 31
0.0
  0
LINE
  5
69
330
5F
100
AcDbEntity
  8
CSLAYER1
  6
CONTINUOUS
 62
     4
100
AcDbLine
 10
84.952871
 20
148.501049
 30
0.0
 11
87.850649
 21
149.277506
 31
0.0
  0
LINE
  5
6A
330
5F
100
AcDbEntity
  8
CSLAYER1
  6
CONTINUOUS
 62
     4
100
AcDbLine
 10
84.952871
 20
148.501049
 30
0.0
 11
87.850649
 21
147.724592
 31
0.0
  0
ENDBLK
  5
6B
330
5F
100
AcDbEntity
  8
0
100
AcDbBlockEnd
  0
BLOCK
  5
6D
330
6C
100
AcDbEntity
  8
0
100
AcDbBlockBegin
  2
*D4
 70
     1
 10
0.0
 20
0.0
 30
0.0
  3
*D4
  1

  0
TEXT
  5
6E
330
6C
100
AcDbEntity
  8
CSLAYER1
 62
     4
100
AcDbText
 10
96.915293
 20
163.919553
 30
0.0
 40
3.2
  1
45%%d
 50
337.4999985585441
 41
1.285714224875633
 51
15.0
  7
FX_FONT
 72
     5
 11
105.784536
 21
160.2457919999999
 31
0.0
100
AcDbText
  0
ARC
  5
6F
330
6C
100
AcDbEntity
  8
CSLAYER1
  6
CONTINUOUS
 62
     4
100
AcDbCircle
 10
92.10074500000001
 20
139.7531749999999
 30
0.0
 40
23.169259
100
AcDbArc
 50
45.0
 51
90.0
  0
LINE
  5
70
330
6C
100
AcDbEntity
  8
CSLAYER1
  6
CONTINUOUS
 62
     4
100
AcDbLine
 10
108.483886
 20
156.1363159999999
 30
0.0
 11
105.885809
 21
157.6363159999999
 31
0.0
  0
LINE
  5
71
330
6C
100
AcDbEntity
  8
CSLAYER1
  6
CONTINUOUS
 62
     4
100
AcDbLine
 10
108.483886
 20
156.1363159999999
 30
0.0
 11
106.983886
 21
158.7343919999999
 31
0.0
  0
LINE
  5
72
330
6C
100
AcDbEntity
  8
CSLAYER1
  6
CONTINUOUS
 62
     4
100
AcDbLine
 10
92.10074500000001
 20
162.922435
 30
0.0
 11
94.99852299999998
 21
163.698892
 31
0.0
  0
LINE
  5
73
330
6C
100
AcDbEntity
  8
CSLAYER1
  6
CONTINUOUS
 62
     4
100
AcDbLine
 10
92.10074500000001
 20
162.922435
 30
0.0
 11
94.99852299999998
 21
162.1459769999999
 31
0.0
  0
LINE
  5
74
330
6C
100
AcDbEntity
  8
CSLAYER1
  6
CONTINUOUS
 62
     4
100
AcDbLine
 10
101.983298
 20
149.6357279999999
 30
0.0
 11
109.1909919999999
 21
156.843422
 31
0.0
  0
ENDBLK
  5
75
330
6C
100
AcDbEntity
  8
0
100
AcDbBlockEnd
  0
BLOCK
  5
77
330
76
100
AcDbEntity
  8
0
100
AcDbBlockBegin
  2
*D5
 70
     1
 10
0.0
 20
0.0
 30
0.0
  3
*D5
  1

  0
TEXT
  5
78
330
76
100
AcDbEntity
  8
CSLAYER1
 62
     4
100
AcDbText
 10
73.796098
 20
135.296601
 30
0.0
 40
3.2
  1
60%%d
 50
299.9999996309513
 41
1.285714300058147
 51
15.0
  7
FX_FONT
 72
     5
 11
78.596098
 21
126.982757
 31
0.0
100
AcDbText
  0
ARC
  5
79
330
76
100
AcDbEntity
  8
CSLAYER1
  6
CONTINUOUS
 62
     4
100
AcDbCircle
 10
92.500745
 20
140.553175
 30
0.0
 40
19.826979
100
AcDbArc
 50
180.0
 51
239.9999999999999
  0
LINE
  5
7A
330
76
100
AcDbEntity
  8
CSLAYER1
  6
CONTINUOUS
 62
     4
100
AcDbLine
 10
72.673766
 20
140.553175
 30
0.0
 11
71.89730899999998
 21
137.6553979999999
 31
0.0
  0
LINE
  5
7B
330
76
100
AcDbEntity
  8
CSLAYER1
  6
CONTINUOUS
 62
     4
100
AcDbLine
 10
72.673766
 20
140.553175
 30
0.0
 11
73.450223
 21
137.6553979999999
 31
0.0
  0
LINE
  5
7C
330
76
100
AcDbEntity
  8
CSLAYER1
  6
CONTINUOUS
 62
     4
100
AcDbLine
 10
82.58725600000003
 20
123.382508
 30
0.0
 11
79.68947800000002
 21
124.1589649999999
 31
0.0
  0
LINE
  5
7D
330
76
100
AcDbEntity
  8
CSLAYER1
  6
CONTINUOUS
 62
     4
100
AcDbLine
 10
82.58725600000003
 20
123.382508
 30
0.0
 11
80.465935
 21
125.5038279999999
 31
0.0
  0
LINE
  5
7E
330
76
100
AcDbEntity
  8
CSLAYER1
  6
CONTINUOUS
 62
     4
100
AcDbLine
 10
88.47738900000001
 20
140.553175
 30
0.0
 11
71.673766
 21
140.553175
 31
0.0
  0
LINE
  5
7F
330
76
100
AcDbEntity
  8
CSLAYER1
  6
CONTINUOUS
 62
     4
100
AcDbLine
 10
91.60389499999999
 20
138.999785
 30
0.0
 11
82.08725600000002
 21
122.516482
 31
0.0
  0
ENDBLK
  5
80
330
76
100
AcDbEntity
  8
0
100
AcDbBlockEnd
  0
BLOCK
  5
82
330
81
100
AcDbEntity
  8
0
100
AcDbBlockBegin
  2
*D6
 70
     1
 10
0.0
 20
0.0
 30
0.0
  3
*D6
  1

  0
TEXT
  5
83
330
81
100
AcDbEntity
  8
CSLAYER1
 62
     4
100
AcDbText
 10
90.19922499999999
 20
121.2607419999999
 30
0.0
 40
3.2
  1
75%%d
 50
7.500003024515863
 41
1.285714339336947
 51
15.0
  7
FX_FONT
 72
     5
 11
99.717096
 21
122.5137939999999
 31
0.0
100
AcDbText
  0
ARC
  5
84
330
81
100
AcDbEntity
  8
CSLAYER1
  6
CONTINUOUS
 62
     4
100
AcDbCircle
 10
92.500745
 20
140.553175
 30
0.0
 40
19.826979
100
AcDbArc
 50
239.9999999999999
 51
315.0
  0
LINE
  5
85
330
81
100
AcDbEntity
  8
CSLAYER1
  6
CONTINUOUS
 62
     4
100
AcDbLine
 10
82.58725600000003
 20
123.382508
 30
0.0
 11
85.485033
 21
122.606051
 31
0.0
  0
LINE
  5
86
330
81
100
AcDbEntity
  8
CSLAYER1
  6
CONTINUOUS
 62
     4
100
AcDbLine
 10
82.58725600000003
 20
123.382508
 30
0.0
 11
84.708576
 21
121.261187
 31
0.0
  0
LINE
  5
87
330
81
100
AcDbEntity
  8
CSLAYER1
  6
CONTINUOUS
 62
     4
100
AcDbLine
 10
106.520537
 20
126.533384
 30
0.0
 11
105.020537
 21
123.935308
 31
0.0
  0
LINE
  5
88
330
81
100
AcDbEntity
  8
CSLAYER1
  6
CONTINUOUS
 62
     4
100
AcDbLine
 10
106.520537
 20
126.533384
 30
0.0
 11
103.92246
 21
125.033384
 31
0.0
  0
LINE
  5
89
330
81
100
AcDbEntity
  8
CSLAYER1
  6
CONTINUOUS
 62
     4
100
AcDbLine
 10
102.1661479999999
 20
130.8877719999999
 30
0.0
 11
107.227643
 21
125.8262769999999
 31
0.0
  0
ENDBLK
  5
8A
330
81
100
AcDbEntity
  8
0
100
AcDbBlockEnd
  0
BLOCK
  5
8C
330
8B
100
AcDbEntity
  8
0
100
AcDbBlockBegin
  2
*D7
 70
     1
 10
0.0
 20
0.0
 30
0.0
  3
*D7
  1

  0
TEXT
  5
8D
330
8B
100
AcDbEntity
  8
CSLAYER1
 62
     4
100
AcDbText
 10
172.891415
 20
64.59839599999999
 30
0.0
 40
3.2
  1
15
 41
1.200000000000001
 51
15.0
  7
FX_FONT
 72
     5
 11
179.291415
 21
64.59839599999999
 31
0.0
100
AcDbText
  0
LINE
  5
8E
330
8B
100
AcDbEntity
  8
CSLAYER1
  6
CONTINUOUS
 62
     4
100
AcDbLine
 10
168.591405
 20
63.59839799999999
 30
0.0
 11
183.591405
 21
63.59839799999999
 31
0.0
  0
LINE
  5
8F
330
8B
100
AcDbEntity
  8
CSLAYER1
  6
CONTINUOUS
 62
     4
100
AcDbLine
 10
168.591405
 20
63.59839799999999
 30
0.0
 11
171.489183
 21
64.37485500000001
 31
0.0
  0
LINE
  5
90
330
8B
100
AcDbEntity
  8
CSLAYER1
  6
CONTINUOUS
 62
     4
100
AcDbLine
 10
168.591405
 20
63.59839799999999
 30
0.0
 11
171.489183
 21
62.821941
 31
0.0
  0
LINE
  5
91
330
8B
100
AcDbEntity
  8
CSLAYER1
  6
CONTINUOUS
 62
     4
100
AcDbLine
 10
183.591405
 20
63.59839799999999
 30
0.0
 11
180.693628
 21
64.37485500000001
 31
0.0
  0
LINE
  5
92
330
8B
100
AcDbEntity
  8
CSLAYER1
  6
CONTINUOUS
 62
     4
100
AcDbLine
 10
183.591405
 20
63.59839799999999
 30
0.0
 11
180.693628
 21
62.821941
 31
0.0
  0
LINE
  5
93
330
8B
100
AcDbEntity
  8
CSLAYER1
  6
CONTINUOUS
 62
     4
100
AcDbLine
 10
168.591405
 20
74.55317499999998
 30
0.0
 11
168.591405
 21
62.59839799999999
 31
0.0
  0
LINE
  5
94
330
8B
100
AcDbEntity
  8
CSLAYER1
  6
CONTINUOUS
 62
     4
100
AcDbLine
 10
183.591405
 20
71.017975
 30
0.0
 11
183.591405
 21
62.59839799999999
 31
0.0
  0
ENDBLK
  5
95
330
8B
100
AcDbEntity
  8
0
100
AcDbBlockEnd
  0
BLOCK
  5
97
330
96
100
AcDbEntity
  8
0
100
AcDbBlockBegin
  2
*D8
 70
     1
 10
0.0
 20
0.0
 30
0.0
  3
*D8
  1

  0
TEXT
  5
98
330
96
100
AcDbEntity
  8
CSLAYER1
 62
     4
100
AcDbText
 10
142.490143
 20
77.582567
 30
0.0
 40
3.2
  1
12  
 50
90.0
 41
1.249999999999999
 51
15.0
  7
FX_FONT
 72
     5
 11
142.490143
 21
90.38256699999999
 31
0.0
100
AcDbText
  0
TEXT
  5
99
330
96
100
AcDbEntity
  8
CSLAYER1
 62
     4
100
AcDbText
 10
140.890143
 20
90.38256699999999
 30
0.0
 40
1.6
  1
  0
 50
90.0
 41
1.60714285714286
 51
15.0
  7
FX_FONT
 72
     5
 11
140.890143
 21
95.182567
 31
0.0
100
AcDbText
  0
TEXT
  5
9A
330
96
100
AcDbEntity
  8
CSLAYER1
 62
     4
100
AcDbText
 10
142.490143
 20
90.38256699999999
 30
0.0
 40
1.6
  1
-0.15
 50
90.0
 41
1.071428571428575
 51
15.0
  7
FX_FONT
 72
     5
 11
142.490143
 21
98.38256700000002
 31
0.0
100
AcDbText
  0
LINE
  5
9B
330
96
100
AcDbEntity
  8
CSLAYER1
  6
CONTINUOUS
 62
     4
100
AcDbLine
 10
143.490137
 20
75.553175
 30
0.0
 11
143.490137
 21
87.553175
 31
0.0
  0
LINE
  5
9C
330
96
100
AcDbEntity
  8
CSLAYER1
  6
CONTINUOUS
 62
     4
100
AcDbLine
 10
143.490137
 20
75.553175
 30
0.0
 11
142.71368
 21
78.450953
 31
0.0
  0
LINE
  5
9D
330
96
100
AcDbEntity
  8
CSLAYER1
  6
CONTINUOUS
 62
     4
100
AcDbLine
 10
143.490137
 20
75.553175
 30
0.0
 11
144.2665939999999
 21
78.450953
 31
0.0
  0
LINE
  5
9E
330
96
100
AcDbEntity
  8
CSLAYER1
  6
CONTINUOUS
 62
     4
100
AcDbLine
 10
143.490137
 20
87.553175
 30
0.0
 11
142.71368
 21
84.655398
 31
0.0
  0
LINE
  5
9F
330
96
100
AcDbEntity
  8
CSLAYER1
  6
CONTINUOUS
 62
     4
100
AcDbLine
 10
143.490137
 20
87.553175
 30
0.0
 11
144.2665939999999
 21
84.655398
 31
0.0
  0
LINE
  5
A0
330
96
100
AcDbEntity
  8
CSLAYER1
  6
CONTINUOUS
 62
     4
100
AcDbLine
 10
167.591405
 20
75.553175
 30
0.0
 11
142.490137
 21
75.553175
 31
0.0
  0
LINE
  5
A1
330
96
100
AcDbEntity
  8
CSLAYER1
  6
CONTINUOUS
 62
     4
100
AcDbLine
 10
154.591405
 20
87.553175
 30
0.0
 11
142.490137
 21
87.553175
 31
0.0
  0
ENDBLK
  5
A2
330
96
100
AcDbEntity
  8
0
100
AcDbBlockEnd
  0
BLOCK
  5
A4
330
A3
100
AcDbEntity
  8
0
100
AcDbBlockBegin
  2
*D9
 70
     1
 10
0.0
 20
0.0
 30
0.0
  3
*D9
  1

  0
TEXT
  5
A5
330
A3
100
AcDbEntity
  8
CSLAYER1
 62
     4
100
AcDbText
 10
135.199385
 20
69.728533
 30
0.0
 40
3.2
  1
切刃部有効12
 50
320.0000016749648
 41
0.9130434810924544
 51
15.0
  7
FX_FONT
 72
     5
 11
152.3587809999999
 21
55.33009100000001
 31
0.0
100
AcDbText
  0
LINE
  5
A6
330
A3
100
AcDbEntity
  8
CSLAYER1
  6
CONTINUOUS
 62
     4
100
AcDbLine
 10
142.050108
 20
70.323581
 30
0.0
 11
151.2426419999999
 21
62.61013000000001
 31
0.0
  0
LINE
  5
A7
330
A3
100
AcDbEntity
  8
CSLAYER1
  6
CONTINUOUS
 62
     4
100
AcDbLine
 10
142.050108
 20
70.323581
 30
0.0
 11
144.769032
 21
69.05572600000001
 31
0.0
  0
LINE
  5
A8
330
A3
100
AcDbEntity
  8
CSLAYER1
  6
CONTINUOUS
 62
     4
100
AcDbLine
 10
142.050108
 20
70.323581
 30
0.0
 11
143.7708379999999
 21
67.866125
 31
0.0
  0
LINE
  5
A9
330
A3
100
AcDbEntity
  8
CSLAYER1
  6
CONTINUOUS
 62
     4
100
AcDbLine
 10
151.2426419999999
 20
62.61013000000001
 30
0.0
 11
148.523718
 21
63.877984
 31
0.0
  0
LINE
  5
AA
330
A3
100
AcDbEntity
  8
CSLAYER1
  6
CONTINUOUS
 62
     4
100
AcDbLine
 10
151.2426419999999
 20
62.61013000000001
 30
0.0
 11
149.521912
 21
65.06758600000001
 31
0.0
  0
LINE
  5
AB
330
A3
100
AcDbEntity
  8
CSLAYER1
  6
CONTINUOUS
 62
     4
100
AcDbLine
 10
154.9486179999999
 20
85.695426
 30
0.0
 11
141.4073209999999
 21
69.557536
 31
0.0
  0
LINE
  5
AC
330
A3
100
AcDbEntity
  8
CSLAYER1
  6
CONTINUOUS
 62
     4
100
AcDbLine
 10
164.141151
 20
77.981975
 30
0.0
 11
150.599854
 21
61.84408499999999
 31
0.0
  0
ENDBLK
  5
AD
330
A3
100
AcDbEntity
  8
0
100
AcDbBlockEnd
  0
BLOCK
  5
AF
330
AE
100
AcDbEntity
  8
0
100
AcDbBlockBegin
  2
*D10
 70
     1
 10
0.0
 20
0.0
 30
0.0
  3
*D10
  1

  0
TEXT
  5
B0
330
AE
100
AcDbEntity
  8
CSLAYER1
 62
     4
100
AcDbText
 10
154.584637
 20
75.33941300000002
 30
0.0
 40
3.2
  1
40%%d
 50
70.00000178266138
 41
1.285714248415521
 51
15.0
  7
FX_FONT
 72
     5
 11
157.86803
 21
84.36046199999998
 31
0.0
100
AcDbText
  0
ARC
  5
B1
330
AE
100
AcDbEntity
  8
CSLAYER1
  6
CONTINUOUS
 62
     4
100
AcDbCircle
 10
168.591405
 20
75.553175
 30
0.0
 40
12.680234
100
AcDbArc
 50
140.0
 51
180.0
  0
ARC
  5
B2
330
AE
100
AcDbEntity
  8
CSLAYER1
  6
CONTINUOUS
 62
     4
100
AcDbCircle
 10
168.591405
 20
75.553175
 30
0.0
 40
12.680234
100
AcDbArc
 50
126.021512
 51
140.0
  0
LINE
  5
B3
330
AE
100
AcDbEntity
  8
CSLAYER1
  6
CONTINUOUS
 62
     4
100
AcDbLine
 10
158.8777819999999
 20
83.703873
 30
0.0
 11
160.145637
 21
86.422796
 31
0.0
  0
LINE
  5
B4
330
AE
100
AcDbEntity
  8
CSLAYER1
  6
CONTINUOUS
 62
     4
100
AcDbLine
 10
158.8777819999999
 20
83.703873
 30
0.0
 11
161.335239
 21
85.424602
 31
0.0
  0
ARC
  5
B5
330
AE
100
AcDbEntity
  8
CSLAYER1
  6
CONTINUOUS
 62
     4
100
AcDbCircle
 10
168.591405
 20
75.553175
 30
0.0
 40
12.680234
100
AcDbArc
 50
180.0
 51
195.3308999999999
  0
LINE
  5
B6
330
AE
100
AcDbEntity
  8
CSLAYER1
  6
CONTINUOUS
 62
     4
100
AcDbLine
 10
155.9111709999999
 20
75.553175
 30
0.0
 11
155.134714
 21
72.65539799999998
 31
0.0
  0
LINE
  5
B7
330
AE
100
AcDbEntity
  8
CSLAYER1
  6
CONTINUOUS
 62
     4
100
AcDbLine
 10
155.9111709999999
 20
75.553175
 30
0.0
 11
156.6876279999999
 21
72.65539799999998
 31
0.0
  0
ENDBLK
  5
B8
330
AE
100
AcDbEntity
  8
0
100
AcDbBlockEnd
  0
BLOCK
  5
BA
330
B9
100
AcDbEntity
  8
0
100
AcDbBlockBegin
  2
*D11
 70
     1
 10
0.0
 20
0.0
 30
0.0
  3
*D11
  1

  0
TEXT
  5
BB
330
B9
100
AcDbEntity
  8
CSLAYER1
 62
     4
100
AcDbText
 10
141.4347079999999
 20
129.3531769999999
 30
0.0
 40
3.2
  1
22.5~24
 50
90.0
 41
1.05
 51
15.0
  7
FX_FONT
 72
     5
 11
141.4347079999999
 21
151.7531769999999
 31
0.0
100
AcDbText
  0
LINE
  5
BC
330
B9
100
AcDbEntity
  8
CSLAYER1
  6
CONTINUOUS
 62
     4
100
AcDbLine
 10
142.43471
 20
129.053175
 30
0.0
 11
142.43471
 21
152.053175
 31
0.0
  0
LINE
  5
BD
330
B9
100
AcDbEntity
  8
CSLAYER1
  6
CONTINUOUS
 62
     4
100
AcDbLine
 10
142.43471
 20
129.053175
 30
0.0
 11
141.658253
 21
131.9509529999999
 31
0.0
  0
LINE
  5
BE
330
B9
100
AcDbEntity
  8
CSLAYER1
  6
CONTINUOUS
 62
     4
100
AcDbLine
 10
142.43471
 20
129.053175
 30
0.0
 11
143.2111669999999
 21
131.9509529999999
 31
0.0
  0
LINE
  5
BF
330
B9
100
AcDbEntity
  8
CSLAYER1
  6
CONTINUOUS
 62
     4
100
AcDbLine
 10
142.43471
 20
152.053175
 30
0.0
 11
141.658253
 21
149.1553979999999
 31
0.0
  0
LINE
  5
C0
330
B9
100
AcDbEntity
  8
CSLAYER1
  6
CONTINUOUS
 62
     4
100
AcDbLine
 10
142.43471
 20
152.053175
 30
0.0
 11
143.2111669999999
 21
149.1553979999999
 31
0.0
  0
LINE
  5
C1
330
B9
100
AcDbEntity
  8
CSLAYER1
  6
CONTINUOUS
 62
     4
100
AcDbLine
 10
162.591405
 20
129.053175
 30
0.0
 11
141.43471
 21
129.053175
 31
0.0
  0
LINE
  5
C2
330
B9
100
AcDbEntity
  8
CSLAYER1
  6
CONTINUOUS
 62
     4
100
AcDbLine
 10
162.591405
 20
152.053175
 30
0.0
 11
141.43471
 21
152.053175
 31
0.0
  0
ENDBLK
  5
C3
330
B9
100
AcDbEntity
  8
0
100
AcDbBlockEnd
  0
BLOCK
  5
C5
330
C4
100
AcDbEntity
  8
0
100
AcDbBlockBegin
  2
*D12
 70
     1
 10
0.0
 20
0.0
 30
0.0
  3
*D12
  1

  0
TEXT
  5
C6
330
C4
100
AcDbEntity
  8
CSLAYER1
 62
     4
100
AcDbText
 10
158.9457069999999
 20
132.1272689999998
 30
0.0
 40
3.2
  1
R8
 50
55.16977053682534
 41
1.19999997728396
 51
15.0
  7
FX_FONT
 72
     5
 11
162.601046
 21
137.380696
 31
0.0
100
AcDbText
  0
LINE
  5
C7
330
C4
100
AcDbEntity
  8
CSLAYER1
  6
CONTINUOUS
 62
     4
100
AcDbLine
 10
159.022231
 20
130.486392
 30
0.0
 11
163.591405
 21
137.053175
 31
0.0
  0
LINE
  5
C8
330
C4
100
AcDbEntity
  8
CSLAYER1
  6
CONTINUOUS
 62
     4
100
AcDbLine
 10
159.022231
 20
130.486392
 30
0.0
 11
160.039934
 21
133.3084979999999
 31
0.0
  0
LINE
  5
C9
330
C4
100
AcDbEntity
  8
CSLAYER1
  6
CONTINUOUS
 62
     4
100
AcDbLine
 10
159.022231
 20
130.486392
 30
0.0
 11
161.3146399999999
 21
132.421555
 31
0.0
  0
ENDBLK
  5
CA
330
C4
100
AcDbEntity
  8
0
100
AcDbBlockEnd
  0
BLOCK
  5
CC
330
CB
100
AcDbEntity
  8
0
100
AcDbBlockBegin
  2
*D13
 70
     1
 10
0.0
 20
0.0
 30
0.0
  3
*D13
  1

  0
TEXT
  5
CD
330
CB
100
AcDbEntity
  8
CSLAYER1
 62
     4
100
AcDbText
 10
166.391415
 20
165.714828
 30
0.0
 40
3.2
  1
28
 41
1.200000000000001
 51
15.0
  7
FX_FONT
 72
     5
 11
172.791415
 21
165.714828
 31
0.0
100
AcDbText
  0
LINE
  5
CE
330
CB
100
AcDbEntity
  8
CSLAYER1
  6
CONTINUOUS
 62
     4
100
AcDbLine
 10
155.591405
 20
164.714829
 30
0.0
 11
183.591405
 21
164.714829
 31
0.0
  0
LINE
  5
CF
330
CB
100
AcDbEntity
  8
CSLAYER1
  6
CONTINUOUS
 62
     4
100
AcDbLine
 10
155.591405
 20
164.714829
 30
0.0
 11
158.489183
 21
165.4912869999999
 31
0.0
  0
LINE
  5
D0
330
CB
100
AcDbEntity
  8
CSLAYER1
  6
CONTINUOUS
 62
     4
100
AcDbLine
 10
155.591405
 20
164.714829
 30
0.0
 11
158.489183
 21
163.9383719999998
 31
0.0
  0
LINE
  5
D1
330
CB
100
AcDbEntity
  8
CSLAYER1
  6
CONTINUOUS
 62
     4
100
AcDbLine
 10
183.591405
 20
164.714829
 30
0.0
 11
180.693628
 21
165.4912869999999
 31
0.0
  0
LINE
  5
D2
330
CB
100
AcDbEntity
  8
CSLAYER1
  6
CONTINUOUS
 62
     4
100
AcDbLine
 10
183.591405
 20
164.714829
 30
0.0
 11
180.693628
 21
163.9383719999998
 31
0.0
  0
LINE
  5
D3
330
CB
100
AcDbEntity
  8
CSLAYER1
  6
CONTINUOUS
 62
     4
100
AcDbLine
 10
155.591405
 20
145.053175
 30
0.0
 11
155.591405
 21
165.714829
 31
0.0
  0
LINE
  5
D4
330
CB
100
AcDbEntity
  8
CSLAYER1
  6
CONTINUOUS
 62
     4
100
AcDbLine
 10
183.591405
 20
156.116208
 30
0.0
 11
183.591405
 21
165.714829
 31
0.0
  0
ENDBLK
  5
D5
330
CB
100
AcDbEntity
  8
0
100
AcDbBlockEnd
  0
BLOCK
  5
D7
330
D6
100
AcDbEntity
  8
0
100
AcDbBlockBegin
  2
*D14
 70
     1
 10
0.0
 20
0.0
 30
0.0
  3
*D14
  1

  0
TEXT
  5
D8
330
D6
100
AcDbEntity
  8
CSLAYER1
 62
     4
100
AcDbText
 10
147.7364199999998
 20
138.953177
 30
0.0
 40
3.2
  1
7
 50
90.0
 41
1.499999999999994
 51
15.0
  7
FX_FONT
 72
     5
 11
147.7364199999998
 21
142.153177
 31
0.0
100
AcDbText
  0
LINE
  5
D9
330
D6
100
AcDbEntity
  8
CSLAYER1
  6
CONTINUOUS
 62
     4
100
AcDbLine
 10
148.7364239999999
 20
137.053175
 30
0.0
 11
148.7364239999999
 21
144.053175
 31
0.0
  0
LINE
  5
DA
330
D6
100
AcDbEntity
  8
CSLAYER1
  6
CONTINUOUS
 62
     4
100
AcDbLine
 10
148.7364239999999
 20
137.053175
 30
0.0
 11
147.9599669999998
 21
139.950953
 31
0.0
  0
LINE
  5
DB
330
D6
100
AcDbEntity
  8
CSLAYER1
  6
CONTINUOUS
 62
     4
100
AcDbLine
 10
148.7364239999999
 20
137.053175
 30
0.0
 11
149.512882
 21
139.950953
 31
0.0
  0
LINE
  5
DC
330
D6
100
AcDbEntity
  8
CSLAYER1
  6
CONTINUOUS
 62
     4
100
AcDbLine
 10
148.7364239999999
 20
144.053175
 30
0.0
 11
147.9599669999998
 21
141.1553979999998
 31
0.0
  0
LINE
  5
DD
330
D6
100
AcDbEntity
  8
CSLAYER1
  6
CONTINUOUS
 62
     4
100
AcDbLine
 10
148.7364239999999
 20
144.053175
 30
0.0
 11
149.512882
 21
141.1553979999998
 31
0.0
  0
LINE
  5
DE
330
D6
100
AcDbEntity
  8
CSLAYER1
  6
CONTINUOUS
 62
     4
100
AcDbLine
 10
154.591405
 20
137.053175
 30
0.0
 11
147.7364239999999
 21
137.053175
 31
0.0
  0
LINE
  5
DF
330
D6
100
AcDbEntity
  8
CSLAYER1
  6
CONTINUOUS
 62
     4
100
AcDbLine
 10
154.591405
 20
144.053175
 30
0.0
 11
147.7364239999999
 21
144.053175
 31
0.0
  0
ENDBLK
  5
E0
330
D6
100
AcDbEntity
  8
0
100
AcDbBlockEnd
  0
BLOCK
  5
E2
330
E1
100
AcDbEntity
  8
0
100
AcDbBlockBegin
  2
*D15
 70
     1
 10
0.0
 20
0.0
 30
0.0
  3
*D15
  1

  0
TEXT
  5
E3
330
E1
100
AcDbEntity
  8
CSLAYER1
 62
     4
100
AcDbText
 10
70.56166800000003
 20
33.336443
 30
0.0
 40
3.2
  1
7
 50
90.0
 41
1.499999999999994
 51
15.0
  7
FX_FONT
 72
     5
 11
70.56166800000003
 21
36.53644299999999
 31
0.0
100
AcDbText
  0
LINE
  5
E4
330
E1
100
AcDbEntity
  8
CSLAYER1
  6
CONTINUOUS
 62
     4
100
AcDbLine
 10
71.56167099999997
 20
31.436443
 30
0.0
 11
71.56167099999997
 21
38.43644299999999
 31
0.0
  0
LINE
  5
E5
330
E1
100
AcDbEntity
  8
CSLAYER1
  6
CONTINUOUS
 62
     4
100
AcDbLine
 10
71.56167099999997
 20
31.436443
 30
0.0
 11
70.78521399999998
 21
34.33422
 31
0.0
  0
LINE
  5
E6
330
E1
100
AcDbEntity
  8
CSLAYER1
  6
CONTINUOUS
 62
     4
100
AcDbLine
 10
71.56167099999997
 20
31.436443
 30
0.0
 11
72.33812799999999
 21
34.33422
 31
0.0
  0
LINE
  5
E7
330
E1
100
AcDbEntity
  8
CSLAYER1
  6
CONTINUOUS
 62
     4
100
AcDbLine
 10
71.56167099999997
 20
38.43644299999999
 30
0.0
 11
70.78521399999998
 21
35.538665
 31
0.0
  0
LINE
  5
E8
330
E1
100
AcDbEntity
  8
CSLAYER1
  6
CONTINUOUS
 62
     4
100
AcDbLine
 10
71.56167099999997
 20
38.43644299999999
 30
0.0
 11
72.33812799999999
 21
35.538665
 31
0.0
  0
LINE
  5
E9
330
E1
100
AcDbEntity
  8
CSLAYER1
  6
CONTINUOUS
 62
     4
100
AcDbLine
 10
78.43423900000002
 20
31.436443
 30
0.0
 11
70.56167099999997
 21
31.436443
 31
0.0
  0
LINE
  5
EA
330
E1
100
AcDbEntity
  8
CSLAYER1
  6
CONTINUOUS
 62
     4
100
AcDbLine
 10
78.43423900000002
 20
38.43644299999999
 30
0.0
 11
70.56167099999997
 21
38.43644299999999
 31
0.0
  0
ENDBLK
  5
EB
330
E1
100
AcDbEntity
  8
0
100
AcDbBlockEnd
  0
BLOCK
  5
1A0
330
194
100
AcDbEntity
  8
0
100
AcDbBlockBegin
  2
*D16
 70
     1
 10
0.0
 20
0.0
 30
0.0
  3
*D16
  1

  0
LINE
  5
195
330
194
100
AcDbEntity
  8
CSLAYER1
 62
     0
100
AcDbLine
 10
101.3203851738241
 20
148.9728151738241
 30
0.0
 11
108.6111650336886
 21
156.2635950336885
 31
0.0
  0
ARC
  5
196
330
194
100
AcDbEntity
  8
CSLAYER1
 62
     0
100
AcDbCircle
 10
92.10074500000001
 20
139.7531749999999
 30
0.0
 40
23.16925993211886
100
AcDbArc
 50
45.4451271330564
 51
66.4844368957504
  0
ARC
  5
197
330
194
100
AcDbEntity
  8
CSLAYER1
 62
     0
100
AcDbCircle
 10
92.10074500000001
 20
139.7531749999999
 30
0.0
 40
23.16925993211886
100
AcDbArc
 50
68.50816013101165
 51
89.55487286694344
  0
SOLID
  5
198
330
194
100
AcDbEntity
  8
CSLAYER1
 62
     0
100
AcDbTrace
 10
108.3772437836405
 20
156.2843951079075
 30
0.0
 11
108.334982500421
 21
156.2418042175593
 31
0.0
 12
108.4838858130749
 22
156.1363158130748
 32
0.0
 13
108.4838858130749
 23
156.1363158130748
 33
0.0
  0
SOLID
  5
199
330
194
100
AcDbEntity
  8
CSLAYER1
 62
     0
100
AcDbTrace
 10
92.28062710826625
 20
162.8917359561475
 30
0.0
 11
92.28086017570197
 21
162.9517355034756
 31
0.0
 12
92.10074500000001
 22
162.9224349321188
 32
0.0
 13
92.10074500000001
 23
162.9224349321188
 33
0.0
  0
MTEXT
  5
19A
330
194
100
AcDbEntity
  8
CSLAYER1
 62
     0
100
AcDbMText
 10
100.9672369161821
 20
161.1587800347184
 30
0.0
 40
0.18
 41
0.0
 71
     5
 72
     1
  1
\A1;45°
1001
ACAD
1000
MTEXTBEGIN
1070
    73
1070
     1
1070
    44
1040
1.0
1070
    74
1070
     0
1000
MTEXTEND
  0
POINT
  5
19B
330
194
100
AcDbEntity
  8
DEFPOINTS
 62
     0
100
AcDbPoint
 10
103.6853749660594
 20
159.8183426880997
 30
0.0
  0
POINT
  5
19C
330
194
100
AcDbEntity
  8
DEFPOINTS
 62
     0
100
AcDbPoint
 10
92.90074500000001
 20
140.553175
 30
0.0
  0
POINT
  5
19D
330
194
100
AcDbEntity
  8
DEFPOINTS
 62
     0
100
AcDbPoint
 10
92.10074500000001
 20
163.7808639999998
 30
0.0
  0
POINT
  5
19E
330
194
100
AcDbEntity
  8
DEFPOINTS
 62
     0
100
AcDbPoint
 10
92.10074499999995
 20
140.936784
 30
0.0
  0
POINT
  5
19F
330
194
100
AcDbEntity
  8
DEFPOINTS
 62
     0
100
AcDbPoint
 10
101.276191
 20
148.9286209999999
 30
0.0
  0
ENDBLK
  5
1A1
330
194
100
AcDbEntity
  8
0
100
AcDbBlockEnd
  0
BLOCK
  5
1AF
330
1A2
100
AcDbEntity
  8
0
100
AcDbBlockBegin
  2
*D17
 70
     1
 10
0.0
 20
0.0
 30
0.0
  3
*D17
  1

  0
LINE
  5
1A3
330
1A2
100
AcDbEntity
  8
CSLAYER1
 62
     0
100
AcDbLine
 10
89.41488899999997
 20
140.553175
 30
0.0
 11
72.49376667807688
 21
140.5531749999999
 31
0.0
  0
LINE
  5
1A4
330
1A2
100
AcDbEntity
  8
CSLAYER1
 62
     0
100
AcDbLine
 10
92.07264498762308
 20
139.8116844194092
 30
0.0
 11
82.49725187705179
 21
123.2266258077046
 31
0.0
  0
ARC
  5
1A5
330
1A2
100
AcDbEntity
  8
CSLAYER1
 62
     0
100
AcDbCircle
 10
92.50074499999996
 20
140.553175
 30
0.0
 40
19.82697832192314
100
AcDbArc
 50
180.5201637668919
 51
209.4011580157379
  0
ARC
  5
1A6
330
1A2
100
AcDbEntity
  8
CSLAYER1
 62
     0
100
AcDbCircle
 10
92.50074499999996
 20
140.553175
 30
0.0
 40
19.82697832192314
100
AcDbArc
 50
210.6024645840494
 51
239.4798231315323
  0
SOLID
  5
1A7
330
1A2
100
AcDbEntity
  8
CSLAYER1
 62
     0
100
AcDbTrace
 10
72.64458405568138
 20
140.3730406763686
 30
0.0
 11
72.70458343752912
 21
140.3733130325447
 31
0.0
 12
72.67376667807685
 22
140.5531749999999
 32
0.0
 13
72.67376667807685
 23
140.5531749999999
 33
0.0
  0
SOLID
  5
1A8
330
1A2
100
AcDbEntity
  8
CSLAYER1
 62
     0
100
AcDbTrace
 10
82.44689528609926
 20
123.4991294721762
 30
0.0
 11
82.41665971595743
 21
123.4473046682865
 31
0.0
 12
82.5872519126972
 22
123.3825103598059
 32
0.0
 13
82.5872519126972
 23
123.3825103598059
 33
0.0
  0
MTEXT
  5
1A9
330
1A2
100
AcDbEntity
  8
CSLAYER1
 62
     0
100
AcDbMText
 10
75.33007695949414
 20
130.6396878022092
 30
0.0
 40
0.18
 41
0.0
 71
     5
 72
     1
  1
\A1;60°
1001
ACAD
1000
MTEXTBEGIN
1070
    73
1070
     1
1070
    44
1040
1.0
1070
    74
1070
     0
1000
MTEXTEND
  0
POINT
  5
1AA
330
1A2
100
AcDbEntity
  8
DEFPOINTS
 62
     0
100
AcDbPoint
 10
73.86947926152888
 20
133.7719504527308
 30
0.0
  0
POINT
  5
1AB
330
1A2
100
AcDbEntity
  8
DEFPOINTS
 62
     0
100
AcDbPoint
 10
92.09991199999995
 20
140.5531749999999
 30
0.0
  0
POINT
  5
1AC
330
1A2
100
AcDbEntity
  8
DEFPOINTS
 62
     0
100
AcDbPoint
 10
92.10389499999999
 20
139.865811
 30
0.0
  0
POINT
  5
1AD
330
1A2
100
AcDbEntity
  8
DEFPOINTS
 62
     0
100
AcDbPoint
 10
92.50074499999996
 20
140.553175
 30
0.0
  0
POINT
  5
1AE
330
1A2
100
AcDbEntity
  8
DEFPOINTS
 62
     0
100
AcDbPoint
 10
89.47738899999997
 20
140.5531749999999
 30
0.0
  0
ENDBLK
  5
1B0
330
1A2
100
AcDbEntity
  8
0
100
AcDbBlockEnd
  0
BLOCK
  5
1BE
330
1B1
100
AcDbEntity
  8
0
100
AcDbBlockBegin
  2
*D18
 70
     1
 10
0.0
 20
0.0
 30
0.0
  3
*D18
  1

  0
LINE
  5
1B2
330
1B1
100
AcDbEntity
  8
CSLAYER1
 62
     0
100
AcDbLine
 10
92.07264498762308
 20
139.8116844194092
 30
0.0
 11
82.4972517638683
 21
123.2266256116657
 31
0.0
  0
LINE
  5
1B3
330
1B1
100
AcDbEntity
  8
CSLAYER1
 62
     0
100
AcDbLine
 10
101.5032361762908
 20
131.5506848286424
 30
0.0
 11
106.6478159921564
 21
126.4061055870578
 31
0.0
  0
ARC
  5
1B4
330
1B1
100
AcDbEntity
  8
CSLAYER1
 62
     0
100
AcDbCircle
 10
92.50074499999996
 20
140.553175
 30
0.0
 40
19.82697854828961
100
AcDbArc
 50
240.5201506593765
 51
276.3995527244466
  0
ARC
  5
1B5
330
1B1
100
AcDbEntity
  8
CSLAYER1
 62
     0
100
AcDbCircle
 10
92.50074499999996
 20
140.553175
 30
0.0
 40
19.82697854828961
100
AcDbArc
 50
278.6032274012506
 51
314.4798394369639
  0
SOLID
  5
1B6
330
1B1
100
AcDbEntity
  8
CSLAYER1
 62
     0
100
AcDbTrace
 10
82.72866136229394
 20
123.2671700772648
 30
0.0
 11
82.75842519776597
 21
123.319267237437
 31
0.0
 12
82.58725179951371
 22
123.3825101637668
 32
0.0
 13
82.58725179951371
 23
123.3825101637668
 33
0.0
  0
SOLID
  5
1B7
330
1B1
100
AcDbEntity
  8
CSLAYER1
 62
     0
100
AcDbTrace
 10
106.3715644138785
 20
126.4279939149625
 30
0.0
 11
106.413797801132
 21
126.3853753626513
 31
0.0
 12
106.5205367644389
 22
126.5333848005673
 32
0.0
 13
106.5205367644389
 23
126.5333848005673
 33
0.0
  0
MTEXT
  5
1B8
330
1B1
100
AcDbEntity
  8
CSLAYER1
 62
     0
100
AcDbMText
 10
95.08868331423547
 20
120.8958187780649
 30
0.0
 40
0.18
 41
0.0
 71
     5
 72
     1
  1
\A1;75°
1001
ACAD
1000
MTEXTBEGIN
1070
    73
1070
     1
1070
    44
1040
1.0
1070
    74
1070
     0
1000
MTEXTEND
  0
POINT
  5
1B9
330
1B1
100
AcDbEntity
  8
DEFPOINTS
 62
     0
100
AcDbPoint
 10
90.77270731465604
 20
120.8016443222937
 30
0.0
  0
POINT
  5
1BA
330
1B1
100
AcDbEntity
  8
DEFPOINTS
 62
     0
100
AcDbPoint
 10
92.50074499999998
 20
140.553175
 30
0.0
  0
POINT
  5
1BB
330
1B1
100
AcDbEntity
  8
DEFPOINTS
 62
     0
100
AcDbPoint
 10
101.4590419999999
 20
131.5948789999999
 30
0.0
  0
POINT
  5
1BC
330
1B1
100
AcDbEntity
  8
DEFPOINTS
 62
     0
100
AcDbPoint
 10
92.50074499999998
 20
140.553175
 30
0.0
  0
POINT
  5
1BD
330
1B1
100
AcDbEntity
  8
DEFPOINTS
 62
     0
100
AcDbPoint
 10
92.10389499999998
 20
139.865811
 30
0.0
  0
ENDBLK
  5
1BF
330
1B1
100
AcDbEntity
  8
0
100
AcDbBlockEnd
  0
BLOCK
  5
1CB
330
1C0
100
AcDbEntity
  8
0
100
AcDbBlockBegin
  2
*D19
 70
     1
 10
0.0
 20
0.0
 30
0.0
  3
*D19
  1

  0
ARC
  5
1C1
330
1C0
100
AcDbEntity
  8
CSLAYER1
 62
     0
100
AcDbCircle
 10
168.5914049999998
 20
75.55317499999998
 30
0.0
 40
12.68023388772067
100
AcDbArc
 50
140.8133393855375
 51
159.1320444416071
  0
ARC
  5
1C2
330
1C0
100
AcDbEntity
  8
CSLAYER1
 62
     0
100
AcDbCircle
 10
168.5914049999998
 20
75.55317499999998
 30
0.0
 40
12.68023388772067
100
AcDbArc
 50
160.8631961864355
 51
179.1866611454518
  0
SOLID
  5
1C3
330
1C0
100
AcDbEntity
  8
CSLAYER1
 62
     0
100
AcDbTrace
 10
158.7399444222531
 20
83.58428643004121
 30
0.0
 11
158.7861796687624
 21
83.54604637276855
 31
0.0
 12
158.8777822173258
 22
83.70387214093303
 32
0.0
 13
158.8777822173258
 23
83.70387214093303
 33
0.0
  0
SOLID
  5
1C4
330
1C0
100
AcDbEntity
  8
CSLAYER1
 62
     0
100
AcDbTrace
 10
155.9424479355761
 20
75.7329575362054
 30
0.0
 11
155.8824494468988
 21
75.73338339585816
 31
0.0
 12
155.9111711122793
 22
75.55317499999998
 32
0.0
 13
155.9111711122793
 23
75.55317499999998
 33
0.0
  0
MTEXT
  5
1C5
330
1C0
100
AcDbEntity
  8
CSLAYER1
 62
     0
100
AcDbMText
 10
156.6758827657733
 20
79.89007035646759
 30
0.0
 40
0.18
 41
0.0
 71
     5
 72
     1
  1
\A1;40°
1001
ACAD
1000
MTEXTBEGIN
1070
    73
1070
     1
1070
    44
1040
1.0
1070
    74
1070
     0
1000
MTEXTEND
  0
POINT
  5
1C6
330
1C0
100
AcDbEntity
  8
DEFPOINTS
 62
     0
100
AcDbPoint
 10
157.2599340758374
 20
81.24405350354942
 30
0.0
  0
POINT
  5
1C7
330
1C0
100
AcDbEntity
  8
DEFPOINTS
 62
     0
100
AcDbPoint
 10
168.5914049999998
 20
75.55317499999998
 30
0.0
  0
POINT
  5
1C8
330
1C0
100
AcDbEntity
  8
DEFPOINTS
 62
     0
100
AcDbPoint
 10
142.4901369999998
 20
75.55317499999998
 30
0.0
  0
POINT
  5
1C9
330
1C0
100
AcDbEntity
  8
DEFPOINTS
 62
     0
100
AcDbPoint
 10
167.591405
 20
75.55317499999998
 30
0.0
  0
POINT
  5
1CA
330
1C0
100
AcDbEntity
  8
DEFPOINTS
 62
     0
100
AcDbPoint
 10
155.5914049999999
 20
86.46146999999997
 30
0.0
  0
ENDBLK
  5
1CC
330
1C0
100
AcDbEntity
  8
0
100
AcDbBlockEnd
  0
ENDSEC
  0
SECTION
  2
ENTITIES
  0
POINT
  5
EC
330
1E
100
AcDbEntity
  8
CSLAYER1
 62
     3
100
AcDbPoint
 10
250.4999999999999
 20
43.5
 30
0.0
  0
POINT
  5
ED
330
1E
100
AcDbEntity
  8
CSLAYER1
 62
     3
100
AcDbPoint
 10
271.0
 20
43.5
 30
0.0
  0
POINT
  5
EE
330
1E
100
AcDbEntity
  8
CSLAYER1
 62
     3
100
AcDbPoint
 10
271.0
 20
53.5
 30
0.0
  0
POINT
  5
EF
330
1E
100
AcDbEntity
  8
CSLAYER1
 62
     3
100
AcDbPoint
 10
250.4999999999999
 20
53.5
 30
0.0
  0
TEXT
  5
F0
330
1E
100
AcDbEntity
  8
CSLAYER1
 62
     3
100
AcDbText
 10
238.099985
 20
51.00000399999998
 30
0.0
 40
5.0
  1
刃開キハ
 41
1.11044776119403
  7
FX_FONT
 72
     5
 11
262.899985
 21
51.00000399999998
 31
0.0
100
AcDbText
  0
TEXT
  5
F1
330
1E
100
AcDbEntity
  8
CSLAYER1
 62
     3
100
AcDbText
 10
237.999985
 20
41.00000399999998
 30
0.0
 40
5.0
  1
切刃部有効
 41
0.872093023255811
  7
FX_FONT
 72
     5
 11
262.9999849999999
 21
41.00000399999998
 31
0.0
100
AcDbText
  0
TEXT
  5
F2
330
1E
100
AcDbEntity
  8
CSLAYER1
 62
     3
100
AcDbText
 10
268.5
 20
51.00000399999998
 30
0.0
 40
5.0
  1
7
 41
1.499999999999983
  7
FX_FONT
 72
     5
 11
273.4999999999999
 21
51.00000399999998
 31
0.0
100
AcDbText
  0
TEXT
  5
F3
330
1E
100
AcDbEntity
  8
CSLAYER1
 62
     3
100
AcDbText
 10
266.0
 20
41.00000399999998
 30
0.0
 40
5.0
  1
12
 41
1.199999999999999
  7
FX_FONT
 72
     5
 11
276.0
 21
41.00000399999998
 31
0.0
100
AcDbText
  0
TEXT
  5
F4
330
1E
100
AcDbEntity
  8
CSLAYER1
 62
     3
100
AcDbText
 10
242.45
 20
17.25
 30
0.0
 40
3.5
  1
N20AG
 41
1.169387755102042
  7
FX_FONT
 72
     5
 11
261.55
 21
17.25
 31
0.0
100
AcDbText
  0
POINT
  5
F5
330
1E
100
AcDbEntity
  8
CSLAYER1
 62
     3
100
AcDbPoint
 10
183.591405
 20
140.553175
 30
0.0
  0
POINT
  5
F6
330
1E
100
AcDbEntity
  8
CSLAYER1
 62
     3
100
AcDbPoint
 10
183.591405
 20
81.553175
 30
0.0
  0
INSERT
  5
F7
330
1E
100
AcDbEntity
  8
CSLAYER1
100
AcDbBlockReference
  2
FXDIM0000
 10
0.0
 20
0.0
 30
0.0
  0
POINT
  5
F8
330
1E
100
AcDbEntity
  8
CSLAYER1
 62
     3
100
AcDbPoint
 10
252.0
 20
19.0
 30
0.0
  0
LINE
  5
F9
330
1E
100
AcDbEntity
  8
CSLAYER1
  6
CONTINUOUS
 62
     3
100
AcDbLine
 10
279.0
 20
40.0
 30
0.0
 11
238.0
 21
40.0
 31
0.0
  0
LINE
  5
FA
330
1E
100
AcDbEntity
  8
CSLAYER1
  6
CONTINUOUS
 62
     3
100
AcDbLine
 10
238.0
 20
50.0
 30
0.0
 11
279.0
 21
50.0
 31
0.0
  0
ARC
  5
FB
330
1E
100
AcDbEntity
  8
CSLAYER1
  6
CONTINUOUS
 62
     3
100
AcDbCircle
 10
238.3423109999998
 20
81.650673
 30
0.0
 40
5.25
100
AcDbArc
 50
358.935899
 51
88.92583
  0
LINE
  5
FC
330
1E
100
AcDbEntity
  8
CSLAYER1
  6
CONTINUOUS
 62
     3
100
AcDbLine
 10
238.4407309999999
 20
86.89975
 30
0.0
 11
203.591405
 21
87.553175
 31
0.0
  0
LINE
  5
FD
330
1E
100
AcDbEntity
  8
CSLAYER1
  6
CONTINUOUS
 62
     3
100
AcDbLine
 10
203.591405
 20
87.553175
 30
0.0
 11
155.591405
 21
87.553175
 31
0.0
  0
LINE
  5
FE
330
1E
100
AcDbEntity
  8
CSLAYER1
  6
CONTINUOUS
 62
     3
100
AcDbLine
 10
155.591405
 20
87.553175
 30
0.0
 11
155.591405
 21
86.46146999999997
 31
0.0
  0
LINE
  5
FF
330
1E
100
AcDbEntity
  8
CSLAYER1
  6
CONTINUOUS
 62
     3
100
AcDbLine
 10
155.591405
 20
86.46146999999997
 30
0.0
 11
168.591405
 21
75.553175
 31
0.0
  0
LINE
  5
100
330
1E
100
AcDbEntity
  8
CSLAYER1
  6
CONTINUOUS
 62
     3
100
AcDbLine
 10
168.591405
 20
75.553175
 30
0.0
 11
203.591405
 21
75.553175
 31
0.0
  0
LINE
  5
101
330
1E
100
AcDbEntity
  8
CSLAYER1
  6
CONTINUOUS
 62
     3
100
AcDbLine
 10
203.591405
 20
75.553175
 30
0.0
 11
238.4407309999999
 21
76.20659999999998
 31
0.0
  0
ARC
  5
102
330
1E
100
AcDbEntity
  8
CSLAYER1
  6
CONTINUOUS
 62
     3
100
AcDbCircle
 10
238.3423109999998
 20
81.455677
 30
0.0
 40
5.25
100
AcDbArc
 50
271.0741699999999
 51
1.064100999999998
  0
LINE
  5
103
330
1E
100
AcDbEntity
  8
CSLAYER1
  6
CONTINUOUS
 62
     3
100
AcDbLine
 10
173.9904699999999
 20
81.553175
 30
0.0
 11
193.254983
 21
81.553175
 31
0.0
  0
ARC
  5
104
330
1E
100
AcDbEntity
  8
CSLAYER1
  6
CONTINUOUS
 62
     3
100
AcDbCircle
 10
193.254983
 20
82.553175
 30
0.0
 40
1.0
100
AcDbArc
 50
270.0
 51
0.0
  0
LINE
  5
105
330
1E
100
AcDbEntity
  8
CSLAYER1
  6
CONTINUOUS
 62
     3
100
AcDbLine
 10
194.254983
 20
82.553175
 30
0.0
 11
194.254983
 21
87.553175
 31
0.0
  0
LINE
  5
106
330
1E
100
AcDbEntity
  8
CSLAYER1
  6
CONTINUOUS
 62
     3
100
AcDbLine
 10
188.490385
 20
87.553175
 30
0.0
 11
188.490385
 21
82.05317499999997
 31
0.0
  0
LINE
  5
107
330
1E
100
AcDbEntity
  8
CSLAYER1
  6
CONTINUOUS
 62
     3
100
AcDbLine
 10
188.490385
 20
82.05317499999997
 30
0.0
 11
187.9903849999999
 21
81.553175
 31
0.0
  0
LINE
  5
108
330
1E
100
AcDbEntity
  8
CSLAYER1
  6
CONTINUOUS
 62
     3
100
AcDbLine
 10
179.192426
 20
81.553175
 30
0.0
 11
178.692426
 21
81.05317499999998
 31
0.0
  0
LINE
  5
109
330
1E
100
AcDbEntity
  8
CSLAYER1
  6
CONTINUOUS
 62
     3
100
AcDbLine
 10
178.692426
 20
81.05317499999998
 30
0.0
 11
178.692426
 21
75.553175
 31
0.0
  0
LINE
  5
10A
330
1E
100
AcDbEntity
  8
CSLAYER1
  6
CONTINUOUS
 62
     3
100
AcDbLine
 10
172.9904699999999
 20
75.553175
 30
0.0
 11
172.9904699999999
 21
80.55317499999999
 31
0.0
  0
ARC
  5
10B
330
1E
100
AcDbEntity
  8
CSLAYER1
  6
CONTINUOUS
 62
     3
100
AcDbCircle
 10
173.9904699999999
 20
80.55317499999999
 30
0.0
 40
1.0
100
AcDbArc
 50
90.0
 51
180.0
  0
LINE
  5
10C
330
1E
100
AcDbEntity
  8
CSLAYER1
  6
CONTINUOUS
 62
     3
100
AcDbLine
 10
163.591405
 20
129.053175
 30
0.0
 11
193.591405
 21
129.053175
 31
0.0
  0
LINE
  5
10D
330
1E
100
AcDbEntity
  8
CSLAYER1
  6
CONTINUOUS
 62
     3
100
AcDbLine
 10
193.591405
 20
129.053175
 30
0.0
 11
235.9172889999999
 21
130.746211
 31
0.0
  0
ARC
  5
10E
330
1E
100
AcDbEntity
  8
CSLAYER1
  6
CONTINUOUS
 62
     3
100
AcDbCircle
 10
235.597545
 20
138.7398179999999
 30
0.0
 40
8.0
100
AcDbArc
 50
272.29061
 51
2.244828
  0
LINE
  5
10F
330
1E
100
AcDbEntity
  8
CSLAYER1
  6
CONTINUOUS
 62
     3
100
AcDbLine
 10
243.591405
 20
139.053175
 30
0.0
 11
196.891405
 21
139.053175
 31
0.0
  0
LINE
  5
110
330
1E
100
AcDbEntity
  8
CSLAYER1
  6
CONTINUOUS
 62
     3
100
AcDbLine
 10
197.249648
 20
139.053175
 30
0.0
 11
194.199781
 21
129.07751
 31
0.0
  0
ARC
  5
111
330
1E
100
AcDbEntity
  8
CSLAYER1
  6
CONTINUOUS
 62
     3
100
AcDbCircle
 10
183.591405
 20
140.553175
 30
0.0
 40
12.5
100
AcDbArc
 50
293.0739179999999
 51
0.0
  0
LINE
  5
112
330
1E
100
AcDbEntity
  8
CSLAYER1
  6
CONTINUOUS
 62
     3
100
AcDbLine
 10
196.091405
 20
141.253175
 30
0.0
 11
196.091405
 21
139.8531749999999
 31
0.0
  0
ARC
  5
113
330
1E
100
AcDbEntity
  8
CSLAYER1
  6
CONTINUOUS
 62
     3
100
AcDbCircle
 10
196.891405
 20
139.8531749999999
 30
0.0
 40
0.8
100
AcDbArc
 50
180.0
 51
270.0
  0
ARC
  5
114
330
1E
100
AcDbEntity
  8
CSLAYER1
  6
CONTINUOUS
 62
     3
100
AcDbCircle
 10
196.891405
 20
141.253175
 30
0.0
 40
0.8
100
AcDbArc
 50
90.0
 51
180.0
  0
LINE
  5
115
330
1E
100
AcDbEntity
  8
CSLAYER1
  6
CONTINUOUS
 62
     3
100
AcDbLine
 10
196.891405
 20
142.053175
 30
0.0
 11
243.591405
 21
142.053175
 31
0.0
  0
ARC
  5
116
330
1E
100
AcDbEntity
  8
CSLAYER1
  6
CONTINUOUS
 62
     3
100
AcDbCircle
 10
235.597545
 20
142.366532
 30
0.0
 40
8.0
100
AcDbArc
 50
357.7551719999998
 51
87.70939
  0
LINE
  5
117
330
1E
100
AcDbEntity
  8
CSLAYER1
  6
CONTINUOUS
 62
     3
100
AcDbLine
 10
235.9172889999999
 20
150.3601399999999
 30
0.0
 11
193.591405
 21
152.053175
 31
0.0
  0
LINE
  5
118
330
1E
100
AcDbEntity
  8
CSLAYER1
  6
CONTINUOUS
 62
     3
100
AcDbLine
 10
193.591405
 20
152.053175
 30
0.0
 11
163.591405
 21
152.053175
 31
0.0
  0
ARC
  5
119
330
1E
100
AcDbEntity
  8
CSLAYER1
  6
CONTINUOUS
 62
     3
100
AcDbCircle
 10
163.591405
 20
144.053175
 30
0.0
 40
8.0
100
AcDbArc
 50
90.0
 51
180.0
  0
LINE
  5
11A
330
1E
100
AcDbEntity
  8
CSLAYER1
  6
CONTINUOUS
 62
     3
100
AcDbLine
 10
155.591405
 20
144.053175
 30
0.0
 11
155.591405
 21
137.053175
 31
0.0
  0
LINE
  5
11B
330
1E
100
AcDbEntity
  8
CSLAYER1
  6
CONTINUOUS
 62
     3
100
AcDbLine
 10
168.337308
 20
140.303175
 30
0.0
 11
164.783939
 21
140.303175
 31
0.0
  0
LINE
  5
11C
330
1E
100
AcDbEntity
  8
CSLAYER1
  6
CONTINUOUS
 62
     3
100
AcDbLine
 10
164.783939
 20
140.303175
 30
0.0
 11
164.783939
 21
140.803175
 31
0.0
  0
LINE
  5
11D
330
1E
100
AcDbEntity
  8
CSLAYER1
  6
CONTINUOUS
 62
     3
100
AcDbLine
 10
164.783939
 20
140.803175
 30
0.0
 11
169.0509989999999
 21
140.803175
 31
0.0
  0
LINE
  5
11E
330
1E
100
AcDbEntity
  8
CSLAYER1
  6
CONTINUOUS
 62
     3
100
AcDbLine
 10
169.0509989999999
 20
140.803175
 30
0.0
 11
169.771181
 21
141.523357
 31
0.0
  0
LINE
  5
11F
330
1E
100
AcDbEntity
  8
CSLAYER1
  6
CONTINUOUS
 62
     3
100
AcDbLine
 10
169.771181
 20
141.523357
 30
0.0
 11
172.9904699999999
 21
152.053175
 31
0.0
  0
ARC
  5
120
330
1E
100
AcDbEntity
  8
CSLAYER1
  6
CONTINUOUS
 62
     3
100
AcDbCircle
 10
168.337308
 20
143.303175
 30
0.0
 40
3.0
100
AcDbArc
 50
270.0
 51
349.78052
  0
ARC
  5
121
330
1E
100
AcDbEntity
  8
CSLAYER1
  6
CONTINUOUS
 62
     3
100
AcDbCircle
 10
168.337308
 20
137.803175
 30
0.0
 40
3.0
100
AcDbArc
 50
66.44353599999999
 51
90.0
  0
LINE
  5
122
330
1E
100
AcDbEntity
  8
CSLAYER1
  6
CONTINUOUS
 62
     3
100
AcDbLine
 10
164.783939
 20
140.553175
 30
0.0
 11
155.591405
 21
140.553175
 31
0.0
  0
ARC
  5
123
330
1E
100
AcDbEntity
  8
CSLAYER1
  6
CONTINUOUS
 62
     3
100
AcDbCircle
 10
163.591405
 20
137.053175
 30
0.0
 40
8.0
100
AcDbArc
 50
180.0
 51
270.0
  0
ARC
  5
124
330
1E
100
AcDbEntity
  8
CSLAYER1
  6
CONTINUOUS
 62
     3
100
AcDbCircle
 10
183.591405
 20
140.553175
 30
0.0
 40
12.5
100
AcDbArc
 50
113.0739179999999
 51
169.7805199999999
  0
CIRCLE
  5
125
330
1E
100
AcDbEntity
  8
CSLAYER1
  6
CONTINUOUS
 62
     3
100
AcDbCircle
 10
183.591405
 20
140.553175
 30
0.0
 40
2.049999999999998
  0
CIRCLE
  5
126
330
1E
100
AcDbEntity
  8
CSLAYER1
  6
CONTINUOUS
 62
     3
100
AcDbCircle
 10
183.591405
 20
140.553175
 30
0.0
 40
8.55
  0
LINE
  5
127
330
1E
100
AcDbEntity
  8
CSLAYER1
  6
CONTINUOUS
 62
     3
100
AcDbLine
 10
234.0914049999999
 20
142.053175
 30
0.0
 11
234.0914049999999
 21
139.053175
 31
0.0
  0
LINE
  5
128
330
1E
100
AcDbEntity
  8
CSLAYER1
  6
CONTINUOUS
 62
     3
100
AcDbLine
 10
240.0914049999999
 20
139.053175
 30
0.0
 11
240.0914049999999
 21
142.053175
 31
0.0
  0
LINE
  5
129
330
1E
100
AcDbEntity
  8
CSLAYER1
  6
CENTER
 62
     4
100
AcDbLine
 10
152.305004
 20
140.553175
 30
0.0
 11
155.591405
 21
140.553175
 31
0.0
  0
LINE
  5
12A
330
1E
100
AcDbEntity
  8
CSLAYER1
  6
CENTER
 62
     4
100
AcDbLine
 10
164.783939
 20
140.553175
 30
0.0
 11
245.8952109999999
 21
140.553175
 31
0.0
  0
LINE
  5
12B
330
1E
100
AcDbEntity
  8
CSLAYER1
  6
CENTER
 62
     4
100
AcDbLine
 10
237.0914049999999
 20
145.1611749999998
 30
0.0
 11
237.0914049999999
 21
135.540604
 31
0.0
  0
LINE
  5
12C
330
1E
100
AcDbEntity
  8
CSLAYER1
  6
CENTER
 62
     4
100
AcDbLine
 10
201.591405
 20
134.612799
 30
0.0
 11
201.591405
 21
146.712718
 31
0.0
  0
LINE
  5
12D
330
1E
100
AcDbEntity
  8
CSLAYER1
  6
CENTER
 62
     4
100
AcDbLine
 10
183.591405
 20
155.116208
 30
0.0
 11
183.591405
 21
125.867282
 31
0.0
  0
LINE
  5
12E
330
1E
100
AcDbEntity
  8
CSLAYER1
  6
CENTER
 62
     4
100
AcDbLine
 10
183.591405
 20
91.21492100000001
 30
0.0
 11
183.591405
 21
72.01797500000002
 31
0.0
  0
LINE
  5
12F
330
1E
100
AcDbEntity
  8
CSLAYER1
  6
CENTER
 62
     4
100
AcDbLine
 10
172.9904699999999
 20
81.553175
 30
0.0
 11
167.091405
 21
81.553175
 31
0.0
  0
LINE
  5
130
330
1E
100
AcDbEntity
  8
CSLAYER1
  6
CENTER
 62
     4
100
AcDbLine
 10
194.254983
 20
81.553175
 30
0.0
 11
199.591405
 21
81.553175
 31
0.0
  0
LINE
  5
131
330
1E
100
AcDbEntity
  8
CSLAYER1
  6
CENTER
 62
     4
100
AcDbLine
 10
237.183688
 20
81.553175
 30
0.0
 11
248.5644249999999
 21
81.553175
 31
0.0
  0
LINE
  5
132
330
1E
100
AcDbEntity
  8
CSLAYER1
  6
CONTINUOUS
 62
     3
100
AcDbLine
 10
155.591405
 20
139.8531749999999
 30
0.0
 11
163.5450929999999
 21
133.1792389999999
 31
0.0
  0
LINE
  5
133
330
1E
100
AcDbEntity
  8
CSLAYER1
  6
CONTINUOUS
 62
     3
100
AcDbLine
 10
165.053906
 20
133.445284
 30
0.0
 11
169.0650449999999
 21
140.39278
 31
0.0
  0
LINE
  5
134
330
1E
100
AcDbEntity
  8
CSLAYER1
  6
DASHED
 62
     4
100
AcDbLine
 10
169.1576489999999
 20
87.553175
 30
0.0
 11
166.16782
 21
79.338688
 31
0.0
  0
LINE
  5
135
330
1E
100
AcDbEntity
  8
CSLAYER1
  6
CONTINUOUS
 62
     3
100
AcDbLine
 10
164.547927
 20
133.012349
 30
0.0
 11
165.6418539999999
 21
140.303175
 31
0.0
  0
ARC
  5
136
330
1E
100
AcDbEntity
  8
CSLAYER1
  6
DASHED
 62
     4
100
AcDbCircle
 10
165.228127
 20
79.68070799999998
 30
0.0
 40
1.0
100
AcDbArc
 50
230.0
 51
340.0
  0
ARC
  5
137
330
1E
100
AcDbEntity
  8
CSLAYER1
  6
CONTINUOUS
 62
     3
100
AcDbCircle
 10
164.18788
 20
133.945284
 30
0.0
 40
1.0
100
AcDbArc
 50
230.0
 51
330.0
  0
LINE
  5
138
330
1E
100
AcDbEntity
  8
CSLAYER1
  6
CONTINUOUS
 62
     3
100
AcDbLine
 10
155.591405
 20
141.253175
 30
0.0
 11
163.5450929999999
 21
147.927111
 31
0.0
  0
LINE
  5
139
330
1E
100
AcDbEntity
  8
CSLAYER1
  6
CONTINUOUS
 62
     3
100
AcDbLine
 10
165.053906
 20
147.661067
 30
0.0
 11
169.013311
 21
140.803175
 31
0.0
  0
LINE
  5
13A
330
1E
100
AcDbEntity
  8
CSLAYER1
  6
CONTINUOUS
 62
     3
100
AcDbLine
 10
164.547927
 20
148.0940009999999
 30
0.0
 11
165.6418539999999
 21
140.803175
 31
0.0
  0
ARC
  5
13B
330
1E
100
AcDbEntity
  8
CSLAYER1
  6
CONTINUOUS
 62
     3
100
AcDbCircle
 10
164.18788
 20
147.161067
 30
0.0
 40
1.0
100
AcDbArc
 50
30.0
 51
130.0
  0
INSERT
  5
13C
330
1E
100
AcDbEntity
  8
CSLAYER1
100
AcDbBlockReference
  2
FXDIM0001
 10
0.0
 20
0.0
 30
0.0
  0
INSERT
  5
13D
330
1E
100
AcDbEntity
  8
CSLAYER1
100
AcDbBlockReference
  2
FXDIM0002
 10
0.0
 20
0.0
 30
0.0
  0
LINE
  5
13E
330
1E
100
AcDbEntity
  8
CSLAYER1
  6
CONTINUOUS
 62
     3
100
AcDbLine
 10
101.6007449999999
 20
131.4531749999999
 30
0.0
 11
92.500745
 21
140.553175
 31
0.0
  0
LINE
  5
13F
330
1E
100
AcDbEntity
  8
CSLAYER1
  6
CONTINUOUS
 62
     3
100
AcDbLine
 10
92.500745
 20
140.553175
 30
0.0
 11
92.10389499999999
 21
139.865811
 31
0.0
  0
LINE
  5
140
330
1E
100
AcDbEntity
  8
CSLAYER1
  6
CONTINUOUS
 62
     3
100
AcDbLine
 10
101.6007449999999
 20
149.2531749999999
 30
0.0
 11
92.90074500000001
 21
140.553175
 31
0.0
  0
LINE
  5
141
330
1E
100
AcDbEntity
  8
CSLAYER1
  6
CONTINUOUS
 62
     3
100
AcDbLine
 10
92.90074500000001
 20
140.553175
 30
0.0
 11
92.09991200000001
 21
140.553175
 31
0.0
  0
LINE
  5
142
330
1E
100
AcDbEntity
  8
CSLAYER1
  6
CENTER
 62
     4
100
AcDbLine
 10
92.09991200000001
 20
140.553175
 30
0.0
 11
89.477389
 21
140.553175
 31
0.0
  0
LINE
  5
143
330
1E
100
AcDbEntity
  8
CSLAYER1
  6
CENTER
 62
     4
100
AcDbLine
 10
92.90074500000001
 20
140.553175
 30
0.0
 11
107.5638419999999
 21
140.553175
 31
0.0
  0
LINE
  5
144
330
1E
100
AcDbEntity
  8
CSLAYER1
  6
CONTINUOUS
 62
     3
100
AcDbLine
 10
92.98765600000001
 20
152.053175
 30
0.0
 11
101.6007449999999
 21
152.053175
 31
0.0
  0
ARC
  5
145
330
1E
100
AcDbEntity
  8
CSLAYER1
  6
CONTINUOUS
 62
     3
100
AcDbCircle
 10
167.1007449999999
 20
140.553175
 30
0.0
 40
75.0
100
AcDbArc
 50
180.525115
 51
188.820148
  0
ARC
  5
146
330
1E
100
AcDbEntity
  8
CSLAYER1
  6
CONTINUOUS
 62
     3
100
AcDbCircle
 10
167.1007449999999
 20
140.553175
 30
0.0
 40
75.0
100
AcDbArc
 50
171.179852
 51
180.0
  0
LINE
  5
147
330
1E
100
AcDbEntity
  8
CSLAYER1
  6
CONTINUOUS
 62
     3
100
AcDbLine
 10
92.98765600000001
 20
129.053175
 30
0.0
 11
101.6007449999999
 21
129.053175
 31
0.0
  0
DIMENSION
  5
148
330
1E
100
AcDbEntity
  8
CSLAYER1
 62
     4
100
AcDbDimension
  2
*D3
 10
84.952871
 20
148.501049
 30
0.0
 11
80.43652299999997
 21
149.501068
 31
0.0
 70
     1
 52
135.0
100
AcDbAlignedDimension
 13
92.10074500000001
 23
140.553175
 33
0.0
 14
92.90074500000001
 24
140.553175
 34
0.0
  0
DIMENSION
  5
14D
330
1E
100
AcDbEntity
  8
CSLAYER1
 62
     4
100
AcDbDimension
  2
*D7
 10
183.591405
 20
63.59839799999999
 30
0.0
 11
176.0914149999999
 21
64.59839599999999
 31
0.0
 52
270.0
100
AcDbAlignedDimension
 13
168.591405
 23
75.553175
 33
0.0
 14
183.591405
 24
72.01797500000002
 34
0.0
100
AcDbRotatedDimension
  0
DIMENSION
  5
14E
330
1E
100
AcDbEntity
  8
CSLAYER1
 62
     4
100
AcDbDimension
  2
*D8
 10
143.490137
 20
87.553175
 30
0.0
 11
142.490143
 21
87.98256700000001
 31
0.0
100
AcDbAlignedDimension
 13
168.591405
 23
75.553175
 33
0.0
 14
155.591405
 24
87.553175
 34
0.0
 50
90.0
100
AcDbRotatedDimension
  0
DIMENSION
  5
14F
330
1E
100
AcDbEntity
  8
CSLAYER1
 62
     4
100
AcDbDimension
  2
*D9
 10
151.2426419999999
 20
62.61013000000001
 30
0.0
 11
143.779083
 21
62.52931199999999
 31
0.0
 70
     1
100
AcDbAlignedDimension
 13
155.591405
 23
86.46146999999997
 33
0.0
 14
164.783939
 24
78.748019
 34
0.0
  0
DIMENSION
  5
151
330
1E
100
AcDbEntity
  8
CSLAYER1
 62
     4
100
AcDbDimension
  2
*D11
 10
142.43471
 20
152.053175
 30
0.0
 11
141.4347079999999
 21
140.553177
 31
0.0
 70
     1
100
AcDbAlignedDimension
 13
163.591405
 23
129.053175
 33
0.0
 14
163.591405
 24
152.053175
 34
0.0
  0
DIMENSION
  5
152
330
1E
100
AcDbEntity
  8
CSLAYER1
 62
     4
100
AcDbDimension
  2
*D12
 10
163.591405
 20
137.053175
 30
0.0
 11
160.773376
 21
134.753983
 31
0.0
 70
     4
100
AcDbRadialDimension
 15
159.022231
 25
130.486392
 35
0.0
 40
0.0
  0
DIMENSION
  5
153
330
1E
100
AcDbEntity
  8
CSLAYER1
 62
     4
100
AcDbDimension
  2
*D13
 10
183.591405
 20
164.714829
 30
0.0
 11
169.5914149999999
 21
165.714828
 31
0.0
100
AcDbAlignedDimension
 13
155.591405
 23
144.053175
 33
0.0
 14
183.591405
 24
155.116208
 34
0.0
100
AcDbRotatedDimension
  0
LINE
  5
154
330
1E
100
AcDbEntity
  8
CSLAYER1
  6
CONTINUOUS
 62
     3
100
AcDbLine
 10
101.6007449999999
 20
149.2531749999999
 30
0.0
 11
101.6007449999999
 21
152.053175
 31
0.0
  0
LINE
  5
155
330
1E
100
AcDbEntity
  8
CSLAYER1
  6
CONTINUOUS
 62
     3
100
AcDbLine
 10
101.6007449999999
 20
131.4531749999999
 30
0.0
 11
101.6007449999999
 21
129.053175
 31
0.0
  0
DIMENSION
  5
156
330
1E
100
AcDbEntity
  8
CSLAYER1
 62
     4
100
AcDbDimension
  2
*D14
 10
148.7364239999999
 20
144.053175
 30
0.0
 11
147.7364199999998
 21
140.553177
 31
0.0
 70
     1
100
AcDbAlignedDimension
 13
155.591405
 23
137.053175
 33
0.0
 14
155.591405
 24
144.053175
 34
0.0
  0
POINT
  5
157
330
1E
100
AcDbEntity
  8
CSLAYER1
 62
     3
100
AcDbPoint
 10
107.214627
 20
34.93644299999999
 30
0.0
  0
LINE
  5
158
330
1E
100
AcDbEntity
  8
CSLAYER1
  6
CONTINUOUS
 62
     3
100
AcDbLine
 10
107.214627
 20
46.527353
 30
0.0
 11
88.80899199999998
 21
48.84624500000001
 31
0.0
  0
ARC
  5
159
330
1E
100
AcDbEntity
  8
CSLAYER1
  6
CONTINUOUS
 62
     3
100
AcDbCircle
 10
87.808992
 20
40.908991
 30
0.0
 40
8.0
100
AcDbArc
 50
82.81924399999999
 51
172.8192439999999
  0
LINE
  5
15A
330
1E
100
AcDbEntity
  8
CSLAYER1
  6
CONTINUOUS
 62
     3
100
AcDbLine
 10
79.87173900000001
 20
41.908991
 30
0.0
 11
79.434239
 21
38.43644299999999
 31
0.0
  0
LINE
  5
15B
330
1E
100
AcDbEntity
  8
CSLAYER1
  6
CONTINUOUS
 62
     3
100
AcDbLine
 10
88.55467199999997
 20
37.287376
 30
0.0
 11
88.585922
 21
37.535415
 31
0.0
  0
LINE
  5
15C
330
1E
100
AcDbEntity
  8
CSLAYER1
  6
CONTINUOUS
 62
     3
100
AcDbLine
 10
88.585922
 20
37.535415
 30
0.0
 11
92.81951499999999
 21
37.002032
 31
0.0
  0
LINE
  5
15D
330
1E
100
AcDbEntity
  8
CSLAYER1
  6
CONTINUOUS
 62
     3
100
AcDbLine
 10
92.81951499999999
 20
37.002032
 30
0.0
 11
93.624071
 21
37.62654299999999
 31
0.0
  0
LINE
  5
15E
330
1E
100
AcDbEntity
  8
CSLAYER1
  6
CONTINUOUS
 62
     3
100
AcDbLine
 10
93.624071
 20
37.62654299999999
 30
0.0
 11
98.134337
 21
47.671362
 31
0.0
  0
ARC
  5
15F
330
1E
100
AcDbEntity
  8
CSLAYER1
  6
CONTINUOUS
 62
     3
100
AcDbCircle
 10
91.736421
 20
34.11477399999998
 30
0.0
 40
3.0
100
AcDbArc
 50
15.895853
 51
82.81924399999999
  0
LINE
  5
160
330
1E
100
AcDbEntity
  8
CSLAYER1
  6
CONTINUOUS
 62
     3
100
AcDbLine
 10
88.55467199999997
 20
37.287376
 30
0.0
 11
79.434239
 21
38.43644299999999
 31
0.0
  0
ARC
  5
161
330
1E
100
AcDbEntity
  8
CSLAYER1
  6
CONTINUOUS
 62
     3
100
AcDbCircle
 10
107.214627
 20
34.93644299999999
 30
0.0
 40
12.5
100
AcDbArc
 50
120.2546739999999
 51
176.961275
  0
CIRCLE
  5
162
330
1E
100
AcDbEntity
  8
CSLAYER1
  6
CONTINUOUS
 62
     3
100
AcDbCircle
 10
107.214627
 20
34.93644299999999
 30
0.0
 40
2.049999999999998
  0
CIRCLE
  5
163
330
1E
100
AcDbEntity
  8
CSLAYER1
  6
CONTINUOUS
 62
     3
100
AcDbCircle
 10
107.214627
 20
34.93644299999999
 30
0.0
 40
8.55
  0
LINE
  5
164
330
1E
100
AcDbEntity
  8
CSLAYER1
  6
CENTER
 62
     4
100
AcDbLine
 10
76.767016
 20
34.93644299999999
 30
0.0
 11
117.6689729999999
 21
34.93644299999999
 31
0.0
  0
LINE
  5
165
330
1E
100
AcDbEntity
  8
CSLAYER1
  6
CENTER
 62
     4
100
AcDbLine
 10
107.214627
 20
49.499475
 30
0.0
 11
107.214627
 21
20.250549
 31
0.0
  0
LINE
  5
166
330
1E
100
AcDbEntity
  8
CSLAYER1
  6
CONTINUOUS
 62
     3
100
AcDbLine
 10
79.521739
 20
39.130952
 30
0.0
 11
88.24728499999997
 21
44.758332
 31
0.0
  0
LINE
  5
167
330
1E
100
AcDbEntity
  8
CSLAYER1
  6
CONTINUOUS
 62
     3
100
AcDbLine
 10
89.711008
 20
44.305772
 30
0.0
 11
92.78212299999999
 21
37.006743
 31
0.0
  0
LINE
  5
168
330
1E
100
AcDbEntity
  8
CSLAYER1
  6
CONTINUOUS
 62
     3
100
AcDbLine
 10
89.263115
 20
44.798558
 30
0.0
 11
89.43710899999997
 21
37.428176
 31
0.0
  0
ARC
  5
169
330
1E
100
AcDbEntity
  8
CSLAYER1
  6
CONTINUOUS
 62
     3
100
AcDbCircle
 10
88.78927500000001
 20
43.917947
 30
0.0
 40
1.0
100
AcDbArc
 50
22.819244
 51
122.819244
  0
LINE
  5
16A
330
1E
100
AcDbEntity
  8
CSLAYER1
  6
CONTINUOUS
 62
     3
100
AcDbLine
 10
47.303958
 20
22.33644299999999
 30
0.0
 11
38.203958
 21
31.436443
 31
0.0
  0
LINE
  5
16B
330
1E
100
AcDbEntity
  8
CSLAYER1
  6
CONTINUOUS
 62
     3
100
AcDbLine
 10
38.203958
 20
31.436443
 30
0.0
 11
37.807108
 21
30.749078
 31
0.0
  0
LINE
  5
16C
330
1E
100
AcDbEntity
  8
CSLAYER1
  6
CONTINUOUS
 62
     3
100
AcDbLine
 10
47.303958
 20
47.136443
 30
0.0
 11
38.603958
 21
38.43644299999999
 31
0.0
  0
LINE
  5
16D
330
1E
100
AcDbEntity
  8
CSLAYER1
  6
CONTINUOUS
 62
     3
100
AcDbLine
 10
38.603958
 20
38.43644299999999
 30
0.0
 11
37.803125
 21
38.43644299999999
 31
0.0
  0
LINE
  5
16E
330
1E
100
AcDbEntity
  8
CSLAYER1
  6
CENTER
 62
     4
100
AcDbLine
 10
33.856739
 20
34.93644299999999
 30
0.0
 11
54.74153199999999
 21
34.93644299999999
 31
0.0
  0
LINE
  5
16F
330
1E
100
AcDbEntity
  8
CSLAYER1
  6
CONTINUOUS
 62
     3
100
AcDbLine
 10
38.690869
 20
49.93644299999999
 30
0.0
 11
47.303958
 21
49.93644299999999
 31
0.0
  0
ARC
  5
170
330
1E
100
AcDbEntity
  8
CSLAYER1
  6
CONTINUOUS
 62
     3
100
AcDbCircle
 10
112.803958
 20
31.436443
 30
0.0
 40
75.0
100
AcDbArc
 50
180.525115
 51
188.820148
  0
ARC
  5
171
330
1E
100
AcDbEntity
  8
CSLAYER1
  6
CONTINUOUS
 62
     3
100
AcDbCircle
 10
112.803958
 20
38.43644299999999
 30
0.0
 40
75.0
100
AcDbArc
 50
171.179852
 51
180.0
  0
LINE
  5
172
330
1E
100
AcDbEntity
  8
CSLAYER1
  6
CONTINUOUS
 62
     3
100
AcDbLine
 10
38.690869
 20
19.936443
 30
0.0
 11
47.303958
 21
19.936443
 31
0.0
  0
LINE
  5
173
330
1E
100
AcDbEntity
  8
CSLAYER1
  6
CONTINUOUS
 62
     3
100
AcDbLine
 10
47.303958
 20
47.136443
 30
0.0
 11
47.303958
 21
49.93644299999999
 31
0.0
  0
LINE
  5
174
330
1E
100
AcDbEntity
  8
CSLAYER1
  6
CONTINUOUS
 62
     3
100
AcDbLine
 10
47.303958
 20
22.33644299999999
 30
0.0
 11
47.303958
 21
19.936443
 31
0.0
  0
LINE
  5
175
330
1E
100
AcDbEntity
  8
CSLAYER1
  6
CONTINUOUS
 62
     3
100
AcDbLine
 10
116.884483
 20
24.563819
 30
0.0
 11
88.80899199999998
 21
21.02664
 31
0.0
  0
ARC
  5
176
330
1E
100
AcDbEntity
  8
CSLAYER1
  6
CONTINUOUS
 62
     3
100
AcDbCircle
 10
87.808992
 20
28.963894
 30
0.0
 40
8.0
100
AcDbArc
 50
187.180756
 51
277.180756
  0
LINE
  5
177
330
1E
100
AcDbEntity
  8
CSLAYER1
  6
CONTINUOUS
 62
     3
100
AcDbLine
 10
79.87173900000001
 20
27.963894
 30
0.0
 11
79.434239
 21
31.436443
 31
0.0
  0
LINE
  5
178
330
1E
100
AcDbEntity
  8
CSLAYER1
  6
CONTINUOUS
 62
     3
100
AcDbLine
 10
88.55467199999997
 20
32.585509
 30
0.0
 11
88.585922
 21
32.33747
 31
0.0
  0
LINE
  5
179
330
1E
100
AcDbEntity
  8
CSLAYER1
  6
CONTINUOUS
 62
     3
100
AcDbLine
 10
88.585922
 20
32.33747
 30
0.0
 11
92.11142100000001
 21
32.781641
 31
0.0
  0
ARC
  5
17A
330
1E
100
AcDbEntity
  8
CSLAYER1
  6
CONTINUOUS
 62
     3
100
AcDbCircle
 10
91.736421
 20
35.758111
 30
0.0
 40
3.0
100
AcDbArc
 50
277.180756
 51
356.961275
  0
LINE
  5
17B
330
1E
100
AcDbEntity
  8
CSLAYER1
  6
CONTINUOUS
 62
     3
100
AcDbLine
 10
88.55467199999997
 20
32.585509
 30
0.0
 11
79.434239
 21
31.436443
 31
0.0
  0
LINE
  5
17C
330
1E
100
AcDbEntity
  8
CSLAYER1
  6
CONTINUOUS
 62
     3
100
AcDbLine
 10
79.521739
 20
30.741933
 30
0.0
 11
88.24728499999997
 21
25.114553
 31
0.0
  0
LINE
  5
17D
330
1E
100
AcDbEntity
  8
CSLAYER1
  6
CONTINUOUS
 62
     3
100
AcDbLine
 10
89.711008
 20
25.56711299999999
 30
0.0
 11
92.82225
 21
32.96151
 31
0.0
  0
LINE
  5
17E
330
1E
100
AcDbEntity
  8
CSLAYER1
  6
CONTINUOUS
 62
     3
100
AcDbLine
 10
89.263115
 20
25.074327
 30
0.0
 11
89.43710899999997
 21
32.444709
 31
0.0
  0
ARC
  5
17F
330
1E
100
AcDbEntity
  8
CSLAYER1
  6
CONTINUOUS
 62
     3
100
AcDbCircle
 10
88.78927500000001
 20
25.954938
 30
0.0
 40
1.0
100
AcDbArc
 50
237.180756
 51
337.180756
  0
LINE
  5
180
330
1E
100
AcDbEntity
  8
CSLAYER1
  6
CONTINUOUS
 62
     3
100
AcDbLine
 10
115.698695
 20
47.596245
 30
0.0
 11
100.9165719999999
 21
45.73387299999999
 31
0.0
  0
DIMENSION
  5
181
330
1E
100
AcDbEntity
  8
CSLAYER1
 62
     4
100
AcDbDimension
  2
*D15
 10
71.56167099999997
 20
38.43644299999999
 30
0.0
 11
70.56166800000003
 21
34.93644299999999
 31
0.0
 70
     1
100
AcDbAlignedDimension
 13
79.434239
 23
31.436443
 33
0.0
 14
79.434239
 24
38.43644299999999
 34
0.0
  0
LINE
  5
182
330
1E
100
AcDbEntity
  8
CSLAYER1
  6
DOT
 62
     3
100
AcDbLine
 10
4.0
 20
1.0
 30
0.0
 11
283.0
 21
1.0
 31
0.0
  0
LINE
  5
183
330
1E
100
AcDbEntity
  8
CSLAYER1
  6
DOT
 62
     3
100
AcDbLine
 10
283.0
 20
1.0
 30
0.0
 11
283.0
 21
195.0
 31
0.0
  0
LINE
  5
184
330
1E
100
AcDbEntity
  8
CSLAYER1
  6
DOT
 62
     3
100
AcDbLine
 10
283.0
 20
195.0
 30
0.0
 11
4.0
 21
195.0
 31
0.0
  0
LINE
  5
185
330
1E
100
AcDbEntity
  8
CSLAYER1
  6
DOT
 62
     3
100
AcDbLine
 10
4.0
 20
195.0
 30
0.0
 11
4.0
 21
1.0
 31
0.0
  0
LINE
  5
186
330
1E
100
AcDbEntity
  8
CSLAYER1
  6
DOT
 62
     3
100
AcDbLine
 10
143.5
 20
195.0
 30
0.0
 11
143.5
 21
199.0
 31
0.0
  0
LINE
  5
187
330
1E
100
AcDbEntity
  8
CSLAYER1
  6
DOT
 62
     3
100
AcDbLine
 10
4.0
 20
98.0
 30
0.0
 11
0.0
 21
98.0
 31
0.0
  0
ENDSEC
  0
SECTION
  2
OBJECTS
  0
DICTIONARY
  5
C
330
0
100
AcDbDictionary
  3
ACAD_GROUP
350
D
  3
ACAD_LAYOUT
350
19
  3
ACAD_MLINESTYLE
350
16
  3
ACAD_PLOTSETTINGS
350
18
1001
ACAD
1000
TREAT_AS_HARD
1070
     0
1000
TREAT_AS_HARD
1070
     0
  0
DICTIONARY
  5
191
330
1E
100
AcDbDictionary
  3
ACAD_LAYOUTSELFREF
350
1DA
1001
ACAD
1000
TREAT_AS_HARD
1070
     0
  0
DICTIONARY
  5
18F
330
1A
100
AcDbDictionary
  3
ACAD_LAYOUTSELFREF
350
1D9
1001
ACAD
1000
TREAT_AS_HARD
1070
     0
  0
DICTIONARY
  5
D
102
{ACAD_REACTORS
330
C
102
}
330
C
100
AcDbDictionary
1001
ACAD
1000
TREAT_AS_HARD
1070
     0
1000
TREAT_AS_HARD
1070
     0
  0
DICTIONARY
  5
19
102
{ACAD_REACTORS
330
C
102
}
330
C
100
AcDbDictionary
1001
ACAD
1000
TREAT_AS_HARD
1070
     0
1000
TREAT_AS_HARD
1070
     0
  0
DICTIONARY
  5
16
102
{ACAD_REACTORS
330
C
102
}
330
C
100
AcDbDictionary
  3
STANDARD
350
17
1001
ACAD
1000
TREAT_AS_HARD
1070
     0
1000
TREAT_AS_HARD
1070
     0
  0
DICTIONARY
  5
18
102
{ACAD_REACTORS
330
C
102
}
330
C
100
AcDbDictionary
1001
ACAD
1000
TREAT_AS_HARD
1070
     0
1000
TREAT_AS_HARD
1070
     0
  0
XRECORD
  5
1DA
102
{ACAD_REACTORS
330
191
102
}
330
191
100
AcDbXrecord
340
1E
  0
XRECORD
  5
1D9
102
{ACAD_REACTORS
330
18F
102
}
330
18F
100
AcDbXrecord
340
1A
  0
MLINESTYLE
  5
17
102
{ACAD_REACTORS
330
16
102
}
330
16
100
AcDbMlineStyle
  2
STANDARD
 70
     0
  3

 62
   256
 51
90.0
 52
90.0
 71
     2
 49
0.5
 62
   256
  6
BYLAYER
 49
-0.5
 62
   256
  6
BYLAYER
  0
ENDSEC
  0
EOF
