  0
SECTION
  2
HEADER
  9
$ACADVER
  1
AC1012
  9
$DWGCODEPAGE
  3
dos932
  9
$INSBASE
 10
0.0
 20
0.0
 30
0.0
  9
$EXTMIN
 10
26.0
 20
39.0
 30
0.0
  9
$EXTMAX
 10
282.0
 20
178.2811095608402
 30
0.0
  9
$LIMMIN
 10
0.0
 20
0.0
  9
$LIMMAX
 10
297.0
 20
210.0
  9
$ORTHOMODE
 70
     0
  9
$REGENMODE
 70
     1
  9
$FILLMODE
 70
     1
  9
$QTEXTMODE
 70
     0
  9
$MIRRTEXT
 70
     0
  9
$DRAGMODE
 70
     2
  9
$LTSCALE
 40
0.5
  9
$OSMODE
 70
    37
  9
$ATTMODE
 70
     1
  9
$TEXTSIZE
 40
3.0
  9
$TRACEWID
 40
1.0
  9
$TEXTSTYLE
  7
GOTHIC
  9
$CLAYER
  8
0
  9
$CELTYPE
  6
BYLAYER
  9
$CECOLOR
 62
   256
  9
$CELTSCALE
 40
1.0
  9
$DELOBJ
 70
     1
  9
$DISPSILH
 70
     0
  9
$DIMSCALE
 40
1.0
  9
$DIMASZ
 40
2.0
  9
$DIMEXO
 40
0.0
  9
$DIMDLI
 40
3.0
  9
$DIMRND
 40
0.0
  9
$DIMDLE
 40
0.0
  9
$DIMEXE
 40
3.0
  9
$DIMTP
 40
0.0
  9
$DIMTM
 40
0.0
  9
$DIMTXT
 40
3.0
  9
$DIMCEN
 40
0.0
  9
$DIMTSZ
 40
0.0
  9
$DIMTOL
 70
     0
  9
$DIMLIM
 70
     0
  9
$DIMTIH
 70
     0
  9
$DIMTOH
 70
     0
  9
$DIMSE1
 70
     0
  9
$DIMSE2
 70
     0
  9
$DIMTAD
 70
     1
  9
$DIMZIN
 70
     8
  9
$DIMBLK
  1
OPEN30
  9
$DIMASO
 70
     1
  9
$DIMSHO
 70
     1
  9
$DIMPOST
  1

  9
$DIMAPOST
  1

  9
$DIMALT
 70
     0
  9
$DIMALTD
 70
     3
  9
$DIMALTF
 40
0.03937007874016
  9
$DIMLFAC
 40
1.0
  9
$DIMTOFL
 70
     1
  9
$DIMTVP
 40
0.0
  9
$DIMTIX
 70
     0
  9
$DIMSOXD
 70
     0
  9
$DIMSAH
 70
     0
  9
$DIMBLK1
  1

  9
$DIMBLK2
  1

  9
$DIMSTYLE
  2
VESSEL_ENGINEERING_ORIGINA
  9
$DIMCLRD
 70
   256
  9
$DIMCLRE
 70
   256
  9
$DIMCLRT
 70
   256
  9
$DIMTFAC
 40
1.0
  9
$DIMGAP
 40
1.0
  9
$DIMJUST
 70
     0
  9
$DIMSD1
 70
     0
  9
$DIMSD2
 70
     0
  9
$DIMTOLJ
 70
     1
  9
$DIMTZIN
 70
     0
  9
$DIMALTZ
 70
     0
  9
$DIMALTTZ
 70
     0
  9
$DIMFIT
 70
     3
  9
$DIMUPT
 70
     0
  9
$DIMUNIT
 70
     2
  9
$DIMDEC
 70
     4
  9
$DIMTDEC
 70
     4
  9
$DIMALTU
 70
     2
  9
$DIMALTTD
 70
     2
  9
$DIMTXSTY
  7
STANDARD
  9
$DIMAUNIT
 70
     0
  9
$LUNITS
 70
     2
  9
$LUPREC
 70
     4
  9
$SKETCHINC
 40
1.0
  9
$FILLETRAD
 40
0.0
  9
$AUNITS
 70
     0
  9
$AUPREC
 70
     0
  9
$MENU
  1
.
  9
$ELEVATION
 40
0.0
  9
$PELEVATION
 40
0.0
  9
$THICKNESS
 40
0.0
  9
$LIMCHECK
 70
     0
  9
$BLIPMODE
 70
     1
  9
$CHAMFERA
 40
0.0
  9
$CHAMFERB
 40
0.0
  9
$CHAMFERC
 40
0.0
  9
$CHAMFERD
 40
0.0
  9
$SKPOLY
 70
     0
  9
$TDCREATE
 40
2452943.629374999
  9
$TDUPDATE
 40
2453517.697490544
  9
$TDINDWG
 40
0.3415747569
  9
$TDUSRTIMER
 40
0.3415746412
  9
$USRTIMER
 70
     1
  9
$ANGBASE
 50
0.0
  9
$ANGDIR
 70
     0
  9
$PDMODE
 70
     0
  9
$PDSIZE
 40
0.0
  9
$PLINEWID
 40
0.0
  9
$COORDS
 70
     0
  9
$SPLFRAME
 70
     0
  9
$SPLINETYPE
 70
     6
  9
$SPLINESEGS
 70
     8
  9
$ATTDIA
 70
     0
  9
$ATTREQ
 70
     1
  9
$HANDLING
 70
 22529
  9
$HANDSEED
  5
25D4
  9
$SURFTAB1
 70
     6
  9
$SURFTAB2
 70
     6
  9
$SURFTYPE
 70
     6
  9
$SURFU
 70
     6
  9
$SURFV
 70
     6
  9
$UCSNAME
  2

  9
$UCSORG
 10
0.0
 20
0.0
 30
0.0
  9
$UCSXDIR
 10
1.0
 20
0.0
 30
0.0
  9
$UCSYDIR
 10
0.0
 20
1.0
 30
0.0
  9
$PUCSNAME
  2

  9
$PUCSORG
 10
0.0
 20
0.0
 30
0.0
  9
$PUCSXDIR
 10
1.0
 20
0.0
 30
0.0
  9
$PUCSYDIR
 10
0.0
 20
1.0
 30
0.0
  9
$USERI1
 70
     0
  9
$USERI2
 70
     0
  9
$USERI3
 70
     0
  9
$USERI4
 70
     0
  9
$USERI5
 70
     0
  9
$USERR1
 40
0.0
  9
$USERR2
 40
0.0
  9
$USERR3
 40
0.0
  9
$USERR4
 40
0.0
  9
$USERR5
 40
0.0
  9
$WORLDVIEW
 70
     1
  9
$SHADEDGE
 70
     3
  9
$SHADEDIF
 70
    70
  9
$TILEMODE
 70
     1
  9
$MAXACTVP
 70
    64
  9
$PINSBASE
 10
0.0
 20
0.0
 30
0.0
  9
$PLIMCHECK
 70
     0
  9
$PEXTMIN
 10
1.000000000000000E+20
 20
1.000000000000000E+20
 30
1.000000000000000E+20
  9
$PEXTMAX
 10
-1.000000000000000E+20
 20
-1.000000000000000E+20
 30
-1.000000000000000E+20
  9
$PLIMMIN
 10
-3.17498779296875
 20
-3.174999952316284
  9
$PLIMMAX
 10
293.8145141601562
 20
206.8194916248321
  9
$UNITMODE
 70
     0
  9
$VISRETAIN
 70
     1
  9
$PLINEGEN
 70
     0
  9
$PSLTSCALE
 70
     0
  9
$TREEDEPTH
 70
  3020
  9
$PICKSTYLE
 70
     3
  9
$CMLSTYLE
  2
STANDARD
  9
$CMLJUST
 70
     0
  9
$CMLSCALE
 40
1.0
  9
$SAVEIMAGES
 70
     1
  0
ENDSEC
  0
SECTION
  2
CLASSES
  0
CLASS
  1
ACDBDICTIONARYWDFLT
  2
AcDbDictionaryWithDefault
  3
AutoCAD 2000
 90
    32768
280
     0
281
     0
  0
CLASS
  1
ACDBPLACEHOLDER
  2
AcDbPlaceHolder
  3
AutoCAD 2000
 90
    32768
280
     0
281
     0
  0
CLASS
  1
LAYOUT
  2
AcDbLayout
  3
AutoCAD 2000
 90
    32768
280
     0
281
     0
  0
CLASS
  1
DICTIONARYVAR
  2
AcDbDictionaryVar
  3
AutoCAD 2000
 90
    32768
280
     0
281
     0
  0
CLASS
  1
LONG_TRANSACTION
  2
AcDbLongTransaction
  3
AutoCAD 2000
 90
    32768
280
     0
281
     0
  0
CLASS
  1
LWPOLYLINE
  2
AcDbPolyline
  3
AutoCAD 2000
 90
    32768
280
     0
281
     1
  0
CLASS
  1
HATCH
  2
AcDbHatch
  3
AutoCAD 2000
 90
    32768
280
     0
281
     1
  0
CLASS
  1
XRECORD
  2
AcDbXrecord
  3
AutoCAD 2000
 90
    32768
280
     0
281
     0
  0
ENDSEC
  0
SECTION
  2
TABLES
  0
TABLE
  2
VPORT
  5
22E3
330
0
100
AcDbSymbolTable
 70
     2
  0
VPORT
  5
25CF
330
22E3
100
AcDbSymbolTableRecord
100
AcDbViewportTableRecord
  2
*ACTIVE
 70
     0
 10
0.0
 20
0.0
 11
1.0
 21
1.0
 12
148.4999999999998
 22
125.2346371210113
 13
0.0
 23
0.0
 14
3.0
 24
3.0
 15
3.0
 25
3.0
 16
0.0
 26
0.0
 36
1.0
 17
0.0
 27
0.0
 37
0.0
 40
252.8332517279513
 41
1.458837772397094
 42
50.0
 43
0.0
 44
0.0
 50
0.0
 51
0.0
 71
     0
 72
 20000
 73
     1
 74
     3
 75
     0
 76
     0
 77
     0
 78
     0
  0
ENDTAB
  0
TABLE
  2
LTYPE
  5
22E0
330
0
100
AcDbSymbolTable
 70
     6
  0
LTYPE
  5
22EE
330
22E0
100
AcDbSymbolTableRecord
100
AcDbLinetypeTableRecord
  2
BYBLOCK
 70
     0
  3

 72
    65
 73
     0
 40
0.0
  0
LTYPE
  5
22EF
330
22E0
100
AcDbSymbolTableRecord
100
AcDbLinetypeTableRecord
  2
BYLAYER
 70
     0
  3

 72
    65
 73
     0
 40
0.0
  0
LTYPE
  5
22F0
330
22E0
100
AcDbSymbolTableRecord
100
AcDbLinetypeTableRecord
  2
CONTINUOUS
 70
     0
  3
Solid line
 72
    65
 73
     0
 40
0.0
  0
LTYPE
  5
22FF
330
22E0
100
AcDbSymbolTableRecord
100
AcDbLinetypeTableRecord
  2
CENTER2
 70
     0
  3
Center (.5x) ___ _ ___ _ ___ _ ___ _ ___ _ ___
 72
    65
 73
     4
 40
28.57499999999999
 49
19.05
 74
     0
 49
-3.174999999999998
 74
     0
 49
3.174999999999998
 74
     0
 49
-3.174999999999998
 74
     0
  0
LTYPE
  5
2300
330
22E0
100
AcDbSymbolTableRecord
100
AcDbLinetypeTableRecord
  2
DASHED2
 70
     0
  3
Dashed (.5x) _ _ _ _ _ _ _ _ _ _ _ _ _ _ _ _ _
 72
    65
 73
     2
 40
9.524999999999998
 49
6.349999999999998
 74
     0
 49
-3.174999999999998
 74
     0
  0
LTYPE
  5
2301
330
22E0
100
AcDbSymbolTableRecord
100
AcDbLinetypeTableRecord
  2
HIDDEN2
 70
     0
  3
Hidden (.5x) _ _ _ _ _ _ _ _ _ _ _ _ _ _ _ _ _
 72
    65
 73
     2
 40
4.762499999999999
 49
3.174999999999998
 74
     0
 49
-1.587499999999999
 74
     0
  0
LTYPE
  5
2302
330
22E0
100
AcDbSymbolTableRecord
100
AcDbLinetypeTableRecord
  2
PHANTOM2
 70
     0
  3
Phantom (.5x) ___ _ _ ___ _ _ ___ _ _ ___ _ _
 72
    65
 73
     6
 40
31.75
 49
15.875
 74
     0
 49
-3.174999999999998
 74
     0
 49
3.174999999999998
 74
     0
 49
-3.174999999999998
 74
     0
 49
3.174999999999998
 74
     0
 49
-3.174999999999998
 74
     0
  0
LTYPE
  5
2303
330
22E0
100
AcDbSymbolTableRecord
100
AcDbLinetypeTableRecord
  2
CENTER
 70
     0
  3
____ _ ____ _ ____ _ ____ _ ____ _ ____ _ ____
 72
    65
 73
     4
 40
2.0
 49
1.25
 74
     0
 49
-0.25
 74
     0
 49
0.25
 74
     0
 49
-0.25
 74
     0
  0
ENDTAB
  0
TABLE
  2
LAYER
  5
22DD
330
0
100
AcDbSymbolTable
 70
     9
  0
LAYER
  5
22EB
330
22DD
100
AcDbSymbolTableRecord
100
AcDbLayerTableRecord
  2
0
 70
     0
 62
     7
  6
CONTINUOUS
  0
LAYER
  5
2304
330
22DD
100
AcDbSymbolTableRecord
100
AcDbLayerTableRecord
  2
LINE
 70
     0
 62
     2
  6
CONTINUOUS
  0
LAYER
  5
2305
330
22DD
100
AcDbSymbolTableRecord
100
AcDbLayerTableRecord
  2
CENTER
 70
     0
 62
     4
  6
CENTER2
  0
LAYER
  5
2306
330
22DD
100
AcDbSymbolTableRecord
100
AcDbLayerTableRecord
  2
DIMENSION
 70
     0
 62
     3
  6
CONTINUOUS
  0
LAYER
  5
2307
330
22DD
100
AcDbSymbolTableRecord
100
AcDbLayerTableRecord
  2
HIDDEN
 70
     0
 62
     4
  6
HIDDEN2
  0
LAYER
  5
2308
330
22DD
100
AcDbSymbolTableRecord
100
AcDbLayerTableRecord
  2
TEXT
 70
     0
 62
     3
  6
CONTINUOUS
  0
LAYER
  5
2309
330
22DD
100
AcDbSymbolTableRecord
100
AcDbLayerTableRecord
  2
DEFPOINTS
 70
     0
 62
    -7
  6
CONTINUOUS
  0
LAYER
  5
230A
330
22DD
100
AcDbSymbolTableRecord
100
AcDbLayerTableRecord
  2
HATCHING
 70
     0
 62
     7
  6
CONTINUOUS
  0
LAYER
  5
230B
330
22DD
100
AcDbSymbolTableRecord
100
AcDbLayerTableRecord
  2
UNDER_LINE
 70
     0
 62
     6
  6
CONTINUOUS
  0
ENDTAB
  0
TABLE
  2
STYLE
  5
22DE
330
0
100
AcDbSymbolTable
 70
     5
  0
STYLE
  5
22EC
330
22DE
100
AcDbSymbolTableRecord
100
AcDbTextStyleTableRecord
  2
STANDARD
 70
     0
 40
0.0
 41
1.0
 50
0.0
 71
     0
 42
2.5
  3
txt
  4

  0
STYLE
  5
22FD
330
22DE
100
AcDbSymbolTableRecord
100
AcDbTextStyleTableRecord
  2
GOTHIC
 70
     0
 40
0.0
 41
1.0
 50
0.0
 71
     0
 42
3.0
  3
txt.shx
  4
bigfont.shx
  0
STYLE
  5
230C
330
22DE
100
AcDbSymbolTableRecord
100
AcDbTextStyleTableRecord
  2

 70
     1
 40
0.0
 41
1.0
 50
0.0
 71
     0
 42
2.5
  3
ltypeshp.shx
  4

  0
STYLE
  5
230D
330
22DE
100
AcDbSymbolTableRecord
100
AcDbTextStyleTableRecord
  2
KANJI
 70
     0
 40
0.0
 41
1.0
 50
0.0
 71
     0
 42
2.5
  3
romans.shx
  4
extfont.shx
  0
STYLE
  5
230E
330
22DE
100
AcDbSymbolTableRecord
100
AcDbTextStyleTableRecord
  2
KANJI1
 70
     0
 40
0.0
 41
1.0
 50
0.0
 71
     0
 42
0.2
  3
txt.shx
  4
BIGFONT
  0
ENDTAB
  0
TABLE
  2
VIEW
  5
22E1
330
0
100
AcDbSymbolTable
 70
     0
  0
ENDTAB
  0
TABLE
  2
UCS
  5
22E2
330
0
100
AcDbSymbolTable
 70
     0
  0
ENDTAB
  0
TABLE
  2
APPID
  5
22E4
330
0
100
AcDbSymbolTable
 70
    10
  0
APPID
  5
22ED
330
22E4
100
AcDbSymbolTableRecord
100
AcDbRegAppTableRecord
  2
ACAD
 70
     0
  0
APPID
  5
230F
330
22E4
100
AcDbSymbolTableRecord
100
AcDbRegAppTableRecord
  2
ACAD_DSTYLE_DIMTEXT_FILL
 70
     0
  0
APPID
  5
2310
330
22E4
100
AcDbSymbolTableRecord
100
AcDbRegAppTableRecord
  2
ACAD_DSTYLE_DIMEXT_LENGTH
 70
     0
  0
APPID
  5
2311
330
22E4
100
AcDbSymbolTableRecord
100
AcDbRegAppTableRecord
  2
ACAD_DSTYLE_DIMEXT_ENABLED
 70
     0
  0
APPID
  5
2312
330
22E4
100
AcDbSymbolTableRecord
100
AcDbRegAppTableRecord
  2
ACAD_DSTYLE_DIM_LINETYPE
 70
     0
  0
APPID
  5
2313
330
22E4
100
AcDbSymbolTableRecord
100
AcDbRegAppTableRecord
  2
ACAD_DSTYLE_DIM_EXT1_LINETYPE
 70
     0
  0
APPID
  5
2314
330
22E4
100
AcDbSymbolTableRecord
100
AcDbRegAppTableRecord
  2
ACAD_DSTYLE_DIM_EXT2_LINETYPE
 70
     0
  0
APPID
  5
2315
330
22E4
100
AcDbSymbolTableRecord
100
AcDbRegAppTableRecord
  2
ACAD_DSTYLE_DIMJOGGED_JOGA
 70
     0
  0
APPID
  5
2316
330
22E4
100
AcDbSymbolTableRecord
100
AcDbRegAppTableRecord
  2
ACAD_DSTYLE_DIMARC_LENGTH_
 70
     0
  0
APPID
  5
2317
330
22E4
100
AcDbSymbolTableRecord
100
AcDbRegAppTableRecord
  2
CONTENTBLOCKICON
 70
     0
  0
ENDTAB
  0
TABLE
  2
DIMSTYLE
  5
22E5
330
0
100
AcDbSymbolTable
 70
     9
  0
DIMSTYLE
105
2318
102
{ACAD_REACTORS
330
25AF
330
25B0
330
25B1
330
25B2
330
25B3
330
25B4
330
25B5
330
25B6
330
25B7
330
25B8
330
25B9
330
25BA
330
25BB
330
25BC
330
25BD
330
25BE
330
25BF
330
25C0
330
25C1
330
25C2
330
25C3
102
}
330
22E5
100
AcDbSymbolTableRecord
100
AcDbDimStyleTableRecord
  2
ISO-25
 70
     0
  3

  4

  5

  6

  7

 40
1.0
 41
2.5
 42
0.625
 43
3.75
 44
1.25
 45
0.0
 46
0.0
 47
0.0
 48
0.0
140
2.5
141
2.5
142
0.0
143
0.03937007874016
144
1.0
145
0.0
146
1.0
147
0.625
 71
     0
 72
     0
 73
     0
 74
     0
 75
     0
 76
     0
 77
     1
 78
     8
170
     0
171
     3
172
     1
173
     0
174
     0
175
     0
176
     0
177
     0
178
     0
270
     2
271
     4
272
     4
273
     2
274
     3
340
22FD
275
     0
280
     0
281
     0
282
     0
283
     1
284
     8
285
     8
286
     8
287
     5
288
     0
  0
DIMSTYLE
105
2319
330
22E5
100
AcDbSymbolTableRecord
100
AcDbDimStyleTableRecord
  2
VESSEL_ENGINEERING_ORIGINA
 70
     0
  3

  4

  5

  6

  7

 40
1.0
 41
2.0
 42
0.0
 43
3.0
 44
3.0
 45
0.0
 46
0.0
 47
0.0
 48
0.0
140
3.0
141
0.0
142
0.0
143
0.03937007874016
144
1.0
145
0.0
146
1.0
147
1.0
 71
     0
 72
     0
 73
     0
 74
     0
 75
     0
 76
     0
 77
     1
 78
     8
170
     0
171
     3
172
     1
173
     0
174
     0
175
     0
176
   256
177
   256
178
   256
270
     2
271
     4
272
     4
273
     2
274
     3
340
22FD
275
     0
280
     0
281
     0
282
     0
283
     1
284
     8
285
     8
286
     8
287
     5
288
     0
  0
DIMSTYLE
105
231A
330
22E5
100
AcDbSymbolTableRecord
100
AcDbDimStyleTableRecord
  2
VESSEL_ENGINEERING_ORIGIN0
 70
     0
  3

  4

  5

  6

  7

 40
1.0
 41
2.0
 42
0.0
 43
3.0
 44
3.0
 45
0.0
 46
0.0
 47
0.0
 48
0.0
140
3.0
141
0.0
142
0.0
143
0.03937007874016
144
1.0
145
0.0
146
1.0
147
1.0
 71
     0
 72
     0
 73
     0
 74
     1
 75
     0
 76
     0
 77
     1
 78
     8
170
     0
171
     3
172
     1
173
     0
174
     0
175
     1
176
   256
177
   256
178
   256
270
     2
271
     4
272
     4
273
     2
274
     3
340
22FD
275
     0
280
     0
281
     0
282
     0
283
     1
284
     8
285
     8
286
     8
287
     5
288
     0
  0
DIMSTYLE
105
231B
330
22E5
100
AcDbSymbolTableRecord
100
AcDbDimStyleTableRecord
  2
VESSEL_ENGINEERING_ORIGIN1
 70
     0
  3

  4

  5

  6

  7

 40
1.0
 41
2.0
 42
0.0
 43
3.0
 44
3.0
 45
0.0
 46
0.0
 47
0.0
 48
0.0
140
3.0
141
0.0
142
0.0
143
0.03937007874016
144
1.0
145
0.0
146
1.0
147
1.0
 71
     0
 72
     0
 73
     0
 74
     0
 75
     0
 76
     0
 77
     1
 78
     8
170
     0
171
     3
172
     1
173
     0
174
     0
175
     0
176
   256
177
   256
178
   256
270
     2
271
     4
272
     4
273
     2
274
     3
340
22FD
275
     0
280
     0
281
     0
282
     0
283
     1
284
     8
285
     8
286
     8
287
     5
288
     0
  0
DIMSTYLE
105
231C
330
22E5
100
AcDbSymbolTableRecord
100
AcDbDimStyleTableRecord
  2
VESSEL_ENGINEERING_ORIGIN2
 70
     0
  3

  4

  5

  6

  7

 40
1.0
 41
2.0
 42
0.0
 43
3.0
 44
3.0
 45
0.0
 46
0.0
 47
0.0
 48
0.0
140
3.0
141
0.0
142
0.0
143
0.03937007874016
144
1.0
145
0.0
146
1.0
147
1.0
 71
     0
 72
     0
 73
     0
 74
     1
 75
     0
 76
     0
 77
     1
 78
     8
170
     0
171
     3
172
     1
173
     0
174
     0
175
     0
176
   256
177
   256
178
   256
270
     2
271
     4
272
     4
273
     2
274
     3
340
22FD
275
     0
280
     0
281
     0
282
     0
283
     1
284
     8
285
     8
286
     8
287
     5
288
     0
  0
DIMSTYLE
105
231D
330
22E5
100
AcDbSymbolTableRecord
100
AcDbDimStyleTableRecord
  2
VESSEL_ENGINEERING_ORIGIN3
 70
     0
  3
φ<>
  4

  5

  6

  7

 40
1.0
 41
2.0
 42
0.0
 43
3.0
 44
3.0
 45
0.0
 46
0.0
 47
0.0
 48
0.0
140
3.0
141
0.0
142
0.0
143
0.03937007874016
144
1.0
145
0.0
146
1.0
147
1.0
 71
     0
 72
     0
 73
     0
 74
     1
 75
     0
 76
     0
 77
     1
 78
     8
170
     0
171
     3
172
     1
173
     0
174
     0
175
     1
176
   256
177
   256
178
   256
270
     2
271
     4
272
     4
273
     2
274
     3
340
22FD
275
     0
280
     0
281
     0
282
     0
283
     1
284
     8
285
     8
286
     8
287
     5
288
     0
  0
DIMSTYLE
105
231E
330
22E5
100
AcDbSymbolTableRecord
100
AcDbDimStyleTableRecord
  2
VESSEL_ENGINEERING_ORIGIN4
 70
     0
  3

  4

  5

  6

  7

 40
1.0
 41
2.0
 42
0.0
 43
3.0
 44
3.0
 45
0.0
 46
0.0
 47
0.0
 48
0.0
140
3.0
141
0.0
142
0.0
143
0.03937007874016
144
1.0
145
0.0
146
1.0
147
1.0
 71
     0
 72
     0
 73
     0
 74
     0
 75
     0
 76
     0
 77
     1
 78
     8
170
     0
171
     3
172
     1
173
     0
174
     0
175
     0
176
   256
177
   256
178
   256
270
     2
271
     4
272
     4
273
     2
274
     3
340
22FD
275
     0
280
     0
281
     0
282
     0
283
     1
284
     8
285
     8
286
     8
287
     5
288
     0
  0
DIMSTYLE
105
231F
330
22E5
100
AcDbSymbolTableRecord
100
AcDbDimStyleTableRecord
  2
VESSEL_ENGINEERING_ORIGIN5
 70
     0
  3

  4

  5

  6

  7

 40
1.0
 41
2.0
 42
0.0
 43
3.0
 44
3.0
 45
0.0
 46
0.0
 47
0.0
 48
0.0
140
3.0
141
0.0
142
0.0
143
0.03937007874016
144
1.0
145
0.0
146
1.0
147
1.0
 71
     0
 72
     0
 73
     0
 74
     0
 75
     0
 76
     0
 77
     1
 78
     8
170
     0
171
     3
172
     1
173
     0
174
     0
175
     0
176
   256
177
   256
178
   256
270
     2
271
     4
272
     4
273
     2
274
     3
340
22FD
275
     0
280
     0
281
     0
282
     0
283
     1
284
     8
285
     8
286
     8
287
     5
288
     0
  0
DIMSTYLE
105
2320
330
22E5
100
AcDbSymbolTableRecord
100
AcDbDimStyleTableRecord
  2
STANDARD
 70
     0
  3

  4

  5

  6

  7

 40
1.0
 41
0.18
 42
0.0625
 43
0.38
 44
0.18
 45
0.0
 46
0.0
 47
0.0
 48
0.0
140
0.18
141
0.09
142
0.0
143
25.4
144
1.0
145
0.0
146
1.0
147
0.09
 71
     0
 72
     0
 73
     1
 74
     1
 75
     0
 76
     0
 77
     0
 78
     0
170
     0
171
     2
172
     0
173
     0
174
     0
175
     0
176
     0
177
     0
178
     0
270
     2
271
     4
272
     4
273
     2
274
     3
340
22FD
275
     0
280
     0
281
     0
282
     0
283
     1
284
     8
285
     8
286
     8
287
     5
288
     0
  0
ENDTAB
  0
TABLE
  2
BLOCK_RECORD
  5
22DC
330
0
100
AcDbSymbolTable
 70
    51
  0
BLOCK_RECORD
  5
22F9
102
{ACAD_XDICTIONARY
360
25D2
102
}
330
22DC
100
AcDbSymbolTableRecord
100
AcDbBlockTableRecord
  2
*MODEL_SPACE
  0
BLOCK_RECORD
  5
22F5
102
{ACAD_XDICTIONARY
360
25D0
102
}
330
22DC
100
AcDbSymbolTableRecord
100
AcDbBlockTableRecord
  2
*PAPER_SPACE
  0
BLOCK_RECORD
  5
2326
330
22DC
100
AcDbSymbolTableRecord
100
AcDbBlockTableRecord
  2
$MODEL_SPACE
  0
BLOCK_RECORD
  5
2329
330
22DC
100
AcDbSymbolTableRecord
100
AcDbBlockTableRecord
  2
$PAPER_SPACE
  0
BLOCK_RECORD
  5
232C
330
22DC
100
AcDbSymbolTableRecord
100
AcDbBlockTableRecord
  2
_OPEN30
  0
BLOCK_RECORD
  5
2332
330
22DC
100
AcDbSymbolTableRecord
100
AcDbBlockTableRecord
  2
*D3
  0
BLOCK_RECORD
  5
2339
330
22DC
100
AcDbSymbolTableRecord
100
AcDbBlockTableRecord
  2
*U4
  0
BLOCK_RECORD
  5
233F
330
22DC
100
AcDbSymbolTableRecord
100
AcDbBlockTableRecord
  2
*D5
  0
BLOCK_RECORD
  5
2346
330
22DC
100
AcDbSymbolTableRecord
100
AcDbBlockTableRecord
  2
*U6
  0
BLOCK_RECORD
  5
234C
330
22DC
100
AcDbSymbolTableRecord
100
AcDbBlockTableRecord
  2
*D7
  0
BLOCK_RECORD
  5
2353
330
22DC
100
AcDbSymbolTableRecord
100
AcDbBlockTableRecord
  2
*U8
  0
BLOCK_RECORD
  5
2359
330
22DC
100
AcDbSymbolTableRecord
100
AcDbBlockTableRecord
  2
*D9
  0
BLOCK_RECORD
  5
2360
330
22DC
100
AcDbSymbolTableRecord
100
AcDbBlockTableRecord
  2
*U10
  0
BLOCK_RECORD
  5
2366
330
22DC
100
AcDbSymbolTableRecord
100
AcDbBlockTableRecord
  2
*D11
  0
BLOCK_RECORD
  5
236D
330
22DC
100
AcDbSymbolTableRecord
100
AcDbBlockTableRecord
  2
*U12
  0
BLOCK_RECORD
  5
2373
330
22DC
100
AcDbSymbolTableRecord
100
AcDbBlockTableRecord
  2
*D13
  0
BLOCK_RECORD
  5
237A
330
22DC
100
AcDbSymbolTableRecord
100
AcDbBlockTableRecord
  2
*U14
  0
BLOCK_RECORD
  5
2380
330
22DC
100
AcDbSymbolTableRecord
100
AcDbBlockTableRecord
  2
*D15
  0
BLOCK_RECORD
  5
2387
330
22DC
100
AcDbSymbolTableRecord
100
AcDbBlockTableRecord
  2
*U16
  0
BLOCK_RECORD
  5
238D
330
22DC
100
AcDbSymbolTableRecord
100
AcDbBlockTableRecord
  2
*D17
  0
BLOCK_RECORD
  5
2394
330
22DC
100
AcDbSymbolTableRecord
100
AcDbBlockTableRecord
  2
*U18
  0
BLOCK_RECORD
  5
239A
330
22DC
100
AcDbSymbolTableRecord
100
AcDbBlockTableRecord
  2
*D19
  0
BLOCK_RECORD
  5
23A1
330
22DC
100
AcDbSymbolTableRecord
100
AcDbBlockTableRecord
  2
*U20
  0
BLOCK_RECORD
  5
23A7
330
22DC
100
AcDbSymbolTableRecord
100
AcDbBlockTableRecord
  2
*D21
  0
BLOCK_RECORD
  5
23AE
330
22DC
100
AcDbSymbolTableRecord
100
AcDbBlockTableRecord
  2
*U22
  0
BLOCK_RECORD
  5
23B4
330
22DC
100
AcDbSymbolTableRecord
100
AcDbBlockTableRecord
  2
*D23
  0
BLOCK_RECORD
  5
23BB
330
22DC
100
AcDbSymbolTableRecord
100
AcDbBlockTableRecord
  2
*U24
  0
BLOCK_RECORD
  5
23C1
330
22DC
100
AcDbSymbolTableRecord
100
AcDbBlockTableRecord
  2
*D25
  0
BLOCK_RECORD
  5
23C8
330
22DC
100
AcDbSymbolTableRecord
100
AcDbBlockTableRecord
  2
*U26
  0
BLOCK_RECORD
  5
23CE
330
22DC
100
AcDbSymbolTableRecord
100
AcDbBlockTableRecord
  2
*D27
  0
BLOCK_RECORD
  5
23D5
330
22DC
100
AcDbSymbolTableRecord
100
AcDbBlockTableRecord
  2
*U28
  0
BLOCK_RECORD
  5
23DB
330
22DC
100
AcDbSymbolTableRecord
100
AcDbBlockTableRecord
  2
*D29
  0
BLOCK_RECORD
  5
23E2
330
22DC
100
AcDbSymbolTableRecord
100
AcDbBlockTableRecord
  2
*U30
  0
BLOCK_RECORD
  5
23E8
330
22DC
100
AcDbSymbolTableRecord
100
AcDbBlockTableRecord
  2
*D31
  0
BLOCK_RECORD
  5
23EF
330
22DC
100
AcDbSymbolTableRecord
100
AcDbBlockTableRecord
  2
*U32
  0
BLOCK_RECORD
  5
23F5
330
22DC
100
AcDbSymbolTableRecord
100
AcDbBlockTableRecord
  2
*D33
  0
BLOCK_RECORD
  5
23FC
330
22DC
100
AcDbSymbolTableRecord
100
AcDbBlockTableRecord
  2
*U34
  0
BLOCK_RECORD
  5
2402
330
22DC
100
AcDbSymbolTableRecord
100
AcDbBlockTableRecord
  2
*D35
  0
BLOCK_RECORD
  5
2409
330
22DC
100
AcDbSymbolTableRecord
100
AcDbBlockTableRecord
  2
*U36
  0
BLOCK_RECORD
  5
240F
330
22DC
100
AcDbSymbolTableRecord
100
AcDbBlockTableRecord
  2
*D37
  0
BLOCK_RECORD
  5
2416
330
22DC
100
AcDbSymbolTableRecord
100
AcDbBlockTableRecord
  2
*U38
  0
BLOCK_RECORD
  5
241C
330
22DC
100
AcDbSymbolTableRecord
100
AcDbBlockTableRecord
  2
*D39
  0
BLOCK_RECORD
  5
2423
330
22DC
100
AcDbSymbolTableRecord
100
AcDbBlockTableRecord
  2
*U40
  0
BLOCK_RECORD
  5
2429
330
22DC
100
AcDbSymbolTableRecord
100
AcDbBlockTableRecord
  2
*D41
  0
BLOCK_RECORD
  5
2430
330
22DC
100
AcDbSymbolTableRecord
100
AcDbBlockTableRecord
  2
*U42
  0
BLOCK_RECORD
  5
2436
330
22DC
100
AcDbSymbolTableRecord
100
AcDbBlockTableRecord
  2
*D43
  0
BLOCK_RECORD
  5
243D
330
22DC
100
AcDbSymbolTableRecord
100
AcDbBlockTableRecord
  2
*U44
  0
BLOCK_RECORD
  5
2443
330
22DC
100
AcDbSymbolTableRecord
100
AcDbBlockTableRecord
  2
*D45
  0
BLOCK_RECORD
  5
244A
330
22DC
100
AcDbSymbolTableRecord
100
AcDbBlockTableRecord
  2
*U46
  0
BLOCK_RECORD
  5
245F
330
22DC
100
AcDbSymbolTableRecord
100
AcDbBlockTableRecord
  2
*U47
  0
BLOCK_RECORD
  5
2469
330
22DC
100
AcDbSymbolTableRecord
100
AcDbBlockTableRecord
  2
*U48
  0
BLOCK_RECORD
  5
246D
330
22DC
100
AcDbSymbolTableRecord
100
AcDbBlockTableRecord
  2
*U49
  0
BLOCK_RECORD
  5
2477
330
22DC
100
AcDbSymbolTableRecord
100
AcDbBlockTableRecord
  2
*U50
  0
ENDTAB
  0
ENDSEC
  0
SECTION
  2
BLOCKS
  0
BLOCK
  5
22FA
330
22F9
100
AcDbEntity
  8
0
100
AcDbBlockBegin
  2
*MODEL_SPACE
 70
     0
 10
0.0
 20
0.0
 30
0.0
  3
*MODEL_SPACE
  1

  0
ENDBLK
  5
22FB
330
22F9
100
AcDbEntity
  8
0
100
AcDbBlockEnd
  0
BLOCK
  5
22F6
330
22F5
100
AcDbEntity
 67
     1
  8
0
100
AcDbBlockBegin
  2
*PAPER_SPACE
 70
     0
 10
0.0
 20
0.0
 30
0.0
  3
*PAPER_SPACE
  1

  0
ENDBLK
  5
22F7
330
22F5
100
AcDbEntity
 67
     1
  8
0
100
AcDbBlockEnd
  0
BLOCK
  5
2327
330
2326
100
AcDbEntity
  8
0
100
AcDbBlockBegin
  2
$MODEL_SPACE
 70
     0
 10
0.0
 20
0.0
 30
0.0
  3
$MODEL_SPACE
  1

  0
ENDBLK
  5
2328
330
2326
100
AcDbEntity
  8
0
100
AcDbBlockEnd
  0
BLOCK
  5
232A
330
2329
100
AcDbEntity
  8
0
100
AcDbBlockBegin
  2
$PAPER_SPACE
 70
     0
 10
0.0
 20
0.0
 30
0.0
  3
$PAPER_SPACE
  1

  0
ENDBLK
  5
232B
330
2329
100
AcDbEntity
  8
0
100
AcDbBlockEnd
  0
BLOCK
  5
232D
330
232C
100
AcDbEntity
  8
0
100
AcDbBlockBegin
  2
_OPEN30
 70
     0
 10
0.0
 20
0.0
 30
0.0
  3
_OPEN30
  1

  0
LINE
  5
232E
330
232C
100
AcDbEntity
  8
0
  6
BYBLOCK
 62
     0
100
AcDbLine
 10
-1.0
 20
0.26794919
 30
0.0
 11
0.0
 21
0.0
 31
0.0
  0
LINE
  5
232F
330
232C
100
AcDbEntity
  8
0
  6
BYBLOCK
 62
     0
100
AcDbLine
 10
0.0
 20
0.0
 30
0.0
 11
-1.0
 21
-0.26794919
 31
0.0
  0
LINE
  5
2330
330
232C
100
AcDbEntity
  8
0
  6
BYBLOCK
 62
     0
100
AcDbLine
 10
0.0
 20
0.0
 30
0.0
 11
-1.0
 21
0.0
 31
0.0
  0
ENDBLK
  5
2331
330
232C
100
AcDbEntity
  8
0
100
AcDbBlockEnd
  0
BLOCK
  5
2333
330
2332
100
AcDbEntity
  8
0
100
AcDbBlockBegin
  2
*D3
 70
     1
 10
0.0
 20
0.0
 30
0.0
  3
*D3
  1

  0
LINE
  5
2334
330
2332
100
AcDbEntity
  8
DIMENSION
100
AcDbLine
 10
39.0
 20
159.0000139999999
 30
0.0
 11
33.0
 21
159.0000139999999
 31
0.0
  0
LINE
  5
2335
330
2332
100
AcDbEntity
  8
DIMENSION
100
AcDbLine
 10
39.0
 20
139.0000139999999
 30
0.0
 11
33.0
 21
139.0000139999999
 31
0.0
  0
LINE
  5
2336
330
2332
100
AcDbEntity
  8
DIMENSION
100
AcDbLine
 10
36.0
 20
157.0000139999999
 30
0.0
 11
36.0
 21
141.000014
 31
0.0
  0
INSERT
  5
2337
330
2332
100
AcDbEntity
  8
DIMENSION
100
AcDbBlockReference
  2
_OPEN30
 10
36.0
 20
159.0000139999999
 30
0.0
 41
2.0
 42
2.0
 43
2.0
 50
90.0
  0
INSERT
  5
2338
330
2332
100
AcDbEntity
  8
DIMENSION
100
AcDbBlockReference
  2
_OPEN30
 10
36.0
 20
139.0000139999999
 30
0.0
 41
2.0
 42
2.0
 43
2.0
 50
270.0
  0
INSERT
  5
233A
330
2332
100
AcDbEntity
  8
0
100
AcDbBlockReference
  2
*U4
 10
0.0
 20
0.0
 30
0.0
  0
POINT
  5
233B
330
2332
100
AcDbEntity
  8
DEFPOINTS
 62
     0
100
AcDbPoint
 10
39.0
 20
159.0000139999999
 30
0.0
  0
POINT
  5
233C
330
2332
100
AcDbEntity
  8
DEFPOINTS
 62
     0
100
AcDbPoint
 10
39.0
 20
139.0000139999999
 30
0.0
  0
POINT
  5
233D
330
2332
100
AcDbEntity
  8
DEFPOINTS
 62
     0
100
AcDbPoint
 10
36.0
 20
139.0000139999999
 30
0.0
  0
ENDBLK
  5
233E
330
2332
100
AcDbEntity
  8
0
100
AcDbBlockEnd
  0
BLOCK
  5
2450
330
2339
100
AcDbEntity
  8
0
100
AcDbBlockBegin
  2
*U4
 70
     1
 10
0.0
 20
0.0
 30
0.0
  3
*U4
  1

  0
TEXT
  5
2451
330
2339
100
AcDbEntity
  8
DIMENSION
100
AcDbText
 10
34.99999999999998
 20
147.0355469949238
 30
0.0
 40
3.0
  1
20
 50
90.0
  7
GOTHIC
100
AcDbText
  0
ENDBLK
  5
2452
330
2339
100
AcDbEntity
  8
0
100
AcDbBlockEnd
  0
BLOCK
  5
2340
330
233F
100
AcDbEntity
  8
0
100
AcDbBlockBegin
  2
*D5
 70
     1
 10
0.0
 20
0.0
 30
0.0
  3
*D5
  1

  0
LINE
  5
2341
330
233F
100
AcDbEntity
  8
DIMENSION
100
AcDbLine
 10
44.00000499999999
 20
126.0
 30
0.0
 11
44.00000499999999
 21
120.0
 31
0.0
  0
LINE
  5
2342
330
233F
100
AcDbEntity
  8
DIMENSION
100
AcDbLine
 10
74.00000499357971
 20
125.9999999982797
 30
0.0
 11
74.00000499357971
 21
120.0
 31
0.0
  0
LINE
  5
2343
330
233F
100
AcDbEntity
  8
DIMENSION
100
AcDbLine
 10
46.000005
 20
123.0
 30
0.0
 11
72.00000499357971
 21
123.0
 31
0.0
  0
INSERT
  5
2344
330
233F
100
AcDbEntity
  8
DIMENSION
100
AcDbBlockReference
  2
_OPEN30
 10
44.00000499999999
 20
123.0
 30
0.0
 41
2.0
 42
2.0
 43
2.0
 50
180.0
  0
INSERT
  5
2345
330
233F
100
AcDbEntity
  8
DIMENSION
100
AcDbBlockReference
  2
_OPEN30
 10
74.00000499357971
 20
123.0
 30
0.0
 41
2.0
 42
2.0
 43
2.0
  0
INSERT
  5
2347
330
233F
100
AcDbEntity
  8
0
100
AcDbBlockReference
  2
*U6
 10
0.0
 20
0.0
 30
0.0
  0
POINT
  5
2348
330
233F
100
AcDbEntity
  8
DEFPOINTS
 62
     0
100
AcDbPoint
 10
44.00000499999999
 20
126.0
 30
0.0
  0
POINT
  5
2349
330
233F
100
AcDbEntity
  8
DEFPOINTS
 62
     0
100
AcDbPoint
 10
74.00000499357971
 20
125.9999999982797
 30
0.0
  0
POINT
  5
234A
330
233F
100
AcDbEntity
  8
DEFPOINTS
 62
     0
100
AcDbPoint
 10
74.00000499357971
 20
123.0
 30
0.0
  0
ENDBLK
  5
234B
330
233F
100
AcDbEntity
  8
0
100
AcDbBlockEnd
  0
BLOCK
  5
249F
330
2346
100
AcDbEntity
  8
0
100
AcDbBlockBegin
  2
*U6
 70
     1
 10
0.0
 20
0.0
 30
0.0
  3
*U6
  1

  0
TEXT
  5
24A0
330
2346
100
AcDbEntity
  8
DIMENSION
100
AcDbText
 10
57.04315220491167
 20
124.0
 30
0.0
 40
3.0
  1
30
  7
GOTHIC
100
AcDbText
  0
ENDBLK
  5
24A1
330
2346
100
AcDbEntity
  8
0
100
AcDbBlockEnd
  0
BLOCK
  5
234D
330
234C
100
AcDbEntity
  8
0
100
AcDbBlockBegin
  2
*D7
 70
     1
 10
0.0
 20
0.0
 30
0.0
  3
*D7
  1

  0
LINE
  5
234E
330
234C
100
AcDbEntity
  8
DIMENSION
100
AcDbLine
 10
74.00000499357971
 20
125.9999999982797
 30
0.0
 11
74.00000499357971
 21
120.0
 31
0.0
  0
LINE
  5
234F
330
234C
100
AcDbEntity
  8
DIMENSION
100
AcDbLine
 10
220.0000049999999
 20
126.0
 30
0.0
 11
220.0000049999999
 21
120.0
 31
0.0
  0
LINE
  5
2350
330
234C
100
AcDbEntity
  8
DIMENSION
100
AcDbLine
 10
76.00000499357971
 20
123.0
 30
0.0
 11
218.0000049999999
 21
123.0
 31
0.0
  0
INSERT
  5
2351
330
234C
100
AcDbEntity
  8
DIMENSION
100
AcDbBlockReference
  2
_OPEN30
 10
74.00000499357971
 20
123.0
 30
0.0
 41
2.0
 42
2.0
 43
2.0
 50
180.0
  0
INSERT
  5
2352
330
234C
100
AcDbEntity
  8
DIMENSION
100
AcDbBlockReference
  2
_OPEN30
 10
220.0000049999999
 20
123.0
 30
0.0
 41
2.0
 42
2.0
 43
2.0
  0
INSERT
  5
2354
330
234C
100
AcDbEntity
  8
0
100
AcDbBlockReference
  2
*U8
 10
0.0
 20
0.0
 30
0.0
  0
POINT
  5
2355
330
234C
100
AcDbEntity
  8
DEFPOINTS
 62
     0
100
AcDbPoint
 10
74.00000499357971
 20
125.9999999982797
 30
0.0
  0
POINT
  5
2356
330
234C
100
AcDbEntity
  8
DEFPOINTS
 62
     0
100
AcDbPoint
 10
220.0000049999999
 20
126.0
 30
0.0
  0
POINT
  5
2357
330
234C
100
AcDbEntity
  8
DEFPOINTS
 62
     0
100
AcDbPoint
 10
220.0000049999999
 20
123.0
 30
0.0
  0
ENDBLK
  5
2358
330
234C
100
AcDbEntity
  8
0
100
AcDbBlockEnd
  0
BLOCK
  5
249C
330
2353
100
AcDbEntity
  8
0
100
AcDbBlockBegin
  2
*U8
 70
     1
 10
0.0
 20
0.0
 30
0.0
  3
*U8
  1

  0
TEXT
  5
249D
330
2353
100
AcDbEntity
  8
DIMENSION
100
AcDbText
 10
143.9923907835918
 20
124.0
 30
0.0
 40
3.0
  1
146
  7
GOTHIC
100
AcDbText
  0
ENDBLK
  5
249E
330
2353
100
AcDbEntity
  8
0
100
AcDbBlockEnd
  0
BLOCK
  5
235A
330
2359
100
AcDbEntity
  8
0
100
AcDbBlockBegin
  2
*D9
 70
     1
 10
0.0
 20
0.0
 30
0.0
  3
*D9
  1

  0
LINE
  5
235B
330
2359
100
AcDbEntity
  8
DIMENSION
100
AcDbLine
 10
74.000005
 20
171.0
 30
0.0
 11
74.000005
 21
177.0
 31
0.0
  0
LINE
  5
235C
330
2359
100
AcDbEntity
  8
DIMENSION
100
AcDbLine
 10
112.000005
 20
171.0
 30
0.0
 11
112.000005
 21
177.0
 31
0.0
  0
LINE
  5
235D
330
2359
100
AcDbEntity
  8
DIMENSION
100
AcDbLine
 10
76.000005
 20
174.0
 30
0.0
 11
110.000005
 21
174.0
 31
0.0
  0
INSERT
  5
235E
330
2359
100
AcDbEntity
  8
DIMENSION
100
AcDbBlockReference
  2
_OPEN30
 10
74.000005
 20
174.0
 30
0.0
 41
2.0
 42
2.0
 43
2.0
 50
180.0
  0
INSERT
  5
235F
330
2359
100
AcDbEntity
  8
DIMENSION
100
AcDbBlockReference
  2
_OPEN30
 10
112.000005
 20
174.0
 30
0.0
 41
2.0
 42
2.0
 43
2.0
  0
INSERT
  5
2361
330
2359
100
AcDbEntity
  8
0
100
AcDbBlockReference
  2
*U10
 10
0.0
 20
0.0
 30
0.0
  0
POINT
  5
2362
330
2359
100
AcDbEntity
  8
DEFPOINTS
 62
     0
100
AcDbPoint
 10
74.000005
 20
171.0
 30
0.0
  0
POINT
  5
2363
330
2359
100
AcDbEntity
  8
DEFPOINTS
 62
     0
100
AcDbPoint
 10
112.000005
 20
171.0
 30
0.0
  0
POINT
  5
2364
330
2359
100
AcDbEntity
  8
DEFPOINTS
 62
     0
100
AcDbPoint
 10
112.000005
 20
174.0
 30
0.0
  0
ENDBLK
  5
2365
330
2359
100
AcDbEntity
  8
0
100
AcDbBlockEnd
  0
BLOCK
  5
2490
330
2360
100
AcDbEntity
  8
0
100
AcDbBlockBegin
  2
*U10
 70
     1
 10
0.0
 20
0.0
 30
0.0
  3
*U10
  1

  0
TEXT
  5
2491
330
2360
100
AcDbEntity
  8
DIMENSION
100
AcDbText
 10
91.06599484771571
 20
175.0
 30
0.0
 40
3.0
  1
38
  7
GOTHIC
100
AcDbText
  0
ENDBLK
  5
2492
330
2360
100
AcDbEntity
  8
0
100
AcDbBlockEnd
  0
BLOCK
  5
2367
330
2366
100
AcDbEntity
  8
0
100
AcDbBlockBegin
  2
*D11
 70
     1
 10
0.0
 20
0.0
 30
0.0
  3
*D11
  1

  0
LINE
  5
2368
330
2366
100
AcDbEntity
  8
DIMENSION
100
AcDbLine
 10
112.000005
 20
171.0
 30
0.0
 11
112.000005
 21
177.0
 31
0.0
  0
LINE
  5
2369
330
2366
100
AcDbEntity
  8
DIMENSION
100
AcDbLine
 10
142.0000049999999
 20
171.0
 30
0.0
 11
142.0000049999999
 21
177.0
 31
0.0
  0
LINE
  5
236A
330
2366
100
AcDbEntity
  8
DIMENSION
100
AcDbLine
 10
114.000005
 20
174.0
 30
0.0
 11
140.0000049999999
 21
174.0
 31
0.0
  0
INSERT
  5
236B
330
2366
100
AcDbEntity
  8
DIMENSION
100
AcDbBlockReference
  2
_OPEN30
 10
112.000005
 20
174.0
 30
0.0
 41
2.0
 42
2.0
 43
2.0
 50
180.0
  0
INSERT
  5
236C
330
2366
100
AcDbEntity
  8
DIMENSION
100
AcDbBlockReference
  2
_OPEN30
 10
142.0000049999999
 20
174.0
 30
0.0
 41
2.0
 42
2.0
 43
2.0
  0
INSERT
  5
236E
330
2366
100
AcDbEntity
  8
0
100
AcDbBlockReference
  2
*U12
 10
0.0
 20
0.0
 30
0.0
  0
POINT
  5
236F
330
2366
100
AcDbEntity
  8
DEFPOINTS
 62
     0
100
AcDbPoint
 10
112.000005
 20
171.0
 30
0.0
  0
POINT
  5
2370
330
2366
100
AcDbEntity
  8
DEFPOINTS
 62
     0
100
AcDbPoint
 10
142.0000049999999
 20
171.0
 30
0.0
  0
POINT
  5
2371
330
2366
100
AcDbEntity
  8
DEFPOINTS
 62
     0
100
AcDbPoint
 10
142.0000049999999
 20
174.0
 30
0.0
  0
ENDBLK
  5
2372
330
2366
100
AcDbEntity
  8
0
100
AcDbBlockEnd
  0
BLOCK
  5
248D
330
236D
100
AcDbEntity
  8
0
100
AcDbBlockBegin
  2
*U12
 70
     1
 10
0.0
 20
0.0
 30
0.0
  3
*U12
  1

  0
TEXT
  5
248E
330
236D
100
AcDbEntity
  8
DIMENSION
100
AcDbText
 10
125.0431522081217
 20
175.0
 30
0.0
 40
3.0
  1
30
  7
GOTHIC
100
AcDbText
  0
ENDBLK
  5
248F
330
236D
100
AcDbEntity
  8
0
100
AcDbBlockEnd
  0
BLOCK
  5
2374
330
2373
100
AcDbEntity
  8
0
100
AcDbBlockBegin
  2
*D13
 70
     1
 10
0.0
 20
0.0
 30
0.0
  3
*D13
  1

  0
LINE
  5
2375
330
2373
100
AcDbEntity
  8
DIMENSION
100
AcDbLine
 10
142.0000049999999
 20
171.0
 30
0.0
 11
142.0000049999999
 21
177.0
 31
0.0
  0
LINE
  5
2376
330
2373
100
AcDbEntity
  8
DIMENSION
100
AcDbLine
 10
220.0000049999999
 20
171.0
 30
0.0
 11
220.0000049999999
 21
177.0
 31
0.0
  0
LINE
  5
2377
330
2373
100
AcDbEntity
  8
DIMENSION
100
AcDbLine
 10
144.0000049999999
 20
174.0
 30
0.0
 11
218.0000049999999
 21
174.0
 31
0.0
  0
INSERT
  5
2378
330
2373
100
AcDbEntity
  8
DIMENSION
100
AcDbBlockReference
  2
_OPEN30
 10
142.0000049999999
 20
174.0
 30
0.0
 41
2.0
 42
2.0
 43
2.0
 50
180.0
  0
INSERT
  5
2379
330
2373
100
AcDbEntity
  8
DIMENSION
100
AcDbBlockReference
  2
_OPEN30
 10
220.0000049999999
 20
174.0
 30
0.0
 41
2.0
 42
2.0
 43
2.0
  0
INSERT
  5
237B
330
2373
100
AcDbEntity
  8
0
100
AcDbBlockReference
  2
*U14
 10
0.0
 20
0.0
 30
0.0
  0
POINT
  5
237C
330
2373
100
AcDbEntity
  8
DEFPOINTS
 62
     0
100
AcDbPoint
 10
142.0000049999999
 20
171.0
 30
0.0
  0
POINT
  5
237D
330
2373
100
AcDbEntity
  8
DEFPOINTS
 62
     0
100
AcDbPoint
 10
220.0000049999999
 20
171.0
 30
0.0
  0
POINT
  5
237E
330
2373
100
AcDbEntity
  8
DEFPOINTS
 62
     0
100
AcDbPoint
 10
220.0000049999999
 20
174.0
 30
0.0
  0
ENDBLK
  5
237F
330
2373
100
AcDbEntity
  8
0
100
AcDbBlockEnd
  0
BLOCK
  5
248A
330
237A
100
AcDbEntity
  8
0
100
AcDbBlockBegin
  2
*U14
 70
     1
 10
0.0
 20
0.0
 30
0.0
  3
*U14
  1

  0
TEXT
  5
248B
330
237A
100
AcDbEntity
  8
DIMENSION
100
AcDbText
 10
179.0279237817258
 20
175.0
 30
0.0
 40
3.0
  1
78
  7
GOTHIC
100
AcDbText
  0
ENDBLK
  5
248C
330
237A
100
AcDbEntity
  8
0
100
AcDbBlockEnd
  0
BLOCK
  5
2381
330
2380
100
AcDbEntity
  8
0
100
AcDbBlockBegin
  2
*D15
 70
     1
 10
0.0
 20
0.0
 30
0.0
  3
*D15
  1

  0
LINE
  5
2382
330
2380
100
AcDbEntity
  8
DIMENSION
100
AcDbLine
 10
234.0
 20
157.0000139999999
 30
0.0
 11
228.0
 21
157.0000139999999
 31
0.0
  0
LINE
  5
2383
330
2380
100
AcDbEntity
  8
DIMENSION
100
AcDbLine
 10
234.0
 20
141.000014
 30
0.0
 11
228.0
 21
141.000014
 31
0.0
  0
LINE
  5
2384
330
2380
100
AcDbEntity
  8
DIMENSION
100
AcDbLine
 10
231.0
 20
155.0000139999999
 30
0.0
 11
231.0
 21
143.0000139999999
 31
0.0
  0
INSERT
  5
2385
330
2380
100
AcDbEntity
  8
DIMENSION
100
AcDbBlockReference
  2
_OPEN30
 10
231.0
 20
157.0000139999999
 30
0.0
 41
2.0
 42
2.0
 43
2.0
 50
90.0
  0
INSERT
  5
2386
330
2380
100
AcDbEntity
  8
DIMENSION
100
AcDbBlockReference
  2
_OPEN30
 10
231.0
 20
141.000014
 30
0.0
 41
2.0
 42
2.0
 43
2.0
 50
270.0
  0
INSERT
  5
2388
330
2380
100
AcDbEntity
  8
0
100
AcDbBlockReference
  2
*U16
 10
0.0
 20
0.0
 30
0.0
  0
POINT
  5
2389
330
2380
100
AcDbEntity
  8
DEFPOINTS
 62
     0
100
AcDbPoint
 10
234.0
 20
157.0000139999999
 30
0.0
  0
POINT
  5
238A
330
2380
100
AcDbEntity
  8
DEFPOINTS
 62
     0
100
AcDbPoint
 10
234.0
 20
141.000014
 30
0.0
  0
POINT
  5
238B
330
2380
100
AcDbEntity
  8
DEFPOINTS
 62
     0
100
AcDbPoint
 10
231.0
 20
141.000014
 30
0.0
  0
ENDBLK
  5
238C
330
2380
100
AcDbEntity
  8
0
100
AcDbBlockEnd
  0
BLOCK
  5
2453
330
2387
100
AcDbEntity
  8
0
100
AcDbBlockBegin
  2
*U16
 70
     1
 10
0.0
 20
0.0
 30
0.0
  3
*U16
  1

  0
TEXT
  5
2454
330
2387
100
AcDbEntity
  8
DIMENSION
100
AcDbText
 10
230.0
 20
146.9670190761422
 30
0.0
 40
3.0
  1
16
 50
90.0
  7
GOTHIC
100
AcDbText
  0
ENDBLK
  5
2455
330
2387
100
AcDbEntity
  8
0
100
AcDbBlockEnd
  0
BLOCK
  5
238E
330
238D
100
AcDbEntity
  8
0
100
AcDbBlockBegin
  2
*D17
 70
     1
 10
0.0
 20
0.0
 30
0.0
  3
*D17
  1

  0
LINE
  5
238F
330
238D
100
AcDbEntity
  8
DIMENSION
100
AcDbLine
 10
276.0
 20
167.0000139999999
 30
0.0
 11
282.0
 21
167.0000139999999
 31
0.0
  0
LINE
  5
2390
330
238D
100
AcDbEntity
  8
DIMENSION
100
AcDbLine
 10
276.0
 20
131.0000139999999
 30
0.0
 11
282.0
 21
131.0000139999999
 31
0.0
  0
LINE
  5
2391
330
238D
100
AcDbEntity
  8
DIMENSION
100
AcDbLine
 10
279.0
 20
165.0000139999999
 30
0.0
 11
279.0
 21
133.0000139999999
 31
0.0
  0
INSERT
  5
2392
330
238D
100
AcDbEntity
  8
DIMENSION
100
AcDbBlockReference
  2
_OPEN30
 10
279.0
 20
167.0000139999999
 30
0.0
 41
2.0
 42
2.0
 43
2.0
 50
90.0
  0
INSERT
  5
2393
330
238D
100
AcDbEntity
  8
DIMENSION
100
AcDbBlockReference
  2
_OPEN30
 10
279.0
 20
131.0000139999999
 30
0.0
 41
2.0
 42
2.0
 43
2.0
 50
270.0
  0
INSERT
  5
2395
330
238D
100
AcDbEntity
  8
0
100
AcDbBlockReference
  2
*U18
 10
0.0
 20
0.0
 30
0.0
  0
POINT
  5
2396
330
238D
100
AcDbEntity
  8
DEFPOINTS
 62
     0
100
AcDbPoint
 10
276.0
 20
167.0000139999999
 30
0.0
  0
POINT
  5
2397
330
238D
100
AcDbEntity
  8
DEFPOINTS
 62
     0
100
AcDbPoint
 10
276.0
 20
131.0000139999999
 30
0.0
  0
POINT
  5
2398
330
238D
100
AcDbEntity
  8
DEFPOINTS
 62
     0
100
AcDbPoint
 10
279.0
 20
131.0000139999999
 30
0.0
  0
ENDBLK
  5
2399
330
238D
100
AcDbEntity
  8
0
100
AcDbBlockEnd
  0
BLOCK
  5
2493
330
2394
100
AcDbEntity
  8
0
100
AcDbBlockBegin
  2
*U18
 70
     1
 10
0.0
 20
0.0
 30
0.0
  3
*U18
  1

  0
TEXT
  5
2494
330
2394
100
AcDbEntity
  8
DIMENSION
100
AcDbText
 10
278.0
 20
147.0736180609137
 30
0.0
 40
3.0
  1
36
 50
90.0
  7
GOTHIC
100
AcDbText
  0
ENDBLK
  5
2495
330
2394
100
AcDbEntity
  8
0
100
AcDbBlockEnd
  0
BLOCK
  5
239B
330
239A
100
AcDbEntity
  8
0
100
AcDbBlockBegin
  2
*D19
 70
     1
 10
0.0
 20
0.0
 30
0.0
  3
*D19
  1

  0
LINE
  5
239C
330
239A
100
AcDbEntity
  8
DIMENSION
100
AcDbLine
 10
237.0
 20
126.0
 30
0.0
 11
237.0
 21
120.0
 31
0.0
  0
LINE
  5
239D
330
239A
100
AcDbEntity
  8
DIMENSION
100
AcDbLine
 10
273.0
 20
126.0
 30
0.0
 11
273.0
 21
120.0
 31
0.0
  0
LINE
  5
239E
330
239A
100
AcDbEntity
  8
DIMENSION
100
AcDbLine
 10
239.0
 20
123.0
 30
0.0
 11
271.0
 21
123.0
 31
0.0
  0
INSERT
  5
239F
330
239A
100
AcDbEntity
  8
DIMENSION
100
AcDbBlockReference
  2
_OPEN30
 10
237.0
 20
123.0
 30
0.0
 41
2.0
 42
2.0
 43
2.0
 50
180.0
  0
INSERT
  5
23A0
330
239A
100
AcDbEntity
  8
DIMENSION
100
AcDbBlockReference
  2
_OPEN30
 10
273.0
 20
123.0
 30
0.0
 41
2.0
 42
2.0
 43
2.0
  0
INSERT
  5
23A2
330
239A
100
AcDbEntity
  8
0
100
AcDbBlockReference
  2
*U20
 10
0.0
 20
0.0
 30
0.0
  0
POINT
  5
23A3
330
239A
100
AcDbEntity
  8
DEFPOINTS
 62
     0
100
AcDbPoint
 10
237.0
 20
126.0
 30
0.0
  0
POINT
  5
23A4
330
239A
100
AcDbEntity
  8
DEFPOINTS
 62
     0
100
AcDbPoint
 10
273.0
 20
126.0
 30
0.0
  0
POINT
  5
23A5
330
239A
100
AcDbEntity
  8
DEFPOINTS
 62
     0
100
AcDbPoint
 10
273.0
 20
123.0
 30
0.0
  0
ENDBLK
  5
23A6
330
239A
100
AcDbEntity
  8
0
100
AcDbBlockEnd
  0
BLOCK
  5
2499
330
23A1
100
AcDbEntity
  8
0
100
AcDbBlockBegin
  2
*U20
 70
     1
 10
0.0
 20
0.0
 30
0.0
  3
*U20
  1

  0
TEXT
  5
249A
330
23A1
100
AcDbEntity
  8
DIMENSION
100
AcDbText
 10
253.0736040609137
 20
124.0
 30
0.0
 40
3.0
  1
36
  7
GOTHIC
100
AcDbText
  0
ENDBLK
  5
249B
330
23A1
100
AcDbEntity
  8
0
100
AcDbBlockEnd
  0
BLOCK
  5
23A8
330
23A7
100
AcDbEntity
  8
0
100
AcDbBlockBegin
  2
*D21
 70
     1
 10
0.0
 20
0.0
 30
0.0
  3
*D21
  1

  0
LINE
  5
23A9
330
23A7
100
AcDbEntity
  8
DIMENSION
100
AcDbLine
 10
44.00000499999999
 20
101.741181
 30
0.0
 11
44.00000499999999
 21
108.0
 31
0.0
  0
LINE
  5
23AA
330
23A7
100
AcDbEntity
  8
DIMENSION
100
AcDbLine
 10
66.000005
 20
101.741181
 30
0.0
 11
66.000005
 21
108.0
 31
0.0
  0
LINE
  5
23AB
330
23A7
100
AcDbEntity
  8
DIMENSION
100
AcDbLine
 10
46.00000499999999
 20
105.0
 30
0.0
 11
64.000005
 21
105.0
 31
0.0
  0
INSERT
  5
23AC
330
23A7
100
AcDbEntity
  8
DIMENSION
100
AcDbBlockReference
  2
_OPEN30
 10
44.00000499999999
 20
105.0
 30
0.0
 41
2.0
 42
2.0
 43
2.0
 50
180.0
  0
INSERT
  5
23AD
330
23A7
100
AcDbEntity
  8
DIMENSION
100
AcDbBlockReference
  2
_OPEN30
 10
66.000005
 20
105.0
 30
0.0
 41
2.0
 42
2.0
 43
2.0
  0
INSERT
  5
23AF
330
23A7
100
AcDbEntity
  8
0
100
AcDbBlockReference
  2
*U22
 10
0.0
 20
0.0
 30
0.0
  0
POINT
  5
23B0
330
23A7
100
AcDbEntity
  8
DEFPOINTS
 62
     0
100
AcDbPoint
 10
44.00000499999999
 20
101.741181
 30
0.0
  0
POINT
  5
23B1
330
23A7
100
AcDbEntity
  8
DEFPOINTS
 62
     0
100
AcDbPoint
 10
66.000005
 20
101.741181
 30
0.0
  0
POINT
  5
23B2
330
23A7
100
AcDbEntity
  8
DEFPOINTS
 62
     0
100
AcDbPoint
 10
66.000005
 20
105.0
 30
0.0
  0
ENDBLK
  5
23B3
330
23A7
100
AcDbEntity
  8
0
100
AcDbBlockEnd
  0
BLOCK
  5
24A8
330
23AE
100
AcDbEntity
  8
0
100
AcDbBlockBegin
  2
*U22
 70
     1
 10
0.0
 20
0.0
 30
0.0
  3
*U22
  1

  0
TEXT
  5
24A9
330
23AE
100
AcDbEntity
  8
DIMENSION
100
AcDbText
 10
53.06599484771574
 20
106.0
 30
0.0
 40
3.0
  1
22
  7
GOTHIC
100
AcDbText
  0
ENDBLK
  5
24AA
330
23AE
100
AcDbEntity
  8
0
100
AcDbBlockEnd
  0
BLOCK
  5
23B5
330
23B4
100
AcDbEntity
  8
0
100
AcDbBlockBegin
  2
*D23
 70
     1
 10
0.0
 20
0.0
 30
0.0
  3
*D23
  1

  0
LINE
  5
23B6
330
23B4
100
AcDbEntity
  8
DIMENSION
100
AcDbLine
 10
66.000005
 20
101.741181
 30
0.0
 11
66.000005
 21
108.0
 31
0.0
  0
LINE
  5
23B7
330
23B4
100
AcDbEntity
  8
DIMENSION
100
AcDbLine
 10
206.0000050165681
 20
101.9999999955605
 30
0.0
 11
206.0000050165681
 21
108.0
 31
0.0
  0
LINE
  5
23B8
330
23B4
100
AcDbEntity
  8
DIMENSION
100
AcDbLine
 10
68.000005
 20
105.0
 30
0.0
 11
204.0000050165681
 21
105.0
 31
0.0
  0
INSERT
  5
23B9
330
23B4
100
AcDbEntity
  8
DIMENSION
100
AcDbBlockReference
  2
_OPEN30
 10
66.000005
 20
105.0
 30
0.0
 41
2.0
 42
2.0
 43
2.0
 50
180.0
  0
INSERT
  5
23BA
330
23B4
100
AcDbEntity
  8
DIMENSION
100
AcDbBlockReference
  2
_OPEN30
 10
206.0000050165681
 20
105.0
 30
0.0
 41
2.0
 42
2.0
 43
2.0
  0
INSERT
  5
23BC
330
23B4
100
AcDbEntity
  8
0
100
AcDbBlockReference
  2
*U24
 10
0.0
 20
0.0
 30
0.0
  0
POINT
  5
23BD
330
23B4
100
AcDbEntity
  8
DEFPOINTS
 62
     0
100
AcDbPoint
 10
66.000005
 20
101.741181
 30
0.0
  0
POINT
  5
23BE
330
23B4
100
AcDbEntity
  8
DEFPOINTS
 62
     0
100
AcDbPoint
 10
206.0000050165681
 20
101.9999999955605
 30
0.0
  0
POINT
  5
23BF
330
23B4
100
AcDbEntity
  8
DEFPOINTS
 62
     0
100
AcDbPoint
 10
206.0000050165681
 20
105.0
 30
0.0
  0
ENDBLK
  5
23C0
330
23B4
100
AcDbEntity
  8
0
100
AcDbBlockEnd
  0
BLOCK
  5
24A5
330
23BB
100
AcDbEntity
  8
0
100
AcDbBlockBegin
  2
*U24
 70
     1
 10
0.0
 20
0.0
 30
0.0
  3
*U24
  1

  0
TEXT
  5
24A6
330
23BB
100
AcDbEntity
  8
DIMENSION
100
AcDbText
 10
132.9619339422942
 20
106.0
 30
0.0
 40
3.0
  1
140
  7
GOTHIC
100
AcDbText
  0
ENDBLK
  5
24A7
330
23BB
100
AcDbEntity
  8
0
100
AcDbBlockEnd
  0
BLOCK
  5
23C2
330
23C1
100
AcDbEntity
  8
0
100
AcDbBlockBegin
  2
*D25
 70
     1
 10
0.0
 20
0.0
 30
0.0
  3
*D25
  1

  0
LINE
  5
23C3
330
23C1
100
AcDbEntity
  8
DIMENSION
100
AcDbLine
 10
206.0000050165681
 20
101.9999999955605
 30
0.0
 11
206.0000050165681
 21
108.0
 31
0.0
  0
LINE
  5
23C4
330
23C1
100
AcDbEntity
  8
DIMENSION
100
AcDbLine
 10
220.0000049999999
 20
102.0
 30
0.0
 11
220.0000049999999
 21
108.0
 31
0.0
  0
LINE
  5
23C5
330
23C1
100
AcDbEntity
  8
DIMENSION
100
AcDbLine
 10
208.0000050165681
 20
105.0
 30
0.0
 11
218.0000049999999
 21
105.0
 31
0.0
  0
INSERT
  5
23C6
330
23C1
100
AcDbEntity
  8
DIMENSION
100
AcDbBlockReference
  2
_OPEN30
 10
206.0000050165681
 20
105.0
 30
0.0
 41
2.0
 42
2.0
 43
2.0
 50
180.0
  0
INSERT
  5
23C7
330
23C1
100
AcDbEntity
  8
DIMENSION
100
AcDbBlockReference
  2
_OPEN30
 10
220.0000049999999
 20
105.0
 30
0.0
 41
2.0
 42
2.0
 43
2.0
  0
INSERT
  5
23C9
330
23C1
100
AcDbEntity
  8
0
100
AcDbBlockReference
  2
*U26
 10
0.0
 20
0.0
 30
0.0
  0
POINT
  5
23CA
330
23C1
100
AcDbEntity
  8
DEFPOINTS
 62
     0
100
AcDbPoint
 10
206.0000050165681
 20
101.9999999955605
 30
0.0
  0
POINT
  5
23CB
330
23C1
100
AcDbEntity
  8
DEFPOINTS
 62
     0
100
AcDbPoint
 10
220.0000049999999
 20
102.0
 30
0.0
  0
POINT
  5
23CC
330
23C1
100
AcDbEntity
  8
DEFPOINTS
 62
     0
100
AcDbPoint
 10
220.0000049999999
 20
105.0
 30
0.0
  0
ENDBLK
  5
23CD
330
23C1
100
AcDbEntity
  8
0
100
AcDbBlockEnd
  0
BLOCK
  5
24A2
330
23C8
100
AcDbEntity
  8
0
100
AcDbBlockBegin
  2
*U26
 70
     1
 10
0.0
 20
0.0
 30
0.0
  3
*U26
  1

  0
TEXT
  5
24A3
330
23C8
100
AcDbEntity
  8
DIMENSION
100
AcDbText
 10
210.9289390184363
 20
106.0
 30
0.0
 40
3.0
  1
14
  7
GOTHIC
100
AcDbText
  0
ENDBLK
  5
24A4
330
23C8
100
AcDbEntity
  8
0
100
AcDbBlockEnd
  0
BLOCK
  5
23CF
330
23CE
100
AcDbEntity
  8
0
100
AcDbBlockBegin
  2
*D27
 70
     1
 10
0.0
 20
0.0
 30
0.0
  3
*D27
  1

  0
LINE
  5
23D0
330
23CE
100
AcDbEntity
  8
DIMENSION
100
AcDbLine
 10
74.000005
 20
93.0
 30
0.0
 11
74.000005
 21
99.0
 31
0.0
  0
LINE
  5
23D1
330
23CE
100
AcDbEntity
  8
DIMENSION
100
AcDbLine
 10
107.0000049999999
 20
93.0
 30
0.0
 11
107.0000049999999
 21
99.0
 31
0.0
  0
LINE
  5
23D2
330
23CE
100
AcDbEntity
  8
DIMENSION
100
AcDbLine
 10
76.000005
 20
96.0
 30
0.0
 11
105.0000049999999
 21
96.0
 31
0.0
  0
INSERT
  5
23D3
330
23CE
100
AcDbEntity
  8
DIMENSION
100
AcDbBlockReference
  2
_OPEN30
 10
74.000005
 20
96.0
 30
0.0
 41
2.0
 42
2.0
 43
2.0
 50
180.0
  0
INSERT
  5
23D4
330
23CE
100
AcDbEntity
  8
DIMENSION
100
AcDbBlockReference
  2
_OPEN30
 10
107.0000049999999
 20
96.0
 30
0.0
 41
2.0
 42
2.0
 43
2.0
  0
INSERT
  5
23D6
330
23CE
100
AcDbEntity
  8
0
100
AcDbBlockReference
  2
*U28
 10
0.0
 20
0.0
 30
0.0
  0
POINT
  5
23D7
330
23CE
100
AcDbEntity
  8
DEFPOINTS
 62
     0
100
AcDbPoint
 10
74.000005
 20
93.0
 30
0.0
  0
POINT
  5
23D8
330
23CE
100
AcDbEntity
  8
DEFPOINTS
 62
     0
100
AcDbPoint
 10
107.0000049999999
 20
93.0
 30
0.0
  0
POINT
  5
23D9
330
23CE
100
AcDbEntity
  8
DEFPOINTS
 62
     0
100
AcDbPoint
 10
107.0000049999999
 20
96.0
 30
0.0
  0
ENDBLK
  5
23DA
330
23CE
100
AcDbEntity
  8
0
100
AcDbBlockEnd
  0
BLOCK
  5
2484
330
23D5
100
AcDbEntity
  8
0
100
AcDbBlockBegin
  2
*U28
 70
     1
 10
0.0
 20
0.0
 30
0.0
  3
*U28
  1

  0
TEXT
  5
2485
330
23D5
100
AcDbEntity
  8
DIMENSION
100
AcDbText
 10
88.58122327411164
 20
97.0
 30
0.0
 40
3.0
  1
33
  7
GOTHIC
100
AcDbText
  0
ENDBLK
  5
2486
330
23D5
100
AcDbEntity
  8
0
100
AcDbBlockEnd
  0
BLOCK
  5
23DC
330
23DB
100
AcDbEntity
  8
0
100
AcDbBlockBegin
  2
*D29
 70
     1
 10
0.0
 20
0.0
 30
0.0
  3
*D29
  1

  0
LINE
  5
23DD
330
23DB
100
AcDbEntity
  8
DIMENSION
100
AcDbLine
 10
107.0000049999999
 20
93.0
 30
0.0
 11
107.0000049999999
 21
99.0
 31
0.0
  0
LINE
  5
23DE
330
23DB
100
AcDbEntity
  8
DIMENSION
100
AcDbLine
 10
137.0000049999999
 20
93.0
 30
0.0
 11
137.0000049999999
 21
99.0
 31
0.0
  0
LINE
  5
23DF
330
23DB
100
AcDbEntity
  8
DIMENSION
100
AcDbLine
 10
109.0000049999999
 20
96.0
 30
0.0
 11
135.000005
 21
96.0
 31
0.0
  0
INSERT
  5
23E0
330
23DB
100
AcDbEntity
  8
DIMENSION
100
AcDbBlockReference
  2
_OPEN30
 10
107.0000049999999
 20
96.0
 30
0.0
 41
2.0
 42
2.0
 43
2.0
 50
180.0
  0
INSERT
  5
23E1
330
23DB
100
AcDbEntity
  8
DIMENSION
100
AcDbBlockReference
  2
_OPEN30
 10
137.0000049999999
 20
96.0
 30
0.0
 41
2.0
 42
2.0
 43
2.0
  0
INSERT
  5
23E3
330
23DB
100
AcDbEntity
  8
0
100
AcDbBlockReference
  2
*U30
 10
0.0
 20
0.0
 30
0.0
  0
POINT
  5
23E4
330
23DB
100
AcDbEntity
  8
DEFPOINTS
 62
     0
100
AcDbPoint
 10
107.0000049999999
 20
93.0
 30
0.0
  0
POINT
  5
23E5
330
23DB
100
AcDbEntity
  8
DEFPOINTS
 62
     0
100
AcDbPoint
 10
137.0000049999999
 20
93.0
 30
0.0
  0
POINT
  5
23E6
330
23DB
100
AcDbEntity
  8
DEFPOINTS
 62
     0
100
AcDbPoint
 10
137.0000049999999
 20
96.0
 30
0.0
  0
ENDBLK
  5
23E7
330
23DB
100
AcDbEntity
  8
0
100
AcDbBlockEnd
  0
BLOCK
  5
2481
330
23E2
100
AcDbEntity
  8
0
100
AcDbBlockBegin
  2
*U30
 70
     1
 10
0.0
 20
0.0
 30
0.0
  3
*U30
  1

  0
TEXT
  5
2482
330
23E2
100
AcDbEntity
  8
DIMENSION
100
AcDbText
 10
120.0431522081218
 20
97.0
 30
0.0
 40
3.0
  1
30
  7
GOTHIC
100
AcDbText
  0
ENDBLK
  5
2483
330
23E2
100
AcDbEntity
  8
0
100
AcDbBlockEnd
  0
BLOCK
  5
23E9
330
23E8
100
AcDbEntity
  8
0
100
AcDbBlockBegin
  2
*D31
 70
     1
 10
0.0
 20
0.0
 30
0.0
  3
*D31
  1

  0
LINE
  5
23EA
330
23E8
100
AcDbEntity
  8
DIMENSION
100
AcDbLine
 10
137.0000049999999
 20
93.0
 30
0.0
 11
137.0000049999999
 21
99.0
 31
0.0
  0
LINE
  5
23EB
330
23E8
100
AcDbEntity
  8
DIMENSION
100
AcDbLine
 10
220.0000049999999
 20
93.0
 30
0.0
 11
220.0000049999999
 21
99.0
 31
0.0
  0
LINE
  5
23EC
330
23E8
100
AcDbEntity
  8
DIMENSION
100
AcDbLine
 10
139.0000049999999
 20
96.0
 30
0.0
 11
218.0000049999999
 21
96.0
 31
0.0
  0
INSERT
  5
23ED
330
23E8
100
AcDbEntity
  8
DIMENSION
100
AcDbBlockReference
  2
_OPEN30
 10
137.0000049999999
 20
96.0
 30
0.0
 41
2.0
 42
2.0
 43
2.0
 50
180.0
  0
INSERT
  5
23EE
330
23E8
100
AcDbEntity
  8
DIMENSION
100
AcDbBlockReference
  2
_OPEN30
 10
220.0000049999999
 20
96.0
 30
0.0
 41
2.0
 42
2.0
 43
2.0
  0
INSERT
  5
23F0
330
23E8
100
AcDbEntity
  8
0
100
AcDbBlockReference
  2
*U32
 10
0.0
 20
0.0
 30
0.0
  0
POINT
  5
23F1
330
23E8
100
AcDbEntity
  8
DEFPOINTS
 62
     0
100
AcDbPoint
 10
137.0000049999999
 20
93.0
 30
0.0
  0
POINT
  5
23F2
330
23E8
100
AcDbEntity
  8
DEFPOINTS
 62
     0
100
AcDbPoint
 10
220.0000049999999
 20
93.0
 30
0.0
  0
POINT
  5
23F3
330
23E8
100
AcDbEntity
  8
DEFPOINTS
 62
     0
100
AcDbPoint
 10
220.0000049999999
 20
96.0
 30
0.0
  0
ENDBLK
  5
23F4
330
23E8
100
AcDbEntity
  8
0
100
AcDbBlockEnd
  0
BLOCK
  5
247E
330
23EF
100
AcDbEntity
  8
0
100
AcDbBlockBegin
  2
*U32
 70
     1
 10
0.0
 20
0.0
 30
0.0
  3
*U32
  1

  0
TEXT
  5
247F
330
23EF
100
AcDbEntity
  8
DIMENSION
100
AcDbText
 10
176.5812232741116
 20
97.0
 30
0.0
 40
3.0
  1
83
  7
GOTHIC
100
AcDbText
  0
ENDBLK
  5
2480
330
23EF
100
AcDbEntity
  8
0
100
AcDbBlockEnd
  0
BLOCK
  5
23F6
330
23F5
100
AcDbEntity
  8
0
100
AcDbBlockBegin
  2
*D33
 70
     1
 10
0.0
 20
0.0
 30
0.0
  3
*D33
  1

  0
LINE
  5
23F7
330
23F5
100
AcDbEntity
  8
DIMENSION
100
AcDbLine
 10
39.0
 20
75.500012
 30
0.0
 11
33.0
 21
75.500012
 31
0.0
  0
LINE
  5
23F8
330
23F5
100
AcDbEntity
  8
DIMENSION
100
AcDbLine
 10
39.0
 20
66.500012
 30
0.0
 11
33.0
 21
66.500012
 31
0.0
  0
LINE
  5
23F9
330
23F5
100
AcDbEntity
  8
DIMENSION
100
AcDbLine
 10
36.0
 20
73.500012
 30
0.0
 11
36.0
 21
68.500012
 31
0.0
  0
INSERT
  5
23FA
330
23F5
100
AcDbEntity
  8
DIMENSION
100
AcDbBlockReference
  2
_OPEN30
 10
36.0
 20
75.500012
 30
0.0
 41
2.0
 42
2.0
 43
2.0
 50
90.0
  0
INSERT
  5
23FB
330
23F5
100
AcDbEntity
  8
DIMENSION
100
AcDbBlockReference
  2
_OPEN30
 10
36.0
 20
66.500012
 30
0.0
 41
2.0
 42
2.0
 43
2.0
 50
270.0
  0
INSERT
  5
23FD
330
23F5
100
AcDbEntity
  8
0
100
AcDbBlockReference
  2
*U34
 10
0.0
 20
0.0
 30
0.0
  0
POINT
  5
23FE
330
23F5
100
AcDbEntity
  8
DEFPOINTS
 62
     0
100
AcDbPoint
 10
39.0
 20
75.500012
 30
0.0
  0
POINT
  5
23FF
330
23F5
100
AcDbEntity
  8
DEFPOINTS
 62
     0
100
AcDbPoint
 10
39.0
 20
66.500012
 30
0.0
  0
POINT
  5
2400
330
23F5
100
AcDbEntity
  8
DEFPOINTS
 62
     0
100
AcDbPoint
 10
36.0
 20
66.500012
 30
0.0
  0
ENDBLK
  5
2401
330
23F5
100
AcDbEntity
  8
0
100
AcDbBlockEnd
  0
BLOCK
  5
245C
330
23FC
100
AcDbEntity
  8
0
100
AcDbBlockBegin
  2
*U34
 70
     1
 10
0.0
 20
0.0
 30
0.0
  3
*U34
  1

  0
TEXT
  5
245D
330
23FC
100
AcDbEntity
  8
DIMENSION
100
AcDbText
 10
35.0
 20
70.04062113705585
 30
0.0
 40
3.0
  1
9
 50
90.0
  7
GOTHIC
100
AcDbText
  0
ENDBLK
  5
245E
330
23FC
100
AcDbEntity
  8
0
100
AcDbBlockEnd
  0
BLOCK
  5
2403
330
2402
100
AcDbEntity
  8
0
100
AcDbBlockBegin
  2
*D35
 70
     1
 10
0.0
 20
0.0
 30
0.0
  3
*D35
  1

  0
LINE
  5
2404
330
2402
100
AcDbEntity
  8
DIMENSION
100
AcDbLine
 10
39.0
 20
82.60001199999997
 30
0.0
 11
27.60288528460592
 21
82.60001200000001
 31
0.0
  0
LINE
  5
2405
330
2402
100
AcDbEntity
  8
DIMENSION
100
AcDbLine
 10
39.0
 20
59.40001200000001
 30
0.0
 11
27.60288528460592
 21
59.40001200000001
 31
0.0
  0
LINE
  5
2406
330
2402
100
AcDbEntity
  8
DIMENSION
100
AcDbLine
 10
30.60288528460592
 20
80.600012
 30
0.0
 11
30.60288528460592
 21
61.400012
 31
0.0
  0
INSERT
  5
2407
330
2402
100
AcDbEntity
  8
DIMENSION
100
AcDbBlockReference
  2
_OPEN30
 10
30.60288528460592
 20
82.60001200000001
 30
0.0
 41
2.0
 42
2.0
 43
2.0
 50
90.0
  0
INSERT
  5
2408
330
2402
100
AcDbEntity
  8
DIMENSION
100
AcDbBlockReference
  2
_OPEN30
 10
30.60288528460592
 20
59.40001200000001
 30
0.0
 41
2.0
 42
2.0
 43
2.0
 50
270.0
  0
INSERT
  5
240A
330
2402
100
AcDbEntity
  8
0
100
AcDbBlockReference
  2
*U36
 10
0.0
 20
0.0
 30
0.0
  0
POINT
  5
240B
330
2402
100
AcDbEntity
  8
DEFPOINTS
 62
     0
100
AcDbPoint
 10
39.0
 20
82.60001199999997
 30
0.0
  0
POINT
  5
240C
330
2402
100
AcDbEntity
  8
DEFPOINTS
 62
     0
100
AcDbPoint
 10
39.0
 20
59.40001200000001
 30
0.0
  0
POINT
  5
240D
330
2402
100
AcDbEntity
  8
DEFPOINTS
 62
     0
100
AcDbPoint
 10
30.60288528460592
 20
59.40001200000001
 30
0.0
  0
ENDBLK
  5
240E
330
2402
100
AcDbEntity
  8
0
100
AcDbBlockEnd
  0
BLOCK
  5
2456
330
2409
100
AcDbEntity
  8
0
100
AcDbBlockBegin
  2
*U36
 70
     1
 10
0.0
 20
0.0
 30
0.0
  3
*U36
  1

  0
TEXT
  5
2457
330
2409
100
AcDbEntity
  8
DIMENSION
100
AcDbText
 10
29.60288528460591
 20
67.11676326903554
 30
0.0
 40
3.0
  1
23.2
 50
90.0
  7
GOTHIC
100
AcDbText
  0
ENDBLK
  5
2458
330
2409
100
AcDbEntity
  8
0
100
AcDbBlockEnd
  0
BLOCK
  5
2410
330
240F
100
AcDbEntity
  8
0
100
AcDbBlockBegin
  2
*D37
 70
     1
 10
0.0
 20
0.0
 30
0.0
  3
*D37
  1

  0
LINE
  5
2411
330
240F
100
AcDbEntity
  8
DIMENSION
100
AcDbLine
 10
39.0
 20
82.60001199999997
 30
0.0
 11
27.00000000000001
 21
82.60001200000001
 31
0.0
  0
LINE
  5
2412
330
240F
100
AcDbEntity
  8
DIMENSION
100
AcDbLine
 10
39.0
 20
59.400012
 30
0.0
 11
27.00000000000001
 21
59.400012
 31
0.0
  0
LINE
  5
2413
330
240F
100
AcDbEntity
  8
DIMENSION
100
AcDbLine
 10
30.00000000000001
 20
80.600012
 30
0.0
 11
30.0
 21
61.400012
 31
0.0
  0
INSERT
  5
2414
330
240F
100
AcDbEntity
  8
DIMENSION
100
AcDbBlockReference
  2
_OPEN30
 10
30.00000000000001
 20
82.60001200000001
 30
0.0
 41
2.0
 42
2.0
 43
2.0
 50
90.0
  0
INSERT
  5
2415
330
240F
100
AcDbEntity
  8
DIMENSION
100
AcDbBlockReference
  2
_OPEN30
 10
30.0
 20
59.400012
 30
0.0
 41
2.0
 42
2.0
 43
2.0
 50
270.0
  0
INSERT
  5
2417
330
240F
100
AcDbEntity
  8
0
100
AcDbBlockReference
  2
*U38
 10
0.0
 20
0.0
 30
0.0
  0
POINT
  5
2418
330
240F
100
AcDbEntity
  8
DEFPOINTS
 62
     0
100
AcDbPoint
 10
39.0
 20
82.60001199999997
 30
0.0
  0
POINT
  5
2419
330
240F
100
AcDbEntity
  8
DEFPOINTS
 62
     0
100
AcDbPoint
 10
39.0
 20
59.400012
 30
0.0
  0
POINT
  5
241A
330
240F
100
AcDbEntity
  8
DEFPOINTS
 62
     0
100
AcDbPoint
 10
30.0
 20
59.400012
 30
0.0
  0
ENDBLK
  5
241B
330
240F
100
AcDbEntity
  8
0
100
AcDbBlockEnd
  0
BLOCK
  5
24AB
330
2416
100
AcDbEntity
  8
0
100
AcDbBlockBegin
  2
*U38
 70
     1
 10
0.0
 20
0.0
 30
0.0
  3
*U38
  1

  0
TEXT
  5
24AC
330
2416
100
AcDbEntity
  8
DIMENSION
100
AcDbText
 10
29.0
 20
67.39087494416242
 30
0.0
 40
3.0
  1
23.1
 50
90.0
  7
GOTHIC
100
AcDbText
  0
ENDBLK
  5
24AD
330
2416
100
AcDbEntity
  8
0
100
AcDbBlockEnd
  0
BLOCK
  5
241D
330
241C
100
AcDbEntity
  8
0
100
AcDbBlockBegin
  2
*D39
 70
     1
 10
0.0
 20
0.0
 30
0.0
  3
*D39
  1

  0
LINE
  5
241E
330
241C
100
AcDbEntity
  8
DIMENSION
100
AcDbLine
 10
44.00000499999999
 20
45.0
 30
0.0
 11
44.00000499999999
 21
39.0
 31
0.0
  0
LINE
  5
241F
330
241C
100
AcDbEntity
  8
DIMENSION
100
AcDbLine
 10
220.0000049999999
 20
45.0
 30
0.0
 11
220.0000049999999
 21
39.0
 31
0.0
  0
LINE
  5
2420
330
241C
100
AcDbEntity
  8
DIMENSION
100
AcDbLine
 10
46.000005
 20
42.0
 30
0.0
 11
218.0000049999999
 21
42.0
 31
0.0
  0
INSERT
  5
2421
330
241C
100
AcDbEntity
  8
DIMENSION
100
AcDbBlockReference
  2
_OPEN30
 10
44.00000499999999
 20
42.0
 30
0.0
 41
2.0
 42
2.0
 43
2.0
 50
180.0
  0
INSERT
  5
2422
330
241C
100
AcDbEntity
  8
DIMENSION
100
AcDbBlockReference
  2
_OPEN30
 10
220.0000049999999
 20
42.0
 30
0.0
 41
2.0
 42
2.0
 43
2.0
  0
INSERT
  5
2424
330
241C
100
AcDbEntity
  8
0
100
AcDbBlockReference
  2
*U40
 10
0.0
 20
0.0
 30
0.0
  0
POINT
  5
2425
330
241C
100
AcDbEntity
  8
DEFPOINTS
 62
     0
100
AcDbPoint
 10
44.00000499999999
 20
45.0
 30
0.0
  0
POINT
  5
2426
330
241C
100
AcDbEntity
  8
DEFPOINTS
 62
     0
100
AcDbPoint
 10
220.0000049999999
 20
45.0
 30
0.0
  0
POINT
  5
2427
330
241C
100
AcDbEntity
  8
DEFPOINTS
 62
     0
100
AcDbPoint
 10
220.0000049999999
 20
42.0
 30
0.0
  0
ENDBLK
  5
2428
330
241C
100
AcDbEntity
  8
0
100
AcDbBlockEnd
  0
BLOCK
  5
2459
330
2423
100
AcDbEntity
  8
0
100
AcDbBlockBegin
  2
*U40
 70
     1
 10
0.0
 20
0.0
 30
0.0
  3
*U40
  1

  0
TEXT
  5
245A
330
2423
100
AcDbEntity
  8
DIMENSION
100
AcDbText
 10
128.992390786802
 20
43.0
 30
0.0
 40
3.0
  1
176
  7
GOTHIC
100
AcDbText
  0
ENDBLK
  5
245B
330
2423
100
AcDbEntity
  8
0
100
AcDbBlockEnd
  0
BLOCK
  5
242A
330
2429
100
AcDbEntity
  8
0
100
AcDbBlockBegin
  2
*D41
 70
     1
 10
0.0
 20
0.0
 30
0.0
  3
*D41
  1

  0
LINE
  5
242B
330
2429
100
AcDbEntity
  8
DIMENSION
100
AcDbLine
 10
228.0
 20
85.00001199999998
 30
0.0
 11
234.0
 21
85.00001199999998
 31
0.0
  0
LINE
  5
242C
330
2429
100
AcDbEntity
  8
DIMENSION
100
AcDbLine
 10
228.0
 20
57.00001199999999
 30
0.0
 11
234.0
 21
57.00001199999999
 31
0.0
  0
LINE
  5
242D
330
2429
100
AcDbEntity
  8
DIMENSION
100
AcDbLine
 10
231.0
 20
83.000012
 30
0.0
 11
231.0
 21
59.00001199999999
 31
0.0
  0
INSERT
  5
242E
330
2429
100
AcDbEntity
  8
DIMENSION
100
AcDbBlockReference
  2
_OPEN30
 10
231.0
 20
85.00001199999998
 30
0.0
 41
2.0
 42
2.0
 43
2.0
 50
90.0
  0
INSERT
  5
242F
330
2429
100
AcDbEntity
  8
DIMENSION
100
AcDbBlockReference
  2
_OPEN30
 10
231.0
 20
57.00001199999999
 30
0.0
 41
2.0
 42
2.0
 43
2.0
 50
270.0
  0
INSERT
  5
2431
330
2429
100
AcDbEntity
  8
0
100
AcDbBlockReference
  2
*U42
 10
0.0
 20
0.0
 30
0.0
  0
POINT
  5
2432
330
2429
100
AcDbEntity
  8
DEFPOINTS
 62
     0
100
AcDbPoint
 10
228.0
 20
85.00001199999998
 30
0.0
  0
POINT
  5
2433
330
2429
100
AcDbEntity
  8
DEFPOINTS
 62
     0
100
AcDbPoint
 10
228.0
 20
57.00001199999999
 30
0.0
  0
POINT
  5
2434
330
2429
100
AcDbEntity
  8
DEFPOINTS
 62
     0
100
AcDbPoint
 10
231.0
 20
57.00001199999999
 30
0.0
  0
ENDBLK
  5
2435
330
2429
100
AcDbEntity
  8
0
100
AcDbBlockEnd
  0
BLOCK
  5
2496
330
2430
100
AcDbEntity
  8
0
100
AcDbBlockBegin
  2
*U42
 70
     1
 10
0.0
 20
0.0
 30
0.0
  3
*U42
  1

  0
TEXT
  5
2497
330
2430
100
AcDbEntity
  8
DIMENSION
100
AcDbText
 10
230.0
 20
69.0583876345178
 30
0.0
 40
3.0
  1
28
 50
90.0
  7
GOTHIC
100
AcDbText
  0
ENDBLK
  5
2498
330
2430
100
AcDbEntity
  8
0
100
AcDbBlockEnd
  0
BLOCK
  5
2437
330
2436
100
AcDbEntity
  8
0
100
AcDbBlockBegin
  2
*D43
 70
     1
 10
0.0
 20
0.0
 30
0.0
  3
*D43
  1

  0
LINE
  5
2438
330
2436
100
AcDbEntity
  8
DIMENSION
100
AcDbLine
 10
105.0
 20
163.0000139999999
 30
0.0
 11
99.0
 21
163.0000139999999
 31
0.0
  0
LINE
  5
2439
330
2436
100
AcDbEntity
  8
DIMENSION
100
AcDbLine
 10
105.0
 20
135.0000139999999
 30
0.0
 11
99.0
 21
135.0000139999999
 31
0.0
  0
LINE
  5
243A
330
2436
100
AcDbEntity
  8
DIMENSION
100
AcDbLine
 10
102.0
 20
161.0000139999999
 30
0.0
 11
102.0
 21
137.0000139999999
 31
0.0
  0
INSERT
  5
243B
330
2436
100
AcDbEntity
  8
DIMENSION
100
AcDbBlockReference
  2
_OPEN30
 10
102.0
 20
163.0000139999999
 30
0.0
 41
2.0
 42
2.0
 43
2.0
 50
90.0
  0
INSERT
  5
243C
330
2436
100
AcDbEntity
  8
DIMENSION
100
AcDbBlockReference
  2
_OPEN30
 10
102.0
 20
135.0000139999999
 30
0.0
 41
2.0
 42
2.0
 43
2.0
 50
270.0
  0
INSERT
  5
243E
330
2436
100
AcDbEntity
  8
0
100
AcDbBlockReference
  2
*U44
 10
0.0
 20
0.0
 30
0.0
  0
POINT
  5
243F
330
2436
100
AcDbEntity
  8
DEFPOINTS
 62
     0
100
AcDbPoint
 10
105.0
 20
163.0000139999999
 30
0.0
  0
POINT
  5
2440
330
2436
100
AcDbEntity
  8
DEFPOINTS
 62
     0
100
AcDbPoint
 10
105.0
 20
135.0000139999999
 30
0.0
  0
POINT
  5
2441
330
2436
100
AcDbEntity
  8
DEFPOINTS
 62
     0
100
AcDbPoint
 10
102.0
 20
135.0000139999999
 30
0.0
  0
ENDBLK
  5
2442
330
2436
100
AcDbEntity
  8
0
100
AcDbBlockEnd
  0
BLOCK
  5
2487
330
243D
100
AcDbEntity
  8
0
100
AcDbBlockBegin
  2
*U44
 70
     1
 10
0.0
 20
0.0
 30
0.0
  3
*U44
  1

  0
TEXT
  5
2488
330
243D
100
AcDbEntity
  8
DIMENSION
100
AcDbText
 10
101.0
 20
147.0583896345178
 30
0.0
 40
3.0
  1
28
 50
90.0
  7
GOTHIC
100
AcDbText
  0
ENDBLK
  5
2489
330
243D
100
AcDbEntity
  8
0
100
AcDbBlockEnd
  0
BLOCK
  5
2444
330
2443
100
AcDbEntity
  8
0
100
AcDbBlockBegin
  2
*D45
 70
     1
 10
0.0
 20
0.0
 30
0.0
  3
*D45
  1

  0
LINE
  5
2445
330
2443
100
AcDbEntity
  8
DIMENSION
100
AcDbLine
 10
102.0
 20
85.00001199999998
 30
0.0
 11
96.0
 21
85.00001200000001
 31
0.0
  0
LINE
  5
2446
330
2443
100
AcDbEntity
  8
DIMENSION
100
AcDbLine
 10
102.0
 20
57.00001199999999
 30
0.0
 11
96.0
 21
57.00001199999999
 31
0.0
  0
LINE
  5
2447
330
2443
100
AcDbEntity
  8
DIMENSION
100
AcDbLine
 10
99.0
 20
83.000012
 30
0.0
 11
99.0
 21
59.00001199999999
 31
0.0
  0
INSERT
  5
2448
330
2443
100
AcDbEntity
  8
DIMENSION
100
AcDbBlockReference
  2
_OPEN30
 10
99.0
 20
85.00001199999998
 30
0.0
 41
2.0
 42
2.0
 43
2.0
 50
90.0
  0
INSERT
  5
2449
330
2443
100
AcDbEntity
  8
DIMENSION
100
AcDbBlockReference
  2
_OPEN30
 10
99.0
 20
57.00001199999999
 30
0.0
 41
2.0
 42
2.0
 43
2.0
 50
270.0
  0
INSERT
  5
244B
330
2443
100
AcDbEntity
  8
0
100
AcDbBlockReference
  2
*U46
 10
0.0
 20
0.0
 30
0.0
  0
POINT
  5
244C
330
2443
100
AcDbEntity
  8
DEFPOINTS
 62
     0
100
AcDbPoint
 10
102.0
 20
85.00001199999998
 30
0.0
  0
POINT
  5
244D
330
2443
100
AcDbEntity
  8
DEFPOINTS
 62
     0
100
AcDbPoint
 10
102.0
 20
57.00001199999999
 30
0.0
  0
POINT
  5
244E
330
2443
100
AcDbEntity
  8
DEFPOINTS
 62
     0
100
AcDbPoint
 10
99.0
 20
57.00001199999999
 30
0.0
  0
ENDBLK
  5
244F
330
2443
100
AcDbEntity
  8
0
100
AcDbBlockEnd
  0
BLOCK
  5
247B
330
244A
100
AcDbEntity
  8
0
100
AcDbBlockBegin
  2
*U46
 70
     1
 10
0.0
 20
0.0
 30
0.0
  3
*U46
  1

  0
TEXT
  5
247C
330
244A
100
AcDbEntity
  8
DIMENSION
100
AcDbText
 10
97.99999999999998
 20
69.05838763451779
 30
0.0
 40
3.0
  1
28
 50
90.0
  7
GOTHIC
100
AcDbText
  0
ENDBLK
  5
247D
330
244A
100
AcDbEntity
  8
0
100
AcDbBlockEnd
  0
BLOCK
  5
2460
330
245F
100
AcDbEntity
  8
0
100
AcDbBlockBegin
  2
*U47
 70
     1
 10
0.0
 20
0.0
 30
0.0
  3
*U47
  1

  0
INSERT
  5
2461
330
245F
100
AcDbEntity
  8
DIMENSION
100
AcDbBlockReference
  2
_OPEN30
 10
113.0572729999999
 20
133.302315
 30
0.0
 41
2.0
 42
2.0
 43
2.0
 50
119.9999999999999
  0
POLYLINE
  5
2462
330
245F
100
AcDbEntity
  8
DIMENSION
100
AcDb2dPolyline
 66
     1
 10
0.0
 20
0.0
 30
0.0
  0
VERTEX
  5
2463
330
2462
100
AcDbEntity
  8
DIMENSION
100
AcDbVertex
100
AcDb2dVertex
 10
114.0572729999999
 20
131.570264192431
 30
0.0
  0
VERTEX
  5
2464
330
2462
100
AcDbEntity
  8
DIMENSION
100
AcDbVertex
100
AcDb2dVertex
 10
122.4857962447336
 20
116.9716336997772
 30
0.0
  0
VERTEX
  5
2465
330
2462
100
AcDbEntity
  8
DIMENSION
100
AcDbVertex
100
AcDb2dVertex
 10
123.0405402130442
 20
116.9716336997772
 30
0.0
  0
VERTEX
  5
2466
330
2462
100
AcDbEntity
  8
DIMENSION
100
AcDbVertex
100
AcDb2dVertex
 10
152.6852102638056
 20
116.9716336997772
 30
0.0
  0
SEQEND
  5
2467
330
2462
100
AcDbEntity
  8
DIMENSION
  0
ENDBLK
  5
2468
330
245F
100
AcDbEntity
  8
0
100
AcDbBlockEnd
  0
BLOCK
  5
246A
330
2469
100
AcDbEntity
  8
0
100
AcDbBlockBegin
  2
*U48
 70
     1
 10
0.0
 20
0.0
 30
0.0
  3
*U48
  1

  0
TEXT
  5
246B
330
2469
100
AcDbEntity
  8
DIMENSION
100
AcDbText
 10
123.6598295531456
 20
118.3523443596757
 30
0.0
 40
3.0
  1
16-M4 P=0.7 深6
  7
GOTHIC
100
AcDbText
  0
ENDBLK
  5
246C
330
2469
100
AcDbEntity
  8
0
100
AcDbBlockEnd
  0
BLOCK
  5
246E
330
246D
100
AcDbEntity
  8
0
100
AcDbBlockBegin
  2
*U49
 70
     1
 10
0.0
 20
0.0
 30
0.0
  3
*U49
  1

  0
INSERT
  5
246F
330
246D
100
AcDbEntity
  8
DIMENSION
100
AcDbBlockReference
  2
_OPEN30
 10
251.3424939999999
 20
160.2064369999999
 30
0.0
 41
2.0
 42
2.0
 43
2.0
 50
300.0
  0
POLYLINE
  5
2470
330
246D
100
AcDbEntity
  8
DIMENSION
100
AcDb2dPolyline
 66
     1
 10
0.0
 20
0.0
 30
0.0
  0
VERTEX
  5
2471
330
2470
100
AcDbEntity
  8
DIMENSION
100
AcDbVertex
100
AcDb2dVertex
 10
250.3424939999999
 20
161.9384878075688
 30
0.0
  0
VERTEX
  5
2472
330
2470
100
AcDbEntity
  8
DIMENSION
100
AcDbVertex
100
AcDb2dVertex
 10
243.4626578184559
 20
173.8547136217539
 30
0.0
  0
VERTEX
  5
2473
330
2470
100
AcDbEntity
  8
DIMENSION
100
AcDbVertex
100
AcDb2dVertex
 10
243.0760479818133
 20
173.8547136217539
 30
0.0
  0
VERTEX
  5
2474
330
2470
100
AcDbEntity
  8
DIMENSION
100
AcDbVertex
100
AcDb2dVertex
 10
230.8070124488184
 20
173.8547136217539
 30
0.0
  0
SEQEND
  5
2475
330
2470
100
AcDbEntity
  8
DIMENSION
  0
ENDBLK
  5
2476
330
246D
100
AcDbEntity
  8
0
100
AcDbBlockEnd
  0
BLOCK
  5
2478
330
2477
100
AcDbEntity
  8
0
100
AcDbBlockBegin
  2
*U50
 70
     1
 10
0.0
 20
0.0
 30
0.0
  3
*U50
  1

  0
TEXT
  5
2479
330
2477
100
AcDbEntity
  8
DIMENSION
100
AcDbText
 10
230.5938144792751
 20
175.2811095608402
 30
0.0
 40
3.0
  1
PT1/8"
  7
GOTHIC
100
AcDbText
  0
ENDBLK
  5
247A
330
2477
100
AcDbEntity
  8
0
100
AcDbBlockEnd
  0
ENDSEC
  0
SECTION
  2
ENTITIES
  0
ARC
  5
24AE
330
22F9
100
AcDbEntity
  8
LINE
100
AcDbCircle
 10
135.000005
 20
77.082775
 30
0.0
 40
19.0
100
AcDbArc
 50
180.0
 51
197.7063189999999
  0
ARC
  5
24AF
330
22F9
100
AcDbEntity
  8
LINE
100
AcDbCircle
 10
135.000005
 20
64.91724999999999
 30
0.0
 40
19.0
100
AcDbArc
 50
162.293681
 51
180.0
  0
ARC
  5
24B0
330
22F9
100
AcDbEntity
  8
LINE
100
AcDbCircle
 10
114.000005
 20
77.082775
 30
0.0
 40
19.0
100
AcDbArc
 50
342.2936809999999
 51
0.0
  0
ARC
  5
24B1
330
22F9
100
AcDbEntity
  8
LINE
100
AcDbCircle
 10
114.000005
 20
64.91724999999999
 30
0.0
 40
19.0
100
AcDbArc
 50
0.0
 51
17.70631900000001
  0
ARC
  5
24B2
330
22F9
100
AcDbEntity
  8
LINE
100
AcDbCircle
 10
135.000005
 20
155.0827769999999
 30
0.0
 40
19.0
100
AcDbArc
 50
180.0
 51
197.7063189999999
  0
ARC
  5
24B3
330
22F9
100
AcDbEntity
  8
LINE
100
AcDbCircle
 10
135.000005
 20
142.9172519999999
 30
0.0
 40
19.0
100
AcDbArc
 50
162.293681
 51
180.0
  0
ARC
  5
24B4
330
22F9
100
AcDbEntity
  8
LINE
100
AcDbCircle
 10
114.000005
 20
155.0827769999999
 30
0.0
 40
19.0
100
AcDbArc
 50
342.2936809999999
 51
0.0
  0
ARC
  5
24B5
330
22F9
100
AcDbEntity
  8
LINE
100
AcDbCircle
 10
114.000005
 20
142.9172519999999
 30
0.0
 40
19.0
100
AcDbArc
 50
0.0
 51
17.70631900000001
  0
LINE
  5
24B6
330
22F9
100
AcDbEntity
  8
LINE
100
AcDbLine
 10
205.0000049999999
 20
140.282216
 30
0.0
 11
205.0000049999999
 21
131.0000139999999
 31
0.0
  0
LINE
  5
24B7
330
22F9
100
AcDbEntity
  8
LINE
100
AcDbLine
 10
205.0000049999999
 20
157.717812
 30
0.0
 11
205.0000049999999
 21
167.0000139999999
 31
0.0
  0
ARC
  5
24B8
330
22F9
100
AcDbEntity
  8
LINE
100
AcDbCircle
 10
70.500005
 20
151.225097
 30
0.0
 40
3.0
100
AcDbArc
 50
0.000003
 51
43.341757
  0
ARC
  5
24B9
330
22F9
100
AcDbEntity
  8
LINE
100
AcDbCircle
 10
71.500005
 20
151.645912
 30
0.0
 40
3.0
100
AcDbArc
 50
0.000003
 51
48.18968399999999
  0
ARC
  5
24BA
330
22F9
100
AcDbEntity
  8
LINE
100
AcDbCircle
 10
77.927948
 20
152.084675
 30
0.0
 40
2.0
100
AcDbArc
 50
139.620065
 51
219.0560889999999
  0
ARC
  5
24BB
330
22F9
100
AcDbEntity
  8
LINE
100
AcDbCircle
 10
77.927948
 20
152.084675
 30
0.0
 40
3.0
100
AcDbArc
 50
139.620066
 51
219.0560889999999
  0
ARC
  5
24BC
330
22F9
100
AcDbEntity
  8
LINE
100
AcDbCircle
 10
74.500005
 20
155.0000139999999
 30
0.0
 40
1.5
100
AcDbArc
 50
314.44477
 51
228.1896849999999
  0
ARC
  5
24BD
330
22F9
100
AcDbEntity
  8
LINE
100
AcDbCircle
 10
74.500005
 20
155.0000139999999
 30
0.0
 40
2.5
100
AcDbArc
 50
314.444769
 51
223.341759
  0
ARC
  5
24BE
330
22F9
100
AcDbEntity
  8
LINE
100
AcDbCircle
 10
74.04530099999998
 20
148.934271
 30
0.0
 40
2.0
100
AcDbArc
 50
339.333366
 51
39.056089
  0
ARC
  5
24BF
330
22F9
100
AcDbEntity
  8
LINE
100
AcDbCircle
 10
74.04530099999998
 20
148.934271
 30
0.0
 40
3.0
100
AcDbArc
 50
345.6868999999999
 51
39.056089
  0
ARC
  5
24C0
330
22F9
100
AcDbEntity
  8
LINE
100
AcDbCircle
 10
78.72354900000001
 20
147.169621
 30
0.0
 40
3.0
100
AcDbArc
 50
159.333366
 51
225.1752999999999
  0
ARC
  5
24C1
330
22F9
100
AcDbEntity
  8
LINE
100
AcDbCircle
 10
79.85905600000002
 20
147.450947
 30
0.0
 40
3.0
100
AcDbArc
 50
165.6869
 51
225.1753019999999
  0
LINE
  5
24C2
330
22F9
100
AcDbEntity
  8
LINE
100
AcDbLine
 10
79.343377
 20
143.7337609999999
 30
0.0
 11
77.744236
 21
145.323147
 31
0.0
  0
ARC
  5
24C3
330
22F9
100
AcDbEntity
  8
LINE
100
AcDbCircle
 10
58.309093
 20
94.500012
 30
0.0
 40
25.0
100
AcDbArc
 50
235.084794
 51
271.4663209999999
  0
ARC
  5
24C4
330
22F9
100
AcDbEntity
  8
LINE
100
AcDbCircle
 10
62.33030799999998
 20
134.0000139999999
 30
0.0
 40
25.0
100
AcDbArc
 50
90.0
 51
137.156357
  0
ARC
  5
24C5
330
22F9
100
AcDbEntity
  8
LINE
100
AcDbCircle
 10
62.33030799999998
 20
164.0000139999999
 30
0.0
 40
25.0
100
AcDbArc
 50
222.8436429999999
 51
270.0
  0
ARC
  5
24C6
330
22F9
100
AcDbEntity
  8
LINE
100
AcDbCircle
 10
255.0
 20
143.780773
 30
0.0
 40
1.738666999999999
100
AcDbArc
 50
128.2998859999999
 51
51.70011399999999
  0
ARC
  5
24C7
330
22F9
100
AcDbEntity
  8
LINE
100
AcDbCircle
 10
255.0
 20
149.000014
 30
0.0
 40
16.0
100
AcDbArc
 50
28.955024
 51
151.044976
  0
ARC
  5
24C8
330
22F9
100
AcDbEntity
  8
LINE
100
AcDbCircle
 10
255.0
 20
149.000014
 30
0.0
 40
16.0
100
AcDbArc
 50
208.955024
 51
331.044976
  0
ARC
  5
24C9
330
22F9
100
AcDbEntity
  8
LINE
100
AcDbCircle
 10
74.000005
 20
149.000014
 30
0.0
 40
5.25
100
AcDbArc
 50
72.08277099999998
 51
98.37897499999998
  0
ARC
  5
24CA
330
22F9
100
AcDbEntity
  8
LINE
100
AcDbCircle
 10
74.000005
 20
149.000014
 30
0.0
 40
5.25
100
AcDbArc
 50
315.519938
 51
60.81565999999998
  0
ARC
  5
24CB
330
22F9
100
AcDbEntity
  8
LINE
100
AcDbCircle
 10
74.000005
 20
149.000014
 30
0.0
 40
5.25
100
AcDbArc
 50
275.465024
 51
304.545572
  0
ARC
  5
24CC
330
22F9
100
AcDbEntity
  8
LINE
100
AcDbCircle
 10
74.000005
 20
149.000014
 30
0.0
 40
5.25
100
AcDbArc
 50
109.657056
 51
264.5349759999999
  0
ARC
  5
24CD
330
22F9
100
AcDbEntity
  8
LINE
100
AcDbCircle
 10
74.000005
 20
149.000014
 30
0.0
 40
5.5
100
AcDbArc
 50
71.195319
 51
99.27739699999998
  0
ARC
  5
24CE
330
22F9
100
AcDbEntity
  8
LINE
100
AcDbCircle
 10
74.000005
 20
149.000014
 30
0.0
 40
5.5
100
AcDbArc
 50
315.504264
 51
60.70380099999999
  0
ARC
  5
24CF
330
22F9
100
AcDbEntity
  8
LINE
100
AcDbCircle
 10
74.000005
 20
149.000014
 30
0.0
 40
5.5
100
AcDbArc
 50
275.215909
 51
305.0339779999999
  0
ARC
  5
24D0
330
22F9
100
AcDbEntity
  8
LINE
100
AcDbCircle
 10
74.000005
 20
149.000014
 30
0.0
 40
5.5
100
AcDbArc
 50
109.768915
 51
264.7840909999999
  0
LINE
  5
24D1
330
22F9
100
AcDbEntity
  8
LINE
100
AcDbLine
 10
237.0
 20
131.0000139999999
 30
0.0
 11
273.0
 21
131.0000139999999
 31
0.0
  0
LINE
  5
24D2
330
22F9
100
AcDbEntity
  8
LINE
100
AcDbLine
 10
273.0
 20
131.0000139999999
 30
0.0
 11
273.0
 21
167.0000139999999
 31
0.0
  0
LINE
  5
24D3
330
22F9
100
AcDbEntity
  8
LINE
100
AcDbLine
 10
273.0
 20
167.0000139999999
 30
0.0
 11
237.0
 21
167.0000139999999
 31
0.0
  0
LINE
  5
24D4
330
22F9
100
AcDbEntity
  8
LINE
100
AcDbLine
 10
237.0
 20
167.0000139999999
 30
0.0
 11
237.0
 21
131.0000139999999
 31
0.0
  0
ARC
  5
24D5
330
22F9
100
AcDbEntity
  8
LINE
100
AcDbCircle
 10
255.0
 20
149.000014
 30
0.0
 40
20.0
100
AcDbArc
 50
205.8419329999999
 51
244.158067
  0
ARC
  5
24D6
330
22F9
100
AcDbEntity
  8
LINE
100
AcDbCircle
 10
255.0
 20
149.000014
 30
0.0
 40
20.0
100
AcDbArc
 50
115.841933
 51
154.1580669999999
  0
ARC
  5
24D7
330
22F9
100
AcDbEntity
  8
LINE
100
AcDbCircle
 10
255.0
 20
149.000014
 30
0.0
 40
20.0
100
AcDbArc
 50
25.841933
 51
64.158067
  0
ARC
  5
24D8
330
22F9
100
AcDbEntity
  8
LINE
100
AcDbCircle
 10
255.0
 20
149.000014
 30
0.0
 40
20.0
100
AcDbArc
 50
295.8419329999999
 51
334.158067
  0
LINE
  5
24D9
330
22F9
100
AcDbEntity
  8
LINE
100
AcDbLine
 10
116.000005
 20
64.91724999999999
 30
0.0
 11
116.000005
 21
53.000012
 31
0.0
  0
LINE
  5
24DA
330
22F9
100
AcDbEntity
  8
LINE
100
AcDbLine
 10
116.000005
 20
77.082775
 30
0.0
 11
116.000005
 21
89.000012
 31
0.0
  0
LINE
  5
24DB
330
22F9
100
AcDbEntity
  8
LINE
100
AcDbLine
 10
133.0000049999999
 20
64.91724999999999
 30
0.0
 11
133.0000049999999
 21
53.000012
 31
0.0
  0
LINE
  5
24DC
330
22F9
100
AcDbEntity
  8
LINE
100
AcDbLine
 10
133.0000049999999
 20
77.082775
 30
0.0
 11
133.0000049999999
 21
89.000012
 31
0.0
  0
ARC
  5
24DD
330
22F9
100
AcDbEntity
  8
LINE
100
AcDbCircle
 10
115.9474459999999
 20
71.000012
 30
0.0
 40
1.0
100
AcDbArc
 50
342.2936809999999
 51
17.706319
  0
ARC
  5
24DE
330
22F9
100
AcDbEntity
  8
LINE
100
AcDbCircle
 10
133.0525639999999
 20
71.000012
 30
0.0
 40
1.0
100
AcDbArc
 50
162.293681
 51
197.7063189999999
  0
CIRCLE
  5
24DF
330
22F9
100
AcDbEntity
  8
LINE
100
AcDbCircle
 10
107.0000049999999
 20
85.00001199999998
 30
0.0
 40
2.0
  0
CIRCLE
  5
24E0
330
22F9
100
AcDbEntity
  8
LINE
100
AcDbCircle
 10
137.0000049999999
 20
85.00001199999998
 30
0.0
 40
2.0
  0
CIRCLE
  5
24E1
330
22F9
100
AcDbEntity
  8
LINE
100
AcDbCircle
 10
107.0000049999999
 20
57.00001199999999
 30
0.0
 40
2.0
  0
CIRCLE
  5
24E2
330
22F9
100
AcDbEntity
  8
LINE
100
AcDbCircle
 10
137.0000049999999
 20
57.00001199999999
 30
0.0
 40
2.0
  0
LINE
  5
24E3
330
22F9
100
AcDbEntity
  8
LINE
100
AcDbLine
 10
158.0000049999999
 20
89.000012
 30
0.0
 11
158.0000049999999
 21
81.71781000000001
 31
0.0
  0
LINE
  5
24E4
330
22F9
100
AcDbEntity
  8
LINE
100
AcDbLine
 10
160.000005
 20
79.71781
 30
0.0
 11
206.0000049999999
 21
79.71781
 31
0.0
  0
LINE
  5
24E5
330
22F9
100
AcDbEntity
  8
LINE
100
AcDbLine
 10
206.0000049999999
 20
62.282215
 30
0.0
 11
160.000005
 21
62.282215
 31
0.0
  0
LINE
  5
24E6
330
22F9
100
AcDbEntity
  8
LINE
100
AcDbLine
 10
158.0000049999999
 20
60.282215
 30
0.0
 11
158.0000049999999
 21
53.000012
 31
0.0
  0
ARC
  5
24E7
330
22F9
100
AcDbEntity
  8
LINE
100
AcDbCircle
 10
160.000005
 20
81.71781000000001
 30
0.0
 40
2.0
100
AcDbArc
 50
180.0
 51
270.0
  0
ARC
  5
24E8
330
22F9
100
AcDbEntity
  8
LINE
100
AcDbCircle
 10
160.000005
 20
60.282215
 30
0.0
 40
2.0
100
AcDbArc
 50
90.0
 51
180.0
  0
LINE
  5
24E9
330
22F9
100
AcDbEntity
  8
LINE
100
AcDbLine
 10
66.000005
 20
141.5000139999999
 30
0.0
 11
66.000005
 21
156.5000139999999
 31
0.0
  0
LINE
  5
24EA
330
22F9
100
AcDbEntity
  8
LINE
100
AcDbLine
 10
66.000005
 20
156.5000139999999
 30
0.0
 11
88.51732700000003
 21
167.0000139999999
 31
0.0
  0
LINE
  5
24EB
330
22F9
100
AcDbEntity
  8
LINE
100
AcDbLine
 10
88.51732700000003
 20
167.0000139999999
 30
0.0
 11
206.0000049999999
 21
167.0000139999999
 31
0.0
  0
LINE
  5
24EC
330
22F9
100
AcDbEntity
  8
LINE
100
AcDbLine
 10
206.0000049999999
 20
131.0000139999999
 30
0.0
 11
88.51732700000003
 21
131.0000139999999
 31
0.0
  0
LINE
  5
24ED
330
22F9
100
AcDbEntity
  8
LINE
100
AcDbLine
 10
88.51732700000003
 20
131.0000139999999
 30
0.0
 11
66.000005
 21
141.5000139999999
 31
0.0
  0
LINE
  5
24EE
330
22F9
100
AcDbEntity
  8
LINE
100
AcDbLine
 10
88.500005
 20
166.991937
 30
0.0
 11
88.500005
 21
131.008092
 31
0.0
  0
LINE
  5
24EF
330
22F9
100
AcDbEntity
  8
LINE
100
AcDbLine
 10
116.000005
 20
142.9172519999999
 30
0.0
 11
116.000005
 21
131.0000139999999
 31
0.0
  0
LINE
  5
24F0
330
22F9
100
AcDbEntity
  8
LINE
100
AcDbLine
 10
116.000005
 20
155.0827769999999
 30
0.0
 11
116.000005
 21
167.0000139999999
 31
0.0
  0
LINE
  5
24F1
330
22F9
100
AcDbEntity
  8
LINE
100
AcDbLine
 10
133.0000049999999
 20
142.9172519999999
 30
0.0
 11
133.0000049999999
 21
131.0000139999999
 31
0.0
  0
LINE
  5
24F2
330
22F9
100
AcDbEntity
  8
LINE
100
AcDbLine
 10
133.0000049999999
 20
155.0827769999999
 30
0.0
 11
133.0000049999999
 21
167.0000139999999
 31
0.0
  0
ARC
  5
24F3
330
22F9
100
AcDbEntity
  8
LINE
100
AcDbCircle
 10
115.9474459999999
 20
149.000014
 30
0.0
 40
1.0
100
AcDbArc
 50
342.2936809999999
 51
17.706319
  0
ARC
  5
24F4
330
22F9
100
AcDbEntity
  8
LINE
100
AcDbCircle
 10
133.0525639999999
 20
149.000014
 30
0.0
 40
1.0
100
AcDbArc
 50
162.293681
 51
197.7063189999999
  0
CIRCLE
  5
24F5
330
22F9
100
AcDbEntity
  8
LINE
 62
     4
100
AcDbCircle
 10
112.000005
 20
163.0000139999999
 30
0.0
 40
2.0
  0
CIRCLE
  5
24F6
330
22F9
100
AcDbEntity
  8
LINE
 62
     4
100
AcDbCircle
 10
142.0000049999999
 20
163.0000139999999
 30
0.0
 40
2.0
  0
CIRCLE
  5
24F7
330
22F9
100
AcDbEntity
  8
LINE
 62
     4
100
AcDbCircle
 10
112.000005
 20
135.0000139999999
 30
0.0
 40
2.0
  0
CIRCLE
  5
24F8
330
22F9
100
AcDbEntity
  8
LINE
 62
     4
100
AcDbCircle
 10
142.0000049999999
 20
135.0000139999999
 30
0.0
 40
2.0
  0
LINE
  5
24F9
330
22F9
100
AcDbEntity
  8
LINE
100
AcDbLine
 10
158.0000049999999
 20
167.0000139999999
 30
0.0
 11
158.0000049999999
 21
159.717812
 31
0.0
  0
LINE
  5
24FA
330
22F9
100
AcDbEntity
  8
LINE
100
AcDbLine
 10
160.000005
 20
157.717812
 30
0.0
 11
206.0000049999999
 21
157.717812
 31
0.0
  0
LINE
  5
24FB
330
22F9
100
AcDbEntity
  8
LINE
100
AcDbLine
 10
206.0000049999999
 20
140.282216
 30
0.0
 11
160.000005
 21
140.282216
 31
0.0
  0
LINE
  5
24FC
330
22F9
100
AcDbEntity
  8
LINE
100
AcDbLine
 10
158.0000049999999
 20
138.282216
 30
0.0
 11
158.0000049999999
 21
131.0000139999999
 31
0.0
  0
ARC
  5
24FD
330
22F9
100
AcDbEntity
  8
LINE
100
AcDbCircle
 10
160.000005
 20
159.717812
 30
0.0
 40
2.0
100
AcDbArc
 50
180.0
 51
270.0
  0
ARC
  5
24FE
330
22F9
100
AcDbEntity
  8
LINE
100
AcDbCircle
 10
160.000005
 20
138.282216
 30
0.0
 40
2.0
100
AcDbArc
 50
90.0
 51
180.0
  0
LINE
  5
24FF
330
22F9
100
AcDbEntity
  8
LINE
100
AcDbLine
 10
206.0000049999999
 20
167.0000139999999
 30
0.0
 11
206.0000049999999
 21
131.0000139999999
 31
0.0
  0
LINE
  5
2500
330
22F9
100
AcDbEntity
  8
LINE
100
AcDbLine
 10
74.000005
 20
55.500012
 30
0.0
 11
72.500005
 21
55.500012
 31
0.0
  0
LINE
  5
2501
330
22F9
100
AcDbEntity
  8
LINE
100
AcDbLine
 10
72.000005
 20
56.000012
 30
0.0
 11
72.000005
 21
57.50001199999999
 31
0.0
  0
LINE
  5
2502
330
22F9
100
AcDbEntity
  8
LINE
100
AcDbLine
 10
72.500005
 20
86.500012
 30
0.0
 11
74.000005
 21
86.500012
 31
0.0
  0
LINE
  5
2503
330
22F9
100
AcDbEntity
  8
LINE
100
AcDbLine
 10
72.500005
 20
55.500012
 30
0.0
 11
72.000005
 21
56.000012
 31
0.0
  0
LINE
  5
2504
330
22F9
100
AcDbEntity
  8
LINE
100
AcDbLine
 10
72.000005
 20
56.000012
 30
0.0
 11
74.000005
 21
56.000012
 31
0.0
  0
LINE
  5
2505
330
22F9
100
AcDbEntity
  8
LINE
100
AcDbLine
 10
72.000005
 20
86.00001199999999
 30
0.0
 11
72.500005
 21
86.500012
 31
0.0
  0
LINE
  5
2506
330
22F9
100
AcDbEntity
  8
LINE
100
AcDbLine
 10
72.000005
 20
86.00001199999999
 30
0.0
 11
74.000005
 21
86.00001199999999
 31
0.0
  0
LINE
  5
2507
330
22F9
100
AcDbEntity
  8
LINE
100
AcDbLine
 10
74.000005
 20
55.500012
 30
0.0
 11
75.500005
 21
55.500012
 31
0.0
  0
LINE
  5
2508
330
22F9
100
AcDbEntity
  8
LINE
100
AcDbLine
 10
76.000005
 20
56.000012
 30
0.0
 11
76.000005
 21
57.50001199999999
 31
0.0
  0
LINE
  5
2509
330
22F9
100
AcDbEntity
  8
LINE
100
AcDbLine
 10
75.500005
 20
86.500012
 30
0.0
 11
74.000005
 21
86.500012
 31
0.0
  0
LINE
  5
250A
330
22F9
100
AcDbEntity
  8
LINE
100
AcDbLine
 10
75.500005
 20
55.500012
 30
0.0
 11
76.000005
 21
56.000012
 31
0.0
  0
LINE
  5
250B
330
22F9
100
AcDbEntity
  8
LINE
100
AcDbLine
 10
76.000005
 20
56.000012
 30
0.0
 11
74.000005
 21
56.000012
 31
0.0
  0
LINE
  5
250C
330
22F9
100
AcDbEntity
  8
LINE
100
AcDbLine
 10
76.000005
 20
86.00001199999999
 30
0.0
 11
75.500005
 21
86.500012
 31
0.0
  0
LINE
  5
250D
330
22F9
100
AcDbEntity
  8
LINE
100
AcDbLine
 10
76.000005
 20
86.00001199999999
 30
0.0
 11
74.000005
 21
86.00001199999999
 31
0.0
  0
CIRCLE
  5
250E
330
22F9
100
AcDbEntity
  8
LINE
100
AcDbCircle
 10
74.000005
 20
84.500012
 30
0.0
 40
0.6
  0
LINE
  5
250F
330
22F9
100
AcDbEntity
  8
LINE
100
AcDbLine
 10
73.500005
 20
141.2000139999999
 30
0.0
 11
74.500005
 21
141.2000139999999
 31
0.0
  0
LINE
  5
2510
330
22F9
100
AcDbEntity
  8
LINE
100
AcDbLine
 10
78.63843699999998
 20
143.024495
 30
0.0
 11
79.343377
 21
143.7337609999999
 31
0.0
  0
LINE
  5
2511
330
22F9
100
AcDbEntity
  8
LINE
100
AcDbLine
 10
78.63843699999998
 20
143.024495
 30
0.0
 11
76.60872899999998
 21
145.04182
 31
0.0
  0
LINE
  5
2512
330
22F9
100
AcDbEntity
  8
LINE
100
AcDbLine
 10
61.000005
 20
67.508854
 30
0.0
 11
61.000005
 21
66.500012
 31
0.0
  0
ARC
  5
2513
330
22F9
100
AcDbEntity
  8
LINE
100
AcDbCircle
 10
59.000005
 20
67.508854
 30
0.0
 40
2.0
100
AcDbArc
 50
0.0
 51
91.46632099999996
  0
LINE
  5
2514
330
22F9
100
AcDbEntity
  8
LINE
100
AcDbLine
 10
44.00000499999999
 20
75.500012
 30
0.0
 11
44.00000499999999
 21
74.000012
 31
0.0
  0
LINE
  5
2515
330
22F9
100
AcDbEntity
  8
LINE
100
AcDbLine
 10
44.47673599999999
 20
75.500012
 30
0.0
 11
44.47673599999999
 21
75.00001199999998
 31
0.0
  0
LINE
  5
2516
330
22F9
100
AcDbEntity
  8
LINE
100
AcDbLine
 10
44.47673599999999
 20
75.00001199999998
 30
0.0
 11
61.000005
 21
75.00001199999998
 31
0.0
  0
LINE
  5
2517
330
22F9
100
AcDbEntity
  8
LINE
100
AcDbLine
 10
61.000005
 20
75.00001199999998
 30
0.0
 11
61.000005
 21
75.500012
 31
0.0
  0
LINE
  5
2518
330
22F9
100
AcDbEntity
  8
LINE
100
AcDbLine
 10
68.84612299999999
 20
66.500012
 30
0.0
 11
68.84612299999999
 21
71.000012
 31
0.0
  0
LINE
  5
2519
330
22F9
100
AcDbEntity
  8
LINE
100
AcDbLine
 10
68.84612299999999
 20
71.000012
 30
0.0
 11
79.15388699999998
 21
71.000012
 31
0.0
  0
LINE
  5
251A
330
22F9
100
AcDbEntity
  8
LINE
100
AcDbLine
 10
79.15388699999998
 20
71.000012
 30
0.0
 11
79.15388699999998
 21
75.500012
 31
0.0
  0
LINE
  5
251B
330
22F9
100
AcDbEntity
  8
LINE
100
AcDbLine
 10
77.20156699999998
 20
75.500012
 30
0.0
 11
77.20156699999998
 21
71.000012
 31
0.0
  0
LINE
  5
251C
330
22F9
100
AcDbEntity
  8
LINE
100
AcDbLine
 10
70.79844300000002
 20
71.000012
 30
0.0
 11
70.79844300000002
 21
66.500012
 31
0.0
  0
LINE
  5
251D
330
22F9
100
AcDbEntity
  8
LINE
100
AcDbLine
 10
63.000005
 20
148.5000139999999
 30
0.0
 11
61.000005
 21
148.5000139999999
 31
0.0
  0
LINE
  5
251E
330
22F9
100
AcDbEntity
  8
LINE
100
AcDbLine
 10
63.000005
 20
149.5000139999999
 30
0.0
 11
61.000005
 21
149.5000139999999
 31
0.0
  0
ARC
  5
251F
330
22F9
100
AcDbEntity
  8
LINE
100
AcDbCircle
 10
61.000005
 20
149.000014
 30
0.0
 40
0.5
100
AcDbArc
 50
90.0
 51
270.0
  0
ARC
  5
2520
330
22F9
100
AcDbEntity
  8
LINE
100
AcDbCircle
 10
63.000005
 20
149.000014
 30
0.0
 40
0.5
100
AcDbArc
 50
270.0
 51
90.0
  0
ARC
  5
2521
330
22F9
100
AcDbEntity
  8
LINE
100
AcDbCircle
 10
74.000005
 20
149.000014
 30
0.0
 40
11.25
100
AcDbArc
 50
117.266044
 51
177.452682
  0
LINE
  5
2522
330
22F9
100
AcDbEntity
  8
LINE
100
AcDbLine
 10
44.00000499999999
 20
151.000014
 30
0.0
 11
46.000005
 21
149.000014
 31
0.0
  0
LINE
  5
2523
330
22F9
100
AcDbEntity
  8
LINE
100
AcDbLine
 10
46.000005
 20
149.000014
 30
0.0
 11
44.00000499999999
 21
147.0000139999999
 31
0.0
  0
LINE
  5
2524
330
22F9
100
AcDbEntity
  8
LINE
100
AcDbLine
 10
46.000005
 20
149.000014
 30
0.0
 11
60.500005
 21
149.000014
 31
0.0
  0
LINE
  5
2525
330
22F9
100
AcDbEntity
  8
LINE
100
AcDbLine
 10
44.47673599999999
 20
151.5000139999999
 30
0.0
 11
58.000005
 21
151.5000139999999
 31
0.0
  0
LINE
  5
2526
330
22F9
100
AcDbEntity
  8
LINE
100
AcDbLine
 10
61.000005
 20
154.5000139999999
 30
0.0
 11
61.000005
 21
158.9645949999999
 31
0.0
  0
LINE
  5
2527
330
22F9
100
AcDbEntity
  8
LINE
100
AcDbLine
 10
44.47673599999999
 20
146.5000139999999
 30
0.0
 11
58.000005
 21
146.5000139999999
 31
0.0
  0
LINE
  5
2528
330
22F9
100
AcDbEntity
  8
LINE
100
AcDbLine
 10
61.000005
 20
143.5000139999999
 30
0.0
 11
61.000005
 21
139.035434
 31
0.0
  0
ARC
  5
2529
330
22F9
100
AcDbEntity
  8
LINE
100
AcDbCircle
 10
58.000005
 20
154.5000139999999
 30
0.0
 40
3.0
100
AcDbArc
 50
270.0
 51
0.0
  0
ARC
  5
252A
330
22F9
100
AcDbEntity
  8
LINE
100
AcDbCircle
 10
58.000005
 20
143.5000139999999
 30
0.0
 40
3.0
100
AcDbArc
 50
0.0
 51
90.0
  0
LINE
  5
252B
330
22F9
100
AcDbEntity
  8
LINE
100
AcDbLine
 10
206.0000049999999
 20
167.0000139999999
 30
0.0
 11
218.0000049999999
 21
167.0000139999999
 31
0.0
  0
LINE
  5
252C
330
22F9
100
AcDbEntity
  8
LINE
100
AcDbLine
 10
220.0000049999999
 20
165.0000139999999
 30
0.0
 11
220.0000049999999
 21
149.000014
 31
0.0
  0
LINE
  5
252D
330
22F9
100
AcDbEntity
  8
LINE
100
AcDbLine
 10
218.0000049999999
 20
167.0000139999999
 30
0.0
 11
220.0000049999999
 21
165.0000139999999
 31
0.0
  0
LINE
  5
252E
330
22F9
100
AcDbEntity
  8
LINE
100
AcDbLine
 10
206.0000049999999
 20
131.0000139999999
 30
0.0
 11
218.0000049999999
 21
131.0000139999999
 31
0.0
  0
LINE
  5
252F
330
22F9
100
AcDbEntity
  8
LINE
100
AcDbLine
 10
220.0000049999999
 20
133.0000139999999
 30
0.0
 11
220.0000049999999
 21
149.000014
 31
0.0
  0
LINE
  5
2530
330
22F9
100
AcDbEntity
  8
LINE
100
AcDbLine
 10
218.0000049999999
 20
131.0000139999999
 30
0.0
 11
220.0000049999999
 21
133.0000139999999
 31
0.0
  0
CIRCLE
  5
2531
330
22F9
100
AcDbEntity
  8
LINE
100
AcDbCircle
 10
255.0
 20
149.000014
 30
0.0
 40
18.0
  0
CIRCLE
  5
2532
330
22F9
100
AcDbEntity
  8
LINE
100
AcDbCircle
 10
255.0
 20
157.0000139999999
 30
0.0
 40
4.283
  0
CIRCLE
  5
2533
330
22F9
100
AcDbEntity
  8
LINE
100
AcDbCircle
 10
255.0
 20
141.000014
 30
0.0
 40
4.283
  0
CIRCLE
  5
2534
330
22F9
100
AcDbEntity
  8
LINE
100
AcDbCircle
 10
255.0
 20
157.0000139999999
 30
0.0
 40
2.0
  0
LINE
  5
2535
330
22F9
100
AcDbEntity
  8
LINE
100
AcDbLine
 10
269.0
 20
160.313723
 30
0.0
 11
269.0
 21
137.686306
 31
0.0
  0
LINE
  5
2536
330
22F9
100
AcDbEntity
  8
LINE
100
AcDbLine
 10
241.0
 20
160.313723
 30
0.0
 11
241.0
 21
137.686306
 31
0.0
  0
LINE
  5
2537
330
22F9
100
AcDbEntity
  8
LINE
100
AcDbLine
 10
206.0000049999999
 20
53.000012
 30
0.0
 11
209.0000049999999
 21
53.000012
 31
0.0
  0
LINE
  5
2538
330
22F9
100
AcDbEntity
  8
LINE
100
AcDbLine
 10
209.0000049999999
 20
53.000012
 30
0.0
 11
209.0000049999999
 21
55.00001199999999
 31
0.0
  0
LINE
  5
2539
330
22F9
100
AcDbEntity
  8
LINE
100
AcDbLine
 10
211.000005
 20
57.00001199999999
 30
0.0
 11
220.0000049999999
 21
57.00001199999999
 31
0.0
  0
LINE
  5
253A
330
22F9
100
AcDbEntity
  8
LINE
100
AcDbLine
 10
220.0000049999999
 20
57.00001199999999
 30
0.0
 11
220.0000049999999
 21
85.00001199999998
 31
0.0
  0
LINE
  5
253B
330
22F9
100
AcDbEntity
  8
LINE
100
AcDbLine
 10
220.0000049999999
 20
85.00001199999998
 30
0.0
 11
211.000005
 21
85.00001199999998
 31
0.0
  0
LINE
  5
253C
330
22F9
100
AcDbEntity
  8
LINE
100
AcDbLine
 10
209.0000049999999
 20
87.000012
 30
0.0
 11
209.0000049999999
 21
89.000012
 31
0.0
  0
LINE
  5
253D
330
22F9
100
AcDbEntity
  8
LINE
100
AcDbLine
 10
209.0000049999999
 20
89.000012
 30
0.0
 11
206.0000049999999
 21
89.000012
 31
0.0
  0
ARC
  5
253E
330
22F9
100
AcDbEntity
  8
LINE
100
AcDbCircle
 10
211.000005
 20
55.00001199999999
 30
0.0
 40
2.0
100
AcDbArc
 50
90.0
 51
180.0
  0
ARC
  5
253F
330
22F9
100
AcDbEntity
  8
LINE
100
AcDbCircle
 10
211.000005
 20
87.000012
 30
0.0
 40
2.0
100
AcDbArc
 50
180.0
 51
270.0
  0
LINE
  5
2540
330
22F9
100
AcDbEntity
  8
LINE
100
AcDbLine
 10
218.0000049999999
 20
57.00001199999999
 30
0.0
 11
218.0000049999999
 21
85.00001199999998
 31
0.0
  0
LINE
  5
2541
330
22F9
100
AcDbEntity
  8
LINE
100
AcDbLine
 10
220.0000049999999
 20
160.313723
 30
0.0
 11
209.0000049999999
 21
160.313723
 31
0.0
  0
LINE
  5
2542
330
22F9
100
AcDbEntity
  8
LINE
100
AcDbLine
 10
209.0000049999999
 20
160.313723
 30
0.0
 11
209.0000049999999
 21
137.686306
 31
0.0
  0
LINE
  5
2543
330
22F9
100
AcDbEntity
  8
LINE
100
AcDbLine
 10
209.0000049999999
 20
137.686306
 30
0.0
 11
220.0000049999999
 21
137.686306
 31
0.0
  0
LINE
  5
2544
330
22F9
100
AcDbEntity
  8
LINE
100
AcDbLine
 10
218.0000049999999
 20
167.0000139999999
 30
0.0
 11
218.0000049999999
 21
160.313723
 31
0.0
  0
LINE
  5
2545
330
22F9
100
AcDbEntity
  8
LINE
100
AcDbLine
 10
218.0000049999999
 20
137.686306
 30
0.0
 11
218.0000049999999
 21
131.0000139999999
 31
0.0
  0
LINE
  5
2546
330
22F9
100
AcDbEntity
  8
LINE
100
AcDbLine
 10
88.500005
 20
88.991935
 30
0.0
 11
88.51732700000003
 21
89.000012
 31
0.0
  0
LINE
  5
2547
330
22F9
100
AcDbEntity
  8
LINE
100
AcDbLine
 10
88.500005
 20
53.00809
 30
0.0
 11
88.51732700000003
 21
53.000012
 31
0.0
  0
LINE
  5
2548
330
22F9
100
AcDbEntity
  8
LINE
100
AcDbLine
 10
83.500005
 20
82.60001199999997
 30
0.0
 11
67.500005
 21
82.60001199999997
 31
0.0
  0
LINE
  5
2549
330
22F9
100
AcDbEntity
  8
LINE
100
AcDbLine
 10
67.500005
 20
59.400012
 30
0.0
 11
83.500005
 21
59.400012
 31
0.0
  0
ARC
  5
254A
330
22F9
100
AcDbEntity
  8
LINE
100
AcDbCircle
 10
83.500005
 20
87.60001199999997
 30
0.0
 40
5.0
100
AcDbArc
 50
270.0
 51
0.0
  0
ARC
  5
254B
330
22F9
100
AcDbEntity
  8
LINE
100
AcDbCircle
 10
83.500005
 20
54.400012
 30
0.0
 40
5.0
100
AcDbArc
 50
0.0
 51
90.0
  0
LINE
  5
254C
330
22F9
100
AcDbEntity
  8
LINE
100
AcDbLine
 10
93.00000500000001
 20
75.60001199999998
 30
0.0
 11
66.000005
 21
75.60001199999998
 31
0.0
  0
LINE
  5
254D
330
22F9
100
AcDbEntity
  8
LINE
100
AcDbLine
 10
93.00000500000001
 20
66.400012
 30
0.0
 11
66.000005
 21
66.400012
 31
0.0
  0
LINE
  5
254E
330
22F9
100
AcDbEntity
  8
LINE
100
AcDbLine
 10
67.500005
 20
82.60001199999997
 30
0.0
 11
66.000005
 21
81.10001199999997
 31
0.0
  0
LINE
  5
254F
330
22F9
100
AcDbEntity
  8
LINE
100
AcDbLine
 10
66.000005
 20
60.90001199999999
 30
0.0
 11
67.500005
 21
59.400012
 31
0.0
  0
LINE
  5
2550
330
22F9
100
AcDbEntity
  8
LINE
100
AcDbLine
 10
66.000005
 20
75.60001199999998
 30
0.0
 11
66.000005
 21
81.10001199999997
 31
0.0
  0
LINE
  5
2551
330
22F9
100
AcDbEntity
  8
LINE
100
AcDbLine
 10
88.500005
 20
75.60001199999998
 30
0.0
 11
88.500005
 21
88.991935
 31
0.0
  0
LINE
  5
2552
330
22F9
100
AcDbEntity
  8
LINE
100
AcDbLine
 10
93.00000500000001
 20
66.400012
 30
0.0
 11
93.00000500000001
 21
75.60001199999998
 31
0.0
  0
LINE
  5
2553
330
22F9
100
AcDbEntity
  8
LINE
100
AcDbLine
 10
88.500005
 20
66.400012
 30
0.0
 11
88.500005
 21
53.00809
 31
0.0
  0
LINE
  5
2554
330
22F9
100
AcDbEntity
  8
LINE
100
AcDbLine
 10
66.000005
 20
66.400012
 30
0.0
 11
66.000005
 21
60.90001199999999
 31
0.0
  0
LINE
  5
2555
330
22F9
100
AcDbEntity
  8
LINE
100
AcDbLine
 10
206.0000049999999
 20
53.000012
 30
0.0
 11
206.0000049999999
 21
89.000012
 31
0.0
  0
LINE
  5
2556
330
22F9
100
AcDbEntity
  8
LINE
100
AcDbLine
 10
71.361272
 20
159.0000139999999
 30
0.0
 11
62.33030799999998
 21
159.0000139999999
 31
0.0
  0
LINE
  5
2557
330
22F9
100
AcDbEntity
  8
LINE
100
AcDbLine
 10
71.361272
 20
139.0000139999999
 30
0.0
 11
62.33030799999998
 21
139.0000139999999
 31
0.0
  0
ARC
  5
2558
330
22F9
100
AcDbEntity
  8
LINE
100
AcDbCircle
 10
74.000005
 20
149.000014
 30
0.0
 40
10.5
100
AcDbArc
 50
139.6324059999999
 51
180.0
  0
ARC
  5
2559
330
22F9
100
AcDbEntity
  8
LINE
100
AcDbCircle
 10
74.000005
 20
149.000014
 30
0.0
 40
10.5
100
AcDbArc
 50
107.7527899999999
 51
129.2204879999999
  0
LINE
  5
255A
330
22F9
100
AcDbEntity
  8
LINE
100
AcDbLine
 10
93.00000500000001
 20
75.500012
 30
0.0
 11
44.00000499999999
 21
75.500012
 31
0.0
  0
LINE
  5
255B
330
22F9
100
AcDbEntity
  8
LINE
100
AcDbLine
 10
93.00000500000001
 20
66.500012
 30
0.0
 11
61.000005
 21
66.500012
 31
0.0
  0
CIRCLE
  5
255C
330
22F9
100
AcDbEntity
  8
LINE
100
AcDbCircle
 10
74.000005
 20
149.000014
 30
0.0
 40
2.0
  0
LINE
  5
255D
330
22F9
100
AcDbEntity
  8
LINE
100
AcDbLine
 10
73.500005
 20
151.225097
 30
0.0
 11
73.500005
 21
150.936506
 31
0.0
  0
LINE
  5
255E
330
22F9
100
AcDbEntity
  8
LINE
100
AcDbLine
 10
73.500005
 20
147.063523
 30
0.0
 11
73.500005
 21
141.2000139999999
 31
0.0
  0
LINE
  5
255F
330
22F9
100
AcDbEntity
  8
LINE
100
AcDbLine
 10
74.500005
 20
151.645912
 30
0.0
 11
74.500005
 21
150.936506
 31
0.0
  0
LINE
  5
2560
330
22F9
100
AcDbEntity
  8
LINE
100
AcDbLine
 10
74.500005
 20
147.063523
 30
0.0
 11
74.500005
 21
141.2000139999999
 31
0.0
  0
LINE
  5
2561
330
22F9
100
AcDbEntity
  8
LINE
100
AcDbLine
 10
69.500005
 20
58.900012
 30
0.0
 11
69.500005
 21
58.100012
 31
0.0
  0
LINE
  5
2562
330
22F9
100
AcDbEntity
  8
LINE
100
AcDbLine
 10
69.500005
 20
58.100012
 30
0.0
 11
78.500005
 21
58.100012
 31
0.0
  0
LINE
  5
2563
330
22F9
100
AcDbEntity
  8
LINE
100
AcDbLine
 10
78.500005
 20
58.100012
 30
0.0
 11
78.500005
 21
58.900012
 31
0.0
  0
LINE
  5
2564
330
22F9
100
AcDbEntity
  8
LINE
100
AcDbLine
 10
70.500005
 20
58.100012
 30
0.0
 11
70.500005
 21
57.50001199999999
 31
0.0
  0
LINE
  5
2565
330
22F9
100
AcDbEntity
  8
LINE
100
AcDbLine
 10
70.500005
 20
57.50001199999999
 30
0.0
 11
77.500005
 21
57.50001199999999
 31
0.0
  0
LINE
  5
2566
330
22F9
100
AcDbEntity
  8
LINE
100
AcDbLine
 10
77.500005
 20
57.50001199999999
 30
0.0
 11
77.500005
 21
58.100012
 31
0.0
  0
LINE
  5
2567
330
22F9
100
AcDbEntity
  8
LINE
100
AcDbLine
 10
68.750005
 20
59.400012
 30
0.0
 11
68.750005
 21
59.200012
 31
0.0
  0
LINE
  5
2568
330
22F9
100
AcDbEntity
  8
LINE
100
AcDbLine
 10
69.05000499999998
 20
58.900012
 30
0.0
 11
78.950005
 21
58.900012
 31
0.0
  0
LINE
  5
2569
330
22F9
100
AcDbEntity
  8
LINE
100
AcDbLine
 10
79.250005
 20
59.200012
 30
0.0
 11
79.250005
 21
59.400012
 31
0.0
  0
LINE
  5
256A
330
22F9
100
AcDbEntity
  8
LINE
100
AcDbLine
 10
68.750005
 20
59.200012
 30
0.0
 11
69.05000499999998
 21
58.900012
 31
0.0
  0
LINE
  5
256B
330
22F9
100
AcDbEntity
  8
LINE
100
AcDbLine
 10
78.950005
 20
58.900012
 30
0.0
 11
79.250005
 21
59.200012
 31
0.0
  0
LINE
  5
256C
330
22F9
100
AcDbEntity
  8
LINE
100
AcDbLine
 10
68.750005
 20
82.60001199999997
 30
0.0
 11
68.750005
 21
82.80001199999999
 31
0.0
  0
LINE
  5
256D
330
22F9
100
AcDbEntity
  8
LINE
100
AcDbLine
 10
69.05000499999998
 20
83.100012
 30
0.0
 11
78.950005
 21
83.100012
 31
0.0
  0
LINE
  5
256E
330
22F9
100
AcDbEntity
  8
LINE
100
AcDbLine
 10
79.250005
 20
82.80001199999999
 30
0.0
 11
79.250005
 21
82.60001199999997
 31
0.0
  0
LINE
  5
256F
330
22F9
100
AcDbEntity
  8
LINE
100
AcDbLine
 10
68.750005
 20
82.80001199999999
 30
0.0
 11
69.05000499999998
 21
83.100012
 31
0.0
  0
LINE
  5
2570
330
22F9
100
AcDbEntity
  8
LINE
100
AcDbLine
 10
78.950005
 20
83.100012
 30
0.0
 11
79.250005
 21
82.80001199999999
 31
0.0
  0
LINE
  5
2571
330
22F9
100
AcDbEntity
  8
LINE
100
AcDbLine
 10
72.000005
 20
83.100012
 30
0.0
 11
72.000005
 21
86.00001199999999
 31
0.0
  0
LINE
  5
2572
330
22F9
100
AcDbEntity
  8
LINE
100
AcDbLine
 10
76.000005
 20
83.100012
 30
0.0
 11
76.000005
 21
86.00001199999999
 31
0.0
  0
CIRCLE
  5
2573
330
22F9
100
AcDbEntity
  8
LINE
100
AcDbCircle
 10
74.000005
 20
84.500012
 30
0.0
 40
0.5
  0
CIRCLE
  5
2574
330
22F9
100
AcDbEntity
  8
LINE
100
AcDbCircle
 10
76.500005
 20
84.500012
 30
0.0
 40
0.5
  0
LINE
  5
2575
330
22F9
100
AcDbEntity
  8
LINE
100
AcDbLine
 10
206.0000049999999
 20
89.000012
 30
0.0
 11
88.51732700000003
 21
89.000012
 31
0.0
  0
LINE
  5
2576
330
22F9
100
AcDbEntity
  8
LINE
100
AcDbLine
 10
206.0000049999999
 20
53.000012
 30
0.0
 11
88.51732700000003
 21
53.000012
 31
0.0
  0
LINE
  5
2577
330
22F9
100
AcDbEntity
  8
LINE
100
AcDbLine
 10
205.0000049999999
 20
89.000012
 30
0.0
 11
205.0000049999999
 21
79.71781
 31
0.0
  0
LINE
  5
2578
330
22F9
100
AcDbEntity
  8
LINE
100
AcDbLine
 10
205.0000049999999
 20
62.282215
 30
0.0
 11
205.0000049999999
 21
53.000012
 31
0.0
  0
TEXT
  5
2579
330
22F9
100
AcDbEntity
  8
LINE
100
AcDbText
 10
213.5000049999999
 20
66.500012
 30
0.0
 40
3.0
  1
ＯＵＴ
 50
90.0
  7
KANJI1
100
AcDbText
  0
CIRCLE
  5
257A
330
22F9
100
AcDbEntity
  8
LINE
 62
     4
100
AcDbCircle
 10
107.0000049999999
 20
85.00001199999998
 30
0.0
 40
1.649999999999999
  0
CIRCLE
  5
257B
330
22F9
100
AcDbEntity
  8
LINE
 62
     4
100
AcDbCircle
 10
137.0000049999999
 20
85.00001199999998
 30
0.0
 40
1.649999999999999
  0
CIRCLE
  5
257C
330
22F9
100
AcDbEntity
  8
LINE
 62
     4
100
AcDbCircle
 10
107.0000049999999
 20
57.00001199999999
 30
0.0
 40
1.649999999999999
  0
CIRCLE
  5
257D
330
22F9
100
AcDbEntity
  8
LINE
 62
     4
100
AcDbCircle
 10
137.0000049999999
 20
57.00001199999999
 30
0.0
 40
1.649999999999999
  0
CIRCLE
  5
257E
330
22F9
100
AcDbEntity
  8
LINE
 62
     4
100
AcDbCircle
 10
112.000005
 20
163.0000139999999
 30
0.0
 40
1.649999999999999
  0
CIRCLE
  5
257F
330
22F9
100
AcDbEntity
  8
LINE
 62
     4
100
AcDbCircle
 10
142.0000049999999
 20
163.0000139999999
 30
0.0
 40
1.649999999999999
  0
CIRCLE
  5
2580
330
22F9
100
AcDbEntity
  8
LINE
 62
     4
100
AcDbCircle
 10
112.000005
 20
135.0000139999999
 30
0.0
 40
1.649999999999999
  0
CIRCLE
  5
2581
330
22F9
100
AcDbEntity
  8
LINE
 62
     4
100
AcDbCircle
 10
142.0000049999999
 20
135.0000139999999
 30
0.0
 40
1.649999999999999
  0
CIRCLE
  5
2582
330
22F9
100
AcDbEntity
  8
LINE
 62
     4
100
AcDbCircle
 10
255.0
 20
157.0000139999999
 30
0.0
 40
4.863999999999998
  0
CIRCLE
  5
2583
330
22F9
100
AcDbEntity
  8
LINE
 62
     4
100
AcDbCircle
 10
255.0
 20
141.000014
 30
0.0
 40
4.863999999999998
  0
CIRCLE
  5
2584
330
22F9
100
AcDbEntity
  8
LINE
 62
     4
100
AcDbCircle
 10
107.0000049999999
 20
85.00001199999998
 30
0.0
 40
1.649999999999999
  0
CIRCLE
  5
2585
330
22F9
100
AcDbEntity
  8
LINE
 62
     4
100
AcDbCircle
 10
137.0000049999999
 20
85.00001199999998
 30
0.0
 40
1.649999999999999
  0
CIRCLE
  5
2586
330
22F9
100
AcDbEntity
  8
LINE
 62
     4
100
AcDbCircle
 10
107.0000049999999
 20
57.00001199999999
 30
0.0
 40
1.649999999999999
  0
CIRCLE
  5
2587
330
22F9
100
AcDbEntity
  8
LINE
 62
     4
100
AcDbCircle
 10
137.0000049999999
 20
57.00001199999999
 30
0.0
 40
1.649999999999999
  0
CIRCLE
  5
2588
330
22F9
100
AcDbEntity
  8
LINE
 62
     4
100
AcDbCircle
 10
112.000005
 20
163.0000139999999
 30
0.0
 40
1.649999999999999
  0
CIRCLE
  5
2589
330
22F9
100
AcDbEntity
  8
LINE
 62
     4
100
AcDbCircle
 10
142.0000049999999
 20
163.0000139999999
 30
0.0
 40
1.649999999999999
  0
CIRCLE
  5
258A
330
22F9
100
AcDbEntity
  8
LINE
 62
     4
100
AcDbCircle
 10
112.000005
 20
135.0000139999999
 30
0.0
 40
1.649999999999999
  0
CIRCLE
  5
258B
330
22F9
100
AcDbEntity
  8
LINE
 62
     4
100
AcDbCircle
 10
142.0000049999999
 20
135.0000139999999
 30
0.0
 40
1.649999999999999
  0
LINE
  5
258C
330
22F9
100
AcDbEntity
  8
CENTER
100
AcDbLine
 10
107.0000049999999
 20
82.000012
 30
0.0
 11
107.0000049999999
 21
88.000012
 31
0.0
  0
LINE
  5
258D
330
22F9
100
AcDbEntity
  8
CENTER
100
AcDbLine
 10
104.0000049999999
 20
85.00001199999998
 30
0.0
 11
110.000005
 21
85.00001199999998
 31
0.0
  0
LINE
  5
258E
330
22F9
100
AcDbEntity
  8
CENTER
100
AcDbLine
 10
137.0000049999999
 20
82.000012
 30
0.0
 11
137.0000049999999
 21
88.000012
 31
0.0
  0
LINE
  5
258F
330
22F9
100
AcDbEntity
  8
CENTER
100
AcDbLine
 10
134.0000049999999
 20
85.00001199999998
 30
0.0
 11
140.0000049999999
 21
85.00001199999998
 31
0.0
  0
LINE
  5
2590
330
22F9
100
AcDbEntity
  8
CENTER
100
AcDbLine
 10
107.0000049999999
 20
54.000012
 30
0.0
 11
107.0000049999999
 21
60.00001199999999
 31
0.0
  0
LINE
  5
2591
330
22F9
100
AcDbEntity
  8
CENTER
100
AcDbLine
 10
104.0000049999999
 20
57.00001199999999
 30
0.0
 11
110.000005
 21
57.00001199999999
 31
0.0
  0
LINE
  5
2592
330
22F9
100
AcDbEntity
  8
CENTER
100
AcDbLine
 10
137.0000049999999
 20
54.000012
 30
0.0
 11
137.0000049999999
 21
60.00001199999999
 31
0.0
  0
LINE
  5
2593
330
22F9
100
AcDbEntity
  8
CENTER
100
AcDbLine
 10
134.0000049999999
 20
57.00001199999999
 30
0.0
 11
140.0000049999999
 21
57.00001199999999
 31
0.0
  0
LINE
  5
2594
330
22F9
100
AcDbEntity
  8
CENTER
100
AcDbLine
 10
112.000005
 20
160.0000139999999
 30
0.0
 11
112.000005
 21
166.000014
 31
0.0
  0
LINE
  5
2595
330
22F9
100
AcDbEntity
  8
CENTER
100
AcDbLine
 10
109.0000049999999
 20
163.0000139999999
 30
0.0
 11
115.000005
 21
163.0000139999999
 31
0.0
  0
LINE
  5
2596
330
22F9
100
AcDbEntity
  8
CENTER
100
AcDbLine
 10
142.0000049999999
 20
160.0000139999999
 30
0.0
 11
142.0000049999999
 21
166.000014
 31
0.0
  0
LINE
  5
2597
330
22F9
100
AcDbEntity
  8
CENTER
100
AcDbLine
 10
139.0000049999999
 20
163.0000139999999
 30
0.0
 11
145.0000049999999
 21
163.0000139999999
 31
0.0
  0
LINE
  5
2598
330
22F9
100
AcDbEntity
  8
CENTER
100
AcDbLine
 10
112.000005
 20
132.0000139999999
 30
0.0
 11
112.000005
 21
138.0000139999999
 31
0.0
  0
LINE
  5
2599
330
22F9
100
AcDbEntity
  8
CENTER
100
AcDbLine
 10
109.0000049999999
 20
135.0000139999999
 30
0.0
 11
115.000005
 21
135.0000139999999
 31
0.0
  0
LINE
  5
259A
330
22F9
100
AcDbEntity
  8
CENTER
100
AcDbLine
 10
142.0000049999999
 20
132.0000139999999
 30
0.0
 11
142.0000049999999
 21
138.0000139999999
 31
0.0
  0
LINE
  5
259B
330
22F9
100
AcDbEntity
  8
CENTER
100
AcDbLine
 10
139.0000049999999
 20
135.0000139999999
 30
0.0
 11
145.0000049999999
 21
135.0000139999999
 31
0.0
  0
LINE
  5
259C
330
22F9
100
AcDbEntity
  8
CENTER
100
AcDbLine
 10
255.0
 20
130.0000139999999
 30
0.0
 11
255.0
 21
168.0000139999999
 31
0.0
  0
LINE
  5
259D
330
22F9
100
AcDbEntity
  8
CENTER
100
AcDbLine
 10
236.0
 20
149.000014
 30
0.0
 11
274.0
 21
149.000014
 31
0.0
  0
LINE
  5
259E
330
22F9
100
AcDbEntity
  8
CENTER
100
AcDbLine
 10
249.1359999999999
 20
157.0000139999999
 30
0.0
 11
260.8639999999999
 21
157.0000139999999
 31
0.0
  0
LINE
  5
259F
330
22F9
100
AcDbEntity
  8
CENTER
100
AcDbLine
 10
249.1359999999999
 20
141.000014
 30
0.0
 11
260.8639999999999
 21
141.000014
 31
0.0
  0
LINE
  5
25A0
330
22F9
100
AcDbEntity
  8
CENTER
100
AcDbLine
 10
74.000005
 20
141.0
 30
0.0
 11
74.000005
 21
159.0
 31
0.0
  0
LINE
  5
25A1
330
22F9
100
AcDbEntity
  8
CENTER
100
AcDbLine
 10
81.0
 20
84.500012
 30
0.0
 11
72.40000499999998
 21
84.500012
 31
0.0
  0
CIRCLE
  5
25A2
330
22F9
100
AcDbEntity
  8
LINE
 62
     4
100
AcDbCircle
 10
107.0000049999999
 20
85.00001199999998
 30
0.0
 40
1.649999999999999
  0
CIRCLE
  5
25A3
330
22F9
100
AcDbEntity
  8
LINE
 62
     4
100
AcDbCircle
 10
137.0000049999999
 20
85.00001199999998
 30
0.0
 40
1.649999999999999
  0
CIRCLE
  5
25A4
330
22F9
100
AcDbEntity
  8
LINE
 62
     4
100
AcDbCircle
 10
107.0000049999999
 20
57.00001199999999
 30
0.0
 40
1.649999999999999
  0
CIRCLE
  5
25A5
330
22F9
100
AcDbEntity
  8
LINE
 62
     4
100
AcDbCircle
 10
137.0000049999999
 20
57.00001199999999
 30
0.0
 40
1.649999999999999
  0
CIRCLE
  5
25A6
330
22F9
100
AcDbEntity
  8
LINE
100
AcDbCircle
 10
112.000005
 20
163.0000139999999
 30
0.0
 40
1.649999999999999
  0
CIRCLE
  5
25A7
330
22F9
100
AcDbEntity
  8
LINE
100
AcDbCircle
 10
142.0000049999999
 20
163.0000139999999
 30
0.0
 40
1.649999999999999
  0
CIRCLE
  5
25A8
330
22F9
100
AcDbEntity
  8
LINE
100
AcDbCircle
 10
112.000005
 20
135.0000139999999
 30
0.0
 40
1.649999999999999
  0
CIRCLE
  5
25A9
330
22F9
100
AcDbEntity
  8
LINE
100
AcDbCircle
 10
142.0000049999999
 20
135.0000139999999
 30
0.0
 40
1.649999999999999
  0
LINE
  5
25AA
330
22F9
100
AcDbEntity
  8
CENTER
100
AcDbLine
 10
46.000005
 20
149.000014
 30
0.0
 11
42.000005
 21
149.000014
 31
0.0
  0
LINE
  5
25AB
330
22F9
100
AcDbEntity
  8
CENTER
100
AcDbLine
 10
222.0
 20
149.000014
 30
0.0
 11
64.000005
 21
149.000014
 31
0.0
  0
LINE
  5
25AC
330
22F9
100
AcDbEntity
  8
CENTER
100
AcDbLine
 10
45.0
 20
71.000012
 30
0.0
 11
68.84612299999999
 21
71.000012
 31
0.0
  0
LINE
  5
25AD
330
22F9
100
AcDbEntity
  8
CENTER
100
AcDbLine
 10
79.15388699999998
 20
71.000012
 30
0.0
 11
222.0
 21
71.000012
 31
0.0
  0
LINE
  5
25AE
330
22F9
100
AcDbEntity
  8
CENTER
100
AcDbLine
 10
74.000005
 20
90.0
 30
0.0
 11
74.000005
 21
54.0
 31
0.0
  0
DIMENSION
  5
25AF
330
22F9
100
AcDbEntity
  8
DIMENSION
100
AcDbDimension
  2
*D3
 10
36.0
 20
139.0000139999999
 30
0.0
 11
33.49999999999997
 21
149.000014
 31
0.0
  3
ISO-25
100
AcDbAlignedDimension
 13
39.0
 23
159.0000139999999
 33
0.0
 14
39.0
 24
139.0000139999999
 34
0.0
 50
90.0
100
AcDbRotatedDimension
  0
DIMENSION
  5
25B0
330
22F9
100
AcDbEntity
  8
DIMENSION
100
AcDbDimension
  2
*D5
 10
74.00000499357971
 20
123.0
 30
0.0
 11
59.00000499678985
 21
125.5
 31
0.0
  3
ISO-25
100
AcDbAlignedDimension
 13
44.00000499999999
 23
126.0
 33
0.0
 14
74.00000499357971
 24
125.9999999982797
 34
0.0
100
AcDbRotatedDimension
  0
DIMENSION
  5
25B1
330
22F9
100
AcDbEntity
  8
DIMENSION
100
AcDbDimension
  2
*D7
 10
220.0000049999999
 20
123.0
 30
0.0
 11
147.0000049967898
 21
125.5
 31
0.0
  3
ISO-25
100
AcDbAlignedDimension
 13
74.00000499357971
 23
125.9999999982797
 33
0.0
 14
220.0000049999999
 24
126.0
 34
0.0
100
AcDbRotatedDimension
  0
DIMENSION
  5
25B2
330
22F9
100
AcDbEntity
  8
DIMENSION
100
AcDbDimension
  2
*D9
 10
112.000005
 20
174.0
 30
0.0
 11
93.00000499999999
 21
176.5
 31
0.0
  3
ISO-25
100
AcDbAlignedDimension
 13
74.000005
 23
171.0
 33
0.0
 14
112.000005
 24
171.0
 34
0.0
100
AcDbRotatedDimension
  0
DIMENSION
  5
25B3
330
22F9
100
AcDbEntity
  8
DIMENSION
100
AcDbDimension
  2
*D11
 10
142.0000049999999
 20
174.0
 30
0.0
 11
127.0000049999999
 21
176.5
 31
0.0
  3
ISO-25
100
AcDbAlignedDimension
 13
112.000005
 23
171.0
 33
0.0
 14
142.0000049999999
 24
171.0
 34
0.0
100
AcDbRotatedDimension
  0
DIMENSION
  5
25B4
330
22F9
100
AcDbEntity
  8
DIMENSION
100
AcDbDimension
  2
*D13
 10
220.0000049999999
 20
174.0
 30
0.0
 11
181.000005
 21
176.5
 31
0.0
  3
ISO-25
100
AcDbAlignedDimension
 13
142.0000049999999
 23
171.0
 33
0.0
 14
220.0000049999999
 24
171.0
 34
0.0
100
AcDbRotatedDimension
  0
DIMENSION
  5
25B5
330
22F9
100
AcDbEntity
  8
DIMENSION
100
AcDbDimension
  2
*D15
 10
231.0
 20
141.000014
 30
0.0
 11
228.5
 21
149.000014
 31
0.0
  3
ISO-25
100
AcDbAlignedDimension
 13
234.0
 23
157.0000139999999
 33
0.0
 14
234.0
 24
141.000014
 34
0.0
 50
90.0
100
AcDbRotatedDimension
  0
DIMENSION
  5
25B6
330
22F9
100
AcDbEntity
  8
DIMENSION
100
AcDbDimension
  2
*D17
 10
279.0
 20
131.0000139999999
 30
0.0
 11
276.5
 21
149.000014
 31
0.0
  3
ISO-25
100
AcDbAlignedDimension
 13
276.0
 23
167.0000139999999
 33
0.0
 14
276.0
 24
131.0000139999999
 34
0.0
 50
90.0
100
AcDbRotatedDimension
  0
DIMENSION
  5
25B7
330
22F9
100
AcDbEntity
  8
DIMENSION
100
AcDbDimension
  2
*D19
 10
273.0
 20
123.0
 30
0.0
 11
255.0
 21
125.5
 31
0.0
  3
ISO-25
100
AcDbAlignedDimension
 13
237.0
 23
126.0
 33
0.0
 14
273.0
 24
126.0
 34
0.0
100
AcDbRotatedDimension
  0
DIMENSION
  5
25B8
330
22F9
100
AcDbEntity
  8
DIMENSION
100
AcDbDimension
  2
*D21
 10
66.000005
 20
105.0
 30
0.0
 11
55.000005
 21
107.4999999999999
 31
0.0
  3
ISO-25
100
AcDbAlignedDimension
 13
44.00000499999999
 23
101.741181
 33
0.0
 14
66.000005
 24
101.741181
 34
0.0
100
AcDbRotatedDimension
  0
DIMENSION
  5
25B9
330
22F9
100
AcDbEntity
  8
DIMENSION
100
AcDbDimension
  2
*D23
 10
206.0000050165681
 20
105.0
 30
0.0
 11
136.000005008284
 21
107.4999999999999
 31
0.0
  3
ISO-25
100
AcDbAlignedDimension
 13
66.000005
 23
101.741181
 33
0.0
 14
206.0000050165681
 24
101.9999999955605
 34
0.0
100
AcDbRotatedDimension
  0
DIMENSION
  5
25BA
330
22F9
100
AcDbEntity
  8
DIMENSION
100
AcDbDimension
  2
*D25
 10
220.0000049999999
 20
105.0
 30
0.0
 11
213.0000050082841
 21
107.4999999999999
 31
0.0
  3
ISO-25
100
AcDbAlignedDimension
 13
206.0000050165681
 23
101.9999999955605
 33
0.0
 14
220.0000049999999
 24
102.0
 34
0.0
100
AcDbRotatedDimension
  0
DIMENSION
  5
25BB
330
22F9
100
AcDbEntity
  8
DIMENSION
100
AcDbDimension
  2
*D27
 10
107.0000049999999
 20
96.0
 30
0.0
 11
90.50000499999999
 21
98.50000000000001
 31
0.0
  3
ISO-25
100
AcDbAlignedDimension
 13
74.000005
 23
93.0
 33
0.0
 14
107.0000049999999
 24
93.0
 34
0.0
100
AcDbRotatedDimension
  0
DIMENSION
  5
25BC
330
22F9
100
AcDbEntity
  8
DIMENSION
100
AcDbDimension
  2
*D29
 10
137.0000049999999
 20
96.0
 30
0.0
 11
122.000005
 21
98.50000000000001
 31
0.0
  3
ISO-25
100
AcDbAlignedDimension
 13
107.0000049999999
 23
93.0
 33
0.0
 14
137.0000049999999
 24
93.0
 34
0.0
100
AcDbRotatedDimension
  0
DIMENSION
  5
25BD
330
22F9
100
AcDbEntity
  8
DIMENSION
100
AcDbDimension
  2
*D31
 10
220.0000049999999
 20
96.0
 30
0.0
 11
178.5000049999999
 21
98.50000000000001
 31
0.0
  3
ISO-25
100
AcDbAlignedDimension
 13
137.0000049999999
 23
93.0
 33
0.0
 14
220.0000049999999
 24
93.0
 34
0.0
100
AcDbRotatedDimension
  0
DIMENSION
  5
25BE
330
22F9
100
AcDbEntity
  8
DIMENSION
100
AcDbDimension
  2
*D33
 10
36.0
 20
66.500012
 30
0.0
 11
33.5
 21
71.00001200000001
 31
0.0
  3
ISO-25
100
AcDbAlignedDimension
 13
39.0
 23
75.500012
 33
0.0
 14
39.0
 24
66.500012
 34
0.0
 50
90.0
100
AcDbRotatedDimension
  0
DIMENSION
  5
25BF
330
22F9
100
AcDbEntity
  8
DIMENSION
100
AcDbDimension
  2
*D37
 10
30.0
 20
59.400012
 30
0.0
 11
27.5
 21
71.000012
 31
0.0
  1
23.1
  3
ISO-25
100
AcDbAlignedDimension
 13
39.0
 23
82.60001199999997
 33
0.0
 14
39.0
 24
59.400012
 34
0.0
 50
90.0
100
AcDbRotatedDimension
  0
DIMENSION
  5
25C0
330
22F9
100
AcDbEntity
  8
DIMENSION
100
AcDbDimension
  2
*D39
 10
220.0000049999999
 20
42.0
 30
0.0
 11
132.0000049999999
 21
44.5
 31
0.0
  3
ISO-25
100
AcDbAlignedDimension
 13
44.00000499999999
 23
45.0
 33
0.0
 14
220.0000049999999
 24
45.0
 34
0.0
100
AcDbRotatedDimension
  0
DIMENSION
  5
25C1
330
22F9
100
AcDbEntity
  8
DIMENSION
100
AcDbDimension
  2
*D41
 10
231.0
 20
57.00001199999999
 30
0.0
 11
228.5
 21
71.00001200000004
 31
0.0
  3
ISO-25
100
AcDbAlignedDimension
 13
228.0
 23
85.00001199999998
 33
0.0
 14
228.0
 24
57.00001199999999
 34
0.0
 50
90.0
100
AcDbRotatedDimension
  0
DIMENSION
  5
25C2
330
22F9
100
AcDbEntity
  8
DIMENSION
100
AcDbDimension
  2
*D43
 10
102.0
 20
135.0000139999999
 30
0.0
 11
99.49999999999999
 21
149.000014
 31
0.0
  3
ISO-25
100
AcDbAlignedDimension
 13
105.0
 23
163.0000139999999
 33
0.0
 14
105.0
 24
135.0000139999999
 34
0.0
 50
90.0
100
AcDbRotatedDimension
  0
DIMENSION
  5
25C3
330
22F9
100
AcDbEntity
  8
DIMENSION
100
AcDbDimension
  2
*D45
 10
99.0
 20
57.00001199999999
 30
0.0
 11
96.49999999999998
 21
71.00001200000001
 31
0.0
  3
ISO-25
100
AcDbAlignedDimension
 13
102.0
 23
85.00001199999998
 33
0.0
 14
102.0
 24
57.00001199999999
 34
0.0
 50
90.0
100
AcDbRotatedDimension
  0
INSERT
  5
25C4
330
22F9
100
AcDbEntity
  8
0
100
AcDbBlockReference
  2
*U47
 10
0.0
 20
0.0
 30
0.0
1001
ACAD
1000
DSTYLE
1002
{
1070
   147
1040
1.0
1070
    77
1070
     1
1002
}
  0
INSERT
  5
25C5
330
22F9
100
AcDbEntity
  8
0
100
AcDbBlockReference
  2
*U48
 10
0.0
 20
0.0
 30
0.0
  0
INSERT
  5
25C6
330
22F9
100
AcDbEntity
  8
0
100
AcDbBlockReference
  2
*U49
 10
0.0
 20
0.0
 30
0.0
1001
ACAD
1000
DSTYLE
1002
{
1070
   147
1040
1.0
1070
    77
1070
     1
1002
}
  0
INSERT
  5
25C7
330
22F9
100
AcDbEntity
  8
0
100
AcDbBlockReference
  2
*U50
 10
0.0
 20
0.0
 30
0.0
  0
TEXT
  5
25C8
330
22F9
100
AcDbEntity
  8
TEXT
100
AcDbText
 10
246.0
 20
70.5
 30
0.0
 40
3.0
  1
GT-NWS10
  7
GOTHIC
 11
246.0
 21
72.0
 31
0.0
100
AcDbText
 73
     2
  0
VIEWPORT
  5
25CB
330
22F5
100
AcDbEntity
 67
     1
  8
0
100
AcDbViewport
 10
145.3197631835936
 20
101.8222458362579
 30
0.0
 40
391.2734030671862
 41
222.174172088623
 68
     1
 69
     1
1001
ACAD
1000
MVIEW
1002
{
1070
    16
1010
0.0
1020
0.0
1030
0.0
1010
0.0
1020
0.0
1030
1.0
1040
0.0
1040
222.174172088623
1040
145.3197631835936
1040
101.8222458362579
1040
50.0
1040
0.0
1040
0.0
1070
     0
1070
 20000
1070
     1
1070
     1
1070
     0
1070
     0
1070
     0
1070
     0
1040
0.0
1040
0.0
1040
0.0
1040
10.0
1040
10.0
1040
10.0
1040
10.0
1070
     0
1002
{
1002
}
1002
}
  0
ENDSEC
  0
SECTION
  2
OBJECTS
  0
DICTIONARY
  5
22E7
330
0
100
AcDbDictionary
  3
ACAD_GROUP
350
22E8
  3
ACAD_LAYOUT
350
22F4
  3
ACAD_MLINESTYLE
350
22F1
  3
ACAD_PLOTSETTINGS
350
22F3
1001
ACAD
1000
TREAT_AS_HARD
1070
     0
  0
DICTIONARY
  5
25D2
330
22F9
100
AcDbDictionary
  3
ACAD_LAYOUTSELFREF
350
25D3
  0
DICTIONARY
  5
25D0
330
22F5
100
AcDbDictionary
  3
ACAD_LAYOUTSELFREF
350
25D1
  0
DICTIONARY
  5
22E8
102
{ACAD_REACTORS
330
22E7
102
}
330
22E7
100
AcDbDictionary
1001
ACAD
1000
TREAT_AS_HARD
1070
     0
  0
DICTIONARY
  5
22F4
102
{ACAD_REACTORS
330
22E7
102
}
330
22E7
100
AcDbDictionary
1001
ACAD
1000
TREAT_AS_HARD
1070
     0
  0
DICTIONARY
  5
22F1
102
{ACAD_REACTORS
330
22E7
102
}
330
22E7
100
AcDbDictionary
  3
STANDARD
350
22F2
1001
ACAD
1000
TREAT_AS_HARD
1070
     0
  0
DICTIONARY
  5
22F3
102
{ACAD_REACTORS
330
22E7
102
}
330
22E7
100
AcDbDictionary
1001
ACAD
1000
TREAT_AS_HARD
1070
     0
  0
XRECORD
  5
25D3
102
{ACAD_REACTORS
330
25D2
102
}
330
25D2
100
AcDbXrecord
340
22F9
  0
XRECORD
  5
25D1
102
{ACAD_REACTORS
330
25D0
102
}
330
25D0
100
AcDbXrecord
340
22F5
  0
MLINESTYLE
  5
22F2
102
{ACAD_REACTORS
330
22F1
102
}
330
22F1
100
AcDbMlineStyle
  2
STANDARD
 70
     0
  3

 62
   256
 51
90.0
 52
90.0
 71
     2
 49
0.5
 62
   256
  6
BYLAYER
 49
-0.5
 62
   256
  6
BYLAYER
  0
ENDSEC
  0
EOF
