  0
SECTION
  2
HEADER
  9
$ACADVER
  1
AC1012
  9
$DWGCODEPAGE
  3
dos932
  9
$INSBASE
 10
0.0
 20
0.0
 30
0.0
  9
$EXTMIN
 10
25.99999999999998
 20
39.0
 30
0.0
  9
$EXTMAX
 10
274.0
 20
178.2626367164208
 30
0.0
  9
$LIMMIN
 10
0.0
 20
0.0
  9
$LIMMAX
 10
297.0
 20
210.0
  9
$ORTHOMODE
 70
     0
  9
$REGENMODE
 70
     1
  9
$FILLMODE
 70
     1
  9
$QTEXTMODE
 70
     0
  9
$MIRRTEXT
 70
     0
  9
$DRAGMODE
 70
     2
  9
$LTSCALE
 40
0.5
  9
$OSMODE
 70
    37
  9
$ATTMODE
 70
     1
  9
$TEXTSIZE
 40
3.0
  9
$TRACEWID
 40
1.0
  9
$TEXTSTYLE
  7
GOTHIC
  9
$CLAYER
  8
0
  9
$CELTYPE
  6
BYLAYER
  9
$CECOLOR
 62
   256
  9
$CELTSCALE
 40
1.0
  9
$DELOBJ
 70
     1
  9
$DISPSILH
 70
     0
  9
$DIMSCALE
 40
1.0
  9
$DIMASZ
 40
2.0
  9
$DIMEXO
 40
0.0
  9
$DIMDLI
 40
3.0
  9
$DIMRND
 40
0.0
  9
$DIMDLE
 40
0.0
  9
$DIMEXE
 40
3.0
  9
$DIMTP
 40
0.0
  9
$DIMTM
 40
0.0
  9
$DIMTXT
 40
3.0
  9
$DIMCEN
 40
0.0
  9
$DIMTSZ
 40
0.0
  9
$DIMTOL
 70
     0
  9
$DIMLIM
 70
     0
  9
$DIMTIH
 70
     0
  9
$DIMTOH
 70
     0
  9
$DIMSE1
 70
     0
  9
$DIMSE2
 70
     0
  9
$DIMTAD
 70
     1
  9
$DIMZIN
 70
     8
  9
$DIMBLK
  1
OPEN30
  9
$DIMASO
 70
     1
  9
$DIMSHO
 70
     1
  9
$DIMPOST
  1

  9
$DIMAPOST
  1

  9
$DIMALT
 70
     0
  9
$DIMALTD
 70
     3
  9
$DIMALTF
 40
0.03937007874016
  9
$DIMLFAC
 40
1.0
  9
$DIMTOFL
 70
     1
  9
$DIMTVP
 40
0.0
  9
$DIMTIX
 70
     0
  9
$DIMSOXD
 70
     0
  9
$DIMSAH
 70
     0
  9
$DIMBLK1
  1

  9
$DIMBLK2
  1

  9
$DIMSTYLE
  2
VESSEL_ENGINEERING_ORIGINA
  9
$DIMCLRD
 70
   256
  9
$DIMCLRE
 70
   256
  9
$DIMCLRT
 70
   256
  9
$DIMTFAC
 40
1.0
  9
$DIMGAP
 40
1.0
  9
$DIMJUST
 70
     0
  9
$DIMSD1
 70
     0
  9
$DIMSD2
 70
     0
  9
$DIMTOLJ
 70
     1
  9
$DIMTZIN
 70
     0
  9
$DIMALTZ
 70
     0
  9
$DIMALTTZ
 70
     0
  9
$DIMFIT
 70
     3
  9
$DIMUPT
 70
     0
  9
$DIMUNIT
 70
     2
  9
$DIMDEC
 70
     4
  9
$DIMTDEC
 70
     4
  9
$DIMALTU
 70
     2
  9
$DIMALTTD
 70
     2
  9
$DIMTXSTY
  7
STANDARD
  9
$DIMAUNIT
 70
     0
  9
$LUNITS
 70
     2
  9
$LUPREC
 70
     4
  9
$SKETCHINC
 40
1.0
  9
$FILLETRAD
 40
0.0
  9
$AUNITS
 70
     0
  9
$AUPREC
 70
     0
  9
$MENU
  1
.
  9
$ELEVATION
 40
0.0
  9
$PELEVATION
 40
0.0
  9
$THICKNESS
 40
0.0
  9
$LIMCHECK
 70
     0
  9
$BLIPMODE
 70
     1
  9
$CHAMFERA
 40
0.0
  9
$CHAMFERB
 40
0.0
  9
$CHAMFERC
 40
0.0
  9
$CHAMFERD
 40
0.0
  9
$SKPOLY
 70
     0
  9
$TDCREATE
 40
2452943.629374999
  9
$TDUPDATE
 40
2453517.718130405
  9
$TDINDWG
 40
0.3347919792
  9
$TDUSRTIMER
 40
0.3347917477
  9
$USRTIMER
 70
     1
  9
$ANGBASE
 50
0.0
  9
$ANGDIR
 70
     0
  9
$PDMODE
 70
     0
  9
$PDSIZE
 40
0.0
  9
$PLINEWID
 40
0.0
  9
$COORDS
 70
     0
  9
$SPLFRAME
 70
     0
  9
$SPLINETYPE
 70
     6
  9
$SPLINESEGS
 70
     8
  9
$ATTDIA
 70
     0
  9
$ATTREQ
 70
     1
  9
$HANDLING
 70
 22529
  9
$HANDSEED
  5
21A9
  9
$SURFTAB1
 70
     6
  9
$SURFTAB2
 70
     6
  9
$SURFTYPE
 70
     6
  9
$SURFU
 70
     6
  9
$SURFV
 70
     6
  9
$UCSNAME
  2

  9
$UCSORG
 10
0.0
 20
0.0
 30
0.0
  9
$UCSXDIR
 10
1.0
 20
0.0
 30
0.0
  9
$UCSYDIR
 10
0.0
 20
1.0
 30
0.0
  9
$PUCSNAME
  2

  9
$PUCSORG
 10
0.0
 20
0.0
 30
0.0
  9
$PUCSXDIR
 10
1.0
 20
0.0
 30
0.0
  9
$PUCSYDIR
 10
0.0
 20
1.0
 30
0.0
  9
$USERI1
 70
     0
  9
$USERI2
 70
     0
  9
$USERI3
 70
     0
  9
$USERI4
 70
     0
  9
$USERI5
 70
     0
  9
$USERR1
 40
0.0
  9
$USERR2
 40
0.0
  9
$USERR3
 40
0.0
  9
$USERR4
 40
0.0
  9
$USERR5
 40
0.0
  9
$WORLDVIEW
 70
     1
  9
$SHADEDGE
 70
     3
  9
$SHADEDIF
 70
    70
  9
$TILEMODE
 70
     1
  9
$MAXACTVP
 70
    64
  9
$PINSBASE
 10
0.0
 20
0.0
 30
0.0
  9
$PLIMCHECK
 70
     0
  9
$PEXTMIN
 10
1.000000000000000E+20
 20
1.000000000000000E+20
 30
1.000000000000000E+20
  9
$PEXTMAX
 10
-1.000000000000000E+20
 20
-1.000000000000000E+20
 30
-1.000000000000000E+20
  9
$PLIMMIN
 10
-3.17498779296875
 20
-3.174999952316283
  9
$PLIMMAX
 10
293.8145141601562
 20
206.819491624832
  9
$UNITMODE
 70
     0
  9
$VISRETAIN
 70
     1
  9
$PLINEGEN
 70
     0
  9
$PSLTSCALE
 70
     0
  9
$TREEDEPTH
 70
  3020
  9
$PICKSTYLE
 70
     3
  9
$CMLSTYLE
  2
STANDARD
  9
$CMLJUST
 70
     0
  9
$CMLSCALE
 40
1.0
  9
$SAVEIMAGES
 70
     1
  0
ENDSEC
  0
SECTION
  2
CLASSES
  0
CLASS
  1
ACDBDICTIONARYWDFLT
  2
AcDbDictionaryWithDefault
  3
AutoCAD 2000
 90
    32768
280
     0
281
     0
  0
CLASS
  1
ACDBPLACEHOLDER
  2
AcDbPlaceHolder
  3
AutoCAD 2000
 90
    32768
280
     0
281
     0
  0
CLASS
  1
LAYOUT
  2
AcDbLayout
  3
AutoCAD 2000
 90
    32768
280
     0
281
     0
  0
CLASS
  1
DICTIONARYVAR
  2
AcDbDictionaryVar
  3
AutoCAD 2000
 90
    32768
280
     0
281
     0
  0
CLASS
  1
LONG_TRANSACTION
  2
AcDbLongTransaction
  3
AutoCAD 2000
 90
    32768
280
     0
281
     0
  0
CLASS
  1
LWPOLYLINE
  2
AcDbPolyline
  3
AutoCAD 2000
 90
    32768
280
     0
281
     1
  0
CLASS
  1
HATCH
  2
AcDbHatch
  3
AutoCAD 2000
 90
    32768
280
     0
281
     1
  0
CLASS
  1
XRECORD
  2
AcDbXrecord
  3
AutoCAD 2000
 90
    32768
280
     0
281
     0
  0
CLASS
  1
LONG_TRANSACTION
  2
AcDbLongTransaction
  3
AutoCAD 2000
 90
    32768
280
     0
281
     0
  0
CLASS
  1
LWPOLYLINE
  2
AcDbPolyline
  3
AutoCAD 2000
 90
    32768
280
     0
281
     1
  0
CLASS
  1
HATCH
  2
AcDbHatch
  3
AutoCAD 2000
 90
    32768
280
     0
281
     1
  0
CLASS
  1
XRECORD
  2
AcDbXrecord
  3
AutoCAD 2000
 90
    32768
280
     0
281
     0
  0
ENDSEC
  0
SECTION
  2
TABLES
  0
TABLE
  2
VPORT
  5
1FB4
330
0
100
AcDbSymbolTable
 70
     2
  0
VPORT
  5
21A6
330
1FB4
100
AcDbSymbolTableRecord
100
AcDbViewportTableRecord
  2
*ACTIVE
 70
     0
 10
0.0
 20
0.0
 11
1.0
 21
1.0
 12
148.5
 22
125.2346371210112
 13
0.0
 23
0.0
 14
3.0
 24
3.0
 15
3.0
 25
3.0
 16
0.0
 26
0.0
 36
1.0
 17
0.0
 27
0.0
 37
0.0
 40
252.8332517279513
 41
1.458837772397094
 42
50.0
 43
0.0
 44
0.0
 50
0.0
 51
0.0
 71
     0
 72
 20000
 73
     1
 74
     3
 75
     0
 76
     0
 77
     0
 78
     0
  0
ENDTAB
  0
TABLE
  2
LTYPE
  5
1FB1
330
0
100
AcDbSymbolTable
 70
     5
  0
LTYPE
  5
1FBF
330
1FB1
100
AcDbSymbolTableRecord
100
AcDbLinetypeTableRecord
  2
BYBLOCK
 70
     0
  3

 72
    65
 73
     0
 40
0.0
  0
LTYPE
  5
1FC0
330
1FB1
100
AcDbSymbolTableRecord
100
AcDbLinetypeTableRecord
  2
BYLAYER
 70
     0
  3

 72
    65
 73
     0
 40
0.0
  0
LTYPE
  5
1FC1
330
1FB1
100
AcDbSymbolTableRecord
100
AcDbLinetypeTableRecord
  2
CONTINUOUS
 70
     0
  3
Solid line
 72
    65
 73
     0
 40
0.0
  0
LTYPE
  5
1FD0
330
1FB1
100
AcDbSymbolTableRecord
100
AcDbLinetypeTableRecord
  2
CENTER2
 70
     0
  3
Center (.5x) ___ _ ___ _ ___ _ ___ _ ___ _ ___
 72
    65
 73
     4
 40
28.57499999999999
 49
19.05
 74
     0
 49
-3.174999999999998
 74
     0
 49
3.174999999999998
 74
     0
 49
-3.174999999999998
 74
     0
  0
LTYPE
  5
1FD1
330
1FB1
100
AcDbSymbolTableRecord
100
AcDbLinetypeTableRecord
  2
DASHED2
 70
     0
  3
Dashed (.5x) _ _ _ _ _ _ _ _ _ _ _ _ _ _ _ _ _
 72
    65
 73
     2
 40
9.524999999999996
 49
6.349999999999997
 74
     0
 49
-3.174999999999998
 74
     0
  0
LTYPE
  5
1FD2
330
1FB1
100
AcDbSymbolTableRecord
100
AcDbLinetypeTableRecord
  2
HIDDEN2
 70
     0
  3
Hidden (.5x) _ _ _ _ _ _ _ _ _ _ _ _ _ _ _ _ _
 72
    65
 73
     2
 40
4.762499999999998
 49
3.174999999999998
 74
     0
 49
-1.587499999999999
 74
     0
  0
LTYPE
  5
1FD3
330
1FB1
100
AcDbSymbolTableRecord
100
AcDbLinetypeTableRecord
  2
PHANTOM2
 70
     0
  3
Phantom (.5x) ___ _ _ ___ _ _ ___ _ _ ___ _ _
 72
    65
 73
     6
 40
31.75
 49
15.875
 74
     0
 49
-3.174999999999998
 74
     0
 49
3.174999999999998
 74
     0
 49
-3.174999999999998
 74
     0
 49
3.174999999999998
 74
     0
 49
-3.174999999999998
 74
     0
  0
ENDTAB
  0
TABLE
  2
LAYER
  5
1FAE
330
0
100
AcDbSymbolTable
 70
     9
  0
LAYER
  5
1FBC
330
1FAE
100
AcDbSymbolTableRecord
100
AcDbLayerTableRecord
  2
0
 70
     0
 62
     7
  6
CONTINUOUS
  0
LAYER
  5
1FD4
330
1FAE
100
AcDbSymbolTableRecord
100
AcDbLayerTableRecord
  2
LINE
 70
     0
 62
     2
  6
CONTINUOUS
  0
LAYER
  5
1FD5
330
1FAE
100
AcDbSymbolTableRecord
100
AcDbLayerTableRecord
  2
CENTER
 70
     0
 62
     4
  6
CENTER2
  0
LAYER
  5
1FD6
330
1FAE
100
AcDbSymbolTableRecord
100
AcDbLayerTableRecord
  2
DIMENSION
 70
     0
 62
     3
  6
CONTINUOUS
  0
LAYER
  5
1FD7
330
1FAE
100
AcDbSymbolTableRecord
100
AcDbLayerTableRecord
  2
HIDDEN
 70
     0
 62
     4
  6
HIDDEN2
  0
LAYER
  5
1FD8
330
1FAE
100
AcDbSymbolTableRecord
100
AcDbLayerTableRecord
  2
TEXT
 70
     0
 62
     3
  6
CONTINUOUS
  0
LAYER
  5
1FD9
330
1FAE
100
AcDbSymbolTableRecord
100
AcDbLayerTableRecord
  2
DEFPOINTS
 70
     0
 62
    -7
  6
CONTINUOUS
  0
LAYER
  5
1FDA
330
1FAE
100
AcDbSymbolTableRecord
100
AcDbLayerTableRecord
  2
HATCHING
 70
     0
 62
     7
  6
CONTINUOUS
  0
LAYER
  5
1FDB
330
1FAE
100
AcDbSymbolTableRecord
100
AcDbLayerTableRecord
  2
UNDER_LINE
 70
     0
 62
     6
  6
CONTINUOUS
  0
ENDTAB
  0
TABLE
  2
STYLE
  5
1FAF
330
0
100
AcDbSymbolTable
 70
     5
  0
STYLE
  5
1FBD
330
1FAF
100
AcDbSymbolTableRecord
100
AcDbTextStyleTableRecord
  2
STANDARD
 70
     0
 40
0.0
 41
1.0
 50
0.0
 71
     0
 42
2.5
  3
txt
  4

  0
STYLE
  5
1FCE
330
1FAF
100
AcDbSymbolTableRecord
100
AcDbTextStyleTableRecord
  2
GOTHIC
 70
     0
 40
0.0
 41
1.0
 50
0.0
 71
     0
 42
3.0
  3
txt.shx
  4
bigfont.shx
  0
STYLE
  5
1FDC
330
1FAF
100
AcDbSymbolTableRecord
100
AcDbTextStyleTableRecord
  2

 70
     1
 40
0.0
 41
1.0
 50
0.0
 71
     0
 42
2.5
  3
ltypeshp.shx
  4

  0
STYLE
  5
1FDD
330
1FAF
100
AcDbSymbolTableRecord
100
AcDbTextStyleTableRecord
  2
KANJI
 70
     0
 40
0.0
 41
1.0
 50
0.0
 71
     0
 42
2.5
  3
romans.shx
  4
extfont.shx
  0
STYLE
  5
1FDE
330
1FAF
100
AcDbSymbolTableRecord
100
AcDbTextStyleTableRecord
  2
KANJI1
 70
     0
 40
0.0
 41
1.0
 50
0.0
 71
     0
 42
0.2
  3
txt.shx
  4
BIGFONT
  0
ENDTAB
  0
TABLE
  2
VIEW
  5
1FB2
330
0
100
AcDbSymbolTable
 70
     0
  0
ENDTAB
  0
TABLE
  2
UCS
  5
1FB3
330
0
100
AcDbSymbolTable
 70
     0
  0
ENDTAB
  0
TABLE
  2
APPID
  5
1FB5
330
0
100
AcDbSymbolTable
 70
    10
  0
APPID
  5
1FBE
330
1FB5
100
AcDbSymbolTableRecord
100
AcDbRegAppTableRecord
  2
ACAD
 70
     0
  0
APPID
  5
1FDF
330
1FB5
100
AcDbSymbolTableRecord
100
AcDbRegAppTableRecord
  2
ACAD_DSTYLE_DIMTEXT_FILL
 70
     0
  0
APPID
  5
1FE0
330
1FB5
100
AcDbSymbolTableRecord
100
AcDbRegAppTableRecord
  2
ACAD_DSTYLE_DIMEXT_LENGTH
 70
     0
  0
APPID
  5
1FE1
330
1FB5
100
AcDbSymbolTableRecord
100
AcDbRegAppTableRecord
  2
ACAD_DSTYLE_DIMEXT_ENABLED
 70
     0
  0
APPID
  5
1FE2
330
1FB5
100
AcDbSymbolTableRecord
100
AcDbRegAppTableRecord
  2
ACAD_DSTYLE_DIM_LINETYPE
 70
     0
  0
APPID
  5
1FE3
330
1FB5
100
AcDbSymbolTableRecord
100
AcDbRegAppTableRecord
  2
ACAD_DSTYLE_DIM_EXT1_LINETYPE
 70
     0
  0
APPID
  5
1FE4
330
1FB5
100
AcDbSymbolTableRecord
100
AcDbRegAppTableRecord
  2
ACAD_DSTYLE_DIM_EXT2_LINETYPE
 70
     0
  0
APPID
  5
1FE5
330
1FB5
100
AcDbSymbolTableRecord
100
AcDbRegAppTableRecord
  2
ACAD_DSTYLE_DIMJOGGED_JOGA
 70
     0
  0
APPID
  5
1FE6
330
1FB5
100
AcDbSymbolTableRecord
100
AcDbRegAppTableRecord
  2
ACAD_DSTYLE_DIMARC_LENGTH_
 70
     0
  0
APPID
  5
1FE7
330
1FB5
100
AcDbSymbolTableRecord
100
AcDbRegAppTableRecord
  2
CONTENTBLOCKICON
 70
     0
  0
ENDTAB
  0
TABLE
  2
DIMSTYLE
  5
1FB6
330
0
100
AcDbSymbolTable
 70
     9
  0
DIMSTYLE
105
1FE8
102
{ACAD_REACTORS
330
217C
330
217D
330
217E
330
217F
330
2180
330
2181
330
2182
330
2183
330
2184
330
2185
330
2188
330
2189
102
}
330
1FB6
100
AcDbSymbolTableRecord
100
AcDbDimStyleTableRecord
  2
ISO-25
 70
     0
  3

  4

  5

  6

  7

 40
1.0
 41
2.5
 42
0.625
 43
3.75
 44
1.25
 45
0.0
 46
0.0
 47
0.0
 48
0.0
140
2.5
141
2.5
142
0.0
143
0.03937007874016
144
1.0
145
0.0
146
1.0
147
0.625
 71
     0
 72
     0
 73
     0
 74
     0
 75
     0
 76
     0
 77
     1
 78
     8
170
     0
171
     3
172
     1
173
     0
174
     0
175
     0
176
     0
177
     0
178
     0
270
     2
271
     4
272
     4
273
     2
274
     3
340
1FCE
275
     0
280
     0
281
     0
282
     0
283
     1
284
     8
285
     8
286
     8
287
     3
288
     0
  0
DIMSTYLE
105
1FE9
330
1FB6
100
AcDbSymbolTableRecord
100
AcDbDimStyleTableRecord
  2
VESSEL_ENGINEERING_ORIGINA
 70
     0
  3

  4

  5

  6

  7

 40
1.0
 41
2.0
 42
0.0
 43
3.0
 44
3.0
 45
0.0
 46
0.0
 47
0.0
 48
0.0
140
3.0
141
0.0
142
0.0
143
0.03937007874016
144
1.0
145
0.0
146
1.0
147
1.0
 71
     0
 72
     0
 73
     0
 74
     0
 75
     0
 76
     0
 77
     1
 78
     8
170
     0
171
     3
172
     1
173
     0
174
     0
175
     0
176
   256
177
   256
178
   256
270
     2
271
     4
272
     4
273
     2
274
     3
340
1FCE
275
     0
280
     0
281
     0
282
     0
283
     1
284
     8
285
     8
286
     8
287
     3
288
     0
  0
DIMSTYLE
105
1FEA
330
1FB6
100
AcDbSymbolTableRecord
100
AcDbDimStyleTableRecord
  2
VESSEL_ENGINEERING_ORIGIN0
 70
     0
  3

  4

  5

  6

  7

 40
1.0
 41
2.0
 42
0.0
 43
3.0
 44
3.0
 45
0.0
 46
0.0
 47
0.0
 48
0.0
140
3.0
141
0.0
142
0.0
143
0.03937007874016
144
1.0
145
0.0
146
1.0
147
1.0
 71
     0
 72
     0
 73
     0
 74
     1
 75
     0
 76
     0
 77
     1
 78
     8
170
     0
171
     3
172
     1
173
     0
174
     0
175
     1
176
   256
177
   256
178
   256
270
     2
271
     4
272
     4
273
     2
274
     3
340
1FCE
275
     0
280
     0
281
     0
282
     0
283
     1
284
     8
285
     8
286
     8
287
     3
288
     0
  0
DIMSTYLE
105
1FEB
330
1FB6
100
AcDbSymbolTableRecord
100
AcDbDimStyleTableRecord
  2
VESSEL_ENGINEERING_ORIGIN1
 70
     0
  3

  4

  5

  6

  7

 40
1.0
 41
2.0
 42
0.0
 43
3.0
 44
3.0
 45
0.0
 46
0.0
 47
0.0
 48
0.0
140
3.0
141
0.0
142
0.0
143
0.03937007874016
144
1.0
145
0.0
146
1.0
147
1.0
 71
     0
 72
     0
 73
     0
 74
     0
 75
     0
 76
     0
 77
     1
 78
     8
170
     0
171
     3
172
     1
173
     0
174
     0
175
     0
176
   256
177
   256
178
   256
270
     2
271
     4
272
     4
273
     2
274
     3
340
1FCE
275
     0
280
     0
281
     0
282
     0
283
     1
284
     8
285
     8
286
     8
287
     3
288
     0
  0
DIMSTYLE
105
1FEC
330
1FB6
100
AcDbSymbolTableRecord
100
AcDbDimStyleTableRecord
  2
VESSEL_ENGINEERING_ORIGIN2
 70
     0
  3

  4

  5

  6

  7

 40
1.0
 41
2.0
 42
0.0
 43
3.0
 44
3.0
 45
0.0
 46
0.0
 47
0.0
 48
0.0
140
3.0
141
0.0
142
0.0
143
0.03937007874016
144
1.0
145
0.0
146
1.0
147
1.0
 71
     0
 72
     0
 73
     0
 74
     1
 75
     0
 76
     0
 77
     1
 78
     8
170
     0
171
     3
172
     1
173
     0
174
     0
175
     0
176
   256
177
   256
178
   256
270
     2
271
     4
272
     4
273
     2
274
     3
340
1FCE
275
     0
280
     0
281
     0
282
     0
283
     1
284
     8
285
     8
286
     8
287
     3
288
     0
  0
DIMSTYLE
105
1FED
330
1FB6
100
AcDbSymbolTableRecord
100
AcDbDimStyleTableRecord
  2
VESSEL_ENGINEERING_ORIGIN3
 70
     0
  3
φ<>
  4

  5

  6

  7

 40
1.0
 41
2.0
 42
0.0
 43
3.0
 44
3.0
 45
0.0
 46
0.0
 47
0.0
 48
0.0
140
3.0
141
0.0
142
0.0
143
0.03937007874016
144
1.0
145
0.0
146
1.0
147
1.0
 71
     0
 72
     0
 73
     0
 74
     1
 75
     0
 76
     0
 77
     1
 78
     8
170
     0
171
     3
172
     1
173
     0
174
     0
175
     1
176
   256
177
   256
178
   256
270
     2
271
     4
272
     4
273
     2
274
     3
340
1FCE
275
     0
280
     0
281
     0
282
     0
283
     1
284
     8
285
     8
286
     8
287
     3
288
     0
  0
DIMSTYLE
105
1FEE
330
1FB6
100
AcDbSymbolTableRecord
100
AcDbDimStyleTableRecord
  2
VESSEL_ENGINEERING_ORIGIN4
 70
     0
  3

  4

  5

  6

  7

 40
1.0
 41
2.0
 42
0.0
 43
3.0
 44
3.0
 45
0.0
 46
0.0
 47
0.0
 48
0.0
140
3.0
141
0.0
142
0.0
143
0.03937007874016
144
1.0
145
0.0
146
1.0
147
1.0
 71
     0
 72
     0
 73
     0
 74
     0
 75
     0
 76
     0
 77
     1
 78
     8
170
     0
171
     3
172
     1
173
     0
174
     0
175
     0
176
   256
177
   256
178
   256
270
     2
271
     4
272
     4
273
     2
274
     3
340
1FCE
275
     0
280
     0
281
     0
282
     0
283
     1
284
     8
285
     8
286
     8
287
     3
288
     0
  0
DIMSTYLE
105
1FEF
330
1FB6
100
AcDbSymbolTableRecord
100
AcDbDimStyleTableRecord
  2
VESSEL_ENGINEERING_ORIGIN5
 70
     0
  3

  4

  5

  6

  7

 40
1.0
 41
2.0
 42
0.0
 43
3.0
 44
3.0
 45
0.0
 46
0.0
 47
0.0
 48
0.0
140
3.0
141
0.0
142
0.0
143
0.03937007874016
144
1.0
145
0.0
146
1.0
147
1.0
 71
     0
 72
     0
 73
     0
 74
     0
 75
     0
 76
     0
 77
     1
 78
     8
170
     0
171
     3
172
     1
173
     0
174
     0
175
     0
176
   256
177
   256
178
   256
270
     2
271
     4
272
     4
273
     2
274
     3
340
1FCE
275
     0
280
     0
281
     0
282
     0
283
     1
284
     8
285
     8
286
     8
287
     3
288
     0
  0
DIMSTYLE
105
1FF0
330
1FB6
100
AcDbSymbolTableRecord
100
AcDbDimStyleTableRecord
  2
STANDARD
 70
     0
  3

  4

  5

  6

  7

 40
1.0
 41
0.18
 42
0.0625
 43
0.38
 44
0.18
 45
0.0
 46
0.0
 47
0.0
 48
0.0
140
0.18
141
0.09
142
0.0
143
25.4
144
1.0
145
0.0
146
1.0
147
0.09
 71
     0
 72
     0
 73
     1
 74
     1
 75
     0
 76
     0
 77
     0
 78
     0
170
     0
171
     2
172
     0
173
     0
174
     0
175
     0
176
     0
177
     0
178
     0
270
     2
271
     4
272
     4
273
     2
274
     3
340
1FCE
275
     0
280
     0
281
     0
282
     0
283
     1
284
     8
285
     8
286
     8
287
     3
288
     0
  0
ENDTAB
  0
TABLE
  2
BLOCK_RECORD
  5
1FAD
330
0
100
AcDbSymbolTable
 70
    29
  0
BLOCK_RECORD
  5
1FCA
102
{ACAD_XDICTIONARY
360
2194
102
}
330
1FAD
100
AcDbSymbolTableRecord
100
AcDbBlockTableRecord
  2
*MODEL_SPACE
  0
BLOCK_RECORD
  5
1FC6
102
{ACAD_XDICTIONARY
360
2192
102
}
330
1FAD
100
AcDbSymbolTableRecord
100
AcDbBlockTableRecord
  2
*PAPER_SPACE
  0
BLOCK_RECORD
  5
1FF6
330
1FAD
100
AcDbSymbolTableRecord
100
AcDbBlockTableRecord
  2
$MODEL_SPACE
  0
BLOCK_RECORD
  5
1FF9
330
1FAD
100
AcDbSymbolTableRecord
100
AcDbBlockTableRecord
  2
$PAPER_SPACE
  0
BLOCK_RECORD
  5
1FFC
330
1FAD
100
AcDbSymbolTableRecord
100
AcDbBlockTableRecord
  2
_OPEN30
  0
BLOCK_RECORD
  5
2002
330
1FAD
100
AcDbSymbolTableRecord
100
AcDbBlockTableRecord
  2
*D3
  0
BLOCK_RECORD
  5
2009
330
1FAD
100
AcDbSymbolTableRecord
100
AcDbBlockTableRecord
  2
*U4
  0
BLOCK_RECORD
  5
200F
330
1FAD
100
AcDbSymbolTableRecord
100
AcDbBlockTableRecord
  2
*D5
  0
BLOCK_RECORD
  5
2016
330
1FAD
100
AcDbSymbolTableRecord
100
AcDbBlockTableRecord
  2
*U6
  0
BLOCK_RECORD
  5
201C
330
1FAD
100
AcDbSymbolTableRecord
100
AcDbBlockTableRecord
  2
*D7
  0
BLOCK_RECORD
  5
2023
330
1FAD
100
AcDbSymbolTableRecord
100
AcDbBlockTableRecord
  2
*U8
  0
BLOCK_RECORD
  5
2029
330
1FAD
100
AcDbSymbolTableRecord
100
AcDbBlockTableRecord
  2
*D9
  0
BLOCK_RECORD
  5
2030
330
1FAD
100
AcDbSymbolTableRecord
100
AcDbBlockTableRecord
  2
*U10
  0
BLOCK_RECORD
  5
2036
330
1FAD
100
AcDbSymbolTableRecord
100
AcDbBlockTableRecord
  2
*D11
  0
BLOCK_RECORD
  5
203D
330
1FAD
100
AcDbSymbolTableRecord
100
AcDbBlockTableRecord
  2
*U12
  0
BLOCK_RECORD
  5
2043
330
1FAD
100
AcDbSymbolTableRecord
100
AcDbBlockTableRecord
  2
*D13
  0
BLOCK_RECORD
  5
204A
330
1FAD
100
AcDbSymbolTableRecord
100
AcDbBlockTableRecord
  2
*U14
  0
BLOCK_RECORD
  5
2050
330
1FAD
100
AcDbSymbolTableRecord
100
AcDbBlockTableRecord
  2
*D15
  0
BLOCK_RECORD
  5
2057
330
1FAD
100
AcDbSymbolTableRecord
100
AcDbBlockTableRecord
  2
*U16
  0
BLOCK_RECORD
  5
205D
330
1FAD
100
AcDbSymbolTableRecord
100
AcDbBlockTableRecord
  2
*D17
  0
BLOCK_RECORD
  5
2064
330
1FAD
100
AcDbSymbolTableRecord
100
AcDbBlockTableRecord
  2
*U18
  0
BLOCK_RECORD
  5
206A
330
1FAD
100
AcDbSymbolTableRecord
100
AcDbBlockTableRecord
  2
*D19
  0
BLOCK_RECORD
  5
2071
330
1FAD
100
AcDbSymbolTableRecord
100
AcDbBlockTableRecord
  2
*U20
  0
BLOCK_RECORD
  5
2077
330
1FAD
100
AcDbSymbolTableRecord
100
AcDbBlockTableRecord
  2
*D21
  0
BLOCK_RECORD
  5
207E
330
1FAD
100
AcDbSymbolTableRecord
100
AcDbBlockTableRecord
  2
*U22
  0
BLOCK_RECORD
  5
2084
330
1FAD
100
AcDbSymbolTableRecord
100
AcDbBlockTableRecord
  2
*D23
  0
BLOCK_RECORD
  5
208B
330
1FAD
100
AcDbSymbolTableRecord
100
AcDbBlockTableRecord
  2
*U24
  0
BLOCK_RECORD
  5
2091
330
1FAD
100
AcDbSymbolTableRecord
100
AcDbBlockTableRecord
  2
*D25
  0
BLOCK_RECORD
  5
2098
330
1FAD
100
AcDbSymbolTableRecord
100
AcDbBlockTableRecord
  2
*U26
  0
BLOCK_RECORD
  5
20B9
330
1FAD
100
AcDbSymbolTableRecord
100
AcDbBlockTableRecord
  2
*U27
  0
BLOCK_RECORD
  5
20C3
330
1FAD
100
AcDbSymbolTableRecord
100
AcDbBlockTableRecord
  2
*U28
  0
ENDTAB
  0
ENDSEC
  0
SECTION
  2
BLOCKS
  0
BLOCK
  5
1FCB
330
1FCA
100
AcDbEntity
  8
0
100
AcDbBlockBegin
  2
*MODEL_SPACE
 70
     0
 10
0.0
 20
0.0
 30
0.0
  3
*MODEL_SPACE
  1

  0
ENDBLK
  5
1FCC
330
1FCA
100
AcDbEntity
  8
0
100
AcDbBlockEnd
  0
BLOCK
  5
1FC7
330
1FC6
100
AcDbEntity
 67
     1
  8
0
100
AcDbBlockBegin
  2
*PAPER_SPACE
 70
     0
 10
0.0
 20
0.0
 30
0.0
  3
*PAPER_SPACE
  1

  0
ENDBLK
  5
1FC8
330
1FC6
100
AcDbEntity
 67
     1
  8
0
100
AcDbBlockEnd
  0
BLOCK
  5
1FF7
330
1FF6
100
AcDbEntity
  8
0
100
AcDbBlockBegin
  2
$MODEL_SPACE
 70
     0
 10
0.0
 20
0.0
 30
0.0
  3
$MODEL_SPACE
  1

  0
ENDBLK
  5
1FF8
330
1FF6
100
AcDbEntity
  8
0
100
AcDbBlockEnd
  0
BLOCK
  5
1FFA
330
1FF9
100
AcDbEntity
  8
0
100
AcDbBlockBegin
  2
$PAPER_SPACE
 70
     0
 10
0.0
 20
0.0
 30
0.0
  3
$PAPER_SPACE
  1

  0
ENDBLK
  5
1FFB
330
1FF9
100
AcDbEntity
  8
0
100
AcDbBlockEnd
  0
BLOCK
  5
1FFD
330
1FFC
100
AcDbEntity
  8
0
100
AcDbBlockBegin
  2
_OPEN30
 70
     0
 10
0.0
 20
0.0
 30
0.0
  3
_OPEN30
  1

  0
LINE
  5
1FFE
330
1FFC
100
AcDbEntity
  8
0
  6
BYBLOCK
 62
     0
100
AcDbLine
 10
-1.0
 20
0.26794919
 30
0.0
 11
0.0
 21
0.0
 31
0.0
  0
LINE
  5
1FFF
330
1FFC
100
AcDbEntity
  8
0
  6
BYBLOCK
 62
     0
100
AcDbLine
 10
0.0
 20
0.0
 30
0.0
 11
-1.0
 21
-0.26794919
 31
0.0
  0
LINE
  5
2000
330
1FFC
100
AcDbEntity
  8
0
  6
BYBLOCK
 62
     0
100
AcDbLine
 10
0.0
 20
0.0
 30
0.0
 11
-1.0
 21
0.0
 31
0.0
  0
ENDBLK
  5
2001
330
1FFC
100
AcDbEntity
  8
0
100
AcDbBlockEnd
  0
BLOCK
  5
2003
330
2002
100
AcDbEntity
  8
0
100
AcDbBlockBegin
  2
*D3
 70
     1
 10
0.0
 20
0.0
 30
0.0
  3
*D3
  1

  0
LINE
  5
2004
330
2002
100
AcDbEntity
  8
DIMENSION
100
AcDbLine
 10
39.0
 20
159.0000139999999
 30
0.0
 11
33.0
 21
159.0000139999999
 31
0.0
  0
LINE
  5
2005
330
2002
100
AcDbEntity
  8
DIMENSION
100
AcDbLine
 10
39.0
 20
139.0000139999999
 30
0.0
 11
33.0
 21
139.0000139999999
 31
0.0
  0
LINE
  5
2006
330
2002
100
AcDbEntity
  8
DIMENSION
100
AcDbLine
 10
36.0
 20
157.0000139999999
 30
0.0
 11
36.0
 21
141.000014
 31
0.0
  0
INSERT
  5
2007
330
2002
100
AcDbEntity
  8
DIMENSION
100
AcDbBlockReference
  2
_OPEN30
 10
36.0
 20
159.0000139999999
 30
0.0
 41
2.0
 42
2.0
 43
2.0
 50
90.0
  0
INSERT
  5
2008
330
2002
100
AcDbEntity
  8
DIMENSION
100
AcDbBlockReference
  2
_OPEN30
 10
36.0
 20
139.0000139999999
 30
0.0
 41
2.0
 42
2.0
 43
2.0
 50
270.0
  0
INSERT
  5
200A
330
2002
100
AcDbEntity
  8
0
100
AcDbBlockReference
  2
*U4
 10
0.0
 20
0.0
 30
0.0
  0
POINT
  5
200B
330
2002
100
AcDbEntity
  8
DEFPOINTS
 62
     0
100
AcDbPoint
 10
39.0
 20
159.0000139999999
 30
0.0
  0
POINT
  5
200C
330
2002
100
AcDbEntity
  8
DEFPOINTS
 62
     0
100
AcDbPoint
 10
39.0
 20
139.0000139999999
 30
0.0
  0
POINT
  5
200D
330
2002
100
AcDbEntity
  8
DEFPOINTS
 62
     0
100
AcDbPoint
 10
36.0
 20
139.0000139999999
 30
0.0
  0
ENDBLK
  5
200E
330
2002
100
AcDbEntity
  8
0
100
AcDbBlockEnd
  0
BLOCK
  5
209E
330
2009
100
AcDbEntity
  8
0
100
AcDbBlockBegin
  2
*U4
 70
     1
 10
0.0
 20
0.0
 30
0.0
  3
*U4
  1

  0
TEXT
  5
209F
330
2009
100
AcDbEntity
  8
DIMENSION
100
AcDbText
 10
34.99999999999998
 20
147.0355469949238
 30
0.0
 40
3.0
  1
20
 50
90.0
  7
GOTHIC
100
AcDbText
  0
ENDBLK
  5
20A0
330
2009
100
AcDbEntity
  8
0
100
AcDbBlockEnd
  0
BLOCK
  5
2010
330
200F
100
AcDbEntity
  8
0
100
AcDbBlockBegin
  2
*D5
 70
     1
 10
0.0
 20
0.0
 30
0.0
  3
*D5
  1

  0
LINE
  5
2011
330
200F
100
AcDbEntity
  8
DIMENSION
100
AcDbLine
 10
44.00000499999999
 20
126.0
 30
0.0
 11
44.00000499999999
 21
120.0
 31
0.0
  0
LINE
  5
2012
330
200F
100
AcDbEntity
  8
DIMENSION
100
AcDbLine
 10
74.00000499357971
 20
125.9999999982797
 30
0.0
 11
74.00000499357971
 21
120.0
 31
0.0
  0
LINE
  5
2013
330
200F
100
AcDbEntity
  8
DIMENSION
100
AcDbLine
 10
46.000005
 20
123.0
 30
0.0
 11
72.00000499357971
 21
123.0
 31
0.0
  0
INSERT
  5
2014
330
200F
100
AcDbEntity
  8
DIMENSION
100
AcDbBlockReference
  2
_OPEN30
 10
44.00000499999999
 20
123.0
 30
0.0
 41
2.0
 42
2.0
 43
2.0
 50
180.0
  0
INSERT
  5
2015
330
200F
100
AcDbEntity
  8
DIMENSION
100
AcDbBlockReference
  2
_OPEN30
 10
74.00000499357971
 20
123.0
 30
0.0
 41
2.0
 42
2.0
 43
2.0
  0
INSERT
  5
2017
330
200F
100
AcDbEntity
  8
0
100
AcDbBlockReference
  2
*U6
 10
0.0
 20
0.0
 30
0.0
  0
POINT
  5
2018
330
200F
100
AcDbEntity
  8
DEFPOINTS
 62
     0
100
AcDbPoint
 10
44.00000499999999
 20
126.0
 30
0.0
  0
POINT
  5
2019
330
200F
100
AcDbEntity
  8
DEFPOINTS
 62
     0
100
AcDbPoint
 10
74.00000499357971
 20
125.9999999982797
 30
0.0
  0
POINT
  5
201A
330
200F
100
AcDbEntity
  8
DEFPOINTS
 62
     0
100
AcDbPoint
 10
74.00000499357971
 20
123.0
 30
0.0
  0
ENDBLK
  5
201B
330
200F
100
AcDbEntity
  8
0
100
AcDbBlockEnd
  0
BLOCK
  5
20AA
330
2016
100
AcDbEntity
  8
0
100
AcDbBlockBegin
  2
*U6
 70
     1
 10
0.0
 20
0.0
 30
0.0
  3
*U6
  1

  0
TEXT
  5
20AB
330
2016
100
AcDbEntity
  8
DIMENSION
100
AcDbText
 10
57.04315220491167
 20
124.0
 30
0.0
 40
3.0
  1
30
  7
GOTHIC
100
AcDbText
  0
ENDBLK
  5
20AC
330
2016
100
AcDbEntity
  8
0
100
AcDbBlockEnd
  0
BLOCK
  5
201D
330
201C
100
AcDbEntity
  8
0
100
AcDbBlockBegin
  2
*D7
 70
     1
 10
0.0
 20
0.0
 30
0.0
  3
*D7
  1

  0
LINE
  5
201E
330
201C
100
AcDbEntity
  8
DIMENSION
100
AcDbLine
 10
74.00000499357971
 20
125.9999999982797
 30
0.0
 11
74.00000499357971
 21
120.0
 31
0.0
  0
LINE
  5
201F
330
201C
100
AcDbEntity
  8
DIMENSION
100
AcDbLine
 10
220.0000049999999
 20
126.0
 30
0.0
 11
220.0000049999999
 21
120.0
 31
0.0
  0
LINE
  5
2020
330
201C
100
AcDbEntity
  8
DIMENSION
100
AcDbLine
 10
76.00000499357971
 20
123.0
 30
0.0
 11
218.0000049999999
 21
123.0
 31
0.0
  0
INSERT
  5
2021
330
201C
100
AcDbEntity
  8
DIMENSION
100
AcDbBlockReference
  2
_OPEN30
 10
74.00000499357971
 20
123.0
 30
0.0
 41
2.0
 42
2.0
 43
2.0
 50
180.0
  0
INSERT
  5
2022
330
201C
100
AcDbEntity
  8
DIMENSION
100
AcDbBlockReference
  2
_OPEN30
 10
220.0000049999999
 20
123.0
 30
0.0
 41
2.0
 42
2.0
 43
2.0
  0
INSERT
  5
2024
330
201C
100
AcDbEntity
  8
0
100
AcDbBlockReference
  2
*U8
 10
0.0
 20
0.0
 30
0.0
  0
POINT
  5
2025
330
201C
100
AcDbEntity
  8
DEFPOINTS
 62
     0
100
AcDbPoint
 10
74.00000499357971
 20
125.9999999982797
 30
0.0
  0
POINT
  5
2026
330
201C
100
AcDbEntity
  8
DEFPOINTS
 62
     0
100
AcDbPoint
 10
220.0000049999999
 20
126.0
 30
0.0
  0
POINT
  5
2027
330
201C
100
AcDbEntity
  8
DEFPOINTS
 62
     0
100
AcDbPoint
 10
220.0000049999999
 20
123.0
 30
0.0
  0
ENDBLK
  5
2028
330
201C
100
AcDbEntity
  8
0
100
AcDbBlockEnd
  0
BLOCK
  5
20A7
330
2023
100
AcDbEntity
  8
0
100
AcDbBlockBegin
  2
*U8
 70
     1
 10
0.0
 20
0.0
 30
0.0
  3
*U8
  1

  0
TEXT
  5
20A8
330
2023
100
AcDbEntity
  8
DIMENSION
100
AcDbText
 10
143.9923907835918
 20
124.0
 30
0.0
 40
3.0
  1
146
  7
GOTHIC
100
AcDbText
  0
ENDBLK
  5
20A9
330
2023
100
AcDbEntity
  8
0
100
AcDbBlockEnd
  0
BLOCK
  5
202A
330
2029
100
AcDbEntity
  8
0
100
AcDbBlockBegin
  2
*D9
 70
     1
 10
0.0
 20
0.0
 30
0.0
  3
*D9
  1

  0
LINE
  5
202B
330
2029
100
AcDbEntity
  8
DIMENSION
100
AcDbLine
 10
44.00000499999999
 20
105.0
 30
0.0
 11
44.00000499999999
 21
99.0
 31
0.0
  0
LINE
  5
202C
330
2029
100
AcDbEntity
  8
DIMENSION
100
AcDbLine
 10
66.000005
 20
105.0
 30
0.0
 11
66.000005
 21
99.0
 31
0.0
  0
LINE
  5
202D
330
2029
100
AcDbEntity
  8
DIMENSION
100
AcDbLine
 10
46.00000499999999
 20
102.0
 30
0.0
 11
64.000005
 21
102.0
 31
0.0
  0
INSERT
  5
202E
330
2029
100
AcDbEntity
  8
DIMENSION
100
AcDbBlockReference
  2
_OPEN30
 10
44.00000499999999
 20
102.0
 30
0.0
 41
2.0
 42
2.0
 43
2.0
 50
180.0
  0
INSERT
  5
202F
330
2029
100
AcDbEntity
  8
DIMENSION
100
AcDbBlockReference
  2
_OPEN30
 10
66.000005
 20
102.0
 30
0.0
 41
2.0
 42
2.0
 43
2.0
  0
INSERT
  5
2031
330
2029
100
AcDbEntity
  8
0
100
AcDbBlockReference
  2
*U10
 10
0.0
 20
0.0
 30
0.0
  0
POINT
  5
2032
330
2029
100
AcDbEntity
  8
DEFPOINTS
 62
     0
100
AcDbPoint
 10
44.00000499999999
 20
105.0
 30
0.0
  0
POINT
  5
2033
330
2029
100
AcDbEntity
  8
DEFPOINTS
 62
     0
100
AcDbPoint
 10
66.000005
 20
105.0
 30
0.0
  0
POINT
  5
2034
330
2029
100
AcDbEntity
  8
DEFPOINTS
 62
     0
100
AcDbPoint
 10
66.000005
 20
102.0
 30
0.0
  0
ENDBLK
  5
2035
330
2029
100
AcDbEntity
  8
0
100
AcDbBlockEnd
  0
BLOCK
  5
20B3
330
2030
100
AcDbEntity
  8
0
100
AcDbBlockBegin
  2
*U10
 70
     1
 10
0.0
 20
0.0
 30
0.0
  3
*U10
  1

  0
TEXT
  5
20B4
330
2030
100
AcDbEntity
  8
DIMENSION
100
AcDbText
 10
53.06599484771574
 20
103.0
 30
0.0
 40
3.0
  1
22
  7
GOTHIC
100
AcDbText
  0
ENDBLK
  5
20B5
330
2030
100
AcDbEntity
  8
0
100
AcDbBlockEnd
  0
BLOCK
  5
2037
330
2036
100
AcDbEntity
  8
0
100
AcDbBlockBegin
  2
*D11
 70
     1
 10
0.0
 20
0.0
 30
0.0
  3
*D11
  1

  0
LINE
  5
2038
330
2036
100
AcDbEntity
  8
DIMENSION
100
AcDbLine
 10
66.000005
 20
105.0
 30
0.0
 11
66.000005
 21
99.0
 31
0.0
  0
LINE
  5
2039
330
2036
100
AcDbEntity
  8
DIMENSION
100
AcDbLine
 10
206.0000049999999
 20
105.0
 30
0.0
 11
206.0000049999999
 21
99.0
 31
0.0
  0
LINE
  5
203A
330
2036
100
AcDbEntity
  8
DIMENSION
100
AcDbLine
 10
68.000005
 20
102.0
 30
0.0
 11
204.0000049999999
 21
102.0
 31
0.0
  0
INSERT
  5
203B
330
2036
100
AcDbEntity
  8
DIMENSION
100
AcDbBlockReference
  2
_OPEN30
 10
66.000005
 20
102.0
 30
0.0
 41
2.0
 42
2.0
 43
2.0
 50
180.0
  0
INSERT
  5
203C
330
2036
100
AcDbEntity
  8
DIMENSION
100
AcDbBlockReference
  2
_OPEN30
 10
206.0000049999999
 20
102.0
 30
0.0
 41
2.0
 42
2.0
 43
2.0
  0
INSERT
  5
203E
330
2036
100
AcDbEntity
  8
0
100
AcDbBlockReference
  2
*U12
 10
0.0
 20
0.0
 30
0.0
  0
POINT
  5
203F
330
2036
100
AcDbEntity
  8
DEFPOINTS
 62
     0
100
AcDbPoint
 10
66.000005
 20
105.0
 30
0.0
  0
POINT
  5
2040
330
2036
100
AcDbEntity
  8
DEFPOINTS
 62
     0
100
AcDbPoint
 10
206.0000049999999
 20
105.0
 30
0.0
  0
POINT
  5
2041
330
2036
100
AcDbEntity
  8
DEFPOINTS
 62
     0
100
AcDbPoint
 10
206.0000049999999
 20
102.0
 30
0.0
  0
ENDBLK
  5
2042
330
2036
100
AcDbEntity
  8
0
100
AcDbBlockEnd
  0
BLOCK
  5
20B0
330
203D
100
AcDbEntity
  8
0
100
AcDbBlockBegin
  2
*U12
 70
     1
 10
0.0
 20
0.0
 30
0.0
  3
*U12
  1

  0
TEXT
  5
20B1
330
203D
100
AcDbEntity
  8
DIMENSION
100
AcDbText
 10
132.9619339340101
 20
103.0
 30
0.0
 40
3.0
  1
140
  7
GOTHIC
100
AcDbText
  0
ENDBLK
  5
20B2
330
203D
100
AcDbEntity
  8
0
100
AcDbBlockEnd
  0
BLOCK
  5
2044
330
2043
100
AcDbEntity
  8
0
100
AcDbBlockBegin
  2
*D13
 70
     1
 10
0.0
 20
0.0
 30
0.0
  3
*D13
  1

  0
LINE
  5
2045
330
2043
100
AcDbEntity
  8
DIMENSION
100
AcDbLine
 10
206.0000049999999
 20
105.0
 30
0.0
 11
206.0000049999999
 21
99.0
 31
0.0
  0
LINE
  5
2046
330
2043
100
AcDbEntity
  8
DIMENSION
100
AcDbLine
 10
220.0000049999999
 20
105.0
 30
0.0
 11
220.0000049999999
 21
99.0
 31
0.0
  0
LINE
  5
2047
330
2043
100
AcDbEntity
  8
DIMENSION
100
AcDbLine
 10
208.0000049999999
 20
102.0
 30
0.0
 11
218.0000049999999
 21
102.0
 31
0.0
  0
INSERT
  5
2048
330
2043
100
AcDbEntity
  8
DIMENSION
100
AcDbBlockReference
  2
_OPEN30
 10
206.0000049999999
 20
102.0
 30
0.0
 41
2.0
 42
2.0
 43
2.0
 50
180.0
  0
INSERT
  5
2049
330
2043
100
AcDbEntity
  8
DIMENSION
100
AcDbBlockReference
  2
_OPEN30
 10
220.0000049999999
 20
102.0
 30
0.0
 41
2.0
 42
2.0
 43
2.0
  0
INSERT
  5
204B
330
2043
100
AcDbEntity
  8
0
100
AcDbBlockReference
  2
*U14
 10
0.0
 20
0.0
 30
0.0
  0
POINT
  5
204C
330
2043
100
AcDbEntity
  8
DEFPOINTS
 62
     0
100
AcDbPoint
 10
206.0000049999999
 20
105.0
 30
0.0
  0
POINT
  5
204D
330
2043
100
AcDbEntity
  8
DEFPOINTS
 62
     0
100
AcDbPoint
 10
220.0000049999999
 20
105.0
 30
0.0
  0
POINT
  5
204E
330
2043
100
AcDbEntity
  8
DEFPOINTS
 62
     0
100
AcDbPoint
 10
220.0000049999999
 20
102.0
 30
0.0
  0
ENDBLK
  5
204F
330
2043
100
AcDbEntity
  8
0
100
AcDbBlockEnd
  0
BLOCK
  5
20AD
330
204A
100
AcDbEntity
  8
0
100
AcDbBlockBegin
  2
*U14
 70
     1
 10
0.0
 20
0.0
 30
0.0
  3
*U14
  1

  0
TEXT
  5
20AE
330
204A
100
AcDbEntity
  8
DIMENSION
100
AcDbText
 10
210.9289390101523
 20
103.0
 30
0.0
 40
3.0
  1
14
  7
GOTHIC
100
AcDbText
  0
ENDBLK
  5
20AF
330
204A
100
AcDbEntity
  8
0
100
AcDbBlockEnd
  0
BLOCK
  5
2051
330
2050
100
AcDbEntity
  8
0
100
AcDbBlockBegin
  2
*D15
 70
     1
 10
0.0
 20
0.0
 30
0.0
  3
*D15
  1

  0
LINE
  5
2052
330
2050
100
AcDbEntity
  8
DIMENSION
100
AcDbLine
 10
44.00000499999999
 20
45.0
 30
0.0
 11
44.00000499999999
 21
39.0
 31
0.0
  0
LINE
  5
2053
330
2050
100
AcDbEntity
  8
DIMENSION
100
AcDbLine
 10
220.0000049999999
 20
45.0
 30
0.0
 11
220.0000049999999
 21
39.0
 31
0.0
  0
LINE
  5
2054
330
2050
100
AcDbEntity
  8
DIMENSION
100
AcDbLine
 10
46.00000499999999
 20
42.0
 30
0.0
 11
218.0000049999999
 21
42.0
 31
0.0
  0
INSERT
  5
2055
330
2050
100
AcDbEntity
  8
DIMENSION
100
AcDbBlockReference
  2
_OPEN30
 10
44.00000499999999
 20
42.0
 30
0.0
 41
2.0
 42
2.0
 43
2.0
 50
180.0
  0
INSERT
  5
2056
330
2050
100
AcDbEntity
  8
DIMENSION
100
AcDbBlockReference
  2
_OPEN30
 10
220.0000049999999
 20
42.0
 30
0.0
 41
2.0
 42
2.0
 43
2.0
  0
INSERT
  5
2058
330
2050
100
AcDbEntity
  8
0
100
AcDbBlockReference
  2
*U16
 10
0.0
 20
0.0
 30
0.0
  0
POINT
  5
2059
330
2050
100
AcDbEntity
  8
DEFPOINTS
 62
     0
100
AcDbPoint
 10
44.00000499999999
 20
45.0
 30
0.0
  0
POINT
  5
205A
330
2050
100
AcDbEntity
  8
DEFPOINTS
 62
     0
100
AcDbPoint
 10
220.0000049999999
 20
45.0
 30
0.0
  0
POINT
  5
205B
330
2050
100
AcDbEntity
  8
DEFPOINTS
 62
     0
100
AcDbPoint
 10
220.0000049999999
 20
42.0
 30
0.0
  0
ENDBLK
  5
205C
330
2050
100
AcDbEntity
  8
0
100
AcDbBlockEnd
  0
BLOCK
  5
20B6
330
2057
100
AcDbEntity
  8
0
100
AcDbBlockBegin
  2
*U16
 70
     1
 10
0.0
 20
0.0
 30
0.0
  3
*U16
  1

  0
TEXT
  5
20B7
330
2057
100
AcDbEntity
  8
DIMENSION
100
AcDbText
 10
128.992390786802
 20
43.0
 30
0.0
 40
3.0
  1
176
  7
GOTHIC
100
AcDbText
  0
ENDBLK
  5
20B8
330
2057
100
AcDbEntity
  8
0
100
AcDbBlockEnd
  0
BLOCK
  5
205E
330
205D
100
AcDbEntity
  8
0
100
AcDbBlockBegin
  2
*D17
 70
     1
 10
0.0
 20
0.0
 30
0.0
  3
*D17
  1

  0
LINE
  5
205F
330
205D
100
AcDbEntity
  8
DIMENSION
100
AcDbLine
 10
39.0
 20
75.500012
 30
0.0
 11
33.0
 21
75.500012
 31
0.0
  0
LINE
  5
2060
330
205D
100
AcDbEntity
  8
DIMENSION
100
AcDbLine
 10
39.0
 20
66.500012
 30
0.0
 11
33.0
 21
66.500012
 31
0.0
  0
LINE
  5
2061
330
205D
100
AcDbEntity
  8
DIMENSION
100
AcDbLine
 10
36.0
 20
73.500012
 30
0.0
 11
36.0
 21
68.500012
 31
0.0
  0
INSERT
  5
2062
330
205D
100
AcDbEntity
  8
DIMENSION
100
AcDbBlockReference
  2
_OPEN30
 10
36.0
 20
75.500012
 30
0.0
 41
2.0
 42
2.0
 43
2.0
 50
90.0
  0
INSERT
  5
2063
330
205D
100
AcDbEntity
  8
DIMENSION
100
AcDbBlockReference
  2
_OPEN30
 10
36.0
 20
66.500012
 30
0.0
 41
2.0
 42
2.0
 43
2.0
 50
270.0
  0
INSERT
  5
2065
330
205D
100
AcDbEntity
  8
0
100
AcDbBlockReference
  2
*U18
 10
0.0
 20
0.0
 30
0.0
  0
POINT
  5
2066
330
205D
100
AcDbEntity
  8
DEFPOINTS
 62
     0
100
AcDbPoint
 10
39.0
 20
75.500012
 30
0.0
  0
POINT
  5
2067
330
205D
100
AcDbEntity
  8
DEFPOINTS
 62
     0
100
AcDbPoint
 10
39.0
 20
66.500012
 30
0.0
  0
POINT
  5
2068
330
205D
100
AcDbEntity
  8
DEFPOINTS
 62
     0
100
AcDbPoint
 10
36.0
 20
66.500012
 30
0.0
  0
ENDBLK
  5
2069
330
205D
100
AcDbEntity
  8
0
100
AcDbBlockEnd
  0
BLOCK
  5
20A4
330
2064
100
AcDbEntity
  8
0
100
AcDbBlockBegin
  2
*U18
 70
     1
 10
0.0
 20
0.0
 30
0.0
  3
*U18
  1

  0
TEXT
  5
20A5
330
2064
100
AcDbEntity
  8
DIMENSION
100
AcDbText
 10
35.0
 20
70.04062113705585
 30
0.0
 40
3.0
  1
9
 50
90.0
  7
GOTHIC
100
AcDbText
  0
ENDBLK
  5
20A6
330
2064
100
AcDbEntity
  8
0
100
AcDbBlockEnd
  0
BLOCK
  5
206B
330
206A
100
AcDbEntity
  8
0
100
AcDbBlockBegin
  2
*D19
 70
     1
 10
0.0
 20
0.0
 30
0.0
  3
*D19
  1

  0
LINE
  5
206C
330
206A
100
AcDbEntity
  8
DIMENSION
100
AcDbLine
 10
33.0
 20
82.60001199999997
 30
0.0
 11
27.00000000000001
 21
82.60001200000003
 31
0.0
  0
LINE
  5
206D
330
206A
100
AcDbEntity
  8
DIMENSION
100
AcDbLine
 10
33.0
 20
59.400012
 30
0.0
 11
27.0
 21
59.400012
 31
0.0
  0
LINE
  5
206E
330
206A
100
AcDbEntity
  8
DIMENSION
100
AcDbLine
 10
30.0
 20
80.600012
 30
0.0
 11
30.0
 21
61.400012
 31
0.0
  0
INSERT
  5
206F
330
206A
100
AcDbEntity
  8
DIMENSION
100
AcDbBlockReference
  2
_OPEN30
 10
30.0
 20
82.60001200000003
 30
0.0
 41
2.0
 42
2.0
 43
2.0
 50
90.0
  0
INSERT
  5
2070
330
206A
100
AcDbEntity
  8
DIMENSION
100
AcDbBlockReference
  2
_OPEN30
 10
30.0
 20
59.400012
 30
0.0
 41
2.0
 42
2.0
 43
2.0
 50
270.0
  0
INSERT
  5
2072
330
206A
100
AcDbEntity
  8
0
100
AcDbBlockReference
  2
*U20
 10
0.0
 20
0.0
 30
0.0
  0
POINT
  5
2073
330
206A
100
AcDbEntity
  8
DEFPOINTS
 62
     0
100
AcDbPoint
 10
33.0
 20
82.60001199999997
 30
0.0
  0
POINT
  5
2074
330
206A
100
AcDbEntity
  8
DEFPOINTS
 62
     0
100
AcDbPoint
 10
33.0
 20
59.400012
 30
0.0
  0
POINT
  5
2075
330
206A
100
AcDbEntity
  8
DEFPOINTS
 62
     0
100
AcDbPoint
 10
30.0
 20
59.400012
 30
0.0
  0
ENDBLK
  5
2076
330
206A
100
AcDbEntity
  8
0
100
AcDbBlockEnd
  0
BLOCK
  5
20CD
330
2071
100
AcDbEntity
  8
0
100
AcDbBlockBegin
  2
*U20
 70
     1
 10
0.0
 20
0.0
 30
0.0
  3
*U20
  1

  0
TEXT
  5
20CE
330
2071
100
AcDbEntity
  8
DIMENSION
100
AcDbText
 10
28.99999999999998
 20
67.39087494416242
 30
0.0
 40
3.0
  1
23.1
 50
90.0
  7
GOTHIC
100
AcDbText
  0
ENDBLK
  5
20CF
330
2071
100
AcDbEntity
  8
0
100
AcDbBlockEnd
  0
BLOCK
  5
2078
330
2077
100
AcDbEntity
  8
0
100
AcDbBlockBegin
  2
*D21
 70
     1
 10
0.0
 20
0.0
 30
0.0
  3
*D21
  1

  0
LINE
  5
2079
330
2077
100
AcDbEntity
  8
DIMENSION
100
AcDbLine
 10
228.0
 20
85.00001199999998
 30
0.0
 11
234.0
 21
85.00001199999998
 31
0.0
  0
LINE
  5
207A
330
2077
100
AcDbEntity
  8
DIMENSION
100
AcDbLine
 10
228.0
 20
57.00001199999999
 30
0.0
 11
234.0
 21
57.00001199999999
 31
0.0
  0
LINE
  5
207B
330
2077
100
AcDbEntity
  8
DIMENSION
100
AcDbLine
 10
231.0
 20
83.000012
 30
0.0
 11
231.0
 21
59.000012
 31
0.0
  0
INSERT
  5
207C
330
2077
100
AcDbEntity
  8
DIMENSION
100
AcDbBlockReference
  2
_OPEN30
 10
231.0
 20
85.00001199999998
 30
0.0
 41
2.0
 42
2.0
 43
2.0
 50
90.0
  0
INSERT
  5
207D
330
2077
100
AcDbEntity
  8
DIMENSION
100
AcDbBlockReference
  2
_OPEN30
 10
231.0
 20
57.00001199999999
 30
0.0
 41
2.0
 42
2.0
 43
2.0
 50
270.0
  0
INSERT
  5
207F
330
2077
100
AcDbEntity
  8
0
100
AcDbBlockReference
  2
*U22
 10
0.0
 20
0.0
 30
0.0
  0
POINT
  5
2080
330
2077
100
AcDbEntity
  8
DEFPOINTS
 62
     0
100
AcDbPoint
 10
228.0
 20
85.00001199999998
 30
0.0
  0
POINT
  5
2081
330
2077
100
AcDbEntity
  8
DEFPOINTS
 62
     0
100
AcDbPoint
 10
228.0
 20
57.00001199999999
 30
0.0
  0
POINT
  5
2082
330
2077
100
AcDbEntity
  8
DEFPOINTS
 62
     0
100
AcDbPoint
 10
231.0
 20
57.00001199999999
 30
0.0
  0
ENDBLK
  5
2083
330
2077
100
AcDbEntity
  8
0
100
AcDbBlockEnd
  0
BLOCK
  5
20A1
330
207E
100
AcDbEntity
  8
0
100
AcDbBlockBegin
  2
*U22
 70
     1
 10
0.0
 20
0.0
 30
0.0
  3
*U22
  1

  0
TEXT
  5
20A2
330
207E
100
AcDbEntity
  8
DIMENSION
100
AcDbText
 10
230.0
 20
69.0583876345178
 30
0.0
 40
3.0
  1
28
 50
90.0
  7
GOTHIC
100
AcDbText
  0
ENDBLK
  5
20A3
330
207E
100
AcDbEntity
  8
0
100
AcDbBlockEnd
  0
BLOCK
  5
2085
330
2084
100
AcDbEntity
  8
0
100
AcDbBlockBegin
  2
*D23
 70
     1
 10
0.0
 20
0.0
 30
0.0
  3
*D23
  1

  0
LINE
  5
2086
330
2084
100
AcDbEntity
  8
DIMENSION
100
AcDbLine
 10
234.0
 20
157.0000139999999
 30
0.0
 11
228.0
 21
157.0000139999999
 31
0.0
  0
LINE
  5
2087
330
2084
100
AcDbEntity
  8
DIMENSION
100
AcDbLine
 10
234.0
 20
141.000014
 30
0.0
 11
228.0
 21
141.000014
 31
0.0
  0
LINE
  5
2088
330
2084
100
AcDbEntity
  8
DIMENSION
100
AcDbLine
 10
231.0
 20
155.0000139999999
 30
0.0
 11
231.0
 21
143.0000139999999
 31
0.0
  0
INSERT
  5
2089
330
2084
100
AcDbEntity
  8
DIMENSION
100
AcDbBlockReference
  2
_OPEN30
 10
231.0
 20
157.0000139999999
 30
0.0
 41
2.0
 42
2.0
 43
2.0
 50
90.0
  0
INSERT
  5
208A
330
2084
100
AcDbEntity
  8
DIMENSION
100
AcDbBlockReference
  2
_OPEN30
 10
231.0
 20
141.000014
 30
0.0
 41
2.0
 42
2.0
 43
2.0
 50
270.0
  0
INSERT
  5
208C
330
2084
100
AcDbEntity
  8
0
100
AcDbBlockReference
  2
*U24
 10
0.0
 20
0.0
 30
0.0
  0
POINT
  5
208D
330
2084
100
AcDbEntity
  8
DEFPOINTS
 62
     0
100
AcDbPoint
 10
234.0
 20
157.0000139999999
 30
0.0
  0
POINT
  5
208E
330
2084
100
AcDbEntity
  8
DEFPOINTS
 62
     0
100
AcDbPoint
 10
234.0
 20
141.000014
 30
0.0
  0
POINT
  5
208F
330
2084
100
AcDbEntity
  8
DEFPOINTS
 62
     0
100
AcDbPoint
 10
231.0
 20
141.000014
 30
0.0
  0
ENDBLK
  5
2090
330
2084
100
AcDbEntity
  8
0
100
AcDbBlockEnd
  0
BLOCK
  5
20C7
330
208B
100
AcDbEntity
  8
0
100
AcDbBlockBegin
  2
*U24
 70
     1
 10
0.0
 20
0.0
 30
0.0
  3
*U24
  1

  0
TEXT
  5
20C8
330
208B
100
AcDbEntity
  8
DIMENSION
100
AcDbText
 10
230.0
 20
146.9670190761422
 30
0.0
 40
3.0
  1
16
 50
90.0
  7
GOTHIC
100
AcDbText
  0
ENDBLK
  5
20C9
330
208B
100
AcDbEntity
  8
0
100
AcDbBlockEnd
  0
BLOCK
  5
2092
330
2091
100
AcDbEntity
  8
0
100
AcDbBlockBegin
  2
*D25
 70
     1
 10
0.0
 20
0.0
 30
0.0
  3
*D25
  1

  0
LINE
  5
2093
330
2091
100
AcDbEntity
  8
DIMENSION
100
AcDbLine
 10
237.0
 20
126.0
 30
0.0
 11
237.0
 21
120.0
 31
0.0
  0
LINE
  5
2094
330
2091
100
AcDbEntity
  8
DIMENSION
100
AcDbLine
 10
273.0
 20
126.0
 30
0.0
 11
273.0
 21
120.0
 31
0.0
  0
LINE
  5
2095
330
2091
100
AcDbEntity
  8
DIMENSION
100
AcDbLine
 10
239.0
 20
123.0
 30
0.0
 11
271.0
 21
123.0
 31
0.0
  0
INSERT
  5
2096
330
2091
100
AcDbEntity
  8
DIMENSION
100
AcDbBlockReference
  2
_OPEN30
 10
237.0
 20
123.0
 30
0.0
 41
2.0
 42
2.0
 43
2.0
 50
180.0
  0
INSERT
  5
2097
330
2091
100
AcDbEntity
  8
DIMENSION
100
AcDbBlockReference
  2
_OPEN30
 10
273.0
 20
123.0
 30
0.0
 41
2.0
 42
2.0
 43
2.0
  0
INSERT
  5
2099
330
2091
100
AcDbEntity
  8
0
100
AcDbBlockReference
  2
*U26
 10
0.0
 20
0.0
 30
0.0
  0
POINT
  5
209A
330
2091
100
AcDbEntity
  8
DEFPOINTS
 62
     0
100
AcDbPoint
 10
237.0
 20
126.0
 30
0.0
  0
POINT
  5
209B
330
2091
100
AcDbEntity
  8
DEFPOINTS
 62
     0
100
AcDbPoint
 10
273.0
 20
126.0
 30
0.0
  0
POINT
  5
209C
330
2091
100
AcDbEntity
  8
DEFPOINTS
 62
     0
100
AcDbPoint
 10
273.0
 20
123.0
 30
0.0
  0
ENDBLK
  5
209D
330
2091
100
AcDbEntity
  8
0
100
AcDbBlockEnd
  0
BLOCK
  5
20CA
330
2098
100
AcDbEntity
  8
0
100
AcDbBlockBegin
  2
*U26
 70
     1
 10
0.0
 20
0.0
 30
0.0
  3
*U26
  1

  0
TEXT
  5
20CB
330
2098
100
AcDbEntity
  8
DIMENSION
100
AcDbText
 10
251.6040609137056
 20
124.4873096446699
 30
0.0
 40
3.0
  1
φ36
  7
GOTHIC
100
AcDbText
  0
ENDBLK
  5
20CC
330
2098
100
AcDbEntity
  8
0
100
AcDbBlockEnd
  0
BLOCK
  5
20BA
330
20B9
100
AcDbEntity
  8
0
100
AcDbBlockBegin
  2
*U27
 70
     1
 10
0.0
 20
0.0
 30
0.0
  3
*U27
  1

  0
INSERT
  5
20BB
330
20B9
100
AcDbEntity
  8
DIMENSION
100
AcDbBlockReference
  2
_OPEN30
 10
252.4788953869008
 20
161.1596446963251
 30
0.0
 41
2.0
 42
2.0
 43
2.0
 50
300.0
  0
POLYLINE
  5
20BC
330
20B9
100
AcDbEntity
  8
DIMENSION
100
AcDb2dPolyline
 66
     1
 10
0.0
 20
0.0
 30
0.0
  0
VERTEX
  5
20BD
330
20BC
100
AcDbEntity
  8
DIMENSION
100
AcDbVertex
100
AcDb2dVertex
 10
251.4788953869008
 20
162.8916955038939
 30
0.0
  0
VERTEX
  5
20BE
330
20BC
100
AcDbEntity
  8
DIMENSION
100
AcDbVertex
100
AcDb2dVertex
 10
245.1600592271218
 20
173.8362407773345
 30
0.0
  0
VERTEX
  5
20BF
330
20BC
100
AcDbEntity
  8
DIMENSION
100
AcDbVertex
100
AcDb2dVertex
 10
244.5281528663348
 20
173.8362407773345
 30
0.0
  0
VERTEX
  5
20C0
330
20BC
100
AcDbEntity
  8
DIMENSION
100
AcDbVertex
100
AcDb2dVertex
 10
232.2591173333399
 20
173.8362407773345
 30
0.0
  0
SEQEND
  5
20C1
330
20BC
100
AcDbEntity
  8
DIMENSION
  0
ENDBLK
  5
20C2
330
20B9
100
AcDbEntity
  8
0
100
AcDbBlockEnd
  0
BLOCK
  5
20C4
330
20C3
100
AcDbEntity
  8
0
100
AcDbBlockBegin
  2
*U28
 70
     1
 10
0.0
 20
0.0
 30
0.0
  3
*U28
  1

  0
TEXT
  5
20C5
330
20C3
100
AcDbEntity
  8
DIMENSION
100
AcDbText
 10
232.0459193637967
 20
175.2626367164208
 30
0.0
 40
3.0
  1
PT1/8"
  7
GOTHIC
100
AcDbText
  0
ENDBLK
  5
20C6
330
20C3
100
AcDbEntity
  8
0
100
AcDbBlockEnd
  0
ENDSEC
  0
SECTION
  2
ENTITIES
  0
ARC
  5
20D0
330
1FCA
100
AcDbEntity
  8
LINE
100
AcDbCircle
 10
70.500005
 20
151.225097
 30
0.0
 40
3.0
100
AcDbArc
 50
0.000003
 51
43.341757
  0
ARC
  5
20D1
330
1FCA
100
AcDbEntity
  8
LINE
100
AcDbCircle
 10
71.500005
 20
151.645912
 30
0.0
 40
3.0
100
AcDbArc
 50
0.000003
 51
48.18968399999999
  0
ARC
  5
20D2
330
1FCA
100
AcDbEntity
  8
LINE
100
AcDbCircle
 10
77.927948
 20
152.084675
 30
0.0
 40
2.0
100
AcDbArc
 50
139.6200649999999
 51
219.0560889999999
  0
ARC
  5
20D3
330
1FCA
100
AcDbEntity
  8
LINE
100
AcDbCircle
 10
77.927948
 20
152.084675
 30
0.0
 40
3.0
100
AcDbArc
 50
139.6200659999999
 51
219.0560889999999
  0
ARC
  5
20D4
330
1FCA
100
AcDbEntity
  8
LINE
100
AcDbCircle
 10
74.500005
 20
155.0000139999999
 30
0.0
 40
1.5
100
AcDbArc
 50
314.44477
 51
228.1896849999998
  0
ARC
  5
20D5
330
1FCA
100
AcDbEntity
  8
LINE
100
AcDbCircle
 10
74.500005
 20
155.0000139999999
 30
0.0
 40
2.5
100
AcDbArc
 50
314.444769
 51
223.341759
  0
ARC
  5
20D6
330
1FCA
100
AcDbEntity
  8
LINE
100
AcDbCircle
 10
74.04530099999998
 20
148.934271
 30
0.0
 40
2.0
100
AcDbArc
 50
339.333366
 51
39.056089
  0
ARC
  5
20D7
330
1FCA
100
AcDbEntity
  8
LINE
100
AcDbCircle
 10
74.04530099999998
 20
148.934271
 30
0.0
 40
3.0
100
AcDbArc
 50
345.6868999999998
 51
39.056089
  0
ARC
  5
20D8
330
1FCA
100
AcDbEntity
  8
LINE
100
AcDbCircle
 10
78.72354900000002
 20
147.169621
 30
0.0
 40
3.0
100
AcDbArc
 50
159.3333659999999
 51
225.1752999999999
  0
ARC
  5
20D9
330
1FCA
100
AcDbEntity
  8
LINE
100
AcDbCircle
 10
79.85905600000002
 20
147.4509469999999
 30
0.0
 40
3.0
100
AcDbArc
 50
165.6869
 51
225.1753019999999
  0
LINE
  5
20DA
330
1FCA
100
AcDbEntity
  8
LINE
100
AcDbLine
 10
79.343377
 20
143.7337609999999
 30
0.0
 11
77.744236
 21
145.323147
 31
0.0
  0
ARC
  5
20DB
330
1FCA
100
AcDbEntity
  8
LINE
100
AcDbCircle
 10
58.309093
 20
94.500012
 30
0.0
 40
25.0
100
AcDbArc
 50
235.084794
 51
271.4663209999999
  0
ARC
  5
20DC
330
1FCA
100
AcDbEntity
  8
LINE
100
AcDbCircle
 10
62.33030799999998
 20
134.0000139999999
 30
0.0
 40
25.0
100
AcDbArc
 50
90.0
 51
137.156357
  0
ARC
  5
20DD
330
1FCA
100
AcDbEntity
  8
LINE
100
AcDbCircle
 10
62.33030799999998
 20
164.0000139999999
 30
0.0
 40
25.0
100
AcDbArc
 50
222.8436429999999
 51
270.0
  0
ARC
  5
20DE
330
1FCA
100
AcDbEntity
  8
LINE
100
AcDbCircle
 10
255.0
 20
143.780773
 30
0.0
 40
1.738666999999999
100
AcDbArc
 50
128.2998859999999
 51
51.70011399999999
  0
ARC
  5
20DF
330
1FCA
100
AcDbEntity
  8
LINE
100
AcDbCircle
 10
255.0
 20
149.000014
 30
0.0
 40
16.0
100
AcDbArc
 50
28.95502399999999
 51
151.044976
  0
ARC
  5
20E0
330
1FCA
100
AcDbEntity
  8
LINE
100
AcDbCircle
 10
255.0
 20
149.000014
 30
0.0
 40
16.0
100
AcDbArc
 50
208.955024
 51
331.0449759999999
  0
LINE
  5
20E1
330
1FCA
100
AcDbEntity
  8
LINE
100
AcDbLine
 10
205.0000049999999
 20
149.000014
 30
0.0
 11
205.0000049999999
 21
167.0000139999999
 31
0.0
  0
LINE
  5
20E2
330
1FCA
100
AcDbEntity
  8
LINE
100
AcDbLine
 10
205.0000049999999
 20
149.000014
 30
0.0
 11
205.0000049999999
 21
131.0000139999999
 31
0.0
  0
ARC
  5
20E3
330
1FCA
100
AcDbEntity
  8
LINE
100
AcDbCircle
 10
74.000005
 20
149.000014
 30
0.0
 40
5.25
100
AcDbArc
 50
72.08277099999998
 51
98.37897499999998
  0
ARC
  5
20E4
330
1FCA
100
AcDbEntity
  8
LINE
100
AcDbCircle
 10
74.000005
 20
149.000014
 30
0.0
 40
5.25
100
AcDbArc
 50
315.5199379999999
 51
60.81565999999998
  0
ARC
  5
20E5
330
1FCA
100
AcDbEntity
  8
LINE
100
AcDbCircle
 10
74.000005
 20
149.000014
 30
0.0
 40
5.25
100
AcDbArc
 50
275.465024
 51
304.545572
  0
ARC
  5
20E6
330
1FCA
100
AcDbEntity
  8
LINE
100
AcDbCircle
 10
74.000005
 20
149.000014
 30
0.0
 40
5.25
100
AcDbArc
 50
109.657056
 51
264.5349759999999
  0
ARC
  5
20E7
330
1FCA
100
AcDbEntity
  8
LINE
100
AcDbCircle
 10
74.000005
 20
149.000014
 30
0.0
 40
5.5
100
AcDbArc
 50
71.195319
 51
99.27739699999998
  0
ARC
  5
20E8
330
1FCA
100
AcDbEntity
  8
LINE
100
AcDbCircle
 10
74.000005
 20
149.000014
 30
0.0
 40
5.5
100
AcDbArc
 50
315.504264
 51
60.70380099999999
  0
ARC
  5
20E9
330
1FCA
100
AcDbEntity
  8
LINE
100
AcDbCircle
 10
74.000005
 20
149.000014
 30
0.0
 40
5.5
100
AcDbArc
 50
275.215909
 51
305.0339779999998
  0
ARC
  5
20EA
330
1FCA
100
AcDbEntity
  8
LINE
100
AcDbCircle
 10
74.000005
 20
149.000014
 30
0.0
 40
5.5
100
AcDbArc
 50
109.7689149999999
 51
264.7840909999999
  0
LINE
  5
20EB
330
1FCA
100
AcDbEntity
  8
LINE
100
AcDbLine
 10
74.000005
 20
55.500012
 30
0.0
 11
72.500005
 21
55.500012
 31
0.0
  0
LINE
  5
20EC
330
1FCA
100
AcDbEntity
  8
LINE
100
AcDbLine
 10
72.000005
 20
56.000012
 30
0.0
 11
72.000005
 21
57.50001199999999
 31
0.0
  0
LINE
  5
20ED
330
1FCA
100
AcDbEntity
  8
LINE
100
AcDbLine
 10
72.500005
 20
86.500012
 30
0.0
 11
74.000005
 21
86.500012
 31
0.0
  0
LINE
  5
20EE
330
1FCA
100
AcDbEntity
  8
LINE
100
AcDbLine
 10
72.500005
 20
55.500012
 30
0.0
 11
72.000005
 21
56.000012
 31
0.0
  0
LINE
  5
20EF
330
1FCA
100
AcDbEntity
  8
LINE
100
AcDbLine
 10
72.000005
 20
56.000012
 30
0.0
 11
74.000005
 21
56.000012
 31
0.0
  0
LINE
  5
20F0
330
1FCA
100
AcDbEntity
  8
LINE
100
AcDbLine
 10
72.000005
 20
86.00001199999999
 30
0.0
 11
72.500005
 21
86.500012
 31
0.0
  0
LINE
  5
20F1
330
1FCA
100
AcDbEntity
  8
LINE
100
AcDbLine
 10
72.000005
 20
86.00001199999999
 30
0.0
 11
74.000005
 21
86.00001199999999
 31
0.0
  0
LINE
  5
20F2
330
1FCA
100
AcDbEntity
  8
LINE
100
AcDbLine
 10
74.000005
 20
55.500012
 30
0.0
 11
75.500005
 21
55.500012
 31
0.0
  0
LINE
  5
20F3
330
1FCA
100
AcDbEntity
  8
LINE
100
AcDbLine
 10
76.000005
 20
56.000012
 30
0.0
 11
76.000005
 21
57.50001199999999
 31
0.0
  0
LINE
  5
20F4
330
1FCA
100
AcDbEntity
  8
LINE
100
AcDbLine
 10
75.500005
 20
86.500012
 30
0.0
 11
74.000005
 21
86.500012
 31
0.0
  0
LINE
  5
20F5
330
1FCA
100
AcDbEntity
  8
LINE
100
AcDbLine
 10
75.500005
 20
55.500012
 30
0.0
 11
76.000005
 21
56.000012
 31
0.0
  0
LINE
  5
20F6
330
1FCA
100
AcDbEntity
  8
LINE
100
AcDbLine
 10
76.000005
 20
56.000012
 30
0.0
 11
74.000005
 21
56.000012
 31
0.0
  0
LINE
  5
20F7
330
1FCA
100
AcDbEntity
  8
LINE
100
AcDbLine
 10
76.000005
 20
86.00001199999999
 30
0.0
 11
75.500005
 21
86.500012
 31
0.0
  0
LINE
  5
20F8
330
1FCA
100
AcDbEntity
  8
LINE
100
AcDbLine
 10
76.000005
 20
86.00001199999999
 30
0.0
 11
74.000005
 21
86.00001199999999
 31
0.0
  0
CIRCLE
  5
20F9
330
1FCA
100
AcDbEntity
  8
LINE
100
AcDbCircle
 10
74.000005
 20
84.500012
 30
0.0
 40
0.6
  0
LINE
  5
20FA
330
1FCA
100
AcDbEntity
  8
LINE
100
AcDbLine
 10
73.500005
 20
141.2000139999999
 30
0.0
 11
74.500005
 21
141.2000139999999
 31
0.0
  0
LINE
  5
20FB
330
1FCA
100
AcDbEntity
  8
LINE
100
AcDbLine
 10
78.63843699999998
 20
143.024495
 30
0.0
 11
79.343377
 21
143.7337609999999
 31
0.0
  0
LINE
  5
20FC
330
1FCA
100
AcDbEntity
  8
LINE
100
AcDbLine
 10
78.63843699999998
 20
143.024495
 30
0.0
 11
76.60872899999998
 21
145.04182
 31
0.0
  0
LINE
  5
20FD
330
1FCA
100
AcDbEntity
  8
LINE
100
AcDbLine
 10
61.000005
 20
67.508854
 30
0.0
 11
61.000005
 21
66.500012
 31
0.0
  0
ARC
  5
20FE
330
1FCA
100
AcDbEntity
  8
LINE
100
AcDbCircle
 10
59.000005
 20
67.508854
 30
0.0
 40
2.0
100
AcDbArc
 50
0.0
 51
91.46632099999996
  0
LINE
  5
20FF
330
1FCA
100
AcDbEntity
  8
LINE
100
AcDbLine
 10
44.00000499999999
 20
75.500012
 30
0.0
 11
44.00000499999999
 21
74.000012
 31
0.0
  0
LINE
  5
2100
330
1FCA
100
AcDbEntity
  8
LINE
100
AcDbLine
 10
44.47673599999999
 20
75.500012
 30
0.0
 11
44.47673599999999
 21
75.00001199999998
 31
0.0
  0
LINE
  5
2101
330
1FCA
100
AcDbEntity
  8
LINE
100
AcDbLine
 10
44.47673599999999
 20
75.00001199999998
 30
0.0
 11
61.000005
 21
75.00001199999998
 31
0.0
  0
LINE
  5
2102
330
1FCA
100
AcDbEntity
  8
LINE
100
AcDbLine
 10
61.000005
 20
75.00001199999998
 30
0.0
 11
61.000005
 21
75.500012
 31
0.0
  0
LINE
  5
2103
330
1FCA
100
AcDbEntity
  8
LINE
100
AcDbLine
 10
68.84612299999999
 20
66.500012
 30
0.0
 11
68.84612299999999
 21
71.000012
 31
0.0
  0
LINE
  5
2104
330
1FCA
100
AcDbEntity
  8
LINE
100
AcDbLine
 10
68.84612299999999
 20
71.000012
 30
0.0
 11
79.15388699999998
 21
71.000012
 31
0.0
  0
LINE
  5
2105
330
1FCA
100
AcDbEntity
  8
LINE
100
AcDbLine
 10
79.15388699999998
 20
71.000012
 30
0.0
 11
79.15388699999998
 21
75.500012
 31
0.0
  0
LINE
  5
2106
330
1FCA
100
AcDbEntity
  8
LINE
100
AcDbLine
 10
77.20156699999998
 20
75.500012
 30
0.0
 11
77.20156699999998
 21
71.000012
 31
0.0
  0
LINE
  5
2107
330
1FCA
100
AcDbEntity
  8
LINE
100
AcDbLine
 10
70.79844300000002
 20
71.000012
 30
0.0
 11
70.79844300000002
 21
66.500012
 31
0.0
  0
LINE
  5
2108
330
1FCA
100
AcDbEntity
  8
LINE
100
AcDbLine
 10
63.000005
 20
148.5000139999999
 30
0.0
 11
61.000005
 21
148.5000139999999
 31
0.0
  0
LINE
  5
2109
330
1FCA
100
AcDbEntity
  8
LINE
100
AcDbLine
 10
63.000005
 20
149.5000139999999
 30
0.0
 11
61.000005
 21
149.5000139999999
 31
0.0
  0
ARC
  5
210A
330
1FCA
100
AcDbEntity
  8
LINE
100
AcDbCircle
 10
61.000005
 20
149.000014
 30
0.0
 40
0.5
100
AcDbArc
 50
90.0
 51
270.0
  0
ARC
  5
210B
330
1FCA
100
AcDbEntity
  8
LINE
100
AcDbCircle
 10
63.000005
 20
149.000014
 30
0.0
 40
0.5
100
AcDbArc
 50
270.0
 51
90.0
  0
ARC
  5
210C
330
1FCA
100
AcDbEntity
  8
LINE
100
AcDbCircle
 10
74.000005
 20
149.000014
 30
0.0
 40
11.25
100
AcDbArc
 50
117.266044
 51
177.452682
  0
LINE
  5
210D
330
1FCA
100
AcDbEntity
  8
LINE
100
AcDbLine
 10
44.00000499999999
 20
151.000014
 30
0.0
 11
46.000005
 21
149.000014
 31
0.0
  0
LINE
  5
210E
330
1FCA
100
AcDbEntity
  8
LINE
100
AcDbLine
 10
46.000005
 20
149.000014
 30
0.0
 11
44.00000499999999
 21
147.0000139999999
 31
0.0
  0
LINE
  5
210F
330
1FCA
100
AcDbEntity
  8
LINE
100
AcDbLine
 10
46.000005
 20
149.000014
 30
0.0
 11
60.500005
 21
149.000014
 31
0.0
  0
LINE
  5
2110
330
1FCA
100
AcDbEntity
  8
LINE
100
AcDbLine
 10
44.47673599999999
 20
151.5000139999999
 30
0.0
 11
58.000005
 21
151.5000139999999
 31
0.0
  0
LINE
  5
2111
330
1FCA
100
AcDbEntity
  8
LINE
100
AcDbLine
 10
61.000005
 20
154.5000139999999
 30
0.0
 11
61.000005
 21
158.9645949999999
 31
0.0
  0
LINE
  5
2112
330
1FCA
100
AcDbEntity
  8
LINE
100
AcDbLine
 10
44.47673599999999
 20
146.5000139999999
 30
0.0
 11
58.000005
 21
146.5000139999999
 31
0.0
  0
LINE
  5
2113
330
1FCA
100
AcDbEntity
  8
LINE
100
AcDbLine
 10
61.000005
 20
143.5000139999999
 30
0.0
 11
61.000005
 21
139.035434
 31
0.0
  0
ARC
  5
2114
330
1FCA
100
AcDbEntity
  8
LINE
100
AcDbCircle
 10
58.000005
 20
154.5000139999999
 30
0.0
 40
3.0
100
AcDbArc
 50
270.0
 51
0.0
  0
ARC
  5
2115
330
1FCA
100
AcDbEntity
  8
LINE
100
AcDbCircle
 10
58.000005
 20
143.5000139999999
 30
0.0
 40
3.0
100
AcDbArc
 50
0.0
 51
90.0
  0
LINE
  5
2116
330
1FCA
100
AcDbEntity
  8
LINE
100
AcDbLine
 10
206.0000049999999
 20
167.0000139999999
 30
0.0
 11
218.0000049999999
 21
167.0000139999999
 31
0.0
  0
LINE
  5
2117
330
1FCA
100
AcDbEntity
  8
LINE
100
AcDbLine
 10
220.0000049999999
 20
165.0000139999999
 30
0.0
 11
220.0000049999999
 21
149.000014
 31
0.0
  0
LINE
  5
2118
330
1FCA
100
AcDbEntity
  8
LINE
100
AcDbLine
 10
218.0000049999999
 20
167.0000139999999
 30
0.0
 11
220.0000049999999
 21
165.0000139999999
 31
0.0
  0
LINE
  5
2119
330
1FCA
100
AcDbEntity
  8
LINE
100
AcDbLine
 10
206.0000049999999
 20
131.0000139999999
 30
0.0
 11
218.0000049999999
 21
131.0000139999999
 31
0.0
  0
LINE
  5
211A
330
1FCA
100
AcDbEntity
  8
LINE
100
AcDbLine
 10
220.0000049999999
 20
133.0000139999998
 30
0.0
 11
220.0000049999999
 21
149.000014
 31
0.0
  0
LINE
  5
211B
330
1FCA
100
AcDbEntity
  8
LINE
100
AcDbLine
 10
218.0000049999999
 20
131.0000139999999
 30
0.0
 11
220.0000049999999
 21
133.0000139999998
 31
0.0
  0
CIRCLE
  5
211C
330
1FCA
100
AcDbEntity
  8
LINE
100
AcDbCircle
 10
255.0
 20
149.000014
 30
0.0
 40
18.0
  0
CIRCLE
  5
211D
330
1FCA
100
AcDbEntity
  8
LINE
100
AcDbCircle
 10
255.0
 20
157.0000139999999
 30
0.0
 40
4.283
  0
CIRCLE
  5
211E
330
1FCA
100
AcDbEntity
  8
LINE
100
AcDbCircle
 10
255.0
 20
141.000014
 30
0.0
 40
4.283
  0
CIRCLE
  5
211F
330
1FCA
100
AcDbEntity
  8
LINE
100
AcDbCircle
 10
255.0
 20
157.0000139999999
 30
0.0
 40
2.0
  0
LINE
  5
2120
330
1FCA
100
AcDbEntity
  8
LINE
100
AcDbLine
 10
269.0
 20
160.313723
 30
0.0
 11
269.0
 21
137.686306
 31
0.0
  0
LINE
  5
2121
330
1FCA
100
AcDbEntity
  8
LINE
100
AcDbLine
 10
241.0
 20
160.313723
 30
0.0
 11
241.0
 21
137.686306
 31
0.0
  0
LINE
  5
2122
330
1FCA
100
AcDbEntity
  8
LINE
100
AcDbLine
 10
206.0000049999999
 20
53.000012
 30
0.0
 11
209.0000049999999
 21
53.000012
 31
0.0
  0
LINE
  5
2123
330
1FCA
100
AcDbEntity
  8
LINE
100
AcDbLine
 10
209.0000049999999
 20
53.000012
 30
0.0
 11
209.0000049999999
 21
55.00001199999999
 31
0.0
  0
LINE
  5
2124
330
1FCA
100
AcDbEntity
  8
LINE
100
AcDbLine
 10
211.000005
 20
57.00001199999999
 30
0.0
 11
220.0000049999999
 21
57.00001199999999
 31
0.0
  0
LINE
  5
2125
330
1FCA
100
AcDbEntity
  8
LINE
100
AcDbLine
 10
220.0000049999999
 20
57.00001199999999
 30
0.0
 11
220.0000049999999
 21
85.00001199999998
 31
0.0
  0
LINE
  5
2126
330
1FCA
100
AcDbEntity
  8
LINE
100
AcDbLine
 10
220.0000049999999
 20
85.00001199999998
 30
0.0
 11
211.000005
 21
85.00001199999998
 31
0.0
  0
LINE
  5
2127
330
1FCA
100
AcDbEntity
  8
LINE
100
AcDbLine
 10
209.0000049999999
 20
87.000012
 30
0.0
 11
209.0000049999999
 21
89.000012
 31
0.0
  0
LINE
  5
2128
330
1FCA
100
AcDbEntity
  8
LINE
100
AcDbLine
 10
209.0000049999999
 20
89.000012
 30
0.0
 11
206.0000049999999
 21
89.000012
 31
0.0
  0
ARC
  5
2129
330
1FCA
100
AcDbEntity
  8
LINE
100
AcDbCircle
 10
211.000005
 20
55.00001199999999
 30
0.0
 40
2.0
100
AcDbArc
 50
90.0
 51
180.0
  0
ARC
  5
212A
330
1FCA
100
AcDbEntity
  8
LINE
100
AcDbCircle
 10
211.000005
 20
87.000012
 30
0.0
 40
2.0
100
AcDbArc
 50
180.0
 51
270.0
  0
LINE
  5
212B
330
1FCA
100
AcDbEntity
  8
LINE
100
AcDbLine
 10
218.0000049999999
 20
57.00001199999999
 30
0.0
 11
218.0000049999999
 21
85.00001199999998
 31
0.0
  0
LINE
  5
212C
330
1FCA
100
AcDbEntity
  8
LINE
100
AcDbLine
 10
220.0000049999999
 20
160.313723
 30
0.0
 11
209.0000049999999
 21
160.313723
 31
0.0
  0
LINE
  5
212D
330
1FCA
100
AcDbEntity
  8
LINE
100
AcDbLine
 10
209.0000049999999
 20
160.313723
 30
0.0
 11
209.0000049999999
 21
137.686306
 31
0.0
  0
LINE
  5
212E
330
1FCA
100
AcDbEntity
  8
LINE
100
AcDbLine
 10
209.0000049999999
 20
137.686306
 30
0.0
 11
220.0000049999999
 21
137.686306
 31
0.0
  0
LINE
  5
212F
330
1FCA
100
AcDbEntity
  8
LINE
100
AcDbLine
 10
218.0000049999999
 20
167.0000139999999
 30
0.0
 11
218.0000049999999
 21
160.313723
 31
0.0
  0
LINE
  5
2130
330
1FCA
100
AcDbEntity
  8
LINE
100
AcDbLine
 10
218.0000049999999
 20
137.686306
 30
0.0
 11
218.0000049999999
 21
131.0000139999999
 31
0.0
  0
LINE
  5
2131
330
1FCA
100
AcDbEntity
  8
LINE
100
AcDbLine
 10
66.000005
 20
141.5000139999999
 30
0.0
 11
66.000005
 21
156.5000139999999
 31
0.0
  0
LINE
  5
2132
330
1FCA
100
AcDbEntity
  8
LINE
100
AcDbLine
 10
66.000005
 20
156.5000139999999
 30
0.0
 11
88.51732700000004
 21
167.0000139999999
 31
0.0
  0
LINE
  5
2133
330
1FCA
100
AcDbEntity
  8
LINE
100
AcDbLine
 10
88.51732700000004
 20
167.0000139999999
 30
0.0
 11
205.0000049999999
 21
167.0000139999999
 31
0.0
  0
LINE
  5
2134
330
1FCA
100
AcDbEntity
  8
LINE
100
AcDbLine
 10
88.51732700000004
 20
131.0000139999999
 30
0.0
 11
205.0000049999999
 21
131.0000139999999
 31
0.0
  0
LINE
  5
2135
330
1FCA
100
AcDbEntity
  8
LINE
100
AcDbLine
 10
88.51732700000004
 20
131.0000139999999
 30
0.0
 11
66.000005
 21
141.5000139999999
 31
0.0
  0
LINE
  5
2136
330
1FCA
100
AcDbEntity
  8
LINE
100
AcDbLine
 10
88.51732700000004
 20
89.000012
 30
0.0
 11
205.0000049999999
 21
89.000012
 31
0.0
  0
LINE
  5
2137
330
1FCA
100
AcDbEntity
  8
LINE
100
AcDbLine
 10
205.0000049999999
 20
53.000012
 30
0.0
 11
88.51732700000004
 21
53.000012
 31
0.0
  0
LINE
  5
2138
330
1FCA
100
AcDbEntity
  8
LINE
100
AcDbLine
 10
88.500005
 20
88.991935
 30
0.0
 11
88.51732700000004
 21
89.000012
 31
0.0
  0
LINE
  5
2139
330
1FCA
100
AcDbEntity
  8
LINE
100
AcDbLine
 10
88.500005
 20
53.00809
 30
0.0
 11
88.51732700000004
 21
53.000012
 31
0.0
  0
LINE
  5
213A
330
1FCA
100
AcDbEntity
  8
LINE
100
AcDbLine
 10
83.500005
 20
82.60001199999997
 30
0.0
 11
67.500005
 21
82.60001199999997
 31
0.0
  0
LINE
  5
213B
330
1FCA
100
AcDbEntity
  8
LINE
100
AcDbLine
 10
67.500005
 20
59.400012
 30
0.0
 11
83.500005
 21
59.400012
 31
0.0
  0
ARC
  5
213C
330
1FCA
100
AcDbEntity
  8
LINE
100
AcDbCircle
 10
83.500005
 20
87.60001199999996
 30
0.0
 40
5.0
100
AcDbArc
 50
270.0
 51
0.0
  0
ARC
  5
213D
330
1FCA
100
AcDbEntity
  8
LINE
100
AcDbCircle
 10
83.500005
 20
54.400012
 30
0.0
 40
5.0
100
AcDbArc
 50
0.0
 51
90.0
  0
LINE
  5
213E
330
1FCA
100
AcDbEntity
  8
LINE
100
AcDbLine
 10
93.00000500000001
 20
75.60001199999998
 30
0.0
 11
66.000005
 21
75.60001199999998
 31
0.0
  0
LINE
  5
213F
330
1FCA
100
AcDbEntity
  8
LINE
100
AcDbLine
 10
93.00000500000001
 20
66.400012
 30
0.0
 11
66.000005
 21
66.400012
 31
0.0
  0
LINE
  5
2140
330
1FCA
100
AcDbEntity
  8
LINE
100
AcDbLine
 10
67.500005
 20
82.60001199999997
 30
0.0
 11
66.000005
 21
81.10001199999997
 31
0.0
  0
LINE
  5
2141
330
1FCA
100
AcDbEntity
  8
LINE
100
AcDbLine
 10
66.000005
 20
60.90001199999999
 30
0.0
 11
67.500005
 21
59.400012
 31
0.0
  0
LINE
  5
2142
330
1FCA
100
AcDbEntity
  8
LINE
100
AcDbLine
 10
66.000005
 20
75.60001199999998
 30
0.0
 11
66.000005
 21
81.10001199999997
 31
0.0
  0
LINE
  5
2143
330
1FCA
100
AcDbEntity
  8
LINE
100
AcDbLine
 10
88.500005
 20
75.60001199999998
 30
0.0
 11
88.500005
 21
88.991935
 31
0.0
  0
LINE
  5
2144
330
1FCA
100
AcDbEntity
  8
LINE
100
AcDbLine
 10
93.00000500000001
 20
66.400012
 30
0.0
 11
93.00000500000001
 21
75.60001199999998
 31
0.0
  0
LINE
  5
2145
330
1FCA
100
AcDbEntity
  8
LINE
100
AcDbLine
 10
88.500005
 20
66.400012
 30
0.0
 11
88.500005
 21
53.00809
 31
0.0
  0
LINE
  5
2146
330
1FCA
100
AcDbEntity
  8
LINE
100
AcDbLine
 10
66.000005
 20
66.400012
 30
0.0
 11
66.000005
 21
60.90001199999999
 31
0.0
  0
LINE
  5
2147
330
1FCA
100
AcDbEntity
  8
LINE
100
AcDbLine
 10
205.0000049999999
 20
167.0000139999999
 30
0.0
 11
206.0000049999999
 21
166.000014
 31
0.0
  0
LINE
  5
2148
330
1FCA
100
AcDbEntity
  8
LINE
100
AcDbLine
 10
205.0000049999999
 20
131.0000139999999
 30
0.0
 11
206.0000049999999
 21
132.0000139999999
 31
0.0
  0
ARC
  5
2149
330
1FCA
100
AcDbEntity
  8
LINE
100
AcDbCircle
 10
61.475242
 20
149.000014
 30
0.0
 40
27.024763
100
AcDbArc
 50
324.585829
 51
35.41417100000001
  0
LINE
  5
214A
330
1FCA
100
AcDbEntity
  8
LINE
100
AcDbLine
 10
205.0000049999999
 20
89.000012
 30
0.0
 11
206.0000049999999
 21
88.000012
 31
0.0
  0
LINE
  5
214B
330
1FCA
100
AcDbEntity
  8
LINE
100
AcDbLine
 10
206.0000049999999
 20
54.000012
 30
0.0
 11
205.0000049999999
 21
53.000012
 31
0.0
  0
LINE
  5
214C
330
1FCA
100
AcDbEntity
  8
LINE
100
AcDbLine
 10
205.0000049999999
 20
89.000012
 30
0.0
 11
205.0000049999999
 21
53.000012
 31
0.0
  0
LINE
  5
214D
330
1FCA
100
AcDbEntity
  8
LINE
100
AcDbLine
 10
206.0000049999999
 20
131.0000139999999
 30
0.0
 11
206.0000049999999
 21
167.0000139999999
 31
0.0
  0
LINE
  5
214E
330
1FCA
100
AcDbEntity
  8
LINE
100
AcDbLine
 10
206.0000049999999
 20
53.000012
 30
0.0
 11
206.0000049999999
 21
89.000012
 31
0.0
  0
LINE
  5
214F
330
1FCA
100
AcDbEntity
  8
LINE
100
AcDbLine
 10
71.361272
 20
159.0000139999999
 30
0.0
 11
62.33030799999998
 21
159.0000139999999
 31
0.0
  0
LINE
  5
2150
330
1FCA
100
AcDbEntity
  8
LINE
100
AcDbLine
 10
71.361272
 20
139.0000139999999
 30
0.0
 11
62.33030799999998
 21
139.0000139999999
 31
0.0
  0
ARC
  5
2151
330
1FCA
100
AcDbEntity
  8
LINE
100
AcDbCircle
 10
74.000005
 20
149.000014
 30
0.0
 40
10.5
100
AcDbArc
 50
139.6324059999999
 51
180.0
  0
ARC
  5
2152
330
1FCA
100
AcDbEntity
  8
LINE
100
AcDbCircle
 10
74.000005
 20
149.000014
 30
0.0
 40
10.5
100
AcDbArc
 50
107.7527899999999
 51
129.2204879999999
  0
LINE
  5
2153
330
1FCA
100
AcDbEntity
  8
LINE
100
AcDbLine
 10
93.00000500000001
 20
75.500012
 30
0.0
 11
44.00000499999999
 21
75.500012
 31
0.0
  0
LINE
  5
2154
330
1FCA
100
AcDbEntity
  8
LINE
100
AcDbLine
 10
93.00000500000001
 20
66.500012
 30
0.0
 11
61.000005
 21
66.500012
 31
0.0
  0
CIRCLE
  5
2155
330
1FCA
100
AcDbEntity
  8
LINE
100
AcDbCircle
 10
74.000005
 20
149.000014
 30
0.0
 40
2.0
  0
LINE
  5
2156
330
1FCA
100
AcDbEntity
  8
LINE
100
AcDbLine
 10
73.500005
 20
151.225097
 30
0.0
 11
73.500005
 21
150.936506
 31
0.0
  0
LINE
  5
2157
330
1FCA
100
AcDbEntity
  8
LINE
100
AcDbLine
 10
73.500005
 20
147.063523
 30
0.0
 11
73.500005
 21
141.2000139999999
 31
0.0
  0
LINE
  5
2158
330
1FCA
100
AcDbEntity
  8
LINE
100
AcDbLine
 10
74.500005
 20
151.645912
 30
0.0
 11
74.500005
 21
150.936506
 31
0.0
  0
LINE
  5
2159
330
1FCA
100
AcDbEntity
  8
LINE
100
AcDbLine
 10
74.500005
 20
147.063523
 30
0.0
 11
74.500005
 21
141.2000139999999
 31
0.0
  0
LINE
  5
215A
330
1FCA
100
AcDbEntity
  8
LINE
100
AcDbLine
 10
69.500005
 20
58.900012
 30
0.0
 11
69.500005
 21
58.100012
 31
0.0
  0
LINE
  5
215B
330
1FCA
100
AcDbEntity
  8
LINE
100
AcDbLine
 10
69.500005
 20
58.100012
 30
0.0
 11
78.500005
 21
58.100012
 31
0.0
  0
LINE
  5
215C
330
1FCA
100
AcDbEntity
  8
LINE
100
AcDbLine
 10
78.500005
 20
58.100012
 30
0.0
 11
78.500005
 21
58.900012
 31
0.0
  0
LINE
  5
215D
330
1FCA
100
AcDbEntity
  8
LINE
100
AcDbLine
 10
70.500005
 20
58.100012
 30
0.0
 11
70.500005
 21
57.50001199999999
 31
0.0
  0
LINE
  5
215E
330
1FCA
100
AcDbEntity
  8
LINE
100
AcDbLine
 10
70.500005
 20
57.50001199999999
 30
0.0
 11
77.500005
 21
57.50001199999999
 31
0.0
  0
LINE
  5
215F
330
1FCA
100
AcDbEntity
  8
LINE
100
AcDbLine
 10
77.500005
 20
57.50001199999999
 30
0.0
 11
77.500005
 21
58.100012
 31
0.0
  0
LINE
  5
2160
330
1FCA
100
AcDbEntity
  8
LINE
100
AcDbLine
 10
68.750005
 20
59.400012
 30
0.0
 11
68.750005
 21
59.200012
 31
0.0
  0
LINE
  5
2161
330
1FCA
100
AcDbEntity
  8
LINE
100
AcDbLine
 10
69.05000499999998
 20
58.900012
 30
0.0
 11
78.950005
 21
58.900012
 31
0.0
  0
LINE
  5
2162
330
1FCA
100
AcDbEntity
  8
LINE
100
AcDbLine
 10
79.250005
 20
59.200012
 30
0.0
 11
79.250005
 21
59.400012
 31
0.0
  0
LINE
  5
2163
330
1FCA
100
AcDbEntity
  8
LINE
100
AcDbLine
 10
68.750005
 20
59.200012
 30
0.0
 11
69.05000499999998
 21
58.900012
 31
0.0
  0
LINE
  5
2164
330
1FCA
100
AcDbEntity
  8
LINE
100
AcDbLine
 10
78.950005
 20
58.900012
 30
0.0
 11
79.250005
 21
59.200012
 31
0.0
  0
LINE
  5
2165
330
1FCA
100
AcDbEntity
  8
LINE
100
AcDbLine
 10
68.750005
 20
82.60001199999997
 30
0.0
 11
68.750005
 21
82.80001199999999
 31
0.0
  0
LINE
  5
2166
330
1FCA
100
AcDbEntity
  8
LINE
100
AcDbLine
 10
69.05000499999998
 20
83.100012
 30
0.0
 11
78.950005
 21
83.100012
 31
0.0
  0
LINE
  5
2167
330
1FCA
100
AcDbEntity
  8
LINE
100
AcDbLine
 10
79.250005
 20
82.80001199999999
 30
0.0
 11
79.250005
 21
82.60001199999997
 31
0.0
  0
LINE
  5
2168
330
1FCA
100
AcDbEntity
  8
LINE
100
AcDbLine
 10
68.750005
 20
82.80001199999999
 30
0.0
 11
69.05000499999998
 21
83.100012
 31
0.0
  0
LINE
  5
2169
330
1FCA
100
AcDbEntity
  8
LINE
100
AcDbLine
 10
78.950005
 20
83.100012
 30
0.0
 11
79.250005
 21
82.80001199999999
 31
0.0
  0
LINE
  5
216A
330
1FCA
100
AcDbEntity
  8
LINE
100
AcDbLine
 10
72.000005
 20
83.100012
 30
0.0
 11
72.000005
 21
86.00001199999999
 31
0.0
  0
LINE
  5
216B
330
1FCA
100
AcDbEntity
  8
LINE
100
AcDbLine
 10
76.000005
 20
83.100012
 30
0.0
 11
76.000005
 21
86.00001199999999
 31
0.0
  0
CIRCLE
  5
216C
330
1FCA
100
AcDbEntity
  8
LINE
100
AcDbCircle
 10
74.000005
 20
84.500012
 30
0.0
 40
0.5
  0
CIRCLE
  5
216D
330
1FCA
100
AcDbEntity
  8
LINE
100
AcDbCircle
 10
76.500005
 20
84.500012
 30
0.0
 40
0.5
  0
TEXT
  5
216E
330
1FCA
100
AcDbEntity
  8
LINE
100
AcDbText
 10
213.5000049999999
 20
66.500012
 30
0.0
 40
3.0
  1
ＯＵＴ
 50
90.0
  7
KANJI1
100
AcDbText
  0
LINE
  5
216F
330
1FCA
100
AcDbEntity
  8
CENTER
100
AcDbLine
 10
255.0
 20
130.0000139999999
 30
0.0
 11
255.0
 21
168.0000139999999
 31
0.0
  0
LINE
  5
2170
330
1FCA
100
AcDbEntity
  8
CENTER
100
AcDbLine
 10
236.0
 20
149.000014
 30
0.0
 11
274.0
 21
149.000014
 31
0.0
  0
LINE
  5
2171
330
1FCA
100
AcDbEntity
  8
CENTER
100
AcDbLine
 10
249.1359999999999
 20
157.0000139999999
 30
0.0
 11
260.8639999999999
 21
157.0000139999999
 31
0.0
  0
LINE
  5
2172
330
1FCA
100
AcDbEntity
  8
CENTER
100
AcDbLine
 10
249.1359999999999
 20
141.000014
 30
0.0
 11
260.8639999999999
 21
141.000014
 31
0.0
  0
LINE
  5
2173
330
1FCA
100
AcDbEntity
  8
CENTER
100
AcDbLine
 10
74.000005
 20
141.0
 30
0.0
 11
74.000005
 21
159.0
 31
0.0
  0
LINE
  5
2174
330
1FCA
100
AcDbEntity
  8
CENTER
100
AcDbLine
 10
81.0
 20
84.500012
 30
0.0
 11
72.40000499999998
 21
84.500012
 31
0.0
  0
LINE
  5
2175
330
1FCA
100
AcDbEntity
  8
CENTER
100
AcDbLine
 10
46.000005
 20
149.000014
 30
0.0
 11
42.000005
 21
149.000014
 31
0.0
  0
CIRCLE
  5
2176
330
1FCA
100
AcDbEntity
  8
LINE
 62
     4
100
AcDbCircle
 10
255.0
 20
157.0000139999999
 30
0.0
 40
4.863999999999998
  0
CIRCLE
  5
2177
330
1FCA
100
AcDbEntity
  8
LINE
 62
     4
100
AcDbCircle
 10
255.0
 20
141.000014
 30
0.0
 40
4.863999999999998
  0
LINE
  5
2178
330
1FCA
100
AcDbEntity
  8
CENTER
100
AcDbLine
 10
222.0
 20
149.000014
 30
0.0
 11
64.000005
 21
149.000014
 31
0.0
  0
LINE
  5
2179
330
1FCA
100
AcDbEntity
  8
CENTER
100
AcDbLine
 10
45.0
 20
71.000012
 30
0.0
 11
68.84612299999999
 21
71.000012
 31
0.0
  0
LINE
  5
217A
330
1FCA
100
AcDbEntity
  8
CENTER
100
AcDbLine
 10
79.15388699999998
 20
71.000012
 30
0.0
 11
222.0
 21
71.000012
 31
0.0
  0
LINE
  5
217B
330
1FCA
100
AcDbEntity
  8
CENTER
100
AcDbLine
 10
74.000005
 20
90.0
 30
0.0
 11
74.000005
 21
54.0
 31
0.0
  0
DIMENSION
  5
217C
330
1FCA
100
AcDbEntity
  8
DIMENSION
100
AcDbDimension
  2
*D3
 10
36.0
 20
139.0000139999999
 30
0.0
 11
33.49999999999996
 21
149.000014
 31
0.0
  3
ISO-25
100
AcDbAlignedDimension
 13
39.0
 23
159.0000139999999
 33
0.0
 14
39.0
 24
139.0000139999999
 34
0.0
 50
90.0
100
AcDbRotatedDimension
  0
DIMENSION
  5
217D
330
1FCA
100
AcDbEntity
  8
DIMENSION
100
AcDbDimension
  2
*D5
 10
74.00000499357971
 20
123.0
 30
0.0
 11
59.00000499678985
 21
125.5
 31
0.0
  3
ISO-25
100
AcDbAlignedDimension
 13
44.00000499999999
 23
126.0
 33
0.0
 14
74.00000499357971
 24
125.9999999982797
 34
0.0
100
AcDbRotatedDimension
  0
DIMENSION
  5
217E
330
1FCA
100
AcDbEntity
  8
DIMENSION
100
AcDbDimension
  2
*D7
 10
220.0000049999999
 20
123.0
 30
0.0
 11
147.0000049967898
 21
125.5
 31
0.0
  3
ISO-25
100
AcDbAlignedDimension
 13
74.00000499357971
 23
125.9999999982797
 33
0.0
 14
220.0000049999999
 24
126.0
 34
0.0
100
AcDbRotatedDimension
  0
DIMENSION
  5
217F
330
1FCA
100
AcDbEntity
  8
DIMENSION
100
AcDbDimension
  2
*D9
 10
66.000005
 20
102.0
 30
0.0
 11
55.000005
 21
104.4999999999999
 31
0.0
  3
ISO-25
100
AcDbAlignedDimension
 13
44.00000499999999
 23
105.0
 33
0.0
 14
66.000005
 24
105.0
 34
0.0
100
AcDbRotatedDimension
  0
DIMENSION
  5
2180
330
1FCA
100
AcDbEntity
  8
DIMENSION
100
AcDbDimension
  2
*D11
 10
206.0000049999999
 20
102.0
 30
0.0
 11
136.0000049999999
 21
104.4999999999999
 31
0.0
  3
ISO-25
100
AcDbAlignedDimension
 13
66.000005
 23
105.0
 33
0.0
 14
206.0000049999999
 24
105.0
 34
0.0
100
AcDbRotatedDimension
  0
DIMENSION
  5
2181
330
1FCA
100
AcDbEntity
  8
DIMENSION
100
AcDbDimension
  2
*D13
 10
220.0000049999999
 20
102.0
 30
0.0
 11
213.000005
 21
104.4999999999999
 31
0.0
  3
ISO-25
100
AcDbAlignedDimension
 13
206.0000049999999
 23
105.0
 33
0.0
 14
220.0000049999999
 24
105.0
 34
0.0
100
AcDbRotatedDimension
  0
DIMENSION
  5
2182
330
1FCA
100
AcDbEntity
  8
DIMENSION
100
AcDbDimension
  2
*D15
 10
220.0000049999999
 20
42.0
 30
0.0
 11
132.0000049999999
 21
44.5
 31
0.0
  3
ISO-25
100
AcDbAlignedDimension
 13
44.00000499999999
 23
45.0
 33
0.0
 14
220.0000049999999
 24
45.0
 34
0.0
100
AcDbRotatedDimension
  0
DIMENSION
  5
2183
330
1FCA
100
AcDbEntity
  8
DIMENSION
100
AcDbDimension
  2
*D17
 10
36.0
 20
66.500012
 30
0.0
 11
33.5
 21
71.00001200000001
 31
0.0
  3
ISO-25
100
AcDbAlignedDimension
 13
39.0
 23
75.500012
 33
0.0
 14
39.0
 24
66.500012
 34
0.0
 50
90.0
100
AcDbRotatedDimension
  0
DIMENSION
  5
2184
330
1FCA
100
AcDbEntity
  8
DIMENSION
100
AcDbDimension
  2
*D19
 10
30.0
 20
59.400012
 30
0.0
 11
27.49999999999999
 21
71.000012
 31
0.0
  1
23.1
  3
ISO-25
100
AcDbAlignedDimension
 13
33.0
 23
82.60001199999997
 33
0.0
 14
33.0
 24
59.400012
 34
0.0
 50
90.0
100
AcDbRotatedDimension
  0
DIMENSION
  5
2185
330
1FCA
100
AcDbEntity
  8
DIMENSION
100
AcDbDimension
  2
*D21
 10
231.0
 20
57.00001199999999
 30
0.0
 11
228.5
 21
71.00001200000004
 31
0.0
  3
ISO-25
100
AcDbAlignedDimension
 13
228.0
 23
85.00001199999998
 33
0.0
 14
228.0
 24
57.00001199999999
 34
0.0
 50
90.0
100
AcDbRotatedDimension
  0
INSERT
  5
2186
330
1FCA
100
AcDbEntity
  8
0
100
AcDbBlockReference
  2
*U27
 10
0.0
 20
0.0
 30
0.0
1001
ACAD
1000
DSTYLE
1002
{
1070
   147
1040
1.0
1070
    77
1070
     1
1002
}
  0
INSERT
  5
2187
330
1FCA
100
AcDbEntity
  8
0
100
AcDbBlockReference
  2
*U28
 10
0.0
 20
0.0
 30
0.0
  0
DIMENSION
  5
2188
330
1FCA
100
AcDbEntity
  8
DIMENSION
100
AcDbDimension
  2
*D23
 10
231.0
 20
141.000014
 30
0.0
 11
228.5
 21
149.000014
 31
0.0
  3
ISO-25
100
AcDbAlignedDimension
 13
234.0
 23
157.0000139999999
 33
0.0
 14
234.0
 24
141.000014
 34
0.0
 50
90.0
100
AcDbRotatedDimension
  0
DIMENSION
  5
2189
330
1FCA
100
AcDbEntity
  8
DIMENSION
100
AcDbDimension
  2
*D25
 10
273.0
 20
123.0
 30
0.0
 11
255.0
 21
125.7436548223349
 31
0.0
  1
φ<>
  3
ISO-25
100
AcDbAlignedDimension
 13
237.0
 23
126.0
 33
0.0
 14
273.0
 24
126.0
 34
0.0
100
AcDbRotatedDimension
  0
TEXT
  5
218A
330
1FCA
100
AcDbEntity
  8
TEXT
100
AcDbText
 10
246.0
 20
70.5
 30
0.0
 40
3.0
  1
GT-NWR10
  7
GOTHIC
 11
246.0
 21
72.0
 31
0.0
100
AcDbText
 73
     2
  0
VIEWPORT
  5
218D
330
1FC6
100
AcDbEntity
 67
     1
  8
0
100
AcDbViewport
 10
145.3197631835936
 20
101.8222458362579
 30
0.0
 40
391.2734030671862
 41
222.174172088623
 68
     1
 69
     1
1001
ACAD
1000
MVIEW
1002
{
1070
    16
1010
0.0
1020
0.0
1030
0.0
1010
0.0
1020
0.0
1030
1.0
1040
0.0
1040
222.174172088623
1040
145.3197631835936
1040
101.8222458362579
1040
50.0
1040
0.0
1040
0.0
1070
     0
1070
 20000
1070
     1
1070
     1
1070
     0
1070
     0
1070
     0
1070
     0
1040
0.0
1040
0.0
1040
0.0
1040
10.0
1040
10.0
1040
10.0
1040
10.0
1070
     0
1002
{
1002
}
1002
}
  0
ENDSEC
  0
SECTION
  2
OBJECTS
  0
DICTIONARY
  5
1FB8
330
0
100
AcDbDictionary
  3
ACAD_GROUP
350
1FB9
  3
ACAD_LAYOUT
350
1FC5
  3
ACAD_MLINESTYLE
350
1FC2
  3
ACAD_PLOTSETTINGS
350
1FC4
1001
ACAD
1000
TREAT_AS_HARD
1070
     0
1000
TREAT_AS_HARD
1070
     0
  0
DICTIONARY
  5
2194
330
1FCA
100
AcDbDictionary
  3
ACAD_LAYOUTSELFREF
350
21A8
1001
ACAD
1000
TREAT_AS_HARD
1070
     0
  0
DICTIONARY
  5
2192
330
1FC6
100
AcDbDictionary
  3
ACAD_LAYOUTSELFREF
350
21A7
1001
ACAD
1000
TREAT_AS_HARD
1070
     0
  0
DICTIONARY
  5
1FB9
102
{ACAD_REACTORS
330
1FB8
102
}
330
1FB8
100
AcDbDictionary
1001
ACAD
1000
TREAT_AS_HARD
1070
     0
1000
TREAT_AS_HARD
1070
     0
  0
DICTIONARY
  5
1FC5
102
{ACAD_REACTORS
330
1FB8
102
}
330
1FB8
100
AcDbDictionary
1001
ACAD
1000
TREAT_AS_HARD
1070
     0
1000
TREAT_AS_HARD
1070
     0
  0
DICTIONARY
  5
1FC2
102
{ACAD_REACTORS
330
1FB8
102
}
330
1FB8
100
AcDbDictionary
  3
STANDARD
350
1FC3
1001
ACAD
1000
TREAT_AS_HARD
1070
     0
1000
TREAT_AS_HARD
1070
     0
  0
DICTIONARY
  5
1FC4
102
{ACAD_REACTORS
330
1FB8
102
}
330
1FB8
100
AcDbDictionary
1001
ACAD
1000
TREAT_AS_HARD
1070
     0
1000
TREAT_AS_HARD
1070
     0
  0
XRECORD
  5
21A8
102
{ACAD_REACTORS
330
2194
102
}
330
2194
100
AcDbXrecord
340
1FCA
  0
XRECORD
  5
21A7
102
{ACAD_REACTORS
330
2192
102
}
330
2192
100
AcDbXrecord
340
1FC6
  0
MLINESTYLE
  5
1FC3
102
{ACAD_REACTORS
330
1FC2
102
}
330
1FC2
100
AcDbMlineStyle
  2
STANDARD
 70
     0
  3

 62
   256
 51
90.0
 52
90.0
 71
     2
 49
0.5
 62
   256
  6
BYLAYER
 49
-0.5
 62
   256
  6
BYLAYER
  0
ENDSEC
  0
EOF
