  0
SECTION
  2
HEADER
  9
$ACADVER
  1
AC1012
  9
$DWGCODEPAGE
  3
dos932
  9
$INSBASE
 10
0.0
 20
0.0
 30
0.0
  9
$EXTMIN
 10
9.98474220045
 20
2.981964806306564
 30
-0.0015258207003583
  9
$EXTMAX
 10
395.0189218472444
 20
275.0068823797708
 30
0.0000000349246037
  9
$LIMMIN
 10
0.0
 20
0.0
  9
$LIMMAX
 10
420.0
 20
297.0
  9
$ORTHOMODE
 70
     0
  9
$REGENMODE
 70
     1
  9
$FILLMODE
 70
     1
  9
$QTEXTMODE
 70
     0
  9
$MIRRTEXT
 70
     1
  9
$DRAGMODE
 70
     2
  9
$LTSCALE
 40
15.0
  9
$OSMODE
 70
    37
  9
$ATTMODE
 70
     1
  9
$TEXTSIZE
 40
0.2
  9
$TRACEWID
 40
0.05
  9
$TEXTSTYLE
  7
GOTHIC
  9
$CLAYER
  8
CSLAYER1
  9
$CELTYPE
  6
BYLAYER
  9
$CECOLOR
 62
   256
  9
$CELTSCALE
 40
1.0
  9
$DELOBJ
 70
     1
  9
$DISPSILH
 70
     0
  9
$DIMSCALE
 40
1.0
  9
$DIMASZ
 40
0.18
  9
$DIMEXO
 40
0.0625
  9
$DIMDLI
 40
0.38
  9
$DIMRND
 40
0.0
  9
$DIMDLE
 40
0.0
  9
$DIMEXE
 40
0.18
  9
$DIMTP
 40
0.0
  9
$DIMTM
 40
0.0
  9
$DIMTXT
 40
0.18
  9
$DIMCEN
 40
0.09
  9
$DIMTSZ
 40
0.0
  9
$DIMTOL
 70
     0
  9
$DIMLIM
 70
     0
  9
$DIMTIH
 70
     1
  9
$DIMTOH
 70
     1
  9
$DIMSE1
 70
     0
  9
$DIMSE2
 70
     0
  9
$DIMTAD
 70
     0
  9
$DIMZIN
 70
     0
  9
$DIMBLK
  1

  9
$DIMASO
 70
     1
  9
$DIMSHO
 70
     1
  9
$DIMPOST
  1

  9
$DIMAPOST
  1

  9
$DIMALT
 70
     0
  9
$DIMALTD
 70
     2
  9
$DIMALTF
 40
25.4
  9
$DIMLFAC
 40
1.0
  9
$DIMTOFL
 70
     0
  9
$DIMTVP
 40
0.0
  9
$DIMTIX
 70
     0
  9
$DIMSOXD
 70
     0
  9
$DIMSAH
 70
     0
  9
$DIMBLK1
  1

  9
$DIMBLK2
  1

  9
$DIMSTYLE
  2
STANDARD
  9
$DIMCLRD
 70
     0
  9
$DIMCLRE
 70
     0
  9
$DIMCLRT
 70
     0
  9
$DIMTFAC
 40
1.0
  9
$DIMGAP
 40
0.09
  9
$DIMJUST
 70
     0
  9
$DIMSD1
 70
     0
  9
$DIMSD2
 70
     0
  9
$DIMTOLJ
 70
     1
  9
$DIMTZIN
 70
     0
  9
$DIMALTZ
 70
     0
  9
$DIMALTTZ
 70
     0
  9
$DIMFIT
 70
     3
  9
$DIMUPT
 70
     0
  9
$DIMUNIT
 70
     2
  9
$DIMDEC
 70
     4
  9
$DIMTDEC
 70
     4
  9
$DIMALTU
 70
     2
  9
$DIMALTTD
 70
     2
  9
$DIMTXSTY
  7
STANDARD
  9
$DIMAUNIT
 70
     0
  9
$LUNITS
 70
     2
  9
$LUPREC
 70
     4
  9
$SKETCHINC
 40
0.1
  9
$FILLETRAD
 40
0.0
  9
$AUNITS
 70
     0
  9
$AUPREC
 70
     0
  9
$MENU
  1
ACAD
  9
$ELEVATION
 40
0.0
  9
$PELEVATION
 40
0.0
  9
$THICKNESS
 40
0.0
  9
$LIMCHECK
 70
     0
  9
$BLIPMODE
 70
     1
  9
$CHAMFERA
 40
0.0
  9
$CHAMFERB
 40
0.0
  9
$CHAMFERC
 40
0.0
  9
$CHAMFERD
 40
0.0
  9
$SKPOLY
 70
     0
  9
$TDCREATE
 40
2453482.000000000
  9
$TDUPDATE
 40
2453516.452530660
  9
$TDINDWG
 40
0.0002530208
  9
$TDUSRTIMER
 40
0.0002530208
  9
$USRTIMER
 70
     1
  9
$ANGBASE
 50
0.0
  9
$ANGDIR
 70
     0
  9
$PDMODE
 70
     0
  9
$PDSIZE
 40
0.0
  9
$PLINEWID
 40
0.0
  9
$COORDS
 70
     0
  9
$SPLFRAME
 70
     0
  9
$SPLINETYPE
 70
     6
  9
$SPLINESEGS
 70
     8
  9
$ATTDIA
 70
     0
  9
$ATTREQ
 70
     1
  9
$HANDLING
 70
-16383
  9
$HANDSEED
  5
30B
  9
$SURFTAB1
 70
     6
  9
$SURFTAB2
 70
     6
  9
$SURFTYPE
 70
     6
  9
$SURFU
 70
     6
  9
$SURFV
 70
     6
  9
$UCSNAME
  2

  9
$UCSORG
 10
0.0
 20
0.0
 30
0.0
  9
$UCSXDIR
 10
1.0
 20
0.0
 30
0.0
  9
$UCSYDIR
 10
0.0
 20
1.0
 30
0.0
  9
$PUCSNAME
  2

  9
$PUCSORG
 10
0.0
 20
0.0
 30
0.0
  9
$PUCSXDIR
 10
1.0
 20
0.0
 30
0.0
  9
$PUCSYDIR
 10
0.0
 20
1.0
 30
0.0
  9
$USERI1
 70
     0
  9
$USERI2
 70
     0
  9
$USERI3
 70
     0
  9
$USERI4
 70
     0
  9
$USERI5
 70
     0
  9
$USERR1
 40
0.0
  9
$USERR2
 40
0.0
  9
$USERR3
 40
0.0
  9
$USERR4
 40
0.0
  9
$USERR5
 40
0.0
  9
$WORLDVIEW
 70
     1
  9
$SHADEDGE
 70
     3
  9
$SHADEDIF
 70
    70
  9
$TILEMODE
 70
     1
  9
$MAXACTVP
 70
    64
  9
$PINSBASE
 10
0.0
 20
0.0
 30
0.0
  9
$PLIMCHECK
 70
     0
  9
$PEXTMIN
 10
1.000000000000000E+20
 20
1.000000000000000E+20
 30
1.000000000000000E+20
  9
$PEXTMAX
 10
-1.000000000000000E+20
 20
-1.000000000000000E+20
 30
-1.000000000000000E+20
  9
$PLIMMIN
 10
0.0
 20
0.0
  9
$PLIMMAX
 10
12.0
 20
9.0
  9
$UNITMODE
 70
     0
  9
$VISRETAIN
 70
     1
  9
$PLINEGEN
 70
     0
  9
$PSLTSCALE
 70
     1
  9
$TREEDEPTH
 70
  3020
  9
$PICKSTYLE
 70
     3
  9
$CMLSTYLE
  2
STANDARD
  9
$CMLJUST
 70
     0
  9
$CMLSCALE
 40
1.0
  9
$SAVEIMAGES
 70
     1
  0
ENDSEC
  0
SECTION
  2
CLASSES
  0
CLASS
  1
ACDBDICTIONARYWDFLT
  2
AcDbDictionaryWithDefault
  3
AutoCAD 2000
 90
    32768
280
     0
281
     0
  0
CLASS
  1
ACDBPLACEHOLDER
  2
AcDbPlaceHolder
  3
AutoCAD 2000
 90
    32768
280
     0
281
     0
  0
CLASS
  1
LAYOUT
  2
AcDbLayout
  3
AutoCAD 2000
 90
    32768
280
     0
281
     0
  0
CLASS
  1
DICTIONARYVAR
  2
AcDbDictionaryVar
  3
AutoCAD 2000
 90
    32768
280
     0
281
     0
  0
CLASS
  1
LONG_TRANSACTION
  2
AcDbLongTransaction
  3
AutoCAD 2000
 90
    32768
280
     0
281
     0
  0
CLASS
  1
LWPOLYLINE
  2
AcDbPolyline
  3
AutoCAD 2000
 90
    32768
280
     0
281
     1
  0
CLASS
  1
HATCH
  2
AcDbHatch
  3
AutoCAD 2000
 90
    32768
280
     0
281
     1
  0
CLASS
  1
XRECORD
  2
AcDbXrecord
  3
AutoCAD 2000
 90
    32768
280
     0
281
     0
  0
CLASS
  1
LONG_TRANSACTION
  2
AcDbLongTransaction
  3
AutoCAD 2000
 90
    32768
280
     0
281
     0
  0
CLASS
  1
LWPOLYLINE
  2
AcDbPolyline
  3
AutoCAD 2000
 90
    32768
280
     0
281
     1
  0
CLASS
  1
HATCH
  2
AcDbHatch
  3
AutoCAD 2000
 90
    32768
280
     0
281
     1
  0
CLASS
  1
XRECORD
  2
AcDbXrecord
  3
AutoCAD 2000
 90
    32768
280
     0
281
     0
  0
ENDSEC
  0
SECTION
  2
TABLES
  0
TABLE
  2
VPORT
  5
8
330
0
100
AcDbSymbolTable
 70
     2
  0
VPORT
  5
308
330
8
100
AcDbSymbolTableRecord
100
AcDbViewportTableRecord
  2
*ACTIVE
 70
     0
 10
0.0
 20
0.0
 11
1.0
 21
1.0
 12
202.5018320238472
 22
138.9944235930387
 13
0.0
 23
0.0
 14
1.0
 24
1.0
 15
0.0
 25
0.0
 16
0.0
 26
0.0
 36
1.0
 17
0.0
 27
0.0
 37
0.0
 40
274.0676578806492
 41
1.510025062656641
 42
50.0
 43
0.0
 44
0.0
 50
0.0
 51
0.0
 71
     0
 72
   100
 73
     1
 74
     1
 75
     0
 76
     0
 77
     0
 78
     0
  0
ENDTAB
  0
TABLE
  2
LTYPE
  5
5
330
0
100
AcDbSymbolTable
 70
     3
  0
LTYPE
  5
13
330
5
100
AcDbSymbolTableRecord
100
AcDbLinetypeTableRecord
  2
BYBLOCK
 70
     0
  3

 72
    65
 73
     0
 40
0.0
  0
LTYPE
  5
14
330
5
100
AcDbSymbolTableRecord
100
AcDbLinetypeTableRecord
  2
BYLAYER
 70
     0
  3

 72
    65
 73
     0
 40
0.0
  0
LTYPE
  5
15
330
5
100
AcDbSymbolTableRecord
100
AcDbLinetypeTableRecord
  2
CONTINUOUS
 70
     0
  3
Solid line
 72
    65
 73
     0
 40
0.0
  0
LTYPE
  5
25
330
5
100
AcDbSymbolTableRecord
100
AcDbLinetypeTableRecord
  2
DOT
 70
     0
  3
...............................................
 72
    65
 73
     2
 40
0.25
 49
0.0
 74
     0
 49
-0.25
 74
     0
  0
LTYPE
  5
28
330
5
100
AcDbSymbolTableRecord
100
AcDbLinetypeTableRecord
  2
CENTER
 70
     0
  3
____ _ ____ _ ____ _ ____ _ ____ _ ____ _ ____ 
 72
    65
 73
     4
 40
2.0
 49
1.25
 74
     0
 49
-0.25
 74
     0
 49
0.25
 74
     0
 49
-0.25
 74
     0
  0
ENDTAB
  0
TABLE
  2
LAYER
  5
2
330
0
100
AcDbSymbolTable
 70
     3
  0
LAYER
  5
10
330
2
100
AcDbSymbolTableRecord
100
AcDbLayerTableRecord
  2
0
 70
     0
 62
     7
  6
CONTINUOUS
  0
LAYER
  5
22
330
2
100
AcDbSymbolTableRecord
100
AcDbLayerTableRecord
  2
CSLAYER1
 70
     0
 62
     7
  6
CONTINUOUS
  0
LAYER
  5
2ED
330
2
100
AcDbSymbolTableRecord
100
AcDbLayerTableRecord
  2
DEFPOINTS
 70
     0
 62
     7
  6
CONTINUOUS
  0
ENDTAB
  0
TABLE
  2
STYLE
  5
3
330
0
100
AcDbSymbolTable
 70
     3
  0
STYLE
  5
11
330
3
100
AcDbSymbolTableRecord
100
AcDbTextStyleTableRecord
  2
STANDARD
 70
     0
 40
0.0
 41
1.0
 50
0.0
 71
     0
 42
0.2
  3
txt
  4
extfont.shx
  0
STYLE
  5
3A
330
3
100
AcDbSymbolTableRecord
100
AcDbTextStyleTableRecord
  2
FX_FONT
 70
     0
 40
1.0
 41
1.0
 50
0.0
 71
     0
 42
1.0
  3
monotxt
  4
bigfont
  0
STYLE
  5
2E5
330
3
100
AcDbSymbolTableRecord
100
AcDbTextStyleTableRecord
  2
GOTHIC
 70
     0
 40
0.0
 41
1.0
 50
0.0
 71
     0
 42
0.2
  3
txt.shx
  4
extfont.shx
  0
ENDTAB
  0
TABLE
  2
VIEW
  5
6
330
0
100
AcDbSymbolTable
 70
     0
  0
ENDTAB
  0
TABLE
  2
UCS
  5
7
330
0
100
AcDbSymbolTable
 70
     0
  0
ENDTAB
  0
TABLE
  2
APPID
  5
9
330
0
100
AcDbSymbolTable
 70
     1
  0
APPID
  5
12
330
9
100
AcDbSymbolTableRecord
100
AcDbRegAppTableRecord
  2
ACAD
 70
     0
  0
ENDTAB
  0
TABLE
  2
DIMSTYLE
  5
A
330
0
100
AcDbSymbolTable
 70
     1
  0
DIMSTYLE
105
2E2
330
A
100
AcDbSymbolTableRecord
100
AcDbDimStyleTableRecord
  2
STANDARD
 70
     0
  3

  4

  5

  6

  7

 40
1.0
 41
0.18
 42
0.0625
 43
0.38
 44
0.18
 45
0.0
 46
0.0
 47
0.0
 48
0.0
140
0.18
141
0.09
142
0.0
143
25.4
144
1.0
145
0.0
146
1.0
147
0.09
 71
     0
 72
     0
 73
     1
 74
     1
 75
     0
 76
     0
 77
     0
 78
     0
170
     0
171
     2
172
     0
173
     0
174
     0
175
     0
176
     0
177
     0
178
     0
270
     2
271
     4
272
     4
273
     2
274
     2
340
11
275
     0
280
     0
281
     0
282
     0
283
     1
284
     0
285
     0
286
     0
287
     3
288
     0
  0
ENDTAB
  0
TABLE
  2
BLOCK_RECORD
  5
1
330
0
100
AcDbSymbolTable
 70
    31
  0
BLOCK_RECORD
  5
1E
102
{ACAD_XDICTIONARY
360
2EB
102
}
330
1
100
AcDbSymbolTableRecord
100
AcDbBlockTableRecord
  2
*MODEL_SPACE
  0
BLOCK_RECORD
  5
1A
102
{ACAD_XDICTIONARY
360
2E9
102
}
330
1
100
AcDbSymbolTableRecord
100
AcDbBlockTableRecord
  2
*PAPER_SPACE
  0
BLOCK_RECORD
  5
3F
330
1
100
AcDbSymbolTableRecord
100
AcDbBlockTableRecord
  2
*D0
  0
BLOCK_RECORD
  5
4A
330
1
100
AcDbSymbolTableRecord
100
AcDbBlockTableRecord
  2
*D1
  0
BLOCK_RECORD
  5
55
330
1
100
AcDbSymbolTableRecord
100
AcDbBlockTableRecord
  2
*D2
  0
BLOCK_RECORD
  5
60
330
1
100
AcDbSymbolTableRecord
100
AcDbBlockTableRecord
  2
*D3
  0
BLOCK_RECORD
  5
6B
330
1
100
AcDbSymbolTableRecord
100
AcDbBlockTableRecord
  2
*D4
  0
BLOCK_RECORD
  5
76
330
1
100
AcDbSymbolTableRecord
100
AcDbBlockTableRecord
  2
*D5
  0
BLOCK_RECORD
  5
80
330
1
100
AcDbSymbolTableRecord
100
AcDbBlockTableRecord
  2
*D6
  0
BLOCK_RECORD
  5
8A
330
1
100
AcDbSymbolTableRecord
100
AcDbBlockTableRecord
  2
*D7
  0
BLOCK_RECORD
  5
95
330
1
100
AcDbSymbolTableRecord
100
AcDbBlockTableRecord
  2
*D8
  0
BLOCK_RECORD
  5
9E
330
1
100
AcDbSymbolTableRecord
100
AcDbBlockTableRecord
  2
*D9
  0
BLOCK_RECORD
  5
A8
330
1
100
AcDbSymbolTableRecord
100
AcDbBlockTableRecord
  2
*D10
  0
BLOCK_RECORD
  5
B3
330
1
100
AcDbSymbolTableRecord
100
AcDbBlockTableRecord
  2
*D11
  0
BLOCK_RECORD
  5
BD
330
1
100
AcDbSymbolTableRecord
100
AcDbBlockTableRecord
  2
*D12
  0
BLOCK_RECORD
  5
C7
330
1
100
AcDbSymbolTableRecord
100
AcDbBlockTableRecord
  2
*D13
  0
BLOCK_RECORD
  5
D2
330
1
100
AcDbSymbolTableRecord
100
AcDbBlockTableRecord
  2
*D14
  0
BLOCK_RECORD
  5
DD
330
1
100
AcDbSymbolTableRecord
100
AcDbBlockTableRecord
  2
*D15
  0
BLOCK_RECORD
  5
E8
330
1
100
AcDbSymbolTableRecord
100
AcDbBlockTableRecord
  2
*D16
  0
BLOCK_RECORD
  5
F3
330
1
100
AcDbSymbolTableRecord
100
AcDbBlockTableRecord
  2
*D17
  0
BLOCK_RECORD
  5
FE
330
1
100
AcDbSymbolTableRecord
100
AcDbBlockTableRecord
  2
*D18
  0
BLOCK_RECORD
  5
105
330
1
100
AcDbSymbolTableRecord
100
AcDbBlockTableRecord
  2
*D19
  0
BLOCK_RECORD
  5
10E
330
1
100
AcDbSymbolTableRecord
100
AcDbBlockTableRecord
  2
*D20
  0
BLOCK_RECORD
  5
118
330
1
100
AcDbSymbolTableRecord
100
AcDbBlockTableRecord
  2
*D21
  0
BLOCK_RECORD
  5
123
330
1
100
AcDbSymbolTableRecord
100
AcDbBlockTableRecord
  2
FXDIM0000
  0
BLOCK_RECORD
  5
12B
330
1
100
AcDbSymbolTableRecord
100
AcDbBlockTableRecord
  2
*D23
  0
BLOCK_RECORD
  5
136
330
1
100
AcDbSymbolTableRecord
100
AcDbBlockTableRecord
  2
*D24
  0
BLOCK_RECORD
  5
141
330
1
100
AcDbSymbolTableRecord
100
AcDbBlockTableRecord
  2
FXDIM0001
  0
BLOCK_RECORD
  5
149
330
1
100
AcDbSymbolTableRecord
100
AcDbBlockTableRecord
  2
FXDIM0002
  0
BLOCK_RECORD
  5
151
330
1
100
AcDbSymbolTableRecord
100
AcDbBlockTableRecord
  2
FXDIM0003
  0
BLOCK_RECORD
  5
159
330
1
100
AcDbSymbolTableRecord
100
AcDbBlockTableRecord
  2
*D28
  0
BLOCK_RECORD
  5
164
330
1
100
AcDbSymbolTableRecord
100
AcDbBlockTableRecord
  2
*D29
  0
BLOCK_RECORD
  5
2EE
330
1
100
AcDbSymbolTableRecord
100
AcDbBlockTableRecord
  2
*D30
  0
ENDTAB
  0
ENDSEC
  0
SECTION
  2
BLOCKS
  0
BLOCK
  5
1F
330
1E
100
AcDbEntity
  8
0
100
AcDbBlockBegin
  2
*MODEL_SPACE
 70
     0
 10
0.0
 20
0.0
 30
0.0
  3
*MODEL_SPACE
  1

  0
ENDBLK
  5
20
330
1E
100
AcDbEntity
  8
0
100
AcDbBlockEnd
  0
BLOCK
  5
1B
330
1A
100
AcDbEntity
 67
     1
  8
0
100
AcDbBlockBegin
  2
*PAPER_SPACE
 70
     0
 10
0.0
 20
0.0
 30
0.0
  3
*PAPER_SPACE
  1

  0
ENDBLK
  5
1C
330
1A
100
AcDbEntity
 67
     1
  8
0
100
AcDbBlockEnd
  0
BLOCK
  5
40
330
3F
100
AcDbEntity
  8
0
100
AcDbBlockBegin
  2
*D0
 70
     1
 10
0.0
 20
0.0
 30
0.0
  3
*D0
  1

  0
TEXT
  5
41
330
3F
100
AcDbEntity
  8
CSLAYER1
 62
     4
100
AcDbText
 10
52.67909599999999
 20
186.917148
 30
0.0
 40
3.2
  1
36 
 50
90.0
 41
1.153846153846153
 51
15.0
  7
FX_FONT
 72
     5
 11
52.67909599999999
 21
196.517148
 31
0.0
100
AcDbText
  0
LINE
  5
42
330
3F
100
AcDbEntity
  8
CSLAYER1
  6
CONTINUOUS
 62
     4
100
AcDbLine
 10
65.03285699999999
 20
173.717143
 30
0.0
 11
52.179098
 21
173.717143
 31
0.0
  0
LINE
  5
43
330
3F
100
AcDbEntity
  8
CSLAYER1
  6
CONTINUOUS
 62
     4
100
AcDbLine
 10
65.03285699999999
 20
209.717143
 30
0.0
 11
52.179098
 21
209.717143
 31
0.0
  0
LINE
  5
44
330
3F
100
AcDbEntity
  8
CSLAYER1
  6
CONTINUOUS
 62
     4
100
AcDbLine
 10
53.17909799999998
 20
173.717143
 30
0.0
 11
53.17909799999998
 21
209.717143
 31
0.0
  0
LINE
  5
45
330
3F
100
AcDbEntity
  8
CSLAYER1
  6
CONTINUOUS
 62
     4
100
AcDbLine
 10
53.17909799999998
 20
173.717143
 30
0.0
 11
52.402641
 21
176.6149199999999
 31
0.0
  0
LINE
  5
46
330
3F
100
AcDbEntity
  8
CSLAYER1
  6
CONTINUOUS
 62
     4
100
AcDbLine
 10
53.17909799999998
 20
173.717143
 30
0.0
 11
53.955555
 21
176.6149199999999
 31
0.0
  0
LINE
  5
47
330
3F
100
AcDbEntity
  8
CSLAYER1
  6
CONTINUOUS
 62
     4
100
AcDbLine
 10
53.17909799999998
 20
209.717143
 30
0.0
 11
52.402641
 21
206.8193649999999
 31
0.0
  0
LINE
  5
48
330
3F
100
AcDbEntity
  8
CSLAYER1
  6
CONTINUOUS
 62
     4
100
AcDbLine
 10
53.17909799999998
 20
209.717143
 30
0.0
 11
53.955555
 21
206.8193649999999
 31
0.0
  0
ENDBLK
  5
49
330
3F
100
AcDbEntity
  8
0
100
AcDbBlockEnd
  0
BLOCK
  5
4B
330
4A
100
AcDbEntity
  8
0
100
AcDbBlockBegin
  2
*D1
 70
     1
 10
0.0
 20
0.0
 30
0.0
  3
*D1
  1

  0
TEXT
  5
4C
330
4A
100
AcDbEntity
  8
CSLAYER1
 62
     4
100
AcDbText
 10
80.83285999999999
 20
230.598145
 30
0.0
 40
3.2
  1
36
 41
1.199999999999998
 51
15.0
  7
FX_FONT
 72
     5
 11
87.23285999999998
 21
230.598145
 31
0.0
100
AcDbText
  0
LINE
  5
4D
330
4A
100
AcDbEntity
  8
CSLAYER1
  6
CONTINUOUS
 62
     4
100
AcDbLine
 10
66.03285699999999
 20
210.717143
 30
0.0
 11
66.03285699999999
 21
231.098141
 31
0.0
  0
LINE
  5
4E
330
4A
100
AcDbEntity
  8
CSLAYER1
  6
CONTINUOUS
 62
     4
100
AcDbLine
 10
102.0328569999999
 20
210.717143
 30
0.0
 11
102.0328569999999
 21
231.098141
 31
0.0
  0
LINE
  5
4F
330
4A
100
AcDbEntity
  8
CSLAYER1
  6
CONTINUOUS
 62
     4
100
AcDbLine
 10
66.03285699999999
 20
230.098141
 30
0.0
 11
102.0328569999999
 21
230.098141
 31
0.0
  0
LINE
  5
50
330
4A
100
AcDbEntity
  8
CSLAYER1
  6
CONTINUOUS
 62
     4
100
AcDbLine
 10
66.03285699999999
 20
230.098141
 30
0.0
 11
68.930635
 21
230.8745979999999
 31
0.0
  0
LINE
  5
51
330
4A
100
AcDbEntity
  8
CSLAYER1
  6
CONTINUOUS
 62
     4
100
AcDbLine
 10
66.03285699999999
 20
230.098141
 30
0.0
 11
68.930635
 21
229.3216839999999
 31
0.0
  0
LINE
  5
52
330
4A
100
AcDbEntity
  8
CSLAYER1
  6
CONTINUOUS
 62
     4
100
AcDbLine
 10
102.0328569999999
 20
230.098141
 30
0.0
 11
99.13508
 21
230.8745979999999
 31
0.0
  0
LINE
  5
53
330
4A
100
AcDbEntity
  8
CSLAYER1
  6
CONTINUOUS
 62
     4
100
AcDbLine
 10
102.0328569999999
 20
230.098141
 30
0.0
 11
99.13508
 21
229.3216839999999
 31
0.0
  0
ENDBLK
  5
54
330
4A
100
AcDbEntity
  8
0
100
AcDbBlockEnd
  0
BLOCK
  5
56
330
55
100
AcDbEntity
  8
0
100
AcDbBlockBegin
  2
*D2
 70
     1
 10
0.0
 20
0.0
 30
0.0
  3
*D2
  1

  0
TEXT
  5
57
330
55
100
AcDbEntity
  8
CSLAYER1
 62
     4
100
AcDbText
 10
80.83285999999999
 20
224.598145
 30
0.0
 40
3.2
  1
26
 41
1.199999999999998
 51
15.0
  7
FX_FONT
 72
     5
 11
87.23285999999998
 21
224.598145
 31
0.0
100
AcDbText
  0
LINE
  5
58
330
55
100
AcDbEntity
  8
CSLAYER1
  6
CONTINUOUS
 62
     4
100
AcDbLine
 10
71.03285699999998
 20
200.2171429999999
 30
0.0
 11
71.03285699999998
 21
225.098141
 31
0.0
  0
LINE
  5
59
330
55
100
AcDbEntity
  8
CSLAYER1
  6
CONTINUOUS
 62
     4
100
AcDbLine
 10
97.032857
 20
199.993338
 30
0.0
 11
97.032857
 21
225.098141
 31
0.0
  0
LINE
  5
5A
330
55
100
AcDbEntity
  8
CSLAYER1
  6
CONTINUOUS
 62
     4
100
AcDbLine
 10
71.03285699999998
 20
224.098141
 30
0.0
 11
97.032857
 21
224.098141
 31
0.0
  0
LINE
  5
5B
330
55
100
AcDbEntity
  8
CSLAYER1
  6
CONTINUOUS
 62
     4
100
AcDbLine
 10
71.03285699999998
 20
224.098141
 30
0.0
 11
73.930635
 21
224.8745979999999
 31
0.0
  0
LINE
  5
5C
330
55
100
AcDbEntity
  8
CSLAYER1
  6
CONTINUOUS
 62
     4
100
AcDbLine
 10
71.03285699999998
 20
224.098141
 30
0.0
 11
73.930635
 21
223.3216839999999
 31
0.0
  0
LINE
  5
5D
330
55
100
AcDbEntity
  8
CSLAYER1
  6
CONTINUOUS
 62
     4
100
AcDbLine
 10
97.032857
 20
224.098141
 30
0.0
 11
94.13508
 21
224.8745979999999
 31
0.0
  0
LINE
  5
5E
330
55
100
AcDbEntity
  8
CSLAYER1
  6
CONTINUOUS
 62
     4
100
AcDbLine
 10
97.032857
 20
224.098141
 30
0.0
 11
94.13508
 21
223.3216839999999
 31
0.0
  0
ENDBLK
  5
5F
330
55
100
AcDbEntity
  8
0
100
AcDbBlockEnd
  0
BLOCK
  5
61
330
60
100
AcDbEntity
  8
0
100
AcDbBlockBegin
  2
*D3
 70
     1
 10
0.0
 20
0.0
 30
0.0
  3
*D3
  1

  0
TEXT
  5
62
330
60
100
AcDbEntity
  8
CSLAYER1
 62
     4
100
AcDbText
 10
80.83285999999999
 20
218.598145
 30
0.0
 40
3.2
  1
12
 41
1.199999999999998
 51
15.0
  7
FX_FONT
 72
     5
 11
87.23285999999998
 21
218.598145
 31
0.0
100
AcDbText
  0
LINE
  5
63
330
60
100
AcDbEntity
  8
CSLAYER1
  6
CONTINUOUS
 62
     4
100
AcDbLine
 10
78.03285699999998
 20
210.717143
 30
0.0
 11
78.03285699999998
 21
219.098141
 31
0.0
  0
LINE
  5
64
330
60
100
AcDbEntity
  8
CSLAYER1
  6
CONTINUOUS
 62
     4
100
AcDbLine
 10
90.03285699999997
 20
210.717143
 30
0.0
 11
90.03285699999997
 21
219.098141
 31
0.0
  0
LINE
  5
65
330
60
100
AcDbEntity
  8
CSLAYER1
  6
CONTINUOUS
 62
     4
100
AcDbLine
 10
78.03285699999998
 20
218.098141
 30
0.0
 11
90.03285699999997
 21
218.098141
 31
0.0
  0
LINE
  5
66
330
60
100
AcDbEntity
  8
CSLAYER1
  6
CONTINUOUS
 62
     4
100
AcDbLine
 10
78.03285699999998
 20
218.098141
 30
0.0
 11
80.93063499999997
 21
218.8745979999999
 31
0.0
  0
LINE
  5
67
330
60
100
AcDbEntity
  8
CSLAYER1
  6
CONTINUOUS
 62
     4
100
AcDbLine
 10
78.03285699999998
 20
218.098141
 30
0.0
 11
80.93063499999997
 21
217.3216839999999
 31
0.0
  0
LINE
  5
68
330
60
100
AcDbEntity
  8
CSLAYER1
  6
CONTINUOUS
 62
     4
100
AcDbLine
 10
90.03285699999997
 20
218.098141
 30
0.0
 11
87.13508
 21
218.8745979999999
 31
0.0
  0
LINE
  5
69
330
60
100
AcDbEntity
  8
CSLAYER1
  6
CONTINUOUS
 62
     4
100
AcDbLine
 10
90.03285699999997
 20
218.098141
 30
0.0
 11
87.13508
 21
217.3216839999999
 31
0.0
  0
ENDBLK
  5
6A
330
60
100
AcDbEntity
  8
0
100
AcDbBlockEnd
  0
BLOCK
  5
6C
330
6B
100
AcDbEntity
  8
0
100
AcDbBlockBegin
  2
*D4
 70
     1
 10
0.0
 20
0.0
 30
0.0
  3
*D4
  1

  0
TEXT
  5
6D
330
6B
100
AcDbEntity
  8
CSLAYER1
 62
     4
100
AcDbText
 10
146.7034909999999
 20
188.0469539999999
 30
0.0
 40
3.2
  1
15 
 50
90.0
 41
1.153846153846163
 51
15.0
  7
FX_FONT
 72
     5
 11
146.7034909999999
 21
197.646954
 31
0.0
100
AcDbText
  0
LINE
  5
6E
330
6B
100
AcDbEntity
  8
CSLAYER1
  6
CONTINUOUS
 62
     4
100
AcDbLine
 10
158.898571
 20
184.217143
 30
0.0
 11
146.674433
 21
184.217143
 31
0.0
  0
LINE
  5
6F
330
6B
100
AcDbEntity
  8
CSLAYER1
  6
CONTINUOUS
 62
     4
100
AcDbLine
 10
158.898571
 20
199.2171429999999
 30
0.0
 11
146.674433
 21
199.2171429999999
 31
0.0
  0
LINE
  5
70
330
6B
100
AcDbEntity
  8
CSLAYER1
  6
CONTINUOUS
 62
     4
100
AcDbLine
 10
147.674433
 20
184.217143
 30
0.0
 11
147.674433
 21
199.2171429999999
 31
0.0
  0
LINE
  5
71
330
6B
100
AcDbEntity
  8
CSLAYER1
  6
CONTINUOUS
 62
     4
100
AcDbLine
 10
147.674433
 20
184.217143
 30
0.0
 11
146.897976
 21
187.1149199999999
 31
0.0
  0
LINE
  5
72
330
6B
100
AcDbEntity
  8
CSLAYER1
  6
CONTINUOUS
 62
     4
100
AcDbLine
 10
147.674433
 20
184.217143
 30
0.0
 11
148.4508899999999
 21
187.1149199999999
 31
0.0
  0
LINE
  5
73
330
6B
100
AcDbEntity
  8
CSLAYER1
  6
CONTINUOUS
 62
     4
100
AcDbLine
 10
147.674433
 20
199.2171429999999
 30
0.0
 11
146.897976
 21
196.319365
 31
0.0
  0
LINE
  5
74
330
6B
100
AcDbEntity
  8
CSLAYER1
  6
CONTINUOUS
 62
     4
100
AcDbLine
 10
147.674433
 20
199.2171429999999
 30
0.0
 11
148.4508899999999
 21
196.319365
 31
0.0
  0
ENDBLK
  5
75
330
6B
100
AcDbEntity
  8
0
100
AcDbBlockEnd
  0
BLOCK
  5
77
330
76
100
AcDbEntity
  8
0
100
AcDbBlockBegin
  2
*D5
 70
     1
 10
0.0
 20
0.0
 30
0.0
  3
*D5
  1

  0
TEXT
  5
78
330
76
100
AcDbEntity
  8
CSLAYER1
 62
     4
100
AcDbText
 10
201.598575
 20
229.163986
 30
0.0
 40
3.2
  1
93 
 41
1.153846153846153
 51
15.0
  7
FX_FONT
 72
     5
 11
211.198575
 21
229.163986
 31
0.0
100
AcDbText
  0
LINE
  5
79
330
76
100
AcDbEntity
  8
CSLAYER1
  6
CONTINUOUS
 62
     4
100
AcDbLine
 10
252.898571
 20
210.417143
 30
0.0
 11
252.898571
 21
229.6639789999999
 31
0.0
  0
LINE
  5
7A
330
76
100
AcDbEntity
  8
CSLAYER1
  6
CONTINUOUS
 62
     4
100
AcDbLine
 10
159.898571
 20
228.663979
 30
0.0
 11
252.898571
 21
228.663979
 31
0.0
  0
LINE
  5
7B
330
76
100
AcDbEntity
  8
CSLAYER1
  6
CONTINUOUS
 62
     4
100
AcDbLine
 10
159.898571
 20
228.663979
 30
0.0
 11
162.7963489999999
 21
229.4404359999999
 31
0.0
  0
LINE
  5
7C
330
76
100
AcDbEntity
  8
CSLAYER1
  6
CONTINUOUS
 62
     4
100
AcDbLine
 10
159.898571
 20
228.663979
 30
0.0
 11
162.7963489999999
 21
227.887522
 31
0.0
  0
LINE
  5
7D
330
76
100
AcDbEntity
  8
CSLAYER1
  6
CONTINUOUS
 62
     4
100
AcDbLine
 10
252.898571
 20
228.663979
 30
0.0
 11
250.0007939999999
 21
229.4404359999999
 31
0.0
  0
LINE
  5
7E
330
76
100
AcDbEntity
  8
CSLAYER1
  6
CONTINUOUS
 62
     4
100
AcDbLine
 10
252.898571
 20
228.663979
 30
0.0
 11
250.0007939999999
 21
227.887522
 31
0.0
  0
ENDBLK
  5
7F
330
76
100
AcDbEntity
  8
0
100
AcDbBlockEnd
  0
BLOCK
  5
81
330
80
100
AcDbEntity
  8
0
100
AcDbBlockBegin
  2
*D6
 70
     1
 10
0.0
 20
0.0
 30
0.0
  3
*D6
  1

  0
TEXT
  5
82
330
80
100
AcDbEntity
  8
CSLAYER1
 62
     4
100
AcDbText
 10
213.098575
 20
223.163986
 30
0.0
 40
3.2
  1
70 
 41
1.153846153846153
 51
15.0
  7
FX_FONT
 72
     5
 11
222.698575
 21
223.163986
 31
0.0
100
AcDbText
  0
LINE
  5
83
330
80
100
AcDbEntity
  8
CSLAYER1
  6
CONTINUOUS
 62
     4
100
AcDbLine
 10
182.8985709999999
 20
210.717143
 30
0.0
 11
182.8985709999999
 21
223.663979
 31
0.0
  0
LINE
  5
84
330
80
100
AcDbEntity
  8
CSLAYER1
  6
CONTINUOUS
 62
     4
100
AcDbLine
 10
182.8985709999999
 20
222.663979
 30
0.0
 11
252.898571
 21
222.663979
 31
0.0
  0
LINE
  5
85
330
80
100
AcDbEntity
  8
CSLAYER1
  6
CONTINUOUS
 62
     4
100
AcDbLine
 10
182.8985709999999
 20
222.663979
 30
0.0
 11
185.7963489999999
 21
223.4404359999999
 31
0.0
  0
LINE
  5
86
330
80
100
AcDbEntity
  8
CSLAYER1
  6
CONTINUOUS
 62
     4
100
AcDbLine
 10
182.8985709999999
 20
222.663979
 30
0.0
 11
185.7963489999999
 21
221.887522
 31
0.0
  0
LINE
  5
87
330
80
100
AcDbEntity
  8
CSLAYER1
  6
CONTINUOUS
 62
     4
100
AcDbLine
 10
252.898571
 20
222.663979
 30
0.0
 11
250.0007939999999
 21
223.4404359999999
 31
0.0
  0
LINE
  5
88
330
80
100
AcDbEntity
  8
CSLAYER1
  6
CONTINUOUS
 62
     4
100
AcDbLine
 10
252.898571
 20
222.663979
 30
0.0
 11
250.0007939999999
 21
221.887522
 31
0.0
  0
ENDBLK
  5
89
330
80
100
AcDbEntity
  8
0
100
AcDbBlockEnd
  0
BLOCK
  5
8B
330
8A
100
AcDbEntity
  8
0
100
AcDbBlockBegin
  2
*D7
 70
     1
 10
0.0
 20
0.0
 30
0.0
  3
*D7
  1

  0
TEXT
  5
8C
330
8A
100
AcDbEntity
  8
CSLAYER1
 62
     4
100
AcDbText
 10
216.698575
 20
217.1639859999999
 30
0.0
 40
3.2
  1
30
 41
1.200000000000001
 51
15.0
  7
FX_FONT
 72
     5
 11
223.098575
 21
217.1639859999999
 31
0.0
100
AcDbText
  0
LINE
  5
8D
330
8A
100
AcDbEntity
  8
CSLAYER1
  6
CONTINUOUS
 62
     4
100
AcDbLine
 10
204.898571
 20
216.663979
 30
0.0
 11
234.898571
 21
216.663979
 31
0.0
  0
LINE
  5
8E
330
8A
100
AcDbEntity
  8
CSLAYER1
  6
CONTINUOUS
 62
     4
100
AcDbLine
 10
204.898571
 20
216.663979
 30
0.0
 11
207.796349
 21
217.440436
 31
0.0
  0
LINE
  5
8F
330
8A
100
AcDbEntity
  8
CSLAYER1
  6
CONTINUOUS
 62
     4
100
AcDbLine
 10
204.898571
 20
216.663979
 30
0.0
 11
207.796349
 21
215.887522
 31
0.0
  0
LINE
  5
90
330
8A
100
AcDbEntity
  8
CSLAYER1
  6
CONTINUOUS
 62
     4
100
AcDbLine
 10
234.898571
 20
216.663979
 30
0.0
 11
232.0007939999999
 21
217.440436
 31
0.0
  0
LINE
  5
91
330
8A
100
AcDbEntity
  8
CSLAYER1
  6
CONTINUOUS
 62
     4
100
AcDbLine
 10
234.898571
 20
216.663979
 30
0.0
 11
232.0007939999999
 21
215.887522
 31
0.0
  0
LINE
  5
92
330
8A
100
AcDbEntity
  8
CSLAYER1
  6
CONTINUOUS
 62
     4
100
AcDbLine
 10
204.898571
 20
212.478735
 30
0.0
 11
204.898571
 21
217.663979
 31
0.0
  0
LINE
  5
93
330
8A
100
AcDbEntity
  8
CSLAYER1
  6
CONTINUOUS
 62
     4
100
AcDbLine
 10
234.898571
 20
212.0867829999999
 30
0.0
 11
234.898571
 21
217.663979
 31
0.0
  0
ENDBLK
  5
94
330
8A
100
AcDbEntity
  8
0
100
AcDbBlockEnd
  0
BLOCK
  5
96
330
95
100
AcDbEntity
  8
0
100
AcDbBlockBegin
  2
*D8
 70
     1
 10
0.0
 20
0.0
 30
0.0
  3
*D8
  1

  0
TEXT
  5
97
330
95
100
AcDbEntity
  8
CSLAYER1
 62
     4
100
AcDbText
 10
240.698575
 20
217.1639859999999
 30
0.0
 40
3.2
  1
18
 41
1.200000000000001
 51
15.0
  7
FX_FONT
 72
     5
 11
247.098575
 21
217.1639859999999
 31
0.0
100
AcDbText
  0
LINE
  5
98
330
95
100
AcDbEntity
  8
CSLAYER1
  6
CONTINUOUS
 62
     4
100
AcDbLine
 10
234.898571
 20
216.663979
 30
0.0
 11
252.898571
 21
216.663979
 31
0.0
  0
LINE
  5
99
330
95
100
AcDbEntity
  8
CSLAYER1
  6
CONTINUOUS
 62
     4
100
AcDbLine
 10
234.898571
 20
216.663979
 30
0.0
 11
237.796349
 21
217.440436
 31
0.0
  0
LINE
  5
9A
330
95
100
AcDbEntity
  8
CSLAYER1
  6
CONTINUOUS
 62
     4
100
AcDbLine
 10
234.898571
 20
216.663979
 30
0.0
 11
237.796349
 21
215.887522
 31
0.0
  0
LINE
  5
9B
330
95
100
AcDbEntity
  8
CSLAYER1
  6
CONTINUOUS
 62
     4
100
AcDbLine
 10
252.898571
 20
216.663979
 30
0.0
 11
250.0007939999999
 21
217.440436
 31
0.0
  0
LINE
  5
9C
330
95
100
AcDbEntity
  8
CSLAYER1
  6
CONTINUOUS
 62
     4
100
AcDbLine
 10
252.898571
 20
216.663979
 30
0.0
 11
250.0007939999999
 21
215.887522
 31
0.0
  0
ENDBLK
  5
9D
330
95
100
AcDbEntity
  8
0
100
AcDbBlockEnd
  0
BLOCK
  5
9F
330
9E
100
AcDbEntity
  8
0
100
AcDbBlockBegin
  2
*D9
 70
     1
 10
0.0
 20
0.0
 30
0.0
  3
*D9
  1

  0
TEXT
  5
A0
330
9E
100
AcDbEntity
  8
CSLAYER1
 62
     4
100
AcDbText
 10
161.798575
 20
223.5380249999999
 30
0.0
 40
3.2
  1
7
 41
1.499999999999954
 51
15.0
  7
FX_FONT
 72
     5
 11
164.9985749999999
 21
223.5380249999999
 31
0.0
100
AcDbText
  0
LINE
  5
A1
330
9E
100
AcDbEntity
  8
CSLAYER1
  6
CONTINUOUS
 62
     4
100
AcDbLine
 10
159.898571
 20
223.038032
 30
0.0
 11
166.898571
 21
223.038032
 31
0.0
  0
LINE
  5
A2
330
9E
100
AcDbEntity
  8
CSLAYER1
  6
CONTINUOUS
 62
     4
100
AcDbLine
 10
159.898571
 20
223.038032
 30
0.0
 11
162.7963489999999
 21
223.814489
 31
0.0
  0
LINE
  5
A3
330
9E
100
AcDbEntity
  8
CSLAYER1
  6
CONTINUOUS
 62
     4
100
AcDbLine
 10
159.898571
 20
223.038032
 30
0.0
 11
162.7963489999999
 21
222.261575
 31
0.0
  0
LINE
  5
A4
330
9E
100
AcDbEntity
  8
CSLAYER1
  6
CONTINUOUS
 62
     4
100
AcDbLine
 10
166.898571
 20
223.038032
 30
0.0
 11
164.0007939999998
 21
223.814489
 31
0.0
  0
LINE
  5
A5
330
9E
100
AcDbEntity
  8
CSLAYER1
  6
CONTINUOUS
 62
     4
100
AcDbLine
 10
166.898571
 20
223.038032
 30
0.0
 11
164.0007939999998
 21
222.261575
 31
0.0
  0
LINE
  5
A6
330
9E
100
AcDbEntity
  8
CSLAYER1
  6
CONTINUOUS
 62
     4
100
AcDbLine
 10
166.898571
 20
196.703782
 30
0.0
 11
166.898571
 21
224.0380319999999
 31
0.0
  0
ENDBLK
  5
A7
330
9E
100
AcDbEntity
  8
0
100
AcDbBlockEnd
  0
BLOCK
  5
A9
330
A8
100
AcDbEntity
  8
0
100
AcDbBlockBegin
  2
*D10
 70
     1
 10
0.0
 20
0.0
 30
0.0
  3
*D10
  1

  0
TEXT
  5
AA
330
A8
100
AcDbEntity
  8
CSLAYER1
 62
     4
100
AcDbText
 10
214.1985749999999
 20
161.6057129999999
 30
0.0
 40
3.2
  1
17
 41
1.200000000000001
 51
15.0
  7
FX_FONT
 72
     5
 11
220.5985749999999
 21
161.6057129999999
 31
0.0
100
AcDbText
  0
LINE
  5
AB
330
A8
100
AcDbEntity
  8
CSLAYER1
  6
CONTINUOUS
 62
     4
100
AcDbLine
 10
208.898571
 20
172.717143
 30
0.0
 11
208.898571
 21
160.1057169999999
 31
0.0
  0
LINE
  5
AC
330
A8
100
AcDbEntity
  8
CSLAYER1
  6
CONTINUOUS
 62
     4
100
AcDbLine
 10
225.898571
 20
172.717143
 30
0.0
 11
225.898571
 21
160.1057169999999
 31
0.0
  0
LINE
  5
AD
330
A8
100
AcDbEntity
  8
CSLAYER1
  6
CONTINUOUS
 62
     4
100
AcDbLine
 10
208.898571
 20
161.105717
 30
0.0
 11
225.898571
 21
161.105717
 31
0.0
  0
LINE
  5
AE
330
A8
100
AcDbEntity
  8
CSLAYER1
  6
CONTINUOUS
 62
     4
100
AcDbLine
 10
208.898571
 20
161.105717
 30
0.0
 11
211.796349
 21
161.8821749999999
 31
0.0
  0
LINE
  5
AF
330
A8
100
AcDbEntity
  8
CSLAYER1
  6
CONTINUOUS
 62
     4
100
AcDbLine
 10
208.898571
 20
161.105717
 30
0.0
 11
211.796349
 21
160.32926
 31
0.0
  0
LINE
  5
B0
330
A8
100
AcDbEntity
  8
CSLAYER1
  6
CONTINUOUS
 62
     4
100
AcDbLine
 10
225.898571
 20
161.105717
 30
0.0
 11
223.0007939999999
 21
161.8821749999999
 31
0.0
  0
LINE
  5
B1
330
A8
100
AcDbEntity
  8
CSLAYER1
  6
CONTINUOUS
 62
     4
100
AcDbLine
 10
225.898571
 20
161.105717
 30
0.0
 11
223.0007939999999
 21
160.32926
 31
0.0
  0
ENDBLK
  5
B2
330
A8
100
AcDbEntity
  8
0
100
AcDbBlockEnd
  0
BLOCK
  5
B4
330
B3
100
AcDbEntity
  8
0
100
AcDbBlockBegin
  2
*D11
 70
     1
 10
0.0
 20
0.0
 30
0.0
  3
*D11
  1

  0
TEXT
  5
B5
330
B3
100
AcDbEntity
  8
CSLAYER1
 62
     4
100
AcDbText
 10
236.198575
 20
161.6057129999999
 30
0.0
 40
3.2
  1
27
 41
1.200000000000001
 51
15.0
  7
FX_FONT
 72
     5
 11
242.598575
 21
161.6057129999999
 31
0.0
100
AcDbText
  0
LINE
  5
B6
330
B3
100
AcDbEntity
  8
CSLAYER1
  6
CONTINUOUS
 62
     4
100
AcDbLine
 10
252.898571
 20
172.717143
 30
0.0
 11
252.898571
 21
160.1057169999999
 31
0.0
  0
LINE
  5
B7
330
B3
100
AcDbEntity
  8
CSLAYER1
  6
CONTINUOUS
 62
     4
100
AcDbLine
 10
225.898571
 20
161.105717
 30
0.0
 11
252.898571
 21
161.105717
 31
0.0
  0
LINE
  5
B8
330
B3
100
AcDbEntity
  8
CSLAYER1
  6
CONTINUOUS
 62
     4
100
AcDbLine
 10
225.898571
 20
161.105717
 30
0.0
 11
228.796349
 21
161.8821749999999
 31
0.0
  0
LINE
  5
B9
330
B3
100
AcDbEntity
  8
CSLAYER1
  6
CONTINUOUS
 62
     4
100
AcDbLine
 10
225.898571
 20
161.105717
 30
0.0
 11
228.796349
 21
160.32926
 31
0.0
  0
LINE
  5
BA
330
B3
100
AcDbEntity
  8
CSLAYER1
  6
CONTINUOUS
 62
     4
100
AcDbLine
 10
252.898571
 20
161.105717
 30
0.0
 11
250.0007939999999
 21
161.8821749999999
 31
0.0
  0
LINE
  5
BB
330
B3
100
AcDbEntity
  8
CSLAYER1
  6
CONTINUOUS
 62
     4
100
AcDbLine
 10
252.898571
 20
161.105717
 30
0.0
 11
250.0007939999999
 21
160.32926
 31
0.0
  0
ENDBLK
  5
BC
330
B3
100
AcDbEntity
  8
0
100
AcDbBlockEnd
  0
BLOCK
  5
BE
330
BD
100
AcDbEntity
  8
0
100
AcDbBlockBegin
  2
*D12
 70
     1
 10
0.0
 20
0.0
 30
0.0
  3
*D12
  1

  0
TEXT
  5
BF
330
BD
100
AcDbEntity
  8
CSLAYER1
 62
     4
100
AcDbText
 10
242.698575
 20
167.6057129999998
 30
0.0
 40
3.2
  1
14
 41
1.200000000000001
 51
15.0
  7
FX_FONT
 72
     5
 11
249.098575
 21
167.6057129999998
 31
0.0
100
AcDbText
  0
LINE
  5
C0
330
BD
100
AcDbEntity
  8
CSLAYER1
  6
CONTINUOUS
 62
     4
100
AcDbLine
 10
238.898571
 20
172.717143
 30
0.0
 11
238.898571
 21
166.105717
 31
0.0
  0
LINE
  5
C1
330
BD
100
AcDbEntity
  8
CSLAYER1
  6
CONTINUOUS
 62
     4
100
AcDbLine
 10
238.898571
 20
167.105717
 30
0.0
 11
252.898571
 21
167.105717
 31
0.0
  0
LINE
  5
C2
330
BD
100
AcDbEntity
  8
CSLAYER1
  6
CONTINUOUS
 62
     4
100
AcDbLine
 10
238.898571
 20
167.105717
 30
0.0
 11
241.796349
 21
167.882175
 31
0.0
  0
LINE
  5
C3
330
BD
100
AcDbEntity
  8
CSLAYER1
  6
CONTINUOUS
 62
     4
100
AcDbLine
 10
238.898571
 20
167.105717
 30
0.0
 11
241.796349
 21
166.32926
 31
0.0
  0
LINE
  5
C4
330
BD
100
AcDbEntity
  8
CSLAYER1
  6
CONTINUOUS
 62
     4
100
AcDbLine
 10
252.898571
 20
167.105717
 30
0.0
 11
250.0007939999999
 21
167.882175
 31
0.0
  0
LINE
  5
C5
330
BD
100
AcDbEntity
  8
CSLAYER1
  6
CONTINUOUS
 62
     4
100
AcDbLine
 10
252.898571
 20
167.105717
 30
0.0
 11
250.0007939999999
 21
166.32926
 31
0.0
  0
ENDBLK
  5
C6
330
BD
100
AcDbEntity
  8
0
100
AcDbBlockEnd
  0
BLOCK
  5
C8
330
C7
100
AcDbEntity
  8
0
100
AcDbBlockBegin
  2
*D13
 70
     1
 10
0.0
 20
0.0
 30
0.0
  3
*D13
  1

  0
TEXT
  5
C9
330
C7
100
AcDbEntity
  8
CSLAYER1
 62
     4
100
AcDbText
 10
195.378204
 20
188.5171479999999
 30
0.0
 40
3.2
  1
28
 50
90.0
 41
1.200000000000011
 51
15.0
  7
FX_FONT
 72
     5
 11
195.378204
 21
194.917148
 31
0.0
100
AcDbText
  0
LINE
  5
CA
330
C7
100
AcDbEntity
  8
CSLAYER1
  6
CONTINUOUS
 62
     4
100
AcDbLine
 10
199.019714
 20
177.7171429999999
 30
0.0
 11
194.8782079999999
 21
177.7171429999999
 31
0.0
  0
LINE
  5
CB
330
C7
100
AcDbEntity
  8
CSLAYER1
  6
CONTINUOUS
 62
     4
100
AcDbLine
 10
199.019714
 20
205.7171429999999
 30
0.0
 11
194.8782079999999
 21
205.7171429999999
 31
0.0
  0
LINE
  5
CC
330
C7
100
AcDbEntity
  8
CSLAYER1
  6
CONTINUOUS
 62
     4
100
AcDbLine
 10
195.8782079999999
 20
177.7171429999999
 30
0.0
 11
195.8782079999999
 21
205.7171429999999
 31
0.0
  0
LINE
  5
CD
330
C7
100
AcDbEntity
  8
CSLAYER1
  6
CONTINUOUS
 62
     4
100
AcDbLine
 10
195.8782079999999
 20
177.7171429999999
 30
0.0
 11
195.1017509999999
 21
180.6149199999999
 31
0.0
  0
LINE
  5
CE
330
C7
100
AcDbEntity
  8
CSLAYER1
  6
CONTINUOUS
 62
     4
100
AcDbLine
 10
195.8782079999999
 20
177.7171429999999
 30
0.0
 11
196.6546649999999
 21
180.6149199999999
 31
0.0
  0
LINE
  5
CF
330
C7
100
AcDbEntity
  8
CSLAYER1
  6
CONTINUOUS
 62
     4
100
AcDbLine
 10
195.8782079999999
 20
205.7171429999999
 30
0.0
 11
195.1017509999999
 21
202.8193649999999
 31
0.0
  0
LINE
  5
D0
330
C7
100
AcDbEntity
  8
CSLAYER1
  6
CONTINUOUS
 62
     4
100
AcDbLine
 10
195.8782079999999
 20
205.7171429999999
 30
0.0
 11
196.6546649999999
 21
202.8193649999999
 31
0.0
  0
ENDBLK
  5
D1
330
C7
100
AcDbEntity
  8
0
100
AcDbBlockEnd
  0
BLOCK
  5
D3
330
D2
100
AcDbEntity
  8
0
100
AcDbBlockBegin
  2
*D14
 70
     1
 10
0.0
 20
0.0
 30
0.0
  3
*D14
  1

  0
TEXT
  5
D4
330
D2
100
AcDbEntity
  8
CSLAYER1
 62
     4
100
AcDbText
 10
220.87442
 20
111.2971469999999
 30
0.0
 40
3.2
  1
28
 50
90.0
 41
1.200000000000017
 51
15.0
  7
FX_FONT
 72
     5
 11
220.87442
 21
117.697147
 31
0.0
100
AcDbText
  0
LINE
  5
D5
330
D2
100
AcDbEntity
  8
CSLAYER1
  6
CONTINUOUS
 62
     4
100
AcDbLine
 10
224.8985709999999
 20
100.497143
 30
0.0
 11
220.37442
 21
100.497143
 31
0.0
  0
LINE
  5
D6
330
D2
100
AcDbEntity
  8
CSLAYER1
  6
CONTINUOUS
 62
     4
100
AcDbLine
 10
224.8985709999999
 20
128.4971429999999
 30
0.0
 11
220.37442
 21
128.4971429999999
 31
0.0
  0
LINE
  5
D7
330
D2
100
AcDbEntity
  8
CSLAYER1
  6
CONTINUOUS
 62
     4
100
AcDbLine
 10
221.37442
 20
100.497143
 30
0.0
 11
221.37442
 21
128.4971429999999
 31
0.0
  0
LINE
  5
D8
330
D2
100
AcDbEntity
  8
CSLAYER1
  6
CONTINUOUS
 62
     4
100
AcDbLine
 10
221.37442
 20
100.497143
 30
0.0
 11
220.5979629999999
 21
103.3949199999999
 31
0.0
  0
LINE
  5
D9
330
D2
100
AcDbEntity
  8
CSLAYER1
  6
CONTINUOUS
 62
     4
100
AcDbLine
 10
221.37442
 20
100.497143
 30
0.0
 11
222.150877
 21
103.3949199999999
 31
0.0
  0
LINE
  5
DA
330
D2
100
AcDbEntity
  8
CSLAYER1
  6
CONTINUOUS
 62
     4
100
AcDbLine
 10
221.37442
 20
128.4971429999999
 30
0.0
 11
220.5979629999999
 21
125.5993649999999
 31
0.0
  0
LINE
  5
DB
330
D2
100
AcDbEntity
  8
CSLAYER1
  6
CONTINUOUS
 62
     4
100
AcDbLine
 10
221.37442
 20
128.4971429999999
 30
0.0
 11
222.150877
 21
125.5993649999999
 31
0.0
  0
ENDBLK
  5
DC
330
D2
100
AcDbEntity
  8
0
100
AcDbBlockEnd
  0
BLOCK
  5
DE
330
DD
100
AcDbEntity
  8
0
100
AcDbBlockBegin
  2
*D15
 70
     1
 10
0.0
 20
0.0
 30
0.0
  3
*D15
  1

  0
TEXT
  5
DF
330
DD
100
AcDbEntity
  8
CSLAYER1
 62
     4
100
AcDbText
 10
211.6985749999999
 20
84.42432399999999
 30
0.0
 40
3.2
  1
30
 41
1.200000000000017
 51
15.0
  7
FX_FONT
 72
     5
 11
218.098575
 21
84.42432399999999
 31
0.0
100
AcDbText
  0
LINE
  5
E0
330
DD
100
AcDbEntity
  8
CSLAYER1
  6
CONTINUOUS
 62
     4
100
AcDbLine
 10
199.898571
 20
91.81485700000001
 30
0.0
 11
199.898571
 21
82.924327
 31
0.0
  0
LINE
  5
E1
330
DD
100
AcDbEntity
  8
CSLAYER1
  6
CONTINUOUS
 62
     4
100
AcDbLine
 10
229.898571
 20
92.25714299999999
 30
0.0
 11
229.898571
 21
82.924327
 31
0.0
  0
LINE
  5
E2
330
DD
100
AcDbEntity
  8
CSLAYER1
  6
CONTINUOUS
 62
     4
100
AcDbLine
 10
199.898571
 20
83.924327
 30
0.0
 11
229.898571
 21
83.924327
 31
0.0
  0
LINE
  5
E3
330
DD
100
AcDbEntity
  8
CSLAYER1
  6
CONTINUOUS
 62
     4
100
AcDbLine
 10
199.898571
 20
83.924327
 30
0.0
 11
202.7963489999999
 21
84.700784
 31
0.0
  0
LINE
  5
E4
330
DD
100
AcDbEntity
  8
CSLAYER1
  6
CONTINUOUS
 62
     4
100
AcDbLine
 10
199.898571
 20
83.924327
 30
0.0
 11
202.7963489999999
 21
83.14786899999999
 31
0.0
  0
LINE
  5
E5
330
DD
100
AcDbEntity
  8
CSLAYER1
  6
CONTINUOUS
 62
     4
100
AcDbLine
 10
229.898571
 20
83.924327
 30
0.0
 11
227.0007939999999
 21
84.700784
 31
0.0
  0
LINE
  5
E6
330
DD
100
AcDbEntity
  8
CSLAYER1
  6
CONTINUOUS
 62
     4
100
AcDbLine
 10
229.898571
 20
83.924327
 30
0.0
 11
227.0007939999999
 21
83.14786899999999
 31
0.0
  0
ENDBLK
  5
E7
330
DD
100
AcDbEntity
  8
0
100
AcDbBlockEnd
  0
BLOCK
  5
E9
330
E8
100
AcDbEntity
  8
0
100
AcDbBlockBegin
  2
*D16
 70
     1
 10
0.0
 20
0.0
 30
0.0
  3
*D16
  1

  0
TEXT
  5
EA
330
E8
100
AcDbEntity
  8
CSLAYER1
 62
     4
100
AcDbText
 10
216.598566
 20
141.3757169999998
 30
0.0
 40
3.2
  1
59.8
 41
1.090909090909091
 51
15.0
  7
FX_FONT
 72
     5
 11
229.398566
 21
141.3757169999998
 31
0.0
100
AcDbText
  0
LINE
  5
EB
330
E8
100
AcDbEntity
  8
CSLAYER1
  6
CONTINUOUS
 62
     4
100
AcDbLine
 10
193.098571
 20
121.497143
 30
0.0
 11
193.098571
 21
141.8757139999998
 31
0.0
  0
LINE
  5
EC
330
E8
100
AcDbEntity
  8
CSLAYER1
  6
CONTINUOUS
 62
     4
100
AcDbLine
 10
252.898571
 20
133.4971429999999
 30
0.0
 11
252.898571
 21
141.8757139999998
 31
0.0
  0
LINE
  5
ED
330
E8
100
AcDbEntity
  8
CSLAYER1
  6
CONTINUOUS
 62
     4
100
AcDbLine
 10
193.098571
 20
140.8757139999998
 30
0.0
 11
252.898571
 21
140.8757139999998
 31
0.0
  0
LINE
  5
EE
330
E8
100
AcDbEntity
  8
CSLAYER1
  6
CONTINUOUS
 62
     4
100
AcDbLine
 10
193.098571
 20
140.8757139999998
 30
0.0
 11
195.9963489999999
 21
141.652171
 31
0.0
  0
LINE
  5
EF
330
E8
100
AcDbEntity
  8
CSLAYER1
  6
CONTINUOUS
 62
     4
100
AcDbLine
 10
193.098571
 20
140.8757139999998
 30
0.0
 11
195.9963489999999
 21
140.0992569999999
 31
0.0
  0
LINE
  5
F0
330
E8
100
AcDbEntity
  8
CSLAYER1
  6
CONTINUOUS
 62
     4
100
AcDbLine
 10
252.898571
 20
140.8757139999998
 30
0.0
 11
250.0007939999999
 21
141.652171
 31
0.0
  0
LINE
  5
F1
330
E8
100
AcDbEntity
  8
CSLAYER1
  6
CONTINUOUS
 62
     4
100
AcDbLine
 10
252.898571
 20
140.8757139999998
 30
0.0
 11
250.0007939999999
 21
140.0992569999999
 31
0.0
  0
ENDBLK
  5
F2
330
E8
100
AcDbEntity
  8
0
100
AcDbBlockEnd
  0
BLOCK
  5
F4
330
F3
100
AcDbEntity
  8
0
100
AcDbBlockBegin
  2
*D17
 70
     1
 10
0.0
 20
0.0
 30
0.0
  3
*D17
  1

  0
TEXT
  5
F5
330
F3
100
AcDbEntity
  8
CSLAYER1
 62
     4
100
AcDbText
 10
288.99942
 20
186.917148
 30
0.0
 40
3.2
  1
%%c36
 50
90.0
 41
1.124999999999999
 51
15.0
  7
FX_FONT
 72
     5
 11
288.99942
 21
196.517148
 31
0.0
100
AcDbText
  0
LINE
  5
F6
330
F3
100
AcDbEntity
  8
CSLAYER1
  6
CONTINUOUS
 62
     4
100
AcDbLine
 10
258.898571
 20
173.717143
 30
0.0
 11
290.499429
 21
173.717143
 31
0.0
  0
LINE
  5
F7
330
F3
100
AcDbEntity
  8
CSLAYER1
  6
CONTINUOUS
 62
     4
100
AcDbLine
 10
258.898571
 20
209.717143
 30
0.0
 11
290.499429
 21
209.717143
 31
0.0
  0
LINE
  5
F8
330
F3
100
AcDbEntity
  8
CSLAYER1
  6
CONTINUOUS
 62
     4
100
AcDbLine
 10
289.4994289999999
 20
173.717143
 30
0.0
 11
289.4994289999999
 21
209.717143
 31
0.0
  0
LINE
  5
F9
330
F3
100
AcDbEntity
  8
CSLAYER1
  6
CONTINUOUS
 62
     4
100
AcDbLine
 10
289.4994289999999
 20
173.717143
 30
0.0
 11
288.7229709999998
 21
176.6149199999999
 31
0.0
  0
LINE
  5
FA
330
F3
100
AcDbEntity
  8
CSLAYER1
  6
CONTINUOUS
 62
     4
100
AcDbLine
 10
289.4994289999999
 20
173.717143
 30
0.0
 11
290.275886
 21
176.6149199999999
 31
0.0
  0
LINE
  5
FB
330
F3
100
AcDbEntity
  8
CSLAYER1
  6
CONTINUOUS
 62
     4
100
AcDbLine
 10
289.4994289999999
 20
209.717143
 30
0.0
 11
288.7229709999998
 21
206.8193649999999
 31
0.0
  0
LINE
  5
FC
330
F3
100
AcDbEntity
  8
CSLAYER1
  6
CONTINUOUS
 62
     4
100
AcDbLine
 10
289.4994289999999
 20
209.717143
 30
0.0
 11
290.275886
 21
206.8193649999999
 31
0.0
  0
ENDBLK
  5
FD
330
F3
100
AcDbEntity
  8
0
100
AcDbBlockEnd
  0
BLOCK
  5
FF
330
FE
100
AcDbEntity
  8
0
100
AcDbBlockBegin
  2
*D18
 70
     1
 10
0.0
 20
0.0
 30
0.0
  3
*D18
  1

  0
TEXT
  5
100
330
FE
100
AcDbEntity
  8
CSLAYER1
 62
     4
100
AcDbText
 10
172.699101
 20
89.691472
 30
0.0
 40
3.2
  1
R14
 50
63.75695722450792
 41
1.125000022396925
 51
15.0
  7
FX_FONT
 72
     5
 11
176.944027
 21
98.301966
 31
0.0
100
AcDbText
  0
LINE
  5
101
330
FE
100
AcDbEntity
  8
CSLAYER1
  6
CONTINUOUS
 62
     4
100
AcDbLine
 10
178.365283
 20
100.054113
 30
0.0
 11
172.174766
 21
87.497143
 31
0.0
  0
LINE
  5
102
330
FE
100
AcDbEntity
  8
CSLAYER1
  6
CONTINUOUS
 62
     4
100
AcDbLine
 10
178.365283
 20
100.054113
 30
0.0
 11
177.780369
 21
97.111686
 31
0.0
  0
LINE
  5
103
330
FE
100
AcDbEntity
  8
CSLAYER1
  6
CONTINUOUS
 62
     4
100
AcDbLine
 10
178.365283
 20
100.054113
 30
0.0
 11
176.38752
 21
97.79835300000002
 31
0.0
  0
ENDBLK
  5
104
330
FE
100
AcDbEntity
  8
0
100
AcDbBlockEnd
  0
BLOCK
  5
106
330
105
100
AcDbEntity
  8
0
100
AcDbBlockBegin
  2
*D19
 70
     1
 10
0.0
 20
0.0
 30
0.0
  3
*D19
  1

  0
TEXT
  5
107
330
105
100
AcDbEntity
  8
CSLAYER1
 62
     4
100
AcDbText
 10
259.69856
 20
229.163986
 30
0.0
 40
3.2
  1
20
 41
1.200000000000006
 51
15.0
  7
FX_FONT
 72
     5
 11
266.09856
 21
229.163986
 31
0.0
100
AcDbText
  0
LINE
  5
108
330
105
100
AcDbEntity
  8
CSLAYER1
  6
CONTINUOUS
 62
     4
100
AcDbLine
 10
252.898571
 20
228.663979
 30
0.0
 11
272.8985709999999
 21
228.663979
 31
0.0
  0
LINE
  5
109
330
105
100
AcDbEntity
  8
CSLAYER1
  6
CONTINUOUS
 62
     4
100
AcDbLine
 10
252.898571
 20
228.663979
 30
0.0
 11
255.796349
 21
229.4404359999999
 31
0.0
  0
LINE
  5
10A
330
105
100
AcDbEntity
  8
CSLAYER1
  6
CONTINUOUS
 62
     4
100
AcDbLine
 10
252.898571
 20
228.663979
 30
0.0
 11
255.796349
 21
227.887522
 31
0.0
  0
LINE
  5
10B
330
105
100
AcDbEntity
  8
CSLAYER1
  6
CONTINUOUS
 62
     4
100
AcDbLine
 10
272.8985709999999
 20
228.663979
 30
0.0
 11
270.0007939999999
 21
229.4404359999999
 31
0.0
  0
LINE
  5
10C
330
105
100
AcDbEntity
  8
CSLAYER1
  6
CONTINUOUS
 62
     4
100
AcDbLine
 10
272.8985709999999
 20
228.663979
 30
0.0
 11
270.0007939999999
 21
227.887522
 31
0.0
  0
ENDBLK
  5
10D
330
105
100
AcDbEntity
  8
0
100
AcDbBlockEnd
  0
BLOCK
  5
10F
330
10E
100
AcDbEntity
  8
0
100
AcDbBlockBegin
  2
*D20
 70
     1
 10
0.0
 20
0.0
 30
0.0
  3
*D20
  1

  0
TEXT
  5
110
330
10E
100
AcDbEntity
  8
CSLAYER1
 62
     4
100
AcDbText
 10
262.1985599999999
 20
223.163986
 30
0.0
 40
3.2
  1
15
 41
1.200000000000016
 51
15.0
  7
FX_FONT
 72
     5
 11
268.59856
 21
223.163986
 31
0.0
100
AcDbText
  0
LINE
  5
111
330
10E
100
AcDbEntity
  8
CSLAYER1
  6
CONTINUOUS
 62
     4
100
AcDbLine
 10
257.8985709999999
 20
210.717143
 30
0.0
 11
257.8985709999999
 21
223.663979
 31
0.0
  0
LINE
  5
112
330
10E
100
AcDbEntity
  8
CSLAYER1
  6
CONTINUOUS
 62
     4
100
AcDbLine
 10
257.8985709999999
 20
222.663979
 30
0.0
 11
272.8985709999999
 21
222.663979
 31
0.0
  0
LINE
  5
113
330
10E
100
AcDbEntity
  8
CSLAYER1
  6
CONTINUOUS
 62
     4
100
AcDbLine
 10
257.8985709999999
 20
222.663979
 30
0.0
 11
260.796349
 21
223.4404359999999
 31
0.0
  0
LINE
  5
114
330
10E
100
AcDbEntity
  8
CSLAYER1
  6
CONTINUOUS
 62
     4
100
AcDbLine
 10
257.8985709999999
 20
222.663979
 30
0.0
 11
260.796349
 21
221.887522
 31
0.0
  0
LINE
  5
115
330
10E
100
AcDbEntity
  8
CSLAYER1
  6
CONTINUOUS
 62
     4
100
AcDbLine
 10
272.8985709999999
 20
222.663979
 30
0.0
 11
270.0007939999999
 21
223.4404359999999
 31
0.0
  0
LINE
  5
116
330
10E
100
AcDbEntity
  8
CSLAYER1
  6
CONTINUOUS
 62
     4
100
AcDbLine
 10
272.8985709999999
 20
222.663979
 30
0.0
 11
270.0007939999999
 21
221.887522
 31
0.0
  0
ENDBLK
  5
117
330
10E
100
AcDbEntity
  8
0
100
AcDbBlockEnd
  0
BLOCK
  5
119
330
118
100
AcDbEntity
  8
0
100
AcDbBlockBegin
  2
*D21
 70
     1
 10
0.0
 20
0.0
 30
0.0
  3
*D21
  1

  0
TEXT
  5
11A
330
118
100
AcDbEntity
  8
CSLAYER1
 62
     4
100
AcDbText
 10
211.598575
 20
234.5110779999999
 30
0.0
 40
3.2
  1
113
 41
1.124999999999999
 51
15.0
  7
FX_FONT
 72
     5
 11
221.198575
 21
234.5110779999999
 31
0.0
100
AcDbText
  0
LINE
  5
11B
330
118
100
AcDbEntity
  8
CSLAYER1
  6
CONTINUOUS
 62
     4
100
AcDbLine
 10
159.898571
 20
234.011081
 30
0.0
 11
272.8985709999999
 21
234.011081
 31
0.0
  0
LINE
  5
11C
330
118
100
AcDbEntity
  8
CSLAYER1
  6
CONTINUOUS
 62
     4
100
AcDbLine
 10
159.898571
 20
234.011081
 30
0.0
 11
162.7963489999999
 21
234.787538
 31
0.0
  0
LINE
  5
11D
330
118
100
AcDbEntity
  8
CSLAYER1
  6
CONTINUOUS
 62
     4
100
AcDbLine
 10
159.898571
 20
234.011081
 30
0.0
 11
162.7963489999999
 21
233.234624
 31
0.0
  0
LINE
  5
11E
330
118
100
AcDbEntity
  8
CSLAYER1
  6
CONTINUOUS
 62
     4
100
AcDbLine
 10
272.8985709999999
 20
234.011081
 30
0.0
 11
270.0007939999999
 21
234.787538
 31
0.0
  0
LINE
  5
11F
330
118
100
AcDbEntity
  8
CSLAYER1
  6
CONTINUOUS
 62
     4
100
AcDbLine
 10
272.8985709999999
 20
234.011081
 30
0.0
 11
270.0007939999999
 21
233.234624
 31
0.0
  0
LINE
  5
120
330
118
100
AcDbEntity
  8
CSLAYER1
  6
CONTINUOUS
 62
     4
100
AcDbLine
 10
159.898571
 20
200.2171429999999
 30
0.0
 11
159.898571
 21
235.011081
 31
0.0
  0
LINE
  5
121
330
118
100
AcDbEntity
  8
CSLAYER1
  6
CONTINUOUS
 62
     4
100
AcDbLine
 10
272.8985709999999
 20
206.2171429999999
 30
0.0
 11
272.8985709999999
 21
235.011081
 31
0.0
  0
ENDBLK
  5
122
330
118
100
AcDbEntity
  8
0
100
AcDbBlockEnd
  0
BLOCK
  5
124
330
123
100
AcDbEntity
  8
0
100
AcDbBlockBegin
  2
FXDIM0000
 70
     0
 10
0.0
 20
0.0
 30
0.0
  3
FXDIM0000
  1

  0
LINE
  5
125
330
123
100
AcDbEntity
  8
CSLAYER1
  6
CONTINUOUS
 62
     4
100
AcDbLine
 10
203.959628
 20
175.9512479999999
 30
0.0
 11
196.400228
 21
161.7340839999999
 31
0.0
  0
LINE
  5
126
330
123
100
AcDbEntity
  8
CSLAYER1
  6
CONTINUOUS
 62
     4
100
AcDbLine
 10
203.959628
 20
175.9512479999999
 30
0.0
 11
203.284775
 21
173.028137
 31
0.0
  0
LINE
  5
127
330
123
100
AcDbEntity
  8
CSLAYER1
  6
CONTINUOUS
 62
     4
100
AcDbLine
 10
203.959628
 20
175.9512479999999
 30
0.0
 11
201.913633
 21
173.757187
 31
0.0
  0
LINE
  5
128
330
123
100
AcDbEntity
  8
CSLAYER1
  6
CONTINUOUS
 62
     4
100
AcDbLine
 10
196.400228
 20
161.7340839999999
 30
0.0
 11
146.400228
 21
161.7340839999999
 31
0.0
  0
TEXT
  5
129
330
123
100
AcDbEntity
  8
CSLAYER1
 62
     4
100
AcDbText
 10
147.400237
 20
162.23407
 30
0.0
 40
3.2
  1
16-M4X0.7ネジ深5.5
 41
0.9825327715611356
 51
15.0
  7
FX_FONT
 72
     5
 11
195.400238
 21
162.23407
 31
0.0
100
AcDbText
  0
ENDBLK
  5
12A
330
123
100
AcDbEntity
  8
0
100
AcDbBlockEnd
  0
BLOCK
  5
12C
330
12B
100
AcDbEntity
  8
0
100
AcDbBlockBegin
  2
*D23
 70
     1
 10
0.0
 20
0.0
 30
0.0
  3
*D23
  1

  0
TEXT
  5
12D
330
12B
100
AcDbEntity
  8
CSLAYER1
 62
     4
100
AcDbText
 10
367.403015
 20
186.917148
 30
0.0
 40
3.2
  1
30 
 50
90.0
 41
1.153846153846153
 51
15.0
  7
FX_FONT
 72
     5
 11
367.403015
 21
196.517148
 31
0.0
100
AcDbText
  0
LINE
  5
12E
330
12B
100
AcDbEntity
  8
CSLAYER1
  6
CONTINUOUS
 62
     4
100
AcDbLine
 10
348.4814999999998
 20
176.7171429999999
 30
0.0
 11
368.902989
 21
176.7171429999999
 31
0.0
  0
LINE
  5
12F
330
12B
100
AcDbEntity
  8
CSLAYER1
  6
CONTINUOUS
 62
     4
100
AcDbLine
 10
348.4814999999998
 20
206.717143
 30
0.0
 11
368.902989
 21
206.717143
 31
0.0
  0
LINE
  5
130
330
12B
100
AcDbEntity
  8
CSLAYER1
  6
CONTINUOUS
 62
     4
100
AcDbLine
 10
367.9029889999998
 20
176.7171429999999
 30
0.0
 11
367.9029889999998
 21
206.717143
 31
0.0
  0
LINE
  5
131
330
12B
100
AcDbEntity
  8
CSLAYER1
  6
CONTINUOUS
 62
     4
100
AcDbLine
 10
367.9029889999998
 20
176.7171429999999
 30
0.0
 11
367.1265319999998
 21
179.6149199999999
 31
0.0
  0
LINE
  5
132
330
12B
100
AcDbEntity
  8
CSLAYER1
  6
CONTINUOUS
 62
     4
100
AcDbLine
 10
367.9029889999998
 20
176.7171429999999
 30
0.0
 11
368.6794459999998
 21
179.6149199999999
 31
0.0
  0
LINE
  5
133
330
12B
100
AcDbEntity
  8
CSLAYER1
  6
CONTINUOUS
 62
     4
100
AcDbLine
 10
367.9029889999998
 20
206.717143
 30
0.0
 11
367.1265319999998
 21
203.819365
 31
0.0
  0
LINE
  5
134
330
12B
100
AcDbEntity
  8
CSLAYER1
  6
CONTINUOUS
 62
     4
100
AcDbLine
 10
367.9029889999998
 20
206.717143
 30
0.0
 11
368.6794459999998
 21
203.819365
 31
0.0
  0
ENDBLK
  5
135
330
12B
100
AcDbEntity
  8
0
100
AcDbBlockEnd
  0
BLOCK
  5
137
330
136
100
AcDbEntity
  8
0
100
AcDbBlockBegin
  2
*D24
 70
     1
 10
0.0
 20
0.0
 30
0.0
  3
*D24
  1

  0
TEXT
  5
138
330
136
100
AcDbEntity
  8
CSLAYER1
 62
     4
100
AcDbText
 10
312.5006309999998
 20
211.966935
 30
0.0
 40
3.2
  1
24
 50
45.37909570851304
 41
1.200000041781654
 51
15.0
  7
FX_FONT
 72
     5
 11
316.996073
 21
216.522262
 31
0.0
100
AcDbText
  0
LINE
  5
139
330
136
100
AcDbEntity
  8
CSLAYER1
  6
CONTINUOUS
 62
     4
100
AcDbLine
 10
306.675168
 20
205.352069
 30
0.0
 11
323.533238
 21
222.4347069999999
 31
0.0
  0
LINE
  5
13A
330
136
100
AcDbEntity
  8
CSLAYER1
  6
CONTINUOUS
 62
     4
100
AcDbLine
 10
306.675168
 20
205.352069
 30
0.0
 11
308.1579459999998
 21
207.9600129999999
 31
0.0
  0
LINE
  5
13B
330
136
100
AcDbEntity
  8
CSLAYER1
  6
CONTINUOUS
 62
     4
100
AcDbLine
 10
306.675168
 20
205.352069
 30
0.0
 11
309.263263
 21
206.869226
 31
0.0
  0
LINE
  5
13C
330
136
100
AcDbEntity
  8
CSLAYER1
  6
CONTINUOUS
 62
     4
100
AcDbLine
 10
323.533238
 20
222.4347069999999
 30
0.0
 11
322.0504599999998
 21
219.826763
 31
0.0
  0
LINE
  5
13D
330
136
100
AcDbEntity
  8
CSLAYER1
  6
CONTINUOUS
 62
     4
100
AcDbLine
 10
323.533238
 20
222.4347069999999
 30
0.0
 11
320.945143
 21
220.91755
 31
0.0
  0
LINE
  5
13E
330
136
100
AcDbEntity
  8
CSLAYER1
  6
CONTINUOUS
 62
     4
100
AcDbLine
 10
325.0542859999999
 20
187.214563
 30
0.0
 11
305.963398
 21
206.054481
 31
0.0
  0
LINE
  5
13F
330
136
100
AcDbEntity
  8
CSLAYER1
  6
CONTINUOUS
 62
     4
100
AcDbLine
 10
341.9441439999999
 20
204.2658309999999
 30
0.0
 11
322.821468
 21
223.13712
 31
0.0
  0
ENDBLK
  5
140
330
136
100
AcDbEntity
  8
0
100
AcDbBlockEnd
  0
BLOCK
  5
142
330
141
100
AcDbEntity
  8
0
100
AcDbBlockBegin
  2
FXDIM0001
 70
     0
 10
0.0
 20
0.0
 30
0.0
  3
FXDIM0001
  1

  0
LINE
  5
143
330
141
100
AcDbEntity
  8
CSLAYER1
  6
CONTINUOUS
 62
     4
100
AcDbLine
 10
329.6387259999999
 20
181.2975989999999
 30
0.0
 11
333.528682
 21
158.376258
 31
0.0
  0
LINE
  5
144
330
141
100
AcDbEntity
  8
CSLAYER1
  6
CONTINUOUS
 62
     4
100
AcDbLine
 10
329.6387259999999
 20
181.2975989999999
 30
0.0
 11
330.8890839999999
 21
178.570585
 31
0.0
  0
LINE
  5
145
330
141
100
AcDbEntity
  8
CSLAYER1
  6
CONTINUOUS
 62
     4
100
AcDbLine
 10
329.6387259999999
 20
181.2975989999999
 30
0.0
 11
329.3580609999999
 21
178.310757
 31
0.0
  0
LINE
  5
146
330
141
100
AcDbEntity
  8
CSLAYER1
  6
CONTINUOUS
 62
     4
100
AcDbLine
 10
333.528682
 20
158.376258
 30
0.0
 11
357.928683
 21
158.376258
 31
0.0
  0
TEXT
  5
147
330
141
100
AcDbEntity
  8
CSLAYER1
 62
     4
100
AcDbText
 10
334.5966189999998
 20
158.8762659999999
 30
0.0
 40
3.2
  1
M4ネジ深１０
 41
0.9292035398230149
 51
15.0
  7
FX_FONT
 72
     5
 11
356.996619
 21
158.8762659999999
 31
0.0
100
AcDbText
  0
ENDBLK
  5
148
330
141
100
AcDbEntity
  8
0
100
AcDbBlockEnd
  0
BLOCK
  5
14A
330
149
100
AcDbEntity
  8
0
100
AcDbBlockBegin
  2
FXDIM0002
 70
     0
 10
0.0
 20
0.0
 30
0.0
  3
FXDIM0002
  1

  0
LINE
  5
14B
330
149
100
AcDbEntity
  8
CSLAYER1
  6
CONTINUOUS
 62
     4
100
AcDbLine
 10
339.694272
 20
195.9462639999999
 30
0.0
 11
348.741571
 21
218.7506259999999
 31
0.0
  0
LINE
  5
14C
330
149
100
AcDbEntity
  8
CSLAYER1
  6
CONTINUOUS
 62
     4
100
AcDbLine
 10
339.694272
 20
195.9462639999999
 30
0.0
 11
340.0411629999998
 21
198.92614
 31
0.0
  0
LINE
  5
14D
330
149
100
AcDbEntity
  8
CSLAYER1
  6
CONTINUOUS
 62
     4
100
AcDbLine
 10
339.694272
 20
195.9462639999999
 30
0.0
 11
341.4846269999998
 21
198.353467
 31
0.0
  0
LINE
  5
14E
330
149
100
AcDbEntity
  8
CSLAYER1
  6
CONTINUOUS
 62
     4
100
AcDbLine
 10
348.741571
 20
218.7506259999999
 30
0.0
 11
373.141571
 21
218.7506259999999
 31
0.0
  0
TEXT
  5
14F
330
149
100
AcDbEntity
  8
CSLAYER1
 62
     4
100
AcDbText
 10
349.741589
 20
219.250626
 30
0.0
 40
3.2
  1
Rc1/8ネジ
 41
0.9813084550233625
 51
15.0
  7
FX_FONT
 72
     5
 11
372.14159
 21
219.250626
 31
0.0
100
AcDbText
  0
ENDBLK
  5
150
330
149
100
AcDbEntity
  8
0
100
AcDbBlockEnd
  0
BLOCK
  5
152
330
151
100
AcDbEntity
  8
0
100
AcDbBlockBegin
  2
FXDIM0003
 70
     0
 10
0.0
 20
0.0
 30
0.0
  3
FXDIM0003
  1

  0
LINE
  5
153
330
151
100
AcDbEntity
  8
CSLAYER1
  6
CONTINUOUS
 62
     4
100
AcDbLine
 10
265.0612179999999
 20
201.769692
 30
0.0
 11
283.426494
 21
227.1593339999999
 31
0.0
  0
LINE
  5
154
330
151
100
AcDbEntity
  8
CSLAYER1
  6
CONTINUOUS
 62
     4
100
AcDbLine
 10
265.0612179999999
 20
201.769692
 30
0.0
 11
266.130435
 21
204.572686
 31
0.0
  0
LINE
  5
155
330
151
100
AcDbEntity
  8
CSLAYER1
  6
CONTINUOUS
 62
     4
100
AcDbLine
 10
265.0612179999999
 20
201.769692
 30
0.0
 11
267.388684
 21
203.6625469999999
 31
0.0
  0
LINE
  5
156
330
151
100
AcDbEntity
  8
CSLAYER1
  6
CONTINUOUS
 62
     4
100
AcDbLine
 10
283.426494
 20
227.1593339999999
 30
0.0
 11
307.8264939999999
 21
227.1593339999999
 31
0.0
  0
TEXT
  5
157
330
151
100
AcDbEntity
  8
CSLAYER1
 62
     4
100
AcDbText
 10
284.4265259999999
 20
227.6593319999999
 30
0.0
 40
3.2
  1
Rc1/8ネジ
 41
0.9813084112149525
 51
15.0
  7
FX_FONT
 72
     5
 11
306.8265259999999
 21
227.6593319999999
 31
0.0
100
AcDbText
  0
ENDBLK
  5
158
330
151
100
AcDbEntity
  8
0
100
AcDbBlockEnd
  0
BLOCK
  5
15A
330
159
100
AcDbEntity
  8
0
100
AcDbBlockBegin
  2
*D28
 70
     1
 10
0.0
 20
0.0
 30
0.0
  3
*D28
  1

  0
TEXT
  5
15B
330
159
100
AcDbEntity
  8
CSLAYER1
 62
     4
100
AcDbText
 10
311.693814
 20
175.819269
 30
0.0
 40
3.2
  1
45%%d
 50
112.4999991574824
 41
1.285714348609499
 51
15.0
  7
FX_FONT
 72
     5
 11
308.0200529999999
 21
184.688513
 31
0.0
100
AcDbText
  0
ARC
  5
15C
330
159
100
AcDbEntity
  8
CSLAYER1
  6
CONTINUOUS
 62
     4
100
AcDbCircle
 10
337.5316259999999
 20
191.7171429999999
 30
0.0
 40
29.454902
100
AcDbArc
 50
180.0
 51
225.0
  0
LINE
  5
15D
330
159
100
AcDbEntity
  8
CSLAYER1
  6
CONTINUOUS
 62
     4
100
AcDbLine
 10
308.076724
 20
191.7171429999999
 30
0.0
 11
307.300267
 21
188.819365
 31
0.0
  0
LINE
  5
15E
330
159
100
AcDbEntity
  8
CSLAYER1
  6
CONTINUOUS
 62
     4
100
AcDbLine
 10
308.076724
 20
191.7171429999999
 30
0.0
 11
308.853181
 21
188.819365
 31
0.0
  0
LINE
  5
15F
330
159
100
AcDbEntity
  8
CSLAYER1
  6
CONTINUOUS
 62
     4
100
AcDbLine
 10
316.703865
 20
170.889382
 30
0.0
 11
314.105789
 21
172.389382
 31
0.0
  0
LINE
  5
160
330
159
100
AcDbEntity
  8
CSLAYER1
  6
CONTINUOUS
 62
     4
100
AcDbLine
 10
316.703865
 20
170.889382
 30
0.0
 11
315.203865
 21
173.487458
 31
0.0
  0
LINE
  5
161
330
159
100
AcDbEntity
  8
CSLAYER1
  6
CONTINUOUS
 62
     4
100
AcDbLine
 10
313.387446
 20
191.7171429999999
 30
0.0
 11
307.076724
 21
191.7171429999999
 31
0.0
  0
LINE
  5
162
330
159
100
AcDbEntity
  8
CSLAYER1
  6
CONTINUOUS
 62
     4
100
AcDbLine
 10
325.452097
 20
179.6376139999999
 30
0.0
 11
315.9967579999999
 21
170.182275
 31
0.0
  0
ENDBLK
  5
163
330
159
100
AcDbEntity
  8
0
100
AcDbBlockEnd
  0
BLOCK
  5
165
330
164
100
AcDbEntity
  8
0
100
AcDbBlockBegin
  2
*D29
 70
     1
 10
0.0
 20
0.0
 30
0.0
  3
*D29
  1

  0
TEXT
  5
166
330
164
100
AcDbEntity
  8
CSLAYER1
 62
     4
100
AcDbText
 10
238.198575
 20
84.42432399999999
 30
0.0
 40
3.2
  1
23
 41
1.200000000000001
 51
15.0
  7
FX_FONT
 72
     5
 11
244.598575
 21
84.42432399999999
 31
0.0
100
AcDbText
  0
LINE
  5
167
330
164
100
AcDbEntity
  8
CSLAYER1
  6
CONTINUOUS
 62
     4
100
AcDbLine
 10
229.898571
 20
83.924327
 30
0.0
 11
252.898571
 21
83.924327
 31
0.0
  0
LINE
  5
168
330
164
100
AcDbEntity
  8
CSLAYER1
  6
CONTINUOUS
 62
     4
100
AcDbLine
 10
229.898571
 20
83.924327
 30
0.0
 11
232.796349
 21
84.700784
 31
0.0
  0
LINE
  5
169
330
164
100
AcDbEntity
  8
CSLAYER1
  6
CONTINUOUS
 62
     4
100
AcDbLine
 10
229.898571
 20
83.924327
 30
0.0
 11
232.796349
 21
83.14786899999999
 31
0.0
  0
LINE
  5
16A
330
164
100
AcDbEntity
  8
CSLAYER1
  6
CONTINUOUS
 62
     4
100
AcDbLine
 10
252.898571
 20
83.924327
 30
0.0
 11
250.0007939999999
 21
84.700784
 31
0.0
  0
LINE
  5
16B
330
164
100
AcDbEntity
  8
CSLAYER1
  6
CONTINUOUS
 62
     4
100
AcDbLine
 10
252.898571
 20
83.924327
 30
0.0
 11
250.0007939999999
 21
83.14786899999999
 31
0.0
  0
LINE
  5
16C
330
164
100
AcDbEntity
  8
CSLAYER1
  6
CONTINUOUS
 62
     4
100
AcDbLine
 10
252.898571
 20
95.49714299999999
 30
0.0
 11
252.898571
 21
82.924327
 31
0.0
  0
ENDBLK
  5
16D
330
164
100
AcDbEntity
  8
0
100
AcDbBlockEnd
  0
BLOCK
  5
2FB
330
2EE
100
AcDbEntity
  8
0
100
AcDbBlockBegin
  2
*D30
 70
     1
 10
0.0
 20
0.0
 30
0.0
  3
*D30
  1

  0
LINE
  5
2EF
330
2EE
100
AcDbEntity
  8
CSLAYER1
 62
     0
100
AcDbLine
 10
314.324946
 20
191.7171429999999
 30
0.0
 11
307.8967240820616
 21
191.7171429999999
 31
0.0
  0
LINE
  5
2F0
330
2EE
100
AcDbEntity
  8
CSLAYER1
 62
     0
100
AcDbLine
 10
326.1150098261758
 20
180.3005268261758
 30
0.0
 11
316.5765858940274
 21
170.7621028940274
 31
0.0
  0
ARC
  5
2F1
330
2EE
100
AcDbEntity
  8
CSLAYER1
 62
     0
100
AcDbCircle
 10
337.5316259999999
 20
191.7171429999999
 30
0.0
 40
29.45490191793834
100
AcDbArc
 50
180.3501371822214
 51
202.1215298481548
  0
ARC
  5
2F2
330
2EE
100
AcDbEntity
  8
CSLAYER1
 62
     0
100
AcDbCircle
 10
337.5316259999999
 20
191.7171429999999
 30
0.0
 40
29.45490191793834
100
AcDbArc
 50
202.8795085512494
 51
224.6498628177785
  0
SOLID
  5
2F3
330
2EE
100
AcDbEntity
  8
CSLAYER1
 62
     0
100
AcDbTrace
 10
308.0472742154487
 20
191.537052174702
 30
0.0
 11
308.1072739353623
 21
191.5372355058167
 31
0.0
 12
308.0767240820616
 22
191.7171429999999
 32
0.0
 13
308.0767240820616
 23
191.7171429999999
 33
0.0
  0
SOLID
  5
2F4
330
2EE
100
AcDbEntity
  8
CSLAYER1
 62
     0
100
AcDbTrace
 10
316.5982533139509
 20
171.0381979321975
 30
0.0
 11
316.5556974704565
 21
170.9959013580518
 31
0.0
 12
316.7038651146412
 22
170.889382114641
 32
0.0
 13
316.7038651146412
 23
170.889382114641
 33
0.0
  0
MTEXT
  5
2F5
330
2EE
100
AcDbEntity
  8
CSLAYER1
 62
     0
100
AcDbMText
 10
310.3188449858893
 20
180.4452400340663
 30
0.0
 40
0.18
 41
0.0
 71
     5
 72
     1
  1
\A1;45°
1001
ACAD
1000
MTEXTBEGIN
1070
    73
1070
     1
1070
    44
1040
1.0
1070
    74
1070
     0
1000
MTEXTEND
  0
POINT
  5
2F6
330
2EE
100
AcDbEntity
  8
DEFPOINTS
 62
     0
100
AcDbPoint
 10
309.0803755266518
 20
184.0936534120108
 30
0.0
  0
POINT
  5
2F7
330
2EE
100
AcDbEntity
  8
DEFPOINTS
 62
     0
100
AcDbPoint
 10
337.5316259999999
 20
191.7171429999999
 30
0.0
  0
POINT
  5
2F8
330
2EE
100
AcDbEntity
  8
DEFPOINTS
 62
     0
100
AcDbPoint
 10
326.159204
 20
180.3447209999999
 30
0.0
  0
POINT
  5
2F9
330
2EE
100
AcDbEntity
  8
DEFPOINTS
 62
     0
100
AcDbPoint
 10
332.131356
 20
186.3168729999999
 30
0.0
  0
POINT
  5
2FA
330
2EE
100
AcDbEntity
  8
DEFPOINTS
 62
     0
100
AcDbPoint
 10
314.387446
 20
191.7171429999999
 30
0.0
  0
ENDBLK
  5
2FC
330
2EE
100
AcDbEntity
  8
0
100
AcDbBlockEnd
  0
ENDSEC
  0
SECTION
  2
ENTITIES
  0
POINT
  5
16E
330
1E
100
AcDbEntity
  8
CSLAYER1
 62
     3
100
AcDbPoint
 10
10.0
 20
3.0
 30
0.0
  0
POINT
  5
16F
330
1E
100
AcDbEntity
  8
CSLAYER1
 62
     3
100
AcDbPoint
 10
365.5
 20
20.5
 30
0.0
  0
DIMENSION
  5
170
330
1E
100
AcDbEntity
  8
CSLAYER1
 62
     4
100
AcDbDimension
  2
*D0
 10
53.17909799999998
 20
209.717143
 30
0.0
 11
52.67909599999999
 21
191.717148
 31
0.0
 70
     1
100
AcDbAlignedDimension
 13
66.03285699999999
 23
173.717143
 33
0.0
 14
66.03285699999999
 24
209.717143
 34
0.0
  0
DIMENSION
  5
171
330
1E
100
AcDbEntity
  8
CSLAYER1
 62
     4
100
AcDbDimension
  2
*D1
 10
102.0328569999999
 20
230.098141
 30
0.0
 11
84.03285999999999
 21
230.598145
 31
0.0
 70
     1
100
AcDbAlignedDimension
 13
66.03285699999999
 23
209.717143
 33
0.0
 14
102.0328569999999
 24
209.717143
 34
0.0
  0
DIMENSION
  5
172
330
1E
100
AcDbEntity
  8
CSLAYER1
 62
     4
100
AcDbDimension
  2
*D2
 10
97.032857
 20
224.098141
 30
0.0
 11
84.03285999999999
 21
224.598145
 31
0.0
100
AcDbAlignedDimension
 13
71.03285699999998
 23
199.2171429999999
 33
0.0
 14
97.032857
 24
198.993338
 34
0.0
100
AcDbRotatedDimension
  0
DIMENSION
  5
173
330
1E
100
AcDbEntity
  8
CSLAYER1
 62
     4
100
AcDbDimension
  2
*D3
 10
90.03285699999997
 20
218.098141
 30
0.0
 11
84.03285999999999
 21
218.598145
 31
0.0
 70
     1
100
AcDbAlignedDimension
 13
78.03285699999998
 23
209.717143
 33
0.0
 14
90.03285699999997
 24
209.717143
 34
0.0
  0
DIMENSION
  5
174
330
1E
100
AcDbEntity
  8
CSLAYER1
 62
     4
100
AcDbDimension
  2
*D4
 10
147.674433
 20
199.2171429999999
 30
0.0
 11
146.7034909999999
 21
192.846954
 31
0.0
 70
     1
100
AcDbAlignedDimension
 13
159.898571
 23
184.217143
 33
0.0
 14
159.898571
 24
199.2171429999999
 34
0.0
  0
DIMENSION
  5
175
330
1E
100
AcDbEntity
  8
CSLAYER1
 62
     4
100
AcDbDimension
  2
*D5
 10
252.898571
 20
228.663979
 30
0.0
 11
206.398575
 21
229.163986
 31
0.0
100
AcDbAlignedDimension
 13
159.898571
 23
199.2171429999999
 33
0.0
 14
252.898571
 24
209.4171429999999
 34
0.0
100
AcDbRotatedDimension
  0
DIMENSION
  5
176
330
1E
100
AcDbEntity
  8
CSLAYER1
 62
     4
100
AcDbDimension
  2
*D6
 10
252.898571
 20
222.663979
 30
0.0
 11
217.8985749999999
 21
223.163986
 31
0.0
 70
     1
100
AcDbAlignedDimension
 13
182.8985709999999
 23
209.717143
 33
0.0
 14
252.898571
 24
209.717143
 34
0.0
  0
DIMENSION
  5
177
330
1E
100
AcDbEntity
  8
CSLAYER1
 62
     4
100
AcDbDimension
  2
*D7
 10
234.898571
 20
216.663979
 30
0.0
 11
219.8985749999999
 21
217.1639859999999
 31
0.0
100
AcDbAlignedDimension
 13
204.898571
 23
211.4787349999999
 33
0.0
 14
234.898571
 24
211.086783
 34
0.0
100
AcDbRotatedDimension
  0
DIMENSION
  5
178
330
1E
100
AcDbEntity
  8
CSLAYER1
 62
     4
100
AcDbDimension
  2
*D8
 10
234.898571
 20
216.663979
 30
0.0
 11
243.898575
 21
217.1639859999999
 31
0.0
 70
     1
100
AcDbAlignedDimension
 13
252.898571
 23
216.663979
 33
0.0
 14
234.898571
 24
216.663979
 34
0.0
  0
DIMENSION
  5
179
330
1E
100
AcDbEntity
  8
CSLAYER1
 62
     4
100
AcDbDimension
  2
*D9
 10
166.898571
 20
223.038032
 30
0.0
 11
163.3985749999999
 21
223.5380249999999
 31
0.0
100
AcDbAlignedDimension
 13
159.898571
 23
193.717143
 33
0.0
 14
166.898571
 24
195.703782
 34
0.0
100
AcDbRotatedDimension
  0
DIMENSION
  5
17A
330
1E
100
AcDbEntity
  8
CSLAYER1
 62
     4
100
AcDbDimension
  2
*D10
 10
225.898571
 20
161.105717
 30
0.0
 11
217.3985749999999
 21
161.6057129999999
 31
0.0
 70
     1
 52
270.0
100
AcDbAlignedDimension
 13
208.898571
 23
173.717143
 33
0.0
 14
225.898571
 24
173.717143
 34
0.0
  0
DIMENSION
  5
17B
330
1E
100
AcDbEntity
  8
CSLAYER1
 62
     4
100
AcDbDimension
  2
*D11
 10
252.898571
 20
161.105717
 30
0.0
 11
239.398575
 21
161.6057129999999
 31
0.0
 70
     1
 52
270.0
100
AcDbAlignedDimension
 13
225.898571
 23
173.717143
 33
0.0
 14
252.898571
 24
173.717143
 34
0.0
  0
DIMENSION
  5
17C
330
1E
100
AcDbEntity
  8
CSLAYER1
 62
     4
100
AcDbDimension
  2
*D12
 10
252.898571
 20
167.105717
 30
0.0
 11
245.898575
 21
167.6057129999998
 31
0.0
 70
     1
 52
270.0
100
AcDbAlignedDimension
 13
238.898571
 23
173.717143
 33
0.0
 14
252.898571
 24
173.717143
 34
0.0
  0
DIMENSION
  5
17D
330
1E
100
AcDbEntity
  8
CSLAYER1
 62
     4
100
AcDbDimension
  2
*D13
 10
195.8782079999999
 20
205.7171429999999
 30
0.0
 11
195.378204
 21
191.717148
 31
0.0
 70
     1
100
AcDbAlignedDimension
 13
200.019714
 23
177.7171429999999
 33
0.0
 14
200.019714
 24
205.7171429999999
 34
0.0
  0
DIMENSION
  5
17E
330
1E
100
AcDbEntity
  8
CSLAYER1
 62
     4
100
AcDbDimension
  2
*D14
 10
221.37442
 20
128.4971429999999
 30
0.0
 11
220.87442
 21
114.4971469999999
 31
0.0
 70
     1
100
AcDbAlignedDimension
 13
225.898571
 23
100.497143
 33
0.0
 14
225.898571
 24
128.4971429999999
 34
0.0
  0
DIMENSION
  5
17F
330
1E
100
AcDbEntity
  8
CSLAYER1
 62
     4
100
AcDbDimension
  2
*D15
 10
229.898571
 20
83.924327
 30
0.0
 11
214.898575
 21
84.42432399999999
 31
0.0
 52
270.0
100
AcDbAlignedDimension
 13
199.898571
 23
92.81485700000001
 33
0.0
 14
229.898571
 24
93.25714299999999
 34
0.0
100
AcDbRotatedDimension
  0
DIMENSION
  5
180
330
1E
100
AcDbEntity
  8
CSLAYER1
 62
     4
100
AcDbDimension
  2
*D16
 10
252.898571
 20
140.8757139999998
 30
0.0
 11
222.998566
 21
141.3757169999998
 31
0.0
100
AcDbAlignedDimension
 13
193.098571
 23
120.497143
 33
0.0
 14
252.898571
 24
132.4971429999999
 34
0.0
100
AcDbRotatedDimension
  0
DIMENSION
  5
181
330
1E
100
AcDbEntity
  8
CSLAYER1
 62
     4
100
AcDbDimension
  2
*D17
 10
289.4994289999999
 20
209.717143
 30
0.0
 11
288.99942
 21
191.717148
 31
0.0
 70
     1
100
AcDbAlignedDimension
 13
257.8985709999999
 23
173.717143
 33
0.0
 14
257.8985709999999
 24
209.717143
 34
0.0
  0
DIMENSION
  5
182
330
1E
100
AcDbEntity
  8
CSLAYER1
 62
     4
100
AcDbDimension
  2
*D18
 10
172.174766
 20
87.497143
 30
0.0
 11
174.8215639999999
 21
93.99671899999999
 31
0.0
 70
     4
100
AcDbRadialDimension
 15
178.365283
 25
100.054113
 35
0.0
 40
0.0
  0
LINE
  5
183
330
1E
100
AcDbEntity
  8
CSLAYER1
  6
CONTINUOUS
 62
     3
100
AcDbLine
 10
272.8985709999999
 20
97.99714299999999
 30
0.0
 11
272.8985709999999
 21
130.997143
 31
0.0
  0
LINE
  5
184
330
1E
100
AcDbEntity
  8
CSLAYER1
  6
CONTINUOUS
 62
     3
100
AcDbLine
 10
272.8985709999999
 20
130.997143
 30
0.0
 11
271.398571
 21
132.4971429999999
 31
0.0
  0
LINE
  5
185
330
1E
100
AcDbEntity
  8
CSLAYER1
  6
CONTINUOUS
 62
     3
100
AcDbLine
 10
271.398571
 20
132.4971429999999
 30
0.0
 11
182.8985709999999
 21
132.4971429999999
 31
0.0
  0
LINE
  5
186
330
1E
100
AcDbEntity
  8
CSLAYER1
  6
CONTINUOUS
 62
     3
100
AcDbLine
 10
182.8985709999999
 20
132.4971429999999
 30
0.0
 11
182.8985709999999
 21
120.497143
 31
0.0
  0
LINE
  5
187
330
1E
100
AcDbEntity
  8
CSLAYER1
  6
CONTINUOUS
 62
     3
100
AcDbLine
 10
193.098571
 20
120.497143
 30
0.0
 11
193.098571
 21
108.4971429999999
 31
0.0
  0
LINE
  5
188
330
1E
100
AcDbEntity
  8
CSLAYER1
  6
CONTINUOUS
 62
     3
100
AcDbLine
 10
193.098571
 20
108.4971429999999
 30
0.0
 11
159.898571
 21
108.4971429999999
 31
0.0
  0
LINE
  5
189
330
1E
100
AcDbEntity
  8
CSLAYER1
  6
CONTINUOUS
 62
     3
100
AcDbLine
 10
159.898571
 20
108.4971429999999
 30
0.0
 11
159.898571
 21
101.497143
 31
0.0
  0
LINE
  5
18A
330
1E
100
AcDbEntity
  8
CSLAYER1
  6
CONTINUOUS
 62
     3
100
AcDbLine
 10
159.898571
 20
101.497143
 30
0.0
 11
172.174766
 21
101.497143
 31
0.0
  0
LINE
  5
18B
330
1E
100
AcDbEntity
  8
CSLAYER1
  6
CONTINUOUS
 62
     3
100
AcDbLine
 10
170.0739979999999
 20
101.4737879999999
 30
0.0
 11
170.0739979999999
 21
99.45062400000001
 31
0.0
  0
LINE
  5
18C
330
1E
100
AcDbEntity
  8
CSLAYER1
  6
CONTINUOUS
 62
     3
100
AcDbLine
 10
170.0739979999999
 20
99.45062400000001
 30
0.0
 11
169.5485709999998
 21
99.14726800000003
 31
0.0
  0
LINE
  5
18D
330
1E
100
AcDbEntity
  8
CSLAYER1
  6
CONTINUOUS
 62
     3
100
AcDbLine
 10
169.5485709999998
 20
99.14726800000003
 30
0.0
 11
164.248571
 21
99.14726800000003
 31
0.0
  0
LINE
  5
18E
330
1E
100
AcDbEntity
  8
CSLAYER1
  6
CONTINUOUS
 62
     3
100
AcDbLine
 10
164.248571
 20
99.14726800000003
 30
0.0
 11
163.7231449999999
 21
99.45062400000001
 31
0.0
  0
LINE
  5
18F
330
1E
100
AcDbEntity
  8
CSLAYER1
  6
CONTINUOUS
 62
     3
100
AcDbLine
 10
163.7231449999999
 20
99.45062400000001
 30
0.0
 11
163.7231449999999
 21
101.547268
 31
0.0
  0
LINE
  5
190
330
1E
100
AcDbEntity
  8
CSLAYER1
  6
CONTINUOUS
 62
     3
100
AcDbLine
 10
165.310858
 20
101.547268
 30
0.0
 11
165.310858
 21
99.45062400000001
 31
0.0
  0
ARC
  5
191
330
1E
100
AcDbEntity
  8
CSLAYER1
  6
CONTINUOUS
 62
     3
100
AcDbCircle
 10
166.898571
 20
103.453867
 30
0.0
 40
4.306598999999998
100
AcDbArc
 50
248.366392
 51
291.6336079999998
  0
LINE
  5
192
330
1E
100
AcDbEntity
  8
CSLAYER1
  6
CONTINUOUS
 62
     3
100
AcDbLine
 10
168.486285
 20
99.45062400000001
 30
0.0
 11
168.486285
 21
101.547268
 31
0.0
  0
ARC
  5
193
330
1E
100
AcDbEntity
  8
CSLAYER1
  6
CONTINUOUS
 62
     3
100
AcDbCircle
 10
169.2801409999999
 20
100.337676
 30
0.0
 40
1.190407999999999
100
AcDbArc
 50
228.173452
 51
288.173452
  0
LINE
  5
194
330
1E
100
AcDbEntity
  8
CSLAYER1
  6
CONTINUOUS
 62
     3
100
AcDbLine
 10
168.3985709999999
 20
99.14726800000003
 30
0.0
 11
168.3985709999999
 21
97.39714300000001
 31
0.0
  0
LINE
  5
195
330
1E
100
AcDbEntity
  8
CSLAYER1
  6
CONTINUOUS
 62
     3
100
AcDbLine
 10
168.3985709999999
 20
97.39714300000001
 30
0.0
 11
167.9985709999999
 21
96.997143
 31
0.0
  0
LINE
  5
196
330
1E
100
AcDbEntity
  8
CSLAYER1
  6
CONTINUOUS
 62
     3
100
AcDbLine
 10
167.9985709999999
 20
96.997143
 30
0.0
 11
165.798571
 21
96.997143
 31
0.0
  0
LINE
  5
197
330
1E
100
AcDbEntity
  8
CSLAYER1
  6
CONTINUOUS
 62
     3
100
AcDbLine
 10
165.798571
 20
96.997143
 30
0.0
 11
165.398571
 21
97.39714300000001
 31
0.0
  0
LINE
  5
198
330
1E
100
AcDbEntity
  8
CSLAYER1
  6
CONTINUOUS
 62
     3
100
AcDbLine
 10
165.398571
 20
97.39714300000001
 30
0.0
 11
165.398571
 21
99.14726800000003
 31
0.0
  0
ARC
  5
199
330
1E
100
AcDbEntity
  8
CSLAYER1
  6
CONTINUOUS
 62
     3
100
AcDbCircle
 10
164.5170019999999
 20
100.337676
 30
0.0
 40
1.190407999999999
100
AcDbArc
 50
251.826548
 51
311.826548
  0
LINE
  5
19A
330
1E
100
AcDbEntity
  8
CSLAYER1
  6
CONTINUOUS
 62
     3
100
AcDbLine
 10
164.898571
 20
108.4971429999999
 30
0.0
 11
164.898571
 21
120.497143
 31
0.0
  0
LINE
  5
19B
330
1E
100
AcDbEntity
  8
CSLAYER1
  6
CONTINUOUS
 62
     3
100
AcDbLine
 10
168.898571
 20
120.497143
 30
0.0
 11
168.898571
 21
108.4971429999999
 31
0.0
  0
LINE
  5
19C
330
1E
100
AcDbEntity
  8
CSLAYER1
  6
CONTINUOUS
 62
     3
100
AcDbLine
 10
182.8985709999999
 20
108.4971429999999
 30
0.0
 11
182.8985709999999
 21
96.49714299999999
 31
0.0
  0
LINE
  5
19D
330
1E
100
AcDbEntity
  8
CSLAYER1
  6
CONTINUOUS
 62
     3
100
AcDbLine
 10
182.8985709999999
 20
96.49714299999999
 30
0.0
 11
271.398571
 21
96.49714299999999
 31
0.0
  0
LINE
  5
19E
330
1E
100
AcDbEntity
  8
CSLAYER1
  6
CONTINUOUS
 62
     3
100
AcDbLine
 10
271.398571
 20
96.49714299999999
 30
0.0
 11
272.8985709999999
 21
97.99714299999999
 31
0.0
  0
LINE
  5
19F
330
1E
100
AcDbEntity
  8
CSLAYER1
  6
CONTINUOUS
 62
     3
100
AcDbLine
 10
271.398571
 20
96.49714299999999
 30
0.0
 11
271.398571
 21
104.547268
 31
0.0
  0
LINE
  5
1A0
330
1E
100
AcDbEntity
  8
CSLAYER1
  6
CONTINUOUS
 62
     3
100
AcDbLine
 10
271.398571
 20
104.547268
 30
0.0
 11
257.8985709999999
 21
104.547268
 31
0.0
  0
LINE
  5
1A1
330
1E
100
AcDbEntity
  8
CSLAYER1
  6
CONTINUOUS
 62
     3
100
AcDbLine
 10
257.8985709999999
 20
104.547268
 30
0.0
 11
257.8985709999999
 21
124.4470169999999
 31
0.0
  0
LINE
  5
1A2
330
1E
100
AcDbEntity
  8
CSLAYER1
  6
CONTINUOUS
 62
     3
100
AcDbLine
 10
257.8985709999999
 20
124.4470169999999
 30
0.0
 11
271.398571
 21
124.4470169999999
 31
0.0
  0
LINE
  5
1A3
330
1E
100
AcDbEntity
  8
CSLAYER1
  6
CONTINUOUS
 62
     3
100
AcDbLine
 10
271.398571
 20
124.4470169999999
 30
0.0
 11
272.8985709999999
 21
122.9470169999999
 31
0.0
  0
LINE
  5
1A4
330
1E
100
AcDbEntity
  8
CSLAYER1
  6
CONTINUOUS
 62
     3
100
AcDbLine
 10
271.398571
 20
124.4470169999999
 30
0.0
 11
271.398571
 21
132.4971429999999
 31
0.0
  0
LINE
  5
1A5
330
1E
100
AcDbEntity
  8
CSLAYER1
  6
CONTINUOUS
 62
     3
100
AcDbLine
 10
252.898571
 20
132.4971429999999
 30
0.0
 11
252.898571
 21
96.49714299999999
 31
0.0
  0
LINE
  5
1A6
330
1E
100
AcDbEntity
  8
CSLAYER1
  6
CONTINUOUS
 62
     3
100
AcDbLine
 10
251.8985709999999
 20
105.7793449999999
 30
0.0
 11
240.898571
 21
105.7793449999999
 31
0.0
  0
ARC
  5
1A7
330
1E
100
AcDbEntity
  8
CSLAYER1
  6
CONTINUOUS
 62
     3
100
AcDbCircle
 10
240.898571
 20
103.7793449999999
 30
0.0
 40
2.0
100
AcDbArc
 50
90.0
 51
180.0
  0
LINE
  5
1A8
330
1E
100
AcDbEntity
  8
CSLAYER1
  6
CONTINUOUS
 62
     3
100
AcDbLine
 10
238.898571
 20
103.7793449999999
 30
0.0
 11
238.898571
 21
96.49714299999999
 31
0.0
  0
CIRCLE
  5
1A9
330
1E
100
AcDbEntity
  8
CSLAYER1
  6
CONTINUOUS
 62
     3
100
AcDbCircle
 10
229.898571
 20
100.497143
 30
0.0
 40
1.649999999999999
  0
LINE
  5
1AA
330
1E
100
AcDbEntity
  8
CSLAYER1
  6
CONTINUOUS
 62
     3
100
AcDbLine
 10
225.898571
 20
96.49714299999999
 30
0.0
 11
225.898571
 21
132.4971429999999
 31
0.0
  0
CIRCLE
  5
1AB
330
1E
100
AcDbEntity
  8
CSLAYER1
  6
CONTINUOUS
 62
     3
100
AcDbCircle
 10
229.898571
 20
128.4971429999999
 30
0.0
 40
1.649999999999999
  0
ARC
  5
1AC
330
1E
100
AcDbEntity
  8
CSLAYER1
  6
CONTINUOUS
 62
     3
100
AcDbCircle
 10
240.898571
 20
125.2149409999999
 30
0.0
 40
2.0
100
AcDbArc
 50
180.0
 51
270.0
  0
LINE
  5
1AD
330
1E
100
AcDbEntity
  8
CSLAYER1
  6
CONTINUOUS
 62
     3
100
AcDbLine
 10
240.898571
 20
123.2149409999999
 30
0.0
 11
251.8985709999999
 21
123.2149409999999
 31
0.0
  0
LINE
  5
1AE
330
1E
100
AcDbEntity
  8
CSLAYER1
  6
CONTINUOUS
 62
     3
100
AcDbLine
 10
251.8985709999999
 20
123.2149409999999
 30
0.0
 11
252.898571
 21
122.2149409999999
 31
0.0
  0
LINE
  5
1AF
330
1E
100
AcDbEntity
  8
CSLAYER1
  6
CONTINUOUS
 62
     3
100
AcDbLine
 10
251.8985709999999
 20
123.2149409999999
 30
0.0
 11
251.8985709999999
 21
105.7793449999999
 31
0.0
  0
LINE
  5
1B0
330
1E
100
AcDbEntity
  8
CSLAYER1
  6
CONTINUOUS
 62
     3
100
AcDbLine
 10
251.8985709999999
 20
105.7793449999999
 30
0.0
 11
252.898571
 21
106.7793449999999
 31
0.0
  0
LINE
  5
1B1
330
1E
100
AcDbEntity
  8
CSLAYER1
  6
CONTINUOUS
 62
     3
100
AcDbLine
 10
271.398571
 20
104.547268
 30
0.0
 11
272.8985709999999
 21
106.0472679999999
 31
0.0
  0
LINE
  5
1B2
330
1E
100
AcDbEntity
  8
CSLAYER1
  6
CONTINUOUS
 62
     3
100
AcDbLine
 10
238.898571
 20
125.2149409999999
 30
0.0
 11
238.898571
 21
132.4971429999999
 31
0.0
  0
LINE
  5
1B3
330
1E
100
AcDbEntity
  8
CSLAYER1
  6
CONTINUOUS
 62
     3
100
AcDbLine
 10
208.898571
 20
132.4971429999999
 30
0.0
 11
208.898571
 21
96.49714299999999
 31
0.0
  0
CIRCLE
  5
1B4
330
1E
100
AcDbEntity
  8
CSLAYER1
  6
CONTINUOUS
 62
     3
100
AcDbCircle
 10
199.898571
 20
100.497143
 30
0.0
 40
1.649999999999999
  0
ARC
  5
1B5
330
1E
100
AcDbEntity
  8
CSLAYER1
  6
CONTINUOUS
 62
     3
100
AcDbCircle
 10
172.174766
 20
87.497143
 30
0.0
 40
14.0
100
AcDbArc
 50
40.005201
 51
90.0
  0
LINE
  5
1B6
330
1E
100
AcDbEntity
  8
CSLAYER1
  6
CONTINUOUS
 62
     3
100
AcDbLine
 10
159.898571
 20
120.497143
 30
0.0
 11
193.098571
 21
120.497143
 31
0.0
  0
CIRCLE
  5
1B7
330
1E
100
AcDbEntity
  8
CSLAYER1
  6
CONTINUOUS
 62
     3
100
AcDbCircle
 10
199.898571
 20
128.4971429999999
 30
0.0
 40
1.649999999999999
  0
LINE
  5
1B8
330
1E
100
AcDbEntity
  8
CSLAYER1
  6
CONTINUOUS
 62
     3
100
AcDbLine
 10
172.174766
 20
127.4971429999999
 30
0.0
 11
159.898571
 21
127.4971429999999
 31
0.0
  0
LINE
  5
1B9
330
1E
100
AcDbEntity
  8
CSLAYER1
  6
CONTINUOUS
 62
     3
100
AcDbLine
 10
159.898571
 20
127.4971429999999
 30
0.0
 11
159.898571
 21
120.497143
 31
0.0
  0
ARC
  5
1BA
330
1E
100
AcDbEntity
  8
CSLAYER1
  6
CONTINUOUS
 62
     3
100
AcDbCircle
 10
172.174766
 20
141.497143
 30
0.0
 40
14.0
100
AcDbArc
 50
270.0
 51
319.994799
  0
LINE
  5
1BB
330
1E
100
AcDbEntity
  8
CSLAYER1
  6
CONTINUOUS
 62
     3
100
AcDbLine
 10
182.8985709999999
 20
173.717143
 30
0.0
 11
159.898571
 21
184.217143
 31
0.0
  0
LINE
  5
1BC
330
1E
100
AcDbEntity
  8
CSLAYER1
  6
CONTINUOUS
 62
     3
100
AcDbLine
 10
159.898571
 20
184.217143
 30
0.0
 11
159.898571
 21
199.2171429999999
 31
0.0
  0
LINE
  5
1BD
330
1E
100
AcDbEntity
  8
CSLAYER1
  6
CONTINUOUS
 62
     3
100
AcDbLine
 10
159.898571
 20
199.2171429999999
 30
0.0
 11
182.8985709999999
 21
209.717143
 31
0.0
  0
LINE
  5
1BE
330
1E
100
AcDbEntity
  8
CSLAYER1
  6
CONTINUOUS
 62
     3
100
AcDbLine
 10
182.8985709999999
 20
209.717143
 30
0.0
 11
252.898571
 21
209.717143
 31
0.0
  0
LINE
  5
1BF
330
1E
100
AcDbEntity
  8
CSLAYER1
  6
CONTINUOUS
 62
     3
100
AcDbLine
 10
252.898571
 20
209.717143
 30
0.0
 11
252.898571
 21
173.717143
 31
0.0
  0
LINE
  5
1C0
330
1E
100
AcDbEntity
  8
CSLAYER1
  6
CONTINUOUS
 62
     3
100
AcDbLine
 10
253.1985709999999
 20
173.717143
 30
0.0
 11
252.898571
 21
174.017143
 31
0.0
  0
LINE
  5
1C1
330
1E
100
AcDbEntity
  8
CSLAYER1
  6
CONTINUOUS
 62
     3
100
AcDbLine
 10
257.8985709999999
 20
173.717143
 30
0.0
 11
182.8985709999999
 21
173.717143
 31
0.0
  0
LINE
  5
1C2
330
1E
100
AcDbEntity
  8
CSLAYER1
  6
CONTINUOUS
 62
     3
100
AcDbLine
 10
182.8985709999999
 20
173.717143
 30
0.0
 11
182.8985709999999
 21
209.717143
 31
0.0
  0
LINE
  5
1C3
330
1E
100
AcDbEntity
  8
CSLAYER1
  6
CONTINUOUS
 62
     3
100
AcDbLine
 10
168.8350629999999
 20
192.2171429999999
 30
0.0
 11
164.96208
 21
192.2171429999999
 31
0.0
  0
LINE
  5
1C4
330
1E
100
AcDbEntity
  8
CSLAYER1
  6
CONTINUOUS
 62
     3
100
AcDbLine
 10
164.96208
 20
191.2171429999999
 30
0.0
 11
168.8350629999999
 21
191.2171429999999
 31
0.0
  0
CIRCLE
  5
1C5
330
1E
100
AcDbEntity
  8
CSLAYER1
  6
CONTINUOUS
 62
     3
100
AcDbCircle
 10
166.898571
 20
191.7171429999999
 30
0.0
 40
2.0
  0
ARC
  5
1C6
330
1E
100
AcDbEntity
  8
CSLAYER1
  6
CONTINUOUS
 62
     3
100
AcDbCircle
 10
166.898571
 20
191.7171429999999
 30
0.0
 40
1.5
100
AcDbArc
 50
19.47122099999998
 51
160.528779
  0
ARC
  5
1C7
330
1E
100
AcDbEntity
  8
CSLAYER1
  6
CONTINUOUS
 62
     3
100
AcDbCircle
 10
166.898571
 20
191.7171429999999
 30
0.0
 40
1.5
100
AcDbArc
 50
199.4712209999999
 51
340.528779
  0
CIRCLE
  5
1C8
330
1E
100
AcDbEntity
  8
CSLAYER1
  6
CONTINUOUS
 62
     3
100
AcDbCircle
 10
204.898571
 20
177.7171429999999
 30
0.0
 40
1.649999999999999
  0
LINE
  5
1C9
330
1E
100
AcDbEntity
  8
CSLAYER1
  6
CONTINUOUS
 62
     3
100
AcDbLine
 10
208.898571
 20
173.717143
 30
0.0
 11
208.898571
 21
209.717143
 31
0.0
  0
CIRCLE
  5
1CA
330
1E
100
AcDbEntity
  8
CSLAYER1
  6
CONTINUOUS
 62
     3
100
AcDbCircle
 10
204.898571
 20
205.7171429999999
 30
0.0
 40
1.649999999999999
  0
LINE
  5
1CB
330
1E
100
AcDbEntity
  8
CSLAYER1
  6
CONTINUOUS
 62
     3
100
AcDbLine
 10
225.898571
 20
209.717143
 30
0.0
 11
225.898571
 21
173.717143
 31
0.0
  0
CIRCLE
  5
1CC
330
1E
100
AcDbEntity
  8
CSLAYER1
  6
CONTINUOUS
 62
     3
100
AcDbCircle
 10
234.898571
 20
177.7171429999999
 30
0.0
 40
1.649999999999999
  0
LINE
  5
1CD
330
1E
100
AcDbEntity
  8
CSLAYER1
  6
CONTINUOUS
 62
     3
100
AcDbLine
 10
238.898571
 20
180.999345
 30
0.0
 11
238.898571
 21
173.717143
 31
0.0
  0
LINE
  5
1CE
330
1E
100
AcDbEntity
  8
CSLAYER1
  6
CONTINUOUS
 62
     3
100
AcDbLine
 10
240.898571
 20
182.999345
 30
0.0
 11
251.8985709999999
 21
182.999345
 31
0.0
  0
LINE
  5
1CF
330
1E
100
AcDbEntity
  8
CSLAYER1
  6
CONTINUOUS
 62
     3
100
AcDbLine
 10
251.8985709999999
 20
182.999345
 30
0.0
 11
252.898571
 21
183.999345
 31
0.0
  0
LINE
  5
1D0
330
1E
100
AcDbEntity
  8
CSLAYER1
  6
CONTINUOUS
 62
     3
100
AcDbLine
 10
251.8985709999999
 20
182.999345
 30
0.0
 11
251.8985709999999
 21
200.4349409999999
 31
0.0
  0
LINE
  5
1D1
330
1E
100
AcDbEntity
  8
CSLAYER1
  6
CONTINUOUS
 62
     3
100
AcDbLine
 10
251.8985709999999
 20
200.4349409999999
 30
0.0
 11
252.898571
 21
199.4349409999999
 31
0.0
  0
LINE
  5
1D2
330
1E
100
AcDbEntity
  8
CSLAYER1
  6
CONTINUOUS
 62
     3
100
AcDbLine
 10
251.8985709999999
 20
200.4349409999999
 30
0.0
 11
240.898571
 21
200.4349409999999
 31
0.0
  0
LINE
  5
1D3
330
1E
100
AcDbEntity
  8
CSLAYER1
  6
CONTINUOUS
 62
     3
100
AcDbLine
 10
238.898571
 20
202.4349409999999
 30
0.0
 11
238.898571
 21
209.717143
 31
0.0
  0
CIRCLE
  5
1D4
330
1E
100
AcDbEntity
  8
CSLAYER1
  6
CONTINUOUS
 62
     3
100
AcDbCircle
 10
234.898571
 20
205.7171429999999
 30
0.0
 40
1.649999999999999
  0
ARC
  5
1D5
330
1E
100
AcDbEntity
  8
CSLAYER1
  6
CONTINUOUS
 62
     3
100
AcDbCircle
 10
240.898571
 20
202.4349409999999
 30
0.0
 40
2.0
100
AcDbArc
 50
180.0
 51
270.0
  0
LINE
  5
1D6
330
1E
100
AcDbEntity
  8
CSLAYER1
  6
CONTINUOUS
 62
     3
100
AcDbLine
 10
252.898571
 20
209.4171429999999
 30
0.0
 11
253.1985709999999
 21
209.717143
 31
0.0
  0
LINE
  5
1D7
330
1E
100
AcDbEntity
  8
CSLAYER1
  6
CONTINUOUS
 62
     3
100
AcDbLine
 10
253.1985709999999
 20
209.717143
 30
0.0
 11
257.8985709999999
 21
209.717143
 31
0.0
  0
LINE
  5
1D8
330
1E
100
AcDbEntity
  8
CSLAYER1
  6
CONTINUOUS
 62
     3
100
AcDbLine
 10
257.8985709999999
 20
209.717143
 30
0.0
 11
257.8985709999999
 21
208.717143
 31
0.0
  0
ARC
  5
1D9
330
1E
100
AcDbEntity
  8
CSLAYER1
  6
CONTINUOUS
 62
     3
100
AcDbCircle
 10
259.898571
 20
208.717143
 30
0.0
 40
2.0
100
AcDbArc
 50
180.0
 51
270.0
  0
LINE
  5
1DA
330
1E
100
AcDbEntity
  8
CSLAYER1
  6
CONTINUOUS
 62
     3
100
AcDbLine
 10
259.898571
 20
206.717143
 30
0.0
 11
271.398571
 21
206.717143
 31
0.0
  0
LINE
  5
1DB
330
1E
100
AcDbEntity
  8
CSLAYER1
  6
CONTINUOUS
 62
     3
100
AcDbLine
 10
271.398571
 20
206.717143
 30
0.0
 11
272.8985709999999
 21
205.217143
 31
0.0
  0
LINE
  5
1DC
330
1E
100
AcDbEntity
  8
CSLAYER1
  6
CONTINUOUS
 62
     3
100
AcDbLine
 10
272.8985709999999
 20
205.217143
 30
0.0
 11
272.8985709999999
 21
178.217143
 31
0.0
  0
LINE
  5
1DD
330
1E
100
AcDbEntity
  8
CSLAYER1
  6
CONTINUOUS
 62
     3
100
AcDbLine
 10
272.8985709999999
 20
178.217143
 30
0.0
 11
271.398571
 21
176.7171429999999
 31
0.0
  0
LINE
  5
1DE
330
1E
100
AcDbEntity
  8
CSLAYER1
  6
CONTINUOUS
 62
     3
100
AcDbLine
 10
271.398571
 20
176.7171429999999
 30
0.0
 11
259.898571
 21
176.7171429999999
 31
0.0
  0
ARC
  5
1DF
330
1E
100
AcDbEntity
  8
CSLAYER1
  6
CONTINUOUS
 62
     3
100
AcDbCircle
 10
259.898571
 20
174.7171429999999
 30
0.0
 40
2.0
100
AcDbArc
 50
90.0
 51
180.0
  0
LINE
  5
1E0
330
1E
100
AcDbEntity
  8
CSLAYER1
  6
CONTINUOUS
 62
     3
100
AcDbLine
 10
257.8985709999999
 20
174.7171429999999
 30
0.0
 11
257.8985709999999
 21
173.717143
 31
0.0
  0
LINE
  5
1E1
330
1E
100
AcDbEntity
  8
CSLAYER1
  6
CONTINUOUS
 62
     3
100
AcDbLine
 10
271.398571
 20
176.7171429999999
 30
0.0
 11
271.398571
 21
206.717143
 31
0.0
  0
ARC
  5
1E2
330
1E
100
AcDbEntity
  8
CSLAYER1
  6
CONTINUOUS
 62
     3
100
AcDbCircle
 10
240.898571
 20
180.999345
 30
0.0
 40
2.0
100
AcDbArc
 50
90.0
 51
180.0
  0
LINE
  5
1E3
330
1E
100
AcDbEntity
  8
CSLAYER1
  6
CONTINUOUS
 62
     3
100
AcDbLine
 10
102.0328569999999
 20
209.717143
 30
0.0
 11
102.0328569999999
 21
173.717143
 31
0.0
  0
LINE
  5
1E4
330
1E
100
AcDbEntity
  8
CSLAYER1
  6
CONTINUOUS
 62
     3
100
AcDbLine
 10
102.0328569999999
 20
173.717143
 30
0.0
 11
66.03285699999999
 21
173.717143
 31
0.0
  0
LINE
  5
1E5
330
1E
100
AcDbEntity
  8
CSLAYER1
  6
CONTINUOUS
 62
     3
100
AcDbLine
 10
66.03285699999999
 20
173.717143
 30
0.0
 11
66.03285699999999
 21
209.717143
 31
0.0
  0
LINE
  5
1E6
330
1E
100
AcDbEntity
  8
CSLAYER1
  6
CONTINUOUS
 62
     3
100
AcDbLine
 10
66.03285699999999
 20
209.717143
 30
0.0
 11
102.0328569999999
 21
209.717143
 31
0.0
  0
ARC
  5
1E7
330
1E
100
AcDbEntity
  8
CSLAYER1
  6
CONTINUOUS
 62
     3
100
AcDbCircle
 10
111.032857
 20
198.993338
 30
0.0
 40
14.0
100
AcDbArc
 50
130.0052009999999
 51
180.0
  0
LINE
  5
1E8
330
1E
100
AcDbEntity
  8
CSLAYER1
  6
CONTINUOUS
 62
     3
100
AcDbLine
 10
97.032857
 20
198.993338
 30
0.0
 11
97.032857
 21
184.4409479999999
 31
0.0
  0
ARC
  5
1E9
330
1E
100
AcDbEntity
  8
CSLAYER1
  6
CONTINUOUS
 62
     3
100
AcDbCircle
 10
111.032857
 20
184.4409479999999
 30
0.0
 40
14.0
100
AcDbArc
 50
180.0
 51
229.994799
  0
LINE
  5
1EA
330
1E
100
AcDbEntity
  8
CSLAYER1
  6
CONTINUOUS
 62
     3
100
AcDbLine
 10
97.032857
 20
184.217143
 30
0.0
 11
90.03285699999997
 21
184.217143
 31
0.0
  0
LINE
  5
1EB
330
1E
100
AcDbEntity
  8
CSLAYER1
  6
CONTINUOUS
 62
     3
100
AcDbLine
 10
90.03285699999997
 20
189.717143
 30
0.0
 11
78.03285699999998
 21
189.717143
 31
0.0
  0
LINE
  5
1EC
330
1E
100
AcDbEntity
  8
CSLAYER1
  6
CONTINUOUS
 62
     3
100
AcDbLine
 10
78.03285699999998
 20
193.717143
 30
0.0
 11
90.03285699999997
 21
193.717143
 31
0.0
  0
LINE
  5
1ED
330
1E
100
AcDbEntity
  8
CSLAYER1
  6
CONTINUOUS
 62
     3
100
AcDbLine
 10
90.03285699999997
 20
199.2171429999999
 30
0.0
 11
97.032857
 21
199.2171429999999
 31
0.0
  0
ARC
  5
1EE
330
1E
100
AcDbEntity
  8
CSLAYER1
  6
CONTINUOUS
 62
     3
100
AcDbCircle
 10
84.03285699999997
 20
191.7171429999999
 30
0.0
 40
15.2
100
AcDbArc
 50
66.750437
 51
113.2495629999999
  0
LINE
  5
1EF
330
1E
100
AcDbEntity
  8
CSLAYER1
  6
CONTINUOUS
 62
     3
100
AcDbLine
 10
78.03285699999998
 20
209.717143
 30
0.0
 11
78.03285699999998
 21
173.717143
 31
0.0
  0
ARC
  5
1F0
330
1E
100
AcDbEntity
  8
CSLAYER1
  6
CONTINUOUS
 62
     3
100
AcDbCircle
 10
84.03285699999997
 20
191.7171429999999
 30
0.0
 40
15.2
100
AcDbArc
 50
246.7504369999999
 51
293.2495629999999
  0
LINE
  5
1F1
330
1E
100
AcDbEntity
  8
CSLAYER1
  6
CONTINUOUS
 62
     3
100
AcDbLine
 10
90.03285699999997
 20
173.717143
 30
0.0
 11
90.03285699999997
 21
209.717143
 31
0.0
  0
LINE
  5
1F2
330
1E
100
AcDbEntity
  8
CSLAYER1
  6
CONTINUOUS
 62
     3
100
AcDbLine
 10
78.03285699999998
 20
199.2171429999999
 30
0.0
 11
71.03285699999998
 21
199.2171429999999
 31
0.0
  0
LINE
  5
1F3
330
1E
100
AcDbEntity
  8
CSLAYER1
  6
CONTINUOUS
 62
     3
100
AcDbLine
 10
71.03285699999998
 20
198.993338
 30
0.0
 11
71.03285699999998
 21
184.4409479999999
 31
0.0
  0
LINE
  5
1F4
330
1E
100
AcDbEntity
  8
CSLAYER1
  6
CONTINUOUS
 62
     3
100
AcDbLine
 10
71.03285699999998
 20
184.217143
 30
0.0
 11
78.03285699999998
 21
184.217143
 31
0.0
  0
LINE
  5
1F5
330
1E
100
AcDbEntity
  8
CSLAYER1
  6
CONTINUOUS
 62
     3
100
AcDbLine
 10
68.68298299999999
 20
190.2171429999999
 30
0.0
 11
66.932857
 21
190.2171429999999
 31
0.0
  0
LINE
  5
1F6
330
1E
100
AcDbEntity
  8
CSLAYER1
  6
CONTINUOUS
 62
     3
100
AcDbLine
 10
66.932857
 20
190.2171429999999
 30
0.0
 11
66.53285699999999
 21
190.617143
 31
0.0
  0
LINE
  5
1F7
330
1E
100
AcDbEntity
  8
CSLAYER1
  6
CONTINUOUS
 62
     3
100
AcDbLine
 10
66.53285699999999
 20
190.617143
 30
0.0
 11
66.53285699999999
 21
192.8171429999999
 31
0.0
  0
LINE
  5
1F8
330
1E
100
AcDbEntity
  8
CSLAYER1
  6
CONTINUOUS
 62
     3
100
AcDbLine
 10
66.53285699999999
 20
192.8171429999999
 30
0.0
 11
66.932857
 21
193.217143
 31
0.0
  0
LINE
  5
1F9
330
1E
100
AcDbEntity
  8
CSLAYER1
  6
CONTINUOUS
 62
     3
100
AcDbLine
 10
66.932857
 20
193.217143
 30
0.0
 11
68.68298299999999
 21
193.217143
 31
0.0
  0
ARC
  5
1FA
330
1E
100
AcDbEntity
  8
CSLAYER1
  6
CONTINUOUS
 62
     3
100
AcDbCircle
 10
57.03285699999999
 20
198.993338
 30
0.0
 40
14.0
100
AcDbArc
 50
0.0
 51
49.994799
  0
ARC
  5
1FB
330
1E
100
AcDbEntity
  8
CSLAYER1
  6
CONTINUOUS
 62
     3
100
AcDbCircle
 10
57.03285699999999
 20
184.4409479999999
 30
0.0
 40
14.0
100
AcDbArc
 50
310.005201
 51
0.0
  0
LINE
  5
1FC
330
1E
100
AcDbEntity
  8
CSLAYER1
  6
CENTER
 62
     4
100
AcDbLine
 10
166.898571
 20
94.318605
 30
0.0
 11
166.898571
 21
132.4971429999999
 31
0.0
  0
CIRCLE
  5
1FD
330
1E
100
AcDbEntity
  8
CSLAYER1
  6
CONTINUOUS
 62
     4
100
AcDbCircle
 10
229.898571
 20
128.4971429999999
 30
0.0
 40
2.0
  0
LINE
  5
1FE
330
1E
100
AcDbEntity
  8
CSLAYER1
  6
CENTER
 62
     4
100
AcDbLine
 10
229.898571
 20
106.3045709999999
 30
0.0
 11
229.898571
 21
93.25714299999999
 31
0.0
  0
CIRCLE
  5
1FF
330
1E
100
AcDbEntity
  8
CSLAYER1
  6
CONTINUOUS
 62
     4
100
AcDbCircle
 10
229.898571
 20
100.497143
 30
0.0
 40
2.0
  0
LINE
  5
200
330
1E
100
AcDbEntity
  8
CSLAYER1
  6
CENTER
 62
     4
100
AcDbLine
 10
234.77
 20
100.497143
 30
0.0
 11
196.490251
 21
100.497143
 31
0.0
  0
LINE
  5
201
330
1E
100
AcDbEntity
  8
CSLAYER1
  6
CENTER
 62
     4
100
AcDbLine
 10
199.898571
 20
105.42
 30
0.0
 11
199.898571
 21
92.81485700000001
 31
0.0
  0
CIRCLE
  5
202
330
1E
100
AcDbEntity
  8
CSLAYER1
  6
CONTINUOUS
 62
     4
100
AcDbCircle
 10
199.898571
 20
100.497143
 30
0.0
 40
2.0
  0
CIRCLE
  5
203
330
1E
100
AcDbEntity
  8
CSLAYER1
  6
CONTINUOUS
 62
     4
100
AcDbCircle
 10
199.898571
 20
128.4971429999999
 30
0.0
 40
2.0
  0
LINE
  5
204
330
1E
100
AcDbEntity
  8
CSLAYER1
  6
CENTER
 62
     4
100
AcDbLine
 10
204.898571
 20
171.9569219999999
 30
0.0
 11
204.898571
 21
181.493143
 31
0.0
  0
CIRCLE
  5
205
330
1E
100
AcDbEntity
  8
CSLAYER1
  6
CONTINUOUS
 62
     4
100
AcDbCircle
 10
204.898571
 20
177.7171429999999
 30
0.0
 40
2.0
  0
LINE
  5
206
330
1E
100
AcDbEntity
  8
CSLAYER1
  6
CENTER
 62
     4
100
AcDbLine
 10
200.019714
 20
177.7171429999999
 30
0.0
 11
239.698571
 21
177.7171429999999
 31
0.0
  0
CIRCLE
  5
207
330
1E
100
AcDbEntity
  8
CSLAYER1
  6
CONTINUOUS
 62
     4
100
AcDbCircle
 10
234.898571
 20
177.7171429999999
 30
0.0
 40
2.0
  0
LINE
  5
208
330
1E
100
AcDbEntity
  8
CSLAYER1
  6
CENTER
 62
     4
100
AcDbLine
 10
234.898571
 20
181.493143
 30
0.0
 11
234.898571
 21
171.69562
 31
0.0
  0
LINE
  5
209
330
1E
100
AcDbEntity
  8
CSLAYER1
  6
CENTER
 62
     4
100
AcDbLine
 10
234.898571
 20
201.9411429999999
 30
0.0
 11
234.898571
 21
211.086783
 31
0.0
  0
CIRCLE
  5
20A
330
1E
100
AcDbEntity
  8
CSLAYER1
  6
CONTINUOUS
 62
     4
100
AcDbCircle
 10
234.898571
 20
205.7171429999999
 30
0.0
 40
2.0
  0
LINE
  5
20B
330
1E
100
AcDbEntity
  8
CSLAYER1
  6
CENTER
 62
     4
100
AcDbLine
 10
239.698571
 20
205.7171429999999
 30
0.0
 11
200.019714
 21
205.7171429999999
 31
0.0
  0
LINE
  5
20C
330
1E
100
AcDbEntity
  8
CSLAYER1
  6
CENTER
 62
     4
100
AcDbLine
 10
204.898571
 20
201.9411429999999
 30
0.0
 11
204.898571
 21
211.4787349999999
 31
0.0
  0
CIRCLE
  5
20D
330
1E
100
AcDbEntity
  8
CSLAYER1
  6
CONTINUOUS
 62
     4
100
AcDbCircle
 10
204.898571
 20
205.7171429999999
 30
0.0
 40
2.0
  0
LINE
  5
20E
330
1E
100
AcDbEntity
  8
CSLAYER1
  6
CENTER
 62
     4
100
AcDbLine
 10
166.898571
 20
195.703782
 30
0.0
 11
166.898571
 21
187.602712
 31
0.0
  0
LINE
  5
20F
330
1E
100
AcDbEntity
  8
CSLAYER1
  6
CENTER
 62
     4
100
AcDbLine
 10
155.6560879999999
 20
191.7171429999999
 30
0.0
 11
276.857729
 21
191.7171429999999
 31
0.0
  0
LINE
  5
210
330
1E
100
AcDbEntity
  8
CSLAYER1
  6
CENTER
 62
     4
100
AcDbLine
 10
277.580027
 20
114.497143
 30
0.0
 11
157.2451439999998
 21
114.497143
 31
0.0
  0
LINE
  5
211
330
1E
100
AcDbEntity
  8
CSLAYER1
  6
CONTINUOUS
 62
     4
100
AcDbLine
 10
165.648571
 20
99.14726800000003
 30
0.0
 11
165.648571
 21
97.147143
 31
0.0
  0
LINE
  5
212
330
1E
100
AcDbEntity
  8
CSLAYER1
  6
CONTINUOUS
 62
     4
100
AcDbLine
 10
165.398571
 20
97.39714300000001
 30
0.0
 11
168.3985709999999
 21
97.39714300000001
 31
0.0
  0
LINE
  5
213
330
1E
100
AcDbEntity
  8
CSLAYER1
  6
CONTINUOUS
 62
     4
100
AcDbLine
 10
168.148571
 20
97.147143
 30
0.0
 11
168.148571
 21
99.14726800000003
 31
0.0
  0
LINE
  5
214
330
1E
100
AcDbEntity
  8
CSLAYER1
  6
CENTER
 62
     4
100
AcDbLine
 10
84.03285699999997
 20
169.150426
 30
0.0
 11
84.03285699999997
 21
212.891538
 31
0.0
  0
LINE
  5
215
330
1E
100
AcDbEntity
  8
CSLAYER1
  6
CONTINUOUS
 62
     4
100
AcDbLine
 10
68.68298299999999
 20
192.9671429999999
 30
0.0
 11
66.682857
 21
192.9671429999999
 31
0.0
  0
LINE
  5
216
330
1E
100
AcDbEntity
  8
CSLAYER1
  6
CONTINUOUS
 62
     4
100
AcDbLine
 10
66.932857
 20
193.217143
 30
0.0
 11
66.932857
 21
190.2171429999999
 31
0.0
  0
LINE
  5
217
330
1E
100
AcDbEntity
  8
CSLAYER1
  6
CONTINUOUS
 62
     4
100
AcDbLine
 10
66.682857
 20
190.467143
 30
0.0
 11
68.68298299999999
 21
190.467143
 31
0.0
  0
LINE
  5
218
330
1E
100
AcDbEntity
  8
CSLAYER1
  6
CENTER
 62
     4
100
AcDbLine
 10
62.92201600000001
 20
191.7171429999999
 30
0.0
 11
68.936212
 21
191.7171429999999
 31
0.0
  0
DIMENSION
  5
219
330
1E
100
AcDbEntity
  8
CSLAYER1
 62
     4
100
AcDbDimension
  2
*D19
 10
272.8985709999999
 20
228.663979
 30
0.0
 11
262.89856
 21
229.163986
 31
0.0
 70
     1
100
AcDbAlignedDimension
 13
252.898571
 23
205.217143
 33
0.0
 14
272.8985709999999
 24
205.217143
 34
0.0
  0
DIMENSION
  5
21A
330
1E
100
AcDbEntity
  8
CSLAYER1
 62
     4
100
AcDbDimension
  2
*D20
 10
272.8985709999999
 20
222.663979
 30
0.0
 11
265.39856
 21
223.163986
 31
0.0
 70
     1
100
AcDbAlignedDimension
 13
257.8985709999999
 23
209.717143
 33
0.0
 14
272.8985709999999
 24
209.717143
 34
0.0
  0
LINE
  5
21B
330
1E
100
AcDbEntity
  8
CSLAYER1
  6
CENTER
 62
     4
100
AcDbLine
 10
199.898571
 20
134.5913139999999
 30
0.0
 11
199.898571
 21
123.6617139999999
 31
0.0
  0
LINE
  5
21C
330
1E
100
AcDbEntity
  8
CSLAYER1
  6
CENTER
 62
     4
100
AcDbLine
 10
229.898571
 20
135.5417139999999
 30
0.0
 11
229.898571
 21
123.1865139999999
 31
0.0
  0
LINE
  5
21D
330
1E
100
AcDbEntity
  8
CSLAYER1
  6
CONTINUOUS
 62
     3
100
AcDbLine
 10
68.632857
 20
194.4671429999999
 30
0.0
 11
68.632857
 21
188.9671429999999
 31
0.0
  0
LINE
  5
21E
330
1E
100
AcDbEntity
  8
CSLAYER1
  6
CONTINUOUS
 62
     3
100
AcDbLine
 10
71.03285699999998
 20
194.4671429999999
 30
0.0
 11
68.632857
 21
194.4671429999999
 31
0.0
  0
LINE
  5
21F
330
1E
100
AcDbEntity
  8
CSLAYER1
  6
CONTINUOUS
 62
     3
100
AcDbLine
 10
71.03285699999998
 20
191.7171429999999
 30
0.0
 11
68.936212
 21
191.7171429999999
 31
0.0
  0
ARC
  5
220
330
1E
100
AcDbEntity
  8
CSLAYER1
  6
CONTINUOUS
 62
     3
100
AcDbCircle
 10
71.900726
 20
193.0921429999999
 30
0.0
 40
3.267868999999998
100
AcDbArc
 50
155.117197
 51
204.882803
  0
LINE
  5
221
330
1E
100
AcDbEntity
  8
CSLAYER1
  6
CONTINUOUS
 62
     3
100
AcDbLine
 10
71.03285699999998
 20
188.9671429999999
 30
0.0
 11
68.632857
 21
188.9671429999999
 31
0.0
  0
ARC
  5
222
330
1E
100
AcDbEntity
  8
CSLAYER1
  6
CONTINUOUS
 62
     3
100
AcDbCircle
 10
71.900726
 20
190.3421429999999
 30
0.0
 40
3.267868999999998
100
AcDbArc
 50
155.117197
 51
204.882803
  0
LINE
  5
223
330
1E
100
AcDbEntity
  8
CSLAYER1
  6
CENTER
 62
     4
100
AcDbLine
 10
71.03285699999998
 20
191.7171429999999
 30
0.0
 11
105.5750399999999
 21
191.7171429999999
 31
0.0
  0
TEXT
  5
224
330
1E
100
AcDbEntity
  8
CSLAYER1
 62
     3
100
AcDbText
 10
352.7
 20
18.89999999999998
 30
0.0
 40
3.2
  1
GT-NS10L
 41
1.043478260869566
  7
FX_FONT
 72
     5
 11
378.3
 21
18.89999999999998
 31
0.0
100
AcDbText
  0
DIMENSION
  5
225
330
1E
100
AcDbEntity
  8
CSLAYER1
 62
     4
100
AcDbDimension
  2
*D21
 10
272.8985709999999
 20
234.011081
 30
0.0
 11
216.398575
 21
234.5110779999999
 31
0.0
100
AcDbAlignedDimension
 13
159.898571
 23
199.2171429999999
 33
0.0
 14
272.8985709999999
 24
205.217143
 34
0.0
100
AcDbRotatedDimension
  0
INSERT
  5
226
330
1E
100
AcDbEntity
  8
CSLAYER1
100
AcDbBlockReference
  2
FXDIM0000
 10
0.0
 20
0.0
 30
0.0
  0
DIMENSION
  5
227
330
1E
100
AcDbEntity
  8
CSLAYER1
 62
     4
100
AcDbDimension
  2
*D23
 10
367.9029889999998
 20
206.717143
 30
0.0
 11
367.403015
 21
191.717148
 31
0.0
 70
     1
100
AcDbAlignedDimension
 13
347.4814999999998
 23
176.7171429999999
 33
0.0
 14
347.4814999999998
 24
206.717143
 34
0.0
  0
DIMENSION
  5
228
330
1E
100
AcDbEntity
  8
CSLAYER1
 62
     4
100
AcDbDimension
  2
*D24
 10
323.533238
 20
222.4347069999999
 30
0.0
 11
314.748352
 21
214.244598
 31
0.0
100
AcDbAlignedDimension
 13
325.766056
 23
186.5121499999999
 33
0.0
 14
342.655914
 24
203.5634179999999
 34
0.0
 50
45.379092
100
AcDbRotatedDimension
  0
INSERT
  5
229
330
1E
100
AcDbEntity
  8
CSLAYER1
100
AcDbBlockReference
  2
FXDIM0001
 10
0.0
 20
0.0
 30
0.0
  0
LINE
  5
22A
330
1E
100
AcDbEntity
  8
CSLAYER1
  6
CONTINUOUS
 62
     3
100
AcDbLine
 10
327.5817519999999
 20
176.7171429999999
 30
0.0
 11
347.4814999999998
 21
176.7171429999999
 31
0.0
  0
ARC
  5
22B
330
1E
100
AcDbEntity
  8
CSLAYER1
  6
CONTINUOUS
 62
     3
100
AcDbCircle
 10
337.5316259999999
 20
191.7171429999999
 30
0.0
 40
16.5
100
AcDbArc
 50
294.619977
 51
65.38002299999999
  0
LINE
  5
22C
330
1E
100
AcDbEntity
  8
CSLAYER1
  6
CONTINUOUS
 62
     3
100
AcDbLine
 10
347.4814999999998
 20
206.717143
 30
0.0
 11
327.5817519999999
 21
206.717143
 31
0.0
  0
ARC
  5
22D
330
1E
100
AcDbEntity
  8
CSLAYER1
  6
CONTINUOUS
 62
     3
100
AcDbCircle
 10
337.5316259999999
 20
191.7171429999999
 30
0.0
 40
16.5
100
AcDbArc
 50
114.619977
 51
245.380023
  0
CIRCLE
  5
22E
330
1E
100
AcDbEntity
  8
CSLAYER1
  6
CONTINUOUS
 62
     3
100
AcDbCircle
 10
346.016907
 20
200.2024239999999
 30
0.0
 40
1.649999999999999
  0
CIRCLE
  5
22F
330
1E
100
AcDbEntity
  8
CSLAYER1
  6
CONTINUOUS
 62
     3
100
AcDbCircle
 10
337.5316259999999
 20
191.7171429999999
 30
0.0
 40
4.25
  0
CIRCLE
  5
230
330
1E
100
AcDbEntity
  8
CSLAYER1
  6
CONTINUOUS
 62
     3
100
AcDbCircle
 10
337.5316259999999
 20
191.7171429999999
 30
0.0
 40
18.0
  0
CIRCLE
  5
231
330
1E
100
AcDbEntity
  8
CSLAYER1
  6
CONTINUOUS
 62
     3
100
AcDbCircle
 10
329.046345
 20
183.231861
 30
0.0
 40
1.649999999999999
  0
LINE
  5
232
330
1E
100
AcDbEntity
  8
CSLAYER1
  6
CENTER
 62
     4
100
AcDbLine
 10
314.387446
 20
191.7171429999999
 30
0.0
 11
361.5728669999998
 21
191.7171429999999
 31
0.0
  0
LINE
  5
233
330
1E
100
AcDbEntity
  8
CSLAYER1
  6
CENTER
 62
     4
100
AcDbLine
 10
349.192999
 20
197.026333
 30
0.0
 11
342.655914
 21
203.5634179999999
 31
0.0
  0
LINE
  5
234
330
1E
100
AcDbEntity
  8
CSLAYER1
  6
CENTER
 62
     4
100
AcDbLine
 10
348.5951249999998
 20
202.780642
 30
0.0
 11
342.138745
 21
196.324262
 31
0.0
  0
CIRCLE
  5
235
330
1E
100
AcDbEntity
  8
CSLAYER1
  6
CONTINUOUS
 62
     4
100
AcDbCircle
 10
337.5316259999999
 20
191.7171429999999
 30
0.0
 40
4.75
  0
CIRCLE
  5
236
330
1E
100
AcDbEntity
  8
CSLAYER1
  6
CONTINUOUS
 62
     4
100
AcDbCircle
 10
346.016907
 20
200.2024239999999
 30
0.0
 40
2.0
  0
LINE
  5
237
330
1E
100
AcDbEntity
  8
CSLAYER1
  6
CENTER
 62
     4
100
AcDbLine
 10
337.5316259999999
 20
169.552457
 30
0.0
 11
337.5316259999999
 21
213.786731
 31
0.0
  0
LINE
  5
238
330
1E
100
AcDbEntity
  8
CSLAYER1
  6
CENTER
 62
     4
100
AcDbLine
 10
332.62596
 20
179.652246
 30
0.0
 11
325.766056
 21
186.5121499999999
 31
0.0
  0
LINE
  5
239
330
1E
100
AcDbEntity
  8
CSLAYER1
  6
CENTER
 62
     4
100
AcDbLine
 10
326.159204
 20
180.3447209999999
 30
0.0
 11
332.131356
 21
186.3168729999999
 31
0.0
  0
CIRCLE
  5
23A
330
1E
100
AcDbEntity
  8
CSLAYER1
  6
CONTINUOUS
 62
     4
100
AcDbCircle
 10
329.046345
 20
183.231861
 30
0.0
 40
2.0
  0
LINE
  5
23B
330
1E
100
AcDbEntity
  8
CSLAYER1
  6
CONTINUOUS
 62
     3
100
AcDbLine
 10
319.5316259999998
 20
209.717143
 30
0.0
 11
355.5316259999998
 21
209.717143
 31
0.0
  0
LINE
  5
23C
330
1E
100
AcDbEntity
  8
CSLAYER1
  6
CONTINUOUS
 62
     3
100
AcDbLine
 10
319.5316259999998
 20
209.717143
 30
0.0
 11
319.5316259999998
 21
173.717143
 31
0.0
  0
LINE
  5
23D
330
1E
100
AcDbEntity
  8
CSLAYER1
  6
CONTINUOUS
 62
     3
100
AcDbLine
 10
319.5316259999998
 20
173.717143
 30
0.0
 11
355.5316259999998
 21
173.717143
 31
0.0
  0
LINE
  5
23E
330
1E
100
AcDbEntity
  8
CSLAYER1
  6
CONTINUOUS
 62
     3
100
AcDbLine
 10
355.5316259999998
 20
209.717143
 30
0.0
 11
355.5316259999998
 21
173.717143
 31
0.0
  0
CIRCLE
  5
23F
330
1E
100
AcDbEntity
  8
CSLAYER1
  6
CONTINUOUS
 62
     3
100
AcDbCircle
 10
337.5316259999999
 20
191.7171429999999
 30
0.0
 40
3.0
  0
INSERT
  5
240
330
1E
100
AcDbEntity
  8
CSLAYER1
100
AcDbBlockReference
  2
FXDIM0002
 10
0.0
 20
0.0
 30
0.0
  0
LINE
  5
241
330
1E
100
AcDbEntity
  8
CSLAYER1
  6
CENTER
 62
     4
100
AcDbLine
 10
337.5316259999999
 20
191.7171429999999
 30
0.0
 11
316.2892189999999
 21
197.409029
 31
0.0
  0
LINE
  5
242
330
1E
100
AcDbEntity
  8
CSLAYER1
  6
CENTER
 62
     4
100
AcDbLine
 10
270.166783
 20
197.540571
 30
0.0
 11
255.5753649999999
 21
197.540571
 31
0.0
  0
LINE
  5
243
330
1E
100
AcDbEntity
  8
CSLAYER1
  6
CENTER
 62
     4
100
AcDbLine
 10
262.898571
 20
190.431936
 30
0.0
 11
262.898571
 21
204.5163159999999
 31
0.0
  0
POLYLINE
  5
244
330
1E
100
AcDbEntity
  8
CSLAYER1
  6
CONTINUOUS
 62
     4
100
AcDb2dPolyline
 66
     1
 10
0.0
 20
0.0
 30
0.0
  0
VERTEX
  5
245
330
244
100
AcDbEntity
  8
CSLAYER1
  6
CONTINUOUS
 62
     4
100
AcDbVertex
100
AcDb2dVertex
 10
262.898571
 20
202.2905709999998
 30
0.0
  0
VERTEX
  5
246
330
244
100
AcDbEntity
  8
CSLAYER1
  6
CONTINUOUS
 62
     4
100
AcDbVertex
100
AcDb2dVertex
 10
262.498962
 20
202.272496
 30
0.0
  0
VERTEX
  5
247
330
244
100
AcDbEntity
  8
CSLAYER1
  6
CONTINUOUS
 62
     4
100
AcDbVertex
100
AcDb2dVertex
 10
262.102395
 20
202.218408
 30
0.0
  0
VERTEX
  5
248
330
244
100
AcDbEntity
  8
CSLAYER1
  6
CONTINUOUS
 62
     4
100
AcDbVertex
100
AcDb2dVertex
 10
261.711886
 20
202.1287189999999
 30
0.0
  0
VERTEX
  5
249
330
244
100
AcDbEntity
  8
CSLAYER1
  6
CONTINUOUS
 62
     4
100
AcDbVertex
100
AcDb2dVertex
 10
261.3304089999999
 20
202.004111
 30
0.0
  0
VERTEX
  5
24A
330
244
100
AcDbEntity
  8
CSLAYER1
  6
CONTINUOUS
 62
     4
100
AcDbVertex
100
AcDb2dVertex
 10
260.960867
 20
201.845533
 30
0.0
  0
VERTEX
  5
24B
330
244
100
AcDbEntity
  8
CSLAYER1
  6
CONTINUOUS
 62
     4
100
AcDbVertex
100
AcDb2dVertex
 10
260.6060709999999
 20
201.6541919999998
 30
0.0
  0
VERTEX
  5
24C
330
244
100
AcDbEntity
  8
CSLAYER1
  6
CONTINUOUS
 62
     4
100
AcDbVertex
100
AcDb2dVertex
 10
260.268723
 20
201.4315439999999
 30
0.0
  0
VERTEX
  5
24D
330
244
100
AcDbEntity
  8
CSLAYER1
  6
CONTINUOUS
 62
     4
100
AcDbVertex
100
AcDb2dVertex
 10
259.95139
 20
201.179282
 30
0.0
  0
VERTEX
  5
24E
330
244
100
AcDbEntity
  8
CSLAYER1
  6
CONTINUOUS
 62
     4
100
AcDbVertex
100
AcDb2dVertex
 10
259.656487
 20
200.8993289999999
 30
0.0
  0
VERTEX
  5
24F
330
244
100
AcDbEntity
  8
CSLAYER1
  6
CONTINUOUS
 62
     4
100
AcDbVertex
100
AcDb2dVertex
 10
259.386258
 20
200.5938129999999
 30
0.0
  0
VERTEX
  5
250
330
244
100
AcDbEntity
  8
CSLAYER1
  6
CONTINUOUS
 62
     4
100
AcDbVertex
100
AcDb2dVertex
 10
259.142759
 20
200.265059
 30
0.0
  0
VERTEX
  5
251
330
244
100
AcDbEntity
  8
CSLAYER1
  6
CONTINUOUS
 62
     4
100
AcDbVertex
100
AcDb2dVertex
 10
258.927845
 20
199.915571
 30
0.0
  0
VERTEX
  5
252
330
244
100
AcDbEntity
  8
CSLAYER1
  6
CONTINUOUS
 62
     4
100
AcDbVertex
100
AcDb2dVertex
 10
258.74315
 20
199.548008
 30
0.0
  0
VERTEX
  5
253
330
244
100
AcDbEntity
  8
CSLAYER1
  6
CONTINUOUS
 62
     4
100
AcDbVertex
100
AcDb2dVertex
 10
258.590081
 20
199.1651669999999
 30
0.0
  0
VERTEX
  5
254
330
244
100
AcDbEntity
  8
CSLAYER1
  6
CONTINUOUS
 62
     4
100
AcDbVertex
100
AcDb2dVertex
 10
258.469802
 20
198.769962
 30
0.0
  0
VERTEX
  5
255
330
244
100
AcDbEntity
  8
CSLAYER1
  6
CONTINUOUS
 62
     4
100
AcDbVertex
100
AcDb2dVertex
 10
258.3832279999999
 20
198.3653999999999
 30
0.0
  0
VERTEX
  5
256
330
244
100
AcDbEntity
  8
CSLAYER1
  6
CONTINUOUS
 62
     4
100
AcDbVertex
100
AcDb2dVertex
 10
258.3310189999999
 20
197.954561
 30
0.0
  0
VERTEX
  5
257
330
244
100
AcDbEntity
  8
CSLAYER1
  6
CONTINUOUS
 62
     4
100
AcDbVertex
100
AcDb2dVertex
 10
258.313571
 20
197.540571
 30
0.0
  0
VERTEX
  5
258
330
244
100
AcDbEntity
  8
CSLAYER1
  6
CONTINUOUS
 62
     4
100
AcDbVertex
100
AcDb2dVertex
 10
258.3310189999999
 20
197.126582
 30
0.0
  0
VERTEX
  5
259
330
244
100
AcDbEntity
  8
CSLAYER1
  6
CONTINUOUS
 62
     4
100
AcDbVertex
100
AcDb2dVertex
 10
258.3832279999999
 20
196.715743
 30
0.0
  0
VERTEX
  5
25A
330
244
100
AcDbEntity
  8
CSLAYER1
  6
CONTINUOUS
 62
     4
100
AcDbVertex
100
AcDb2dVertex
 10
258.469802
 20
196.311181
 30
0.0
  0
VERTEX
  5
25B
330
244
100
AcDbEntity
  8
CSLAYER1
  6
CONTINUOUS
 62
     4
100
AcDbVertex
100
AcDb2dVertex
 10
258.590081
 20
195.915976
 30
0.0
  0
VERTEX
  5
25C
330
244
100
AcDbEntity
  8
CSLAYER1
  6
CONTINUOUS
 62
     4
100
AcDbVertex
100
AcDb2dVertex
 10
258.74315
 20
195.533135
 30
0.0
  0
VERTEX
  5
25D
330
244
100
AcDbEntity
  8
CSLAYER1
  6
CONTINUOUS
 62
     4
100
AcDbVertex
100
AcDb2dVertex
 10
258.927845
 20
195.1655709999999
 30
0.0
  0
VERTEX
  5
25E
330
244
100
AcDbEntity
  8
CSLAYER1
  6
CONTINUOUS
 62
     4
100
AcDbVertex
100
AcDb2dVertex
 10
259.142759
 20
194.816083
 30
0.0
  0
VERTEX
  5
25F
330
244
100
AcDbEntity
  8
CSLAYER1
  6
CONTINUOUS
 62
     4
100
AcDbVertex
100
AcDb2dVertex
 10
259.386258
 20
194.48733
 30
0.0
  0
VERTEX
  5
260
330
244
100
AcDbEntity
  8
CSLAYER1
  6
CONTINUOUS
 62
     4
100
AcDbVertex
100
AcDb2dVertex
 10
259.656487
 20
194.181814
 30
0.0
  0
VERTEX
  5
261
330
244
100
AcDbEntity
  8
CSLAYER1
  6
CONTINUOUS
 62
     4
100
AcDbVertex
100
AcDb2dVertex
 10
259.95139
 20
193.9018599999999
 30
0.0
  0
VERTEX
  5
262
330
244
100
AcDbEntity
  8
CSLAYER1
  6
CONTINUOUS
 62
     4
100
AcDbVertex
100
AcDb2dVertex
 10
260.268723
 20
193.649599
 30
0.0
  0
VERTEX
  5
263
330
244
100
AcDbEntity
  8
CSLAYER1
  6
CONTINUOUS
 62
     4
100
AcDbVertex
100
AcDb2dVertex
 10
260.6060709999999
 20
193.426951
 30
0.0
  0
VERTEX
  5
264
330
244
100
AcDbEntity
  8
CSLAYER1
  6
CONTINUOUS
 62
     4
100
AcDbVertex
100
AcDb2dVertex
 10
260.960867
 20
193.235609
 30
0.0
  0
VERTEX
  5
265
330
244
100
AcDbEntity
  8
CSLAYER1
  6
CONTINUOUS
 62
     4
100
AcDbVertex
100
AcDb2dVertex
 10
261.3304089999999
 20
193.0770309999999
 30
0.0
  0
VERTEX
  5
266
330
244
100
AcDbEntity
  8
CSLAYER1
  6
CONTINUOUS
 62
     4
100
AcDbVertex
100
AcDb2dVertex
 10
261.711886
 20
192.952424
 30
0.0
  0
VERTEX
  5
267
330
244
100
AcDbEntity
  8
CSLAYER1
  6
CONTINUOUS
 62
     4
100
AcDbVertex
100
AcDb2dVertex
 10
262.102395
 20
192.862735
 30
0.0
  0
VERTEX
  5
268
330
244
100
AcDbEntity
  8
CSLAYER1
  6
CONTINUOUS
 62
     4
100
AcDbVertex
100
AcDb2dVertex
 10
262.498962
 20
192.808647
 30
0.0
  0
VERTEX
  5
269
330
244
100
AcDbEntity
  8
CSLAYER1
  6
CONTINUOUS
 62
     4
100
AcDbVertex
100
AcDb2dVertex
 10
262.898571
 20
192.790571
 30
0.0
  0
VERTEX
  5
26A
330
244
100
AcDbEntity
  8
CSLAYER1
  6
CONTINUOUS
 62
     4
100
AcDbVertex
100
AcDb2dVertex
 10
263.2981809999999
 20
192.808647
 30
0.0
  0
VERTEX
  5
26B
330
244
100
AcDbEntity
  8
CSLAYER1
  6
CONTINUOUS
 62
     4
100
AcDbVertex
100
AcDb2dVertex
 10
263.6947479999999
 20
192.862735
 30
0.0
  0
VERTEX
  5
26C
330
244
100
AcDbEntity
  8
CSLAYER1
  6
CONTINUOUS
 62
     4
100
AcDbVertex
100
AcDb2dVertex
 10
264.0852569999998
 20
192.952424
 30
0.0
  0
VERTEX
  5
26D
330
244
100
AcDbEntity
  8
CSLAYER1
  6
CONTINUOUS
 62
     4
100
AcDbVertex
100
AcDb2dVertex
 10
264.4667339999999
 20
193.0770309999999
 30
0.0
  0
VERTEX
  5
26E
330
244
100
AcDbEntity
  8
CSLAYER1
  6
CONTINUOUS
 62
     4
100
AcDbVertex
100
AcDb2dVertex
 10
264.8362759999999
 20
193.235609
 30
0.0
  0
VERTEX
  5
26F
330
244
100
AcDbEntity
  8
CSLAYER1
  6
CONTINUOUS
 62
     4
100
AcDbVertex
100
AcDb2dVertex
 10
265.191071
 20
193.426951
 30
0.0
  0
VERTEX
  5
270
330
244
100
AcDbEntity
  8
CSLAYER1
  6
CONTINUOUS
 62
     4
100
AcDbVertex
100
AcDb2dVertex
 10
265.5284189999999
 20
193.649599
 30
0.0
  0
VERTEX
  5
271
330
244
100
AcDbEntity
  8
CSLAYER1
  6
CONTINUOUS
 62
     4
100
AcDbVertex
100
AcDb2dVertex
 10
265.845753
 20
193.9018599999999
 30
0.0
  0
VERTEX
  5
272
330
244
100
AcDbEntity
  8
CSLAYER1
  6
CONTINUOUS
 62
     4
100
AcDbVertex
100
AcDb2dVertex
 10
266.1406559999999
 20
194.181814
 30
0.0
  0
VERTEX
  5
273
330
244
100
AcDbEntity
  8
CSLAYER1
  6
CONTINUOUS
 62
     4
100
AcDbVertex
100
AcDb2dVertex
 10
266.410885
 20
194.48733
 30
0.0
  0
VERTEX
  5
274
330
244
100
AcDbEntity
  8
CSLAYER1
  6
CONTINUOUS
 62
     4
100
AcDbVertex
100
AcDb2dVertex
 10
266.654384
 20
194.816083
 30
0.0
  0
VERTEX
  5
275
330
244
100
AcDbEntity
  8
CSLAYER1
  6
CONTINUOUS
 62
     4
100
AcDbVertex
100
AcDb2dVertex
 10
266.869298
 20
195.1655709999999
 30
0.0
  0
VERTEX
  5
276
330
244
100
AcDbEntity
  8
CSLAYER1
  6
CONTINUOUS
 62
     4
100
AcDbVertex
100
AcDb2dVertex
 10
267.0539929999999
 20
195.533135
 30
0.0
  0
VERTEX
  5
277
330
244
100
AcDbEntity
  8
CSLAYER1
  6
CONTINUOUS
 62
     4
100
AcDbVertex
100
AcDb2dVertex
 10
267.2070619999999
 20
195.915976
 30
0.0
  0
VERTEX
  5
278
330
244
100
AcDbEntity
  8
CSLAYER1
  6
CONTINUOUS
 62
     4
100
AcDbVertex
100
AcDb2dVertex
 10
267.3273409999999
 20
196.311181
 30
0.0
  0
VERTEX
  5
279
330
244
100
AcDbEntity
  8
CSLAYER1
  6
CONTINUOUS
 62
     4
100
AcDbVertex
100
AcDb2dVertex
 10
267.4139149999999
 20
196.715743
 30
0.0
  0
VERTEX
  5
27A
330
244
100
AcDbEntity
  8
CSLAYER1
  6
CONTINUOUS
 62
     4
100
AcDbVertex
100
AcDb2dVertex
 10
267.466124
 20
197.126582
 30
0.0
  0
VERTEX
  5
27B
330
244
100
AcDbEntity
  8
CSLAYER1
  6
CONTINUOUS
 62
     4
100
AcDbVertex
100
AcDb2dVertex
 10
267.4835709999999
 20
197.540571
 30
0.0
  0
VERTEX
  5
27C
330
244
100
AcDbEntity
  8
CSLAYER1
  6
CONTINUOUS
 62
     4
100
AcDbVertex
100
AcDb2dVertex
 10
267.466124
 20
197.954561
 30
0.0
  0
VERTEX
  5
27D
330
244
100
AcDbEntity
  8
CSLAYER1
  6
CONTINUOUS
 62
     4
100
AcDbVertex
100
AcDb2dVertex
 10
267.4139149999999
 20
198.3653999999999
 30
0.0
  0
VERTEX
  5
27E
330
244
100
AcDbEntity
  8
CSLAYER1
  6
CONTINUOUS
 62
     4
100
AcDbVertex
100
AcDb2dVertex
 10
267.3273409999999
 20
198.769962
 30
0.0
  0
VERTEX
  5
27F
330
244
100
AcDbEntity
  8
CSLAYER1
  6
CONTINUOUS
 62
     4
100
AcDbVertex
100
AcDb2dVertex
 10
267.2070619999999
 20
199.1651669999999
 30
0.0
  0
VERTEX
  5
280
330
244
100
AcDbEntity
  8
CSLAYER1
  6
CONTINUOUS
 62
     4
100
AcDbVertex
100
AcDb2dVertex
 10
267.0539929999999
 20
199.548008
 30
0.0
  0
VERTEX
  5
281
330
244
100
AcDbEntity
  8
CSLAYER1
  6
CONTINUOUS
 62
     4
100
AcDbVertex
100
AcDb2dVertex
 10
266.869298
 20
199.915571
 30
0.0
  0
VERTEX
  5
282
330
244
100
AcDbEntity
  8
CSLAYER1
  6
CONTINUOUS
 62
     4
100
AcDbVertex
100
AcDb2dVertex
 10
266.654384
 20
200.265059
 30
0.0
  0
VERTEX
  5
283
330
244
100
AcDbEntity
  8
CSLAYER1
  6
CONTINUOUS
 62
     4
100
AcDbVertex
100
AcDb2dVertex
 10
266.410885
 20
200.5938129999999
 30
0.0
  0
VERTEX
  5
284
330
244
100
AcDbEntity
  8
CSLAYER1
  6
CONTINUOUS
 62
     4
100
AcDbVertex
100
AcDb2dVertex
 10
266.1406559999999
 20
200.8993289999999
 30
0.0
  0
VERTEX
  5
285
330
244
100
AcDbEntity
  8
CSLAYER1
  6
CONTINUOUS
 62
     4
100
AcDbVertex
100
AcDb2dVertex
 10
265.845753
 20
201.179282
 30
0.0
  0
VERTEX
  5
286
330
244
100
AcDbEntity
  8
CSLAYER1
  6
CONTINUOUS
 62
     4
100
AcDbVertex
100
AcDb2dVertex
 10
265.5284189999999
 20
201.4315439999999
 30
0.0
  0
VERTEX
  5
287
330
244
100
AcDbEntity
  8
CSLAYER1
  6
CONTINUOUS
 62
     4
100
AcDbVertex
100
AcDb2dVertex
 10
265.191071
 20
201.6541919999998
 30
0.0
  0
VERTEX
  5
288
330
244
100
AcDbEntity
  8
CSLAYER1
  6
CONTINUOUS
 62
     4
100
AcDbVertex
100
AcDb2dVertex
 10
264.8362759999999
 20
201.845533
 30
0.0
  0
VERTEX
  5
289
330
244
100
AcDbEntity
  8
CSLAYER1
  6
CONTINUOUS
 62
     4
100
AcDbVertex
100
AcDb2dVertex
 10
264.4667339999999
 20
202.004111
 30
0.0
  0
VERTEX
  5
28A
330
244
100
AcDbEntity
  8
CSLAYER1
  6
CONTINUOUS
 62
     4
100
AcDbVertex
100
AcDb2dVertex
 10
264.0852569999998
 20
202.1287189999999
 30
0.0
  0
VERTEX
  5
28B
330
244
100
AcDbEntity
  8
CSLAYER1
  6
CONTINUOUS
 62
     4
100
AcDbVertex
100
AcDb2dVertex
 10
263.6947479999999
 20
202.218408
 30
0.0
  0
VERTEX
  5
28C
330
244
100
AcDbEntity
  8
CSLAYER1
  6
CONTINUOUS
 62
     4
100
AcDbVertex
100
AcDb2dVertex
 10
263.2981809999999
 20
202.272496
 30
0.0
  0
VERTEX
  5
28D
330
244
100
AcDbEntity
  8
CSLAYER1
  6
CONTINUOUS
 62
     4
100
AcDbVertex
100
AcDb2dVertex
 10
262.898571
 20
202.2905709999998
 30
0.0
  0
SEQEND
  5
28E
330
244
100
AcDbEntity
  8
CSLAYER1
 62
     4
  0
POLYLINE
  5
28F
330
1E
100
AcDbEntity
  8
CSLAYER1
  6
CONTINUOUS
 62
     3
100
AcDb2dPolyline
 66
     1
 10
0.0
 20
0.0
 30
0.0
  0
VERTEX
  5
290
330
28F
100
AcDbEntity
  8
CSLAYER1
  6
CONTINUOUS
 62
     3
100
AcDbVertex
100
AcDb2dVertex
 10
262.898571
 20
201.7905709999999
 30
0.0
  0
VERTEX
  5
291
330
28F
100
AcDbEntity
  8
CSLAYER1
  6
CONTINUOUS
 62
     3
100
AcDbVertex
100
AcDb2dVertex
 10
262.5407969999999
 20
201.774399
 30
0.0
  0
VERTEX
  5
292
330
28F
100
AcDbEntity
  8
CSLAYER1
  6
CONTINUOUS
 62
     3
100
AcDbVertex
100
AcDb2dVertex
 10
262.185746
 20
201.726004
 30
0.0
  0
VERTEX
  5
293
330
28F
100
AcDbEntity
  8
CSLAYER1
  6
CONTINUOUS
 62
     3
100
AcDbVertex
100
AcDb2dVertex
 10
261.8361189999999
 20
201.645756
 30
0.0
  0
VERTEX
  5
294
330
28F
100
AcDbEntity
  8
CSLAYER1
  6
CONTINUOUS
 62
     3
100
AcDbVertex
100
AcDb2dVertex
 10
261.4945789999999
 20
201.534265
 30
0.0
  0
VERTEX
  5
295
330
28F
100
AcDbEntity
  8
CSLAYER1
  6
CONTINUOUS
 62
     3
100
AcDbVertex
100
AcDb2dVertex
 10
261.1637229999999
 20
201.392379
 30
0.0
  0
VERTEX
  5
296
330
28F
100
AcDbEntity
  8
CSLAYER1
  6
CONTINUOUS
 62
     3
100
AcDbVertex
100
AcDb2dVertex
 10
260.846071
 20
201.221179
 30
0.0
  0
VERTEX
  5
297
330
28F
100
AcDbEntity
  8
CSLAYER1
  6
CONTINUOUS
 62
     3
100
AcDbVertex
100
AcDb2dVertex
 10
260.5440399999999
 20
201.021968
 30
0.0
  0
VERTEX
  5
298
330
28F
100
AcDbEntity
  8
CSLAYER1
  6
CONTINUOUS
 62
     3
100
AcDbVertex
100
AcDb2dVertex
 10
260.259928
 20
200.79626
 30
0.0
  0
VERTEX
  5
299
330
28F
100
AcDbEntity
  8
CSLAYER1
  6
CONTINUOUS
 62
     3
100
AcDbVertex
100
AcDb2dVertex
 10
259.995898
 20
200.545775
 30
0.0
  0
VERTEX
  5
29A
330
28F
100
AcDbEntity
  8
CSLAYER1
  6
CONTINUOUS
 62
     3
100
AcDbVertex
100
AcDb2dVertex
 10
259.753959
 20
200.2724189999999
 30
0.0
  0
VERTEX
  5
29B
330
28F
100
AcDbEntity
  8
CSLAYER1
  6
CONTINUOUS
 62
     3
100
AcDbVertex
100
AcDb2dVertex
 10
259.535952
 20
199.978271
 30
0.0
  0
VERTEX
  5
29C
330
28F
100
AcDbEntity
  8
CSLAYER1
  6
CONTINUOUS
 62
     3
100
AcDbVertex
100
AcDb2dVertex
 10
259.343537
 20
199.6655709999999
 30
0.0
  0
VERTEX
  5
29D
330
28F
100
AcDbEntity
  8
CSLAYER1
  6
CONTINUOUS
 62
     3
100
AcDbVertex
100
AcDb2dVertex
 10
259.178178
 20
199.336699
 30
0.0
  0
VERTEX
  5
29E
330
28F
100
AcDbEntity
  8
CSLAYER1
  6
CONTINUOUS
 62
     3
100
AcDbVertex
100
AcDb2dVertex
 10
259.041133
 20
198.994157
 30
0.0
  0
VERTEX
  5
29F
330
28F
100
AcDbEntity
  8
CSLAYER1
  6
CONTINUOUS
 62
     3
100
AcDbVertex
100
AcDb2dVertex
 10
258.9334459999999
 20
198.640552
 30
0.0
  0
VERTEX
  5
2A0
330
28F
100
AcDbEntity
  8
CSLAYER1
  6
CONTINUOUS
 62
     3
100
AcDbVertex
100
AcDb2dVertex
 10
258.855936
 20
198.2785759999999
 30
0.0
  0
VERTEX
  5
2A1
330
28F
100
AcDbEntity
  8
CSLAYER1
  6
CONTINUOUS
 62
     3
100
AcDbVertex
100
AcDb2dVertex
 10
258.809192
 20
197.910983
 30
0.0
  0
VERTEX
  5
2A2
330
28F
100
AcDbEntity
  8
CSLAYER1
  6
CONTINUOUS
 62
     3
100
AcDbVertex
100
AcDb2dVertex
 10
258.793571
 20
197.540571
 30
0.0
  0
VERTEX
  5
2A3
330
28F
100
AcDbEntity
  8
CSLAYER1
  6
CONTINUOUS
 62
     3
100
AcDbVertex
100
AcDb2dVertex
 10
258.809192
 20
197.170159
 30
0.0
  0
VERTEX
  5
2A4
330
28F
100
AcDbEntity
  8
CSLAYER1
  6
CONTINUOUS
 62
     3
100
AcDbVertex
100
AcDb2dVertex
 10
258.855936
 20
196.8025669999999
 30
0.0
  0
VERTEX
  5
2A5
330
28F
100
AcDbEntity
  8
CSLAYER1
  6
CONTINUOUS
 62
     3
100
AcDbVertex
100
AcDb2dVertex
 10
258.9334459999999
 20
196.4405899999999
 30
0.0
  0
VERTEX
  5
2A6
330
28F
100
AcDbEntity
  8
CSLAYER1
  6
CONTINUOUS
 62
     3
100
AcDbVertex
100
AcDb2dVertex
 10
259.041133
 20
196.086986
 30
0.0
  0
VERTEX
  5
2A7
330
28F
100
AcDbEntity
  8
CSLAYER1
  6
CONTINUOUS
 62
     3
100
AcDbVertex
100
AcDb2dVertex
 10
259.178178
 20
195.7444439999999
 30
0.0
  0
VERTEX
  5
2A8
330
28F
100
AcDbEntity
  8
CSLAYER1
  6
CONTINUOUS
 62
     3
100
AcDbVertex
100
AcDb2dVertex
 10
259.343537
 20
195.415571
 30
0.0
  0
VERTEX
  5
2A9
330
28F
100
AcDbEntity
  8
CSLAYER1
  6
CONTINUOUS
 62
     3
100
AcDbVertex
100
AcDb2dVertex
 10
259.535952
 20
195.102872
 30
0.0
  0
VERTEX
  5
2AA
330
28F
100
AcDbEntity
  8
CSLAYER1
  6
CONTINUOUS
 62
     3
100
AcDbVertex
100
AcDb2dVertex
 10
259.753959
 20
194.808724
 30
0.0
  0
VERTEX
  5
2AB
330
28F
100
AcDbEntity
  8
CSLAYER1
  6
CONTINUOUS
 62
     3
100
AcDbVertex
100
AcDb2dVertex
 10
259.995898
 20
194.535368
 30
0.0
  0
VERTEX
  5
2AC
330
28F
100
AcDbEntity
  8
CSLAYER1
  6
CONTINUOUS
 62
     3
100
AcDbVertex
100
AcDb2dVertex
 10
260.259928
 20
194.284882
 30
0.0
  0
VERTEX
  5
2AD
330
28F
100
AcDbEntity
  8
CSLAYER1
  6
CONTINUOUS
 62
     3
100
AcDbVertex
100
AcDb2dVertex
 10
260.5440399999999
 20
194.059175
 30
0.0
  0
VERTEX
  5
2AE
330
28F
100
AcDbEntity
  8
CSLAYER1
  6
CONTINUOUS
 62
     3
100
AcDbVertex
100
AcDb2dVertex
 10
260.846071
 20
193.8599629999999
 30
0.0
  0
VERTEX
  5
2AF
330
28F
100
AcDbEntity
  8
CSLAYER1
  6
CONTINUOUS
 62
     3
100
AcDbVertex
100
AcDb2dVertex
 10
261.1637229999999
 20
193.688763
 30
0.0
  0
VERTEX
  5
2B0
330
28F
100
AcDbEntity
  8
CSLAYER1
  6
CONTINUOUS
 62
     3
100
AcDbVertex
100
AcDb2dVertex
 10
261.4945789999999
 20
193.5468779999999
 30
0.0
  0
VERTEX
  5
2B1
330
28F
100
AcDbEntity
  8
CSLAYER1
  6
CONTINUOUS
 62
     3
100
AcDbVertex
100
AcDb2dVertex
 10
261.8361189999999
 20
193.435387
 30
0.0
  0
VERTEX
  5
2B2
330
28F
100
AcDbEntity
  8
CSLAYER1
  6
CONTINUOUS
 62
     3
100
AcDbVertex
100
AcDb2dVertex
 10
262.185746
 20
193.3551379999999
 30
0.0
  0
VERTEX
  5
2B3
330
28F
100
AcDbEntity
  8
CSLAYER1
  6
CONTINUOUS
 62
     3
100
AcDbVertex
100
AcDb2dVertex
 10
262.5407969999999
 20
193.3067439999999
 30
0.0
  0
VERTEX
  5
2B4
330
28F
100
AcDbEntity
  8
CSLAYER1
  6
CONTINUOUS
 62
     3
100
AcDbVertex
100
AcDb2dVertex
 10
262.898571
 20
193.2905709999999
 30
0.0
  0
VERTEX
  5
2B5
330
28F
100
AcDbEntity
  8
CSLAYER1
  6
CONTINUOUS
 62
     3
100
AcDbVertex
100
AcDb2dVertex
 10
263.256346
 20
193.3067439999999
 30
0.0
  0
VERTEX
  5
2B6
330
28F
100
AcDbEntity
  8
CSLAYER1
  6
CONTINUOUS
 62
     3
100
AcDbVertex
100
AcDb2dVertex
 10
263.611397
 20
193.3551379999999
 30
0.0
  0
VERTEX
  5
2B7
330
28F
100
AcDbEntity
  8
CSLAYER1
  6
CONTINUOUS
 62
     3
100
AcDbVertex
100
AcDb2dVertex
 10
263.961024
 20
193.435387
 30
0.0
  0
VERTEX
  5
2B8
330
28F
100
AcDbEntity
  8
CSLAYER1
  6
CONTINUOUS
 62
     3
100
AcDbVertex
100
AcDb2dVertex
 10
264.302564
 20
193.5468779999999
 30
0.0
  0
VERTEX
  5
2B9
330
28F
100
AcDbEntity
  8
CSLAYER1
  6
CONTINUOUS
 62
     3
100
AcDbVertex
100
AcDb2dVertex
 10
264.633419
 20
193.688763
 30
0.0
  0
VERTEX
  5
2BA
330
28F
100
AcDbEntity
  8
CSLAYER1
  6
CONTINUOUS
 62
     3
100
AcDbVertex
100
AcDb2dVertex
 10
264.951071
 20
193.8599629999999
 30
0.0
  0
VERTEX
  5
2BB
330
28F
100
AcDbEntity
  8
CSLAYER1
  6
CONTINUOUS
 62
     3
100
AcDbVertex
100
AcDb2dVertex
 10
265.2531029999999
 20
194.059175
 30
0.0
  0
VERTEX
  5
2BC
330
28F
100
AcDbEntity
  8
CSLAYER1
  6
CONTINUOUS
 62
     3
100
AcDbVertex
100
AcDb2dVertex
 10
265.537215
 20
194.284882
 30
0.0
  0
VERTEX
  5
2BD
330
28F
100
AcDbEntity
  8
CSLAYER1
  6
CONTINUOUS
 62
     3
100
AcDbVertex
100
AcDb2dVertex
 10
265.801245
 20
194.535368
 30
0.0
  0
VERTEX
  5
2BE
330
28F
100
AcDbEntity
  8
CSLAYER1
  6
CONTINUOUS
 62
     3
100
AcDbVertex
100
AcDb2dVertex
 10
266.043184
 20
194.808724
 30
0.0
  0
VERTEX
  5
2BF
330
28F
100
AcDbEntity
  8
CSLAYER1
  6
CONTINUOUS
 62
     3
100
AcDbVertex
100
AcDb2dVertex
 10
266.2611909999999
 20
195.102872
 30
0.0
  0
VERTEX
  5
2C0
330
28F
100
AcDbEntity
  8
CSLAYER1
  6
CONTINUOUS
 62
     3
100
AcDbVertex
100
AcDb2dVertex
 10
266.4536059999999
 20
195.415571
 30
0.0
  0
VERTEX
  5
2C1
330
28F
100
AcDbEntity
  8
CSLAYER1
  6
CONTINUOUS
 62
     3
100
AcDbVertex
100
AcDb2dVertex
 10
266.618965
 20
195.7444439999999
 30
0.0
  0
VERTEX
  5
2C2
330
28F
100
AcDbEntity
  8
CSLAYER1
  6
CONTINUOUS
 62
     3
100
AcDbVertex
100
AcDb2dVertex
 10
266.75601
 20
196.086986
 30
0.0
  0
VERTEX
  5
2C3
330
28F
100
AcDbEntity
  8
CSLAYER1
  6
CONTINUOUS
 62
     3
100
AcDbVertex
100
AcDb2dVertex
 10
266.863697
 20
196.4405899999999
 30
0.0
  0
VERTEX
  5
2C4
330
28F
100
AcDbEntity
  8
CSLAYER1
  6
CONTINUOUS
 62
     3
100
AcDbVertex
100
AcDb2dVertex
 10
266.9412069999999
 20
196.8025669999999
 30
0.0
  0
VERTEX
  5
2C5
330
28F
100
AcDbEntity
  8
CSLAYER1
  6
CONTINUOUS
 62
     3
100
AcDbVertex
100
AcDb2dVertex
 10
266.9879509999999
 20
197.170159
 30
0.0
  0
VERTEX
  5
2C6
330
28F
100
AcDbEntity
  8
CSLAYER1
  6
CONTINUOUS
 62
     3
100
AcDbVertex
100
AcDb2dVertex
 10
267.003571
 20
197.540571
 30
0.0
  0
VERTEX
  5
2C7
330
28F
100
AcDbEntity
  8
CSLAYER1
  6
CONTINUOUS
 62
     3
100
AcDbVertex
100
AcDb2dVertex
 10
266.9879509999999
 20
197.910983
 30
0.0
  0
VERTEX
  5
2C8
330
28F
100
AcDbEntity
  8
CSLAYER1
  6
CONTINUOUS
 62
     3
100
AcDbVertex
100
AcDb2dVertex
 10
266.9412069999999
 20
198.2785759999999
 30
0.0
  0
VERTEX
  5
2C9
330
28F
100
AcDbEntity
  8
CSLAYER1
  6
CONTINUOUS
 62
     3
100
AcDbVertex
100
AcDb2dVertex
 10
266.863697
 20
198.640552
 30
0.0
  0
VERTEX
  5
2CA
330
28F
100
AcDbEntity
  8
CSLAYER1
  6
CONTINUOUS
 62
     3
100
AcDbVertex
100
AcDb2dVertex
 10
266.75601
 20
198.994157
 30
0.0
  0
VERTEX
  5
2CB
330
28F
100
AcDbEntity
  8
CSLAYER1
  6
CONTINUOUS
 62
     3
100
AcDbVertex
100
AcDb2dVertex
 10
266.618965
 20
199.336699
 30
0.0
  0
VERTEX
  5
2CC
330
28F
100
AcDbEntity
  8
CSLAYER1
  6
CONTINUOUS
 62
     3
100
AcDbVertex
100
AcDb2dVertex
 10
266.4536059999999
 20
199.6655709999999
 30
0.0
  0
VERTEX
  5
2CD
330
28F
100
AcDbEntity
  8
CSLAYER1
  6
CONTINUOUS
 62
     3
100
AcDbVertex
100
AcDb2dVertex
 10
266.2611909999999
 20
199.978271
 30
0.0
  0
VERTEX
  5
2CE
330
28F
100
AcDbEntity
  8
CSLAYER1
  6
CONTINUOUS
 62
     3
100
AcDbVertex
100
AcDb2dVertex
 10
266.043184
 20
200.2724189999999
 30
0.0
  0
VERTEX
  5
2CF
330
28F
100
AcDbEntity
  8
CSLAYER1
  6
CONTINUOUS
 62
     3
100
AcDbVertex
100
AcDb2dVertex
 10
265.801245
 20
200.545775
 30
0.0
  0
VERTEX
  5
2D0
330
28F
100
AcDbEntity
  8
CSLAYER1
  6
CONTINUOUS
 62
     3
100
AcDbVertex
100
AcDb2dVertex
 10
265.537215
 20
200.79626
 30
0.0
  0
VERTEX
  5
2D1
330
28F
100
AcDbEntity
  8
CSLAYER1
  6
CONTINUOUS
 62
     3
100
AcDbVertex
100
AcDb2dVertex
 10
265.2531029999999
 20
201.021968
 30
0.0
  0
VERTEX
  5
2D2
330
28F
100
AcDbEntity
  8
CSLAYER1
  6
CONTINUOUS
 62
     3
100
AcDbVertex
100
AcDb2dVertex
 10
264.951071
 20
201.221179
 30
0.0
  0
VERTEX
  5
2D3
330
28F
100
AcDbEntity
  8
CSLAYER1
  6
CONTINUOUS
 62
     3
100
AcDbVertex
100
AcDb2dVertex
 10
264.633419
 20
201.392379
 30
0.0
  0
VERTEX
  5
2D4
330
28F
100
AcDbEntity
  8
CSLAYER1
  6
CONTINUOUS
 62
     3
100
AcDbVertex
100
AcDb2dVertex
 10
264.302564
 20
201.534265
 30
0.0
  0
VERTEX
  5
2D5
330
28F
100
AcDbEntity
  8
CSLAYER1
  6
CONTINUOUS
 62
     3
100
AcDbVertex
100
AcDb2dVertex
 10
263.961024
 20
201.645756
 30
0.0
  0
VERTEX
  5
2D6
330
28F
100
AcDbEntity
  8
CSLAYER1
  6
CONTINUOUS
 62
     3
100
AcDbVertex
100
AcDb2dVertex
 10
263.611397
 20
201.726004
 30
0.0
  0
VERTEX
  5
2D7
330
28F
100
AcDbEntity
  8
CSLAYER1
  6
CONTINUOUS
 62
     3
100
AcDbVertex
100
AcDb2dVertex
 10
263.256346
 20
201.774399
 30
0.0
  0
VERTEX
  5
2D8
330
28F
100
AcDbEntity
  8
CSLAYER1
  6
CONTINUOUS
 62
     3
100
AcDbVertex
100
AcDb2dVertex
 10
262.898571
 20
201.7905709999999
 30
0.0
  0
SEQEND
  5
2D9
330
28F
100
AcDbEntity
  8
CSLAYER1
 62
     3
  0
INSERT
  5
2DA
330
1E
100
AcDbEntity
  8
CSLAYER1
100
AcDbBlockReference
  2
FXDIM0003
 10
0.0
 20
0.0
 30
0.0
  0
LINE
  5
2DC
330
1E
100
AcDbEntity
  8
CSLAYER1
  6
CENTER
 62
     4
100
AcDbLine
 10
195.96295
 20
128.4971429999999
 30
0.0
 11
234.77
 21
128.4971429999999
 31
0.0
  0
DIMENSION
  5
2DD
330
1E
100
AcDbEntity
  8
CSLAYER1
 62
     4
100
AcDbDimension
  2
*D29
 10
252.898571
 20
83.924327
 30
0.0
 11
241.398575
 21
84.42432399999999
 31
0.0
100
AcDbAlignedDimension
 13
229.898571
 23
83.924327
 33
0.0
 14
252.898571
 24
96.49714299999999
 34
0.0
100
AcDbRotatedDimension
  0
LINE
  5
2DE
330
1E
100
AcDbEntity
  8
CSLAYER1
  6
DOT
 62
     3
100
AcDbLine
 10
10.0
 20
3.0
 30
0.0
 11
395.0
 21
3.0
 31
0.0
  0
LINE
  5
2DF
330
1E
100
AcDbEntity
  8
CSLAYER1
  6
DOT
 62
     3
100
AcDbLine
 10
395.0
 20
3.0
 30
0.0
 11
395.0
 21
275.0
 31
0.0
  0
LINE
  5
2E0
330
1E
100
AcDbEntity
  8
CSLAYER1
  6
DOT
 62
     3
100
AcDbLine
 10
395.0
 20
275.0
 30
0.0
 11
10.0
 21
275.0
 31
0.0
  0
LINE
  5
2E1
330
1E
100
AcDbEntity
  8
CSLAYER1
  6
DOT
 62
     3
100
AcDbLine
 10
10.0
 20
275.0
 30
0.0
 11
10.0
 21
3.0
 31
0.0
  0
ENDSEC
  0
SECTION
  2
OBJECTS
  0
DICTIONARY
  5
C
330
0
100
AcDbDictionary
  3
ACAD_GROUP
350
D
  3
ACAD_LAYOUT
350
19
  3
ACAD_MLINESTYLE
350
16
  3
ACAD_PLOTSETTINGS
350
18
1001
ACAD
1000
TREAT_AS_HARD
1070
     0
1000
TREAT_AS_HARD
1070
     0
  0
DICTIONARY
  5
2EB
330
1E
100
AcDbDictionary
  3
ACAD_LAYOUTSELFREF
350
30A
1001
ACAD
1000
TREAT_AS_HARD
1070
     0
  0
DICTIONARY
  5
2E9
330
1A
100
AcDbDictionary
  3
ACAD_LAYOUTSELFREF
350
309
1001
ACAD
1000
TREAT_AS_HARD
1070
     0
  0
DICTIONARY
  5
D
102
{ACAD_REACTORS
330
C
102
}
330
C
100
AcDbDictionary
1001
ACAD
1000
TREAT_AS_HARD
1070
     0
1000
TREAT_AS_HARD
1070
     0
  0
DICTIONARY
  5
19
102
{ACAD_REACTORS
330
C
102
}
330
C
100
AcDbDictionary
1001
ACAD
1000
TREAT_AS_HARD
1070
     0
1000
TREAT_AS_HARD
1070
     0
  0
DICTIONARY
  5
16
102
{ACAD_REACTORS
330
C
102
}
330
C
100
AcDbDictionary
  3
STANDARD
350
17
1001
ACAD
1000
TREAT_AS_HARD
1070
     0
1000
TREAT_AS_HARD
1070
     0
  0
DICTIONARY
  5
18
102
{ACAD_REACTORS
330
C
102
}
330
C
100
AcDbDictionary
1001
ACAD
1000
TREAT_AS_HARD
1070
     0
1000
TREAT_AS_HARD
1070
     0
  0
XRECORD
  5
30A
102
{ACAD_REACTORS
330
2EB
102
}
330
2EB
100
AcDbXrecord
340
1E
  0
XRECORD
  5
309
102
{ACAD_REACTORS
330
2E9
102
}
330
2E9
100
AcDbXrecord
340
1A
  0
MLINESTYLE
  5
17
102
{ACAD_REACTORS
330
16
102
}
330
16
100
AcDbMlineStyle
  2
STANDARD
 70
     0
  3

 62
   256
 51
90.0
 52
90.0
 71
     2
 49
0.5
 62
   256
  6
BYLAYER
 49
-0.5
 62
   256
  6
BYLAYER
  0
ENDSEC
  0
EOF
