  0
SECTION
  2
HEADER
  9
$ACADVER
  1
AC1012
  9
$DWGCODEPAGE
  3
dos932
  9
$INSBASE
 10
0.0
 20
0.0
 30
0.0
  9
$EXTMIN
 10
-0.0090630292066862
 20
0.9869389666558276
 30
-0.0015258207003583
  9
$EXTMAX
 10
283.0056159095904
 20
199.0155034058442
 30
0.0000000349246037
  9
$LIMMIN
 10
0.0
 20
0.0
  9
$LIMMAX
 10
297.0
 20
210.0
  9
$ORTHOMODE
 70
     0
  9
$REGENMODE
 70
     1
  9
$FILLMODE
 70
     1
  9
$QTEXTMODE
 70
     0
  9
$MIRRTEXT
 70
     1
  9
$DRAGMODE
 70
     2
  9
$LTSCALE
 40
15.0
  9
$OSMODE
 70
    37
  9
$ATTMODE
 70
     1
  9
$TEXTSIZE
 40
0.2
  9
$TRACEWID
 40
0.05
  9
$TEXTSTYLE
  7
GOTHIC
  9
$CLAYER
  8
CSLAYER1
  9
$CELTYPE
  6
BYLAYER
  9
$CECOLOR
 62
   256
  9
$CELTSCALE
 40
1.0
  9
$DELOBJ
 70
     1
  9
$DISPSILH
 70
     0
  9
$DIMSCALE
 40
1.0
  9
$DIMASZ
 40
0.18
  9
$DIMEXO
 40
0.0625
  9
$DIMDLI
 40
0.38
  9
$DIMRND
 40
0.0
  9
$DIMDLE
 40
0.0
  9
$DIMEXE
 40
0.18
  9
$DIMTP
 40
0.0
  9
$DIMTM
 40
0.0
  9
$DIMTXT
 40
0.18
  9
$DIMCEN
 40
0.09
  9
$DIMTSZ
 40
0.0
  9
$DIMTOL
 70
     0
  9
$DIMLIM
 70
     0
  9
$DIMTIH
 70
     1
  9
$DIMTOH
 70
     1
  9
$DIMSE1
 70
     0
  9
$DIMSE2
 70
     0
  9
$DIMTAD
 70
     0
  9
$DIMZIN
 70
     0
  9
$DIMBLK
  1

  9
$DIMASO
 70
     1
  9
$DIMSHO
 70
     1
  9
$DIMPOST
  1

  9
$DIMAPOST
  1

  9
$DIMALT
 70
     0
  9
$DIMALTD
 70
     2
  9
$DIMALTF
 40
25.4
  9
$DIMLFAC
 40
1.0
  9
$DIMTOFL
 70
     0
  9
$DIMTVP
 40
0.0
  9
$DIMTIX
 70
     0
  9
$DIMSOXD
 70
     0
  9
$DIMSAH
 70
     0
  9
$DIMBLK1
  1

  9
$DIMBLK2
  1

  9
$DIMSTYLE
  2
STANDARD
  9
$DIMCLRD
 70
     0
  9
$DIMCLRE
 70
     0
  9
$DIMCLRT
 70
     0
  9
$DIMTFAC
 40
1.0
  9
$DIMGAP
 40
0.09
  9
$DIMJUST
 70
     0
  9
$DIMSD1
 70
     0
  9
$DIMSD2
 70
     0
  9
$DIMTOLJ
 70
     1
  9
$DIMTZIN
 70
     0
  9
$DIMALTZ
 70
     0
  9
$DIMALTTZ
 70
     0
  9
$DIMFIT
 70
     3
  9
$DIMUPT
 70
     0
  9
$DIMUNIT
 70
     2
  9
$DIMDEC
 70
     4
  9
$DIMTDEC
 70
     4
  9
$DIMALTU
 70
     2
  9
$DIMALTTD
 70
     2
  9
$DIMTXSTY
  7
STANDARD
  9
$DIMAUNIT
 70
     0
  9
$LUNITS
 70
     2
  9
$LUPREC
 70
     4
  9
$SKETCHINC
 40
0.1
  9
$FILLETRAD
 40
0.0
  9
$AUNITS
 70
     0
  9
$AUPREC
 70
     0
  9
$MENU
  1
ACAD
  9
$ELEVATION
 40
0.0
  9
$PELEVATION
 40
0.0
  9
$THICKNESS
 40
0.0
  9
$LIMCHECK
 70
     0
  9
$BLIPMODE
 70
     1
  9
$CHAMFERA
 40
0.0
  9
$CHAMFERB
 40
0.0
  9
$CHAMFERC
 40
0.0
  9
$CHAMFERD
 40
0.0
  9
$SKPOLY
 70
     0
  9
$TDCREATE
 40
2453449.000000000
  9
$TDUPDATE
 40
2453516.440474896
  9
$TDINDWG
 40
0.0003872569
  9
$TDUSRTIMER
 40
0.0003871412
  9
$USRTIMER
 70
     1
  9
$ANGBASE
 50
0.0
  9
$ANGDIR
 70
     0
  9
$PDMODE
 70
     0
  9
$PDSIZE
 40
0.0
  9
$PLINEWID
 40
0.0
  9
$COORDS
 70
     0
  9
$SPLFRAME
 70
     0
  9
$SPLINETYPE
 70
     6
  9
$SPLINESEGS
 70
     8
  9
$ATTDIA
 70
     0
  9
$ATTREQ
 70
     1
  9
$HANDLING
 70
-16383
  9
$HANDSEED
  5
25B
  9
$SURFTAB1
 70
     6
  9
$SURFTAB2
 70
     6
  9
$SURFTYPE
 70
     6
  9
$SURFU
 70
     6
  9
$SURFV
 70
     6
  9
$UCSNAME
  2

  9
$UCSORG
 10
0.0
 20
0.0
 30
0.0
  9
$UCSXDIR
 10
1.0
 20
0.0
 30
0.0
  9
$UCSYDIR
 10
0.0
 20
1.0
 30
0.0
  9
$PUCSNAME
  2

  9
$PUCSORG
 10
0.0
 20
0.0
 30
0.0
  9
$PUCSXDIR
 10
1.0
 20
0.0
 30
0.0
  9
$PUCSYDIR
 10
0.0
 20
1.0
 30
0.0
  9
$USERI1
 70
     0
  9
$USERI2
 70
     0
  9
$USERI3
 70
     0
  9
$USERI4
 70
     0
  9
$USERI5
 70
     0
  9
$USERR1
 40
0.0
  9
$USERR2
 40
0.0
  9
$USERR3
 40
0.0
  9
$USERR4
 40
0.0
  9
$USERR5
 40
0.0
  9
$WORLDVIEW
 70
     1
  9
$SHADEDGE
 70
     3
  9
$SHADEDIF
 70
    70
  9
$TILEMODE
 70
     1
  9
$MAXACTVP
 70
    64
  9
$PINSBASE
 10
0.0
 20
0.0
 30
0.0
  9
$PLIMCHECK
 70
     0
  9
$PEXTMIN
 10
1.000000000000000E+20
 20
1.000000000000000E+20
 30
1.000000000000000E+20
  9
$PEXTMAX
 10
-1.000000000000000E+20
 20
-1.000000000000000E+20
 30
-1.000000000000000E+20
  9
$PLIMMIN
 10
0.0
 20
0.0
  9
$PLIMMAX
 10
12.0
 20
9.0
  9
$UNITMODE
 70
     0
  9
$VISRETAIN
 70
     1
  9
$PLINEGEN
 70
     0
  9
$PSLTSCALE
 70
     1
  9
$TREEDEPTH
 70
  3020
  9
$PICKSTYLE
 70
     3
  9
$CMLSTYLE
  2
STANDARD
  9
$CMLJUST
 70
     0
  9
$CMLSCALE
 40
1.0
  9
$SAVEIMAGES
 70
     1
  0
ENDSEC
  0
SECTION
  2
CLASSES
  0
CLASS
  1
ACDBDICTIONARYWDFLT
  2
AcDbDictionaryWithDefault
  3
AutoCAD 2000
 90
    32768
280
     0
281
     0
  0
CLASS
  1
ACDBPLACEHOLDER
  2
AcDbPlaceHolder
  3
AutoCAD 2000
 90
    32768
280
     0
281
     0
  0
CLASS
  1
LAYOUT
  2
AcDbLayout
  3
AutoCAD 2000
 90
    32768
280
     0
281
     0
  0
CLASS
  1
DICTIONARYVAR
  2
AcDbDictionaryVar
  3
AutoCAD 2000
 90
    32768
280
     0
281
     0
  0
CLASS
  1
LONG_TRANSACTION
  2
AcDbLongTransaction
  3
AutoCAD 2000
 90
    32768
280
     0
281
     0
  0
CLASS
  1
LWPOLYLINE
  2
AcDbPolyline
  3
AutoCAD 2000
 90
    32768
280
     0
281
     1
  0
CLASS
  1
HATCH
  2
AcDbHatch
  3
AutoCAD 2000
 90
    32768
280
     0
281
     1
  0
CLASS
  1
XRECORD
  2
AcDbXrecord
  3
AutoCAD 2000
 90
    32768
280
     0
281
     0
  0
CLASS
  1
LONG_TRANSACTION
  2
AcDbLongTransaction
  3
AutoCAD 2000
 90
    32768
280
     0
281
     0
  0
CLASS
  1
LWPOLYLINE
  2
AcDbPolyline
  3
AutoCAD 2000
 90
    32768
280
     0
281
     1
  0
CLASS
  1
HATCH
  2
AcDbHatch
  3
AutoCAD 2000
 90
    32768
280
     0
281
     1
  0
CLASS
  1
XRECORD
  2
AcDbXrecord
  3
AutoCAD 2000
 90
    32768
280
     0
281
     0
  0
ENDSEC
  0
SECTION
  2
TABLES
  0
TABLE
  2
VPORT
  5
8
330
0
100
AcDbSymbolTable
 70
     2
  0
VPORT
  5
258
330
8
100
AcDbSymbolTableRecord
100
AcDbViewportTableRecord
  2
*ACTIVE
 70
     0
 10
0.0
 20
0.0
 11
1.0
 21
1.0
 12
141.4982764401918
 22
100.00122118625
 13
0.0
 23
0.0
 14
1.0
 24
1.0
 15
0.0
 25
0.0
 16
0.0
 26
0.0
 36
1.0
 17
0.0
 27
0.0
 37
0.0
 40
199.5156375138256
 41
1.510025062656641
 42
50.0
 43
0.0
 44
0.0
 50
0.0
 51
0.0
 71
     0
 72
   100
 73
     1
 74
     1
 75
     0
 76
     0
 77
     0
 78
     0
  0
ENDTAB
  0
TABLE
  2
LTYPE
  5
5
330
0
100
AcDbSymbolTable
 70
     3
  0
LTYPE
  5
13
330
5
100
AcDbSymbolTableRecord
100
AcDbLinetypeTableRecord
  2
BYBLOCK
 70
     0
  3

 72
    65
 73
     0
 40
0.0
  0
LTYPE
  5
14
330
5
100
AcDbSymbolTableRecord
100
AcDbLinetypeTableRecord
  2
BYLAYER
 70
     0
  3

 72
    65
 73
     0
 40
0.0
  0
LTYPE
  5
15
330
5
100
AcDbSymbolTableRecord
100
AcDbLinetypeTableRecord
  2
CONTINUOUS
 70
     0
  3
Solid line
 72
    65
 73
     0
 40
0.0
  0
LTYPE
  5
25
330
5
100
AcDbSymbolTableRecord
100
AcDbLinetypeTableRecord
  2
DOT
 70
     0
  3
...............................................
 72
    65
 73
     2
 40
0.25
 49
0.0
 74
     0
 49
-0.25
 74
     0
  0
LTYPE
  5
28
330
5
100
AcDbSymbolTableRecord
100
AcDbLinetypeTableRecord
  2
CENTER
 70
     0
  3
____ _ ____ _ ____ _ ____ _ ____ _ ____ _ ____ 
 72
    65
 73
     4
 40
2.0
 49
1.25
 74
     0
 49
-0.25
 74
     0
 49
0.25
 74
     0
 49
-0.25
 74
     0
  0
ENDTAB
  0
TABLE
  2
LAYER
  5
2
330
0
100
AcDbSymbolTable
 70
     3
  0
LAYER
  5
10
330
2
100
AcDbSymbolTableRecord
100
AcDbLayerTableRecord
  2
0
 70
     0
 62
     7
  6
CONTINUOUS
  0
LAYER
  5
22
330
2
100
AcDbSymbolTableRecord
100
AcDbLayerTableRecord
  2
CSLAYER1
 70
     0
 62
     7
  6
CONTINUOUS
  0
LAYER
  5
23D
330
2
100
AcDbSymbolTableRecord
100
AcDbLayerTableRecord
  2
DEFPOINTS
 70
     0
 62
     7
  6
CONTINUOUS
  0
ENDTAB
  0
TABLE
  2
STYLE
  5
3
330
0
100
AcDbSymbolTable
 70
     3
  0
STYLE
  5
11
330
3
100
AcDbSymbolTableRecord
100
AcDbTextStyleTableRecord
  2
STANDARD
 70
     0
 40
0.0
 41
1.0
 50
0.0
 71
     0
 42
0.2
  3
txt
  4
extfont.shx
  0
STYLE
  5
3A
330
3
100
AcDbSymbolTableRecord
100
AcDbTextStyleTableRecord
  2
FX_FONT
 70
     0
 40
1.0
 41
1.0
 50
0.0
 71
     0
 42
1.0
  3
monotxt
  4
bigfont
  0
STYLE
  5
235
330
3
100
AcDbSymbolTableRecord
100
AcDbTextStyleTableRecord
  2
GOTHIC
 70
     0
 40
0.0
 41
1.0
 50
0.0
 71
     0
 42
0.2
  3
txt.shx
  4
extfont.shx
  0
ENDTAB
  0
TABLE
  2
VIEW
  5
6
330
0
100
AcDbSymbolTable
 70
     0
  0
ENDTAB
  0
TABLE
  2
UCS
  5
7
330
0
100
AcDbSymbolTable
 70
     0
  0
ENDTAB
  0
TABLE
  2
APPID
  5
9
330
0
100
AcDbSymbolTable
 70
     1
  0
APPID
  5
12
330
9
100
AcDbSymbolTableRecord
100
AcDbRegAppTableRecord
  2
ACAD
 70
     0
  0
ENDTAB
  0
TABLE
  2
DIMSTYLE
  5
A
330
0
100
AcDbSymbolTable
 70
     1
  0
DIMSTYLE
105
232
330
A
100
AcDbSymbolTableRecord
100
AcDbDimStyleTableRecord
  2
STANDARD
 70
     0
  3

  4

  5

  6

  7

 40
1.0
 41
0.18
 42
0.0625
 43
0.38
 44
0.18
 45
0.0
 46
0.0
 47
0.0
 48
0.0
140
0.18
141
0.09
142
0.0
143
25.4
144
1.0
145
0.0
146
1.0
147
0.09
 71
     0
 72
     0
 73
     1
 74
     1
 75
     0
 76
     0
 77
     0
 78
     0
170
     0
171
     2
172
     0
173
     0
174
     0
175
     0
176
     0
177
     0
178
     0
270
     2
271
     4
272
     4
273
     2
274
     2
340
11
275
     0
280
     0
281
     0
282
     0
283
     1
284
     0
285
     0
286
     0
287
     3
288
     0
  0
ENDTAB
  0
TABLE
  2
BLOCK_RECORD
  5
1
330
0
100
AcDbSymbolTable
 70
    18
  0
BLOCK_RECORD
  5
1E
102
{ACAD_XDICTIONARY
360
23B
102
}
330
1
100
AcDbSymbolTableRecord
100
AcDbBlockTableRecord
  2
*MODEL_SPACE
  0
BLOCK_RECORD
  5
1A
102
{ACAD_XDICTIONARY
360
239
102
}
330
1
100
AcDbSymbolTableRecord
100
AcDbBlockTableRecord
  2
*PAPER_SPACE
  0
BLOCK_RECORD
  5
3F
330
1
100
AcDbSymbolTableRecord
100
AcDbBlockTableRecord
  2
*D0
  0
BLOCK_RECORD
  5
4A
330
1
100
AcDbSymbolTableRecord
100
AcDbBlockTableRecord
  2
*D1
  0
BLOCK_RECORD
  5
55
330
1
100
AcDbSymbolTableRecord
100
AcDbBlockTableRecord
  2
FXDIM0000
  0
BLOCK_RECORD
  5
5D
330
1
100
AcDbSymbolTableRecord
100
AcDbBlockTableRecord
  2
*D3
  0
BLOCK_RECORD
  5
68
330
1
100
AcDbSymbolTableRecord
100
AcDbBlockTableRecord
  2
FXDIM0001
  0
BLOCK_RECORD
  5
70
330
1
100
AcDbSymbolTableRecord
100
AcDbBlockTableRecord
  2
FXDIM0002
  0
BLOCK_RECORD
  5
78
330
1
100
AcDbSymbolTableRecord
100
AcDbBlockTableRecord
  2
*D6
  0
BLOCK_RECORD
  5
83
330
1
100
AcDbSymbolTableRecord
100
AcDbBlockTableRecord
  2
*D7
  0
BLOCK_RECORD
  5
8E
330
1
100
AcDbSymbolTableRecord
100
AcDbBlockTableRecord
  2
*D8
  0
BLOCK_RECORD
  5
99
330
1
100
AcDbSymbolTableRecord
100
AcDbBlockTableRecord
  2
*D9
  0
BLOCK_RECORD
  5
A4
330
1
100
AcDbSymbolTableRecord
100
AcDbBlockTableRecord
  2
*D10
  0
BLOCK_RECORD
  5
AE
330
1
100
AcDbSymbolTableRecord
100
AcDbBlockTableRecord
  2
*D11
  0
BLOCK_RECORD
  5
B8
330
1
100
AcDbSymbolTableRecord
100
AcDbBlockTableRecord
  2
*D12
  0
BLOCK_RECORD
  5
C2
330
1
100
AcDbSymbolTableRecord
100
AcDbBlockTableRecord
  2
*D13
  0
BLOCK_RECORD
  5
CD
330
1
100
AcDbSymbolTableRecord
100
AcDbBlockTableRecord
  2
*D14
  0
BLOCK_RECORD
  5
D7
330
1
100
AcDbSymbolTableRecord
100
AcDbBlockTableRecord
  2
*D15
  0
BLOCK_RECORD
  5
DE
330
1
100
AcDbSymbolTableRecord
100
AcDbBlockTableRecord
  2
FXDIM0003
  0
BLOCK_RECORD
  5
23E
330
1
100
AcDbSymbolTableRecord
100
AcDbBlockTableRecord
  2
*D17
  0
ENDTAB
  0
ENDSEC
  0
SECTION
  2
BLOCKS
  0
BLOCK
  5
1F
330
1E
100
AcDbEntity
  8
0
100
AcDbBlockBegin
  2
*MODEL_SPACE
 70
     0
 10
0.0
 20
0.0
 30
0.0
  3
*MODEL_SPACE
  1

  0
ENDBLK
  5
20
330
1E
100
AcDbEntity
  8
0
100
AcDbBlockEnd
  0
BLOCK
  5
1B
330
1A
100
AcDbEntity
 67
     1
  8
0
100
AcDbBlockBegin
  2
*PAPER_SPACE
 70
     0
 10
0.0
 20
0.0
 30
0.0
  3
*PAPER_SPACE
  1

  0
ENDBLK
  5
1C
330
1A
100
AcDbEntity
 67
     1
  8
0
100
AcDbBlockEnd
  0
BLOCK
  5
40
330
3F
100
AcDbEntity
  8
0
100
AcDbBlockBegin
  2
*D0
 70
     1
 10
0.0
 20
0.0
 30
0.0
  3
*D0
  1

  0
TEXT
  5
41
330
3F
100
AcDbEntity
  8
CSLAYER1
 62
     4
100
AcDbText
 10
256.7456359999999
 20
133.000012
 30
0.0
 40
3.2
  1
19
 50
90.0
 41
1.200000000000001
 51
15.0
  7
FX_FONT
 72
     5
 11
256.7456359999999
 21
139.400012
 31
0.0
100
AcDbText
  0
LINE
  5
42
330
3F
100
AcDbEntity
  8
CSLAYER1
  6
CONTINUOUS
 62
     4
100
AcDbLine
 10
242.574863
 20
126.7
 30
0.0
 11
258.245637
 21
126.7
 31
0.0
  0
LINE
  5
43
330
3F
100
AcDbEntity
  8
CSLAYER1
  6
CONTINUOUS
 62
     4
100
AcDbLine
 10
242.574863
 20
145.6999999999998
 30
0.0
 11
258.245637
 21
145.6999999999998
 31
0.0
  0
LINE
  5
44
330
3F
100
AcDbEntity
  8
CSLAYER1
  6
CONTINUOUS
 62
     4
100
AcDbLine
 10
257.2456369999999
 20
126.7
 30
0.0
 11
257.2456369999999
 21
145.6999999999998
 31
0.0
  0
LINE
  5
45
330
3F
100
AcDbEntity
  8
CSLAYER1
  6
CONTINUOUS
 62
     4
100
AcDbLine
 10
257.2456369999999
 20
126.7
 30
0.0
 11
256.4691799999999
 21
129.597777
 31
0.0
  0
LINE
  5
46
330
3F
100
AcDbEntity
  8
CSLAYER1
  6
CONTINUOUS
 62
     4
100
AcDbLine
 10
257.2456369999999
 20
126.7
 30
0.0
 11
258.0220939999999
 21
129.597777
 31
0.0
  0
LINE
  5
47
330
3F
100
AcDbEntity
  8
CSLAYER1
  6
CONTINUOUS
 62
     4
100
AcDbLine
 10
257.2456369999999
 20
145.6999999999998
 30
0.0
 11
256.4691799999999
 21
142.802223
 31
0.0
  0
LINE
  5
48
330
3F
100
AcDbEntity
  8
CSLAYER1
  6
CONTINUOUS
 62
     4
100
AcDbLine
 10
257.2456369999999
 20
145.6999999999998
 30
0.0
 11
258.0220939999999
 21
142.802223
 31
0.0
  0
ENDBLK
  5
49
330
3F
100
AcDbEntity
  8
0
100
AcDbBlockEnd
  0
BLOCK
  5
4B
330
4A
100
AcDbEntity
  8
0
100
AcDbBlockBegin
  2
*D1
 70
     1
 10
0.0
 20
0.0
 30
0.0
  3
*D1
  1

  0
TEXT
  5
4C
330
4A
100
AcDbEntity
  8
CSLAYER1
 62
     4
100
AcDbText
 10
217.60147
 20
149.1671749999999
 30
0.0
 40
3.2
  1
17
 50
44.9999936696516
 41
1.200000026624207
 51
15.0
  7
FX_FONT
 72
     5
 11
222.126954
 21
153.692658
 31
0.0
100
AcDbText
  0
LINE
  5
4D
330
4A
100
AcDbEntity
  8
CSLAYER1
  6
CONTINUOUS
 62
     4
100
AcDbLine
 10
227.315947
 20
131.957359
 30
0.0
 11
213.500244
 21
145.7730629999999
 31
0.0
  0
LINE
  5
4E
330
4A
100
AcDbEntity
  8
CSLAYER1
  6
CONTINUOUS
 62
     4
100
AcDbLine
 10
239.3367629999999
 20
143.9781749999999
 30
0.0
 11
225.5210589999999
 21
157.793878
 31
0.0
  0
LINE
  5
4F
330
4A
100
AcDbEntity
  8
CSLAYER1
  6
CONTINUOUS
 62
     4
100
AcDbLine
 10
214.2073509999999
 20
145.065956
 30
0.0
 11
226.228166
 21
157.0867709999999
 31
0.0
  0
LINE
  5
50
330
4A
100
AcDbEntity
  8
CSLAYER1
  6
CONTINUOUS
 62
     4
100
AcDbLine
 10
214.2073509999999
 20
145.065956
 30
0.0
 11
215.707351
 21
147.664032
 31
0.0
  0
LINE
  5
51
330
4A
100
AcDbEntity
  8
CSLAYER1
  6
CONTINUOUS
 62
     4
100
AcDbLine
 10
214.2073509999999
 20
145.065956
 30
0.0
 11
216.805427
 21
146.5659559999999
 31
0.0
  0
LINE
  5
52
330
4A
100
AcDbEntity
  8
CSLAYER1
  6
CONTINUOUS
 62
     4
100
AcDbLine
 10
226.228166
 20
157.0867709999999
 30
0.0
 11
224.728166
 21
154.488695
 31
0.0
  0
LINE
  5
53
330
4A
100
AcDbEntity
  8
CSLAYER1
  6
CONTINUOUS
 62
     4
100
AcDbLine
 10
226.228166
 20
157.0867709999999
 30
0.0
 11
223.6300899999999
 21
155.586771
 31
0.0
  0
ENDBLK
  5
54
330
4A
100
AcDbEntity
  8
0
100
AcDbBlockEnd
  0
BLOCK
  5
56
330
55
100
AcDbEntity
  8
0
100
AcDbBlockBegin
  2
FXDIM0000
 70
     0
 10
0.0
 20
0.0
 30
0.0
  3
FXDIM0000
  1

  0
LINE
  5
57
330
55
100
AcDbEntity
  8
CSLAYER1
  6
CONTINUOUS
 62
     4
100
AcDbLine
 10
237.256768
 20
140.429121
 30
0.0
 11
244.131695
 21
157.7578649999999
 31
0.0
  0
LINE
  5
58
330
55
100
AcDbEntity
  8
CSLAYER1
  6
CONTINUOUS
 62
     4
100
AcDbLine
 10
237.256768
 20
140.429121
 30
0.0
 11
237.603659
 21
143.4089979999999
 31
0.0
  0
LINE
  5
59
330
55
100
AcDbEntity
  8
CSLAYER1
  6
CONTINUOUS
 62
     4
100
AcDbLine
 10
237.256768
 20
140.429121
 30
0.0
 11
239.047123
 21
142.8363239999999
 31
0.0
  0
LINE
  5
5A
330
55
100
AcDbEntity
  8
CSLAYER1
  6
CONTINUOUS
 62
     4
100
AcDbLine
 10
244.131695
 20
157.7578649999999
 30
0.0
 11
268.531695
 21
157.7578649999999
 31
0.0
  0
TEXT
  5
5B
330
55
100
AcDbEntity
  8
CSLAYER1
 62
     4
100
AcDbText
 10
245.131695
 20
158.2578739999999
 30
0.0
 40
3.2
  1
Rc1/8ネジ
 41
0.9813084550233588
 51
15.0
  7
FX_FONT
 72
     5
 11
267.5316959999999
 21
158.2578739999999
 31
0.0
100
AcDbText
  0
ENDBLK
  5
5C
330
55
100
AcDbEntity
  8
0
100
AcDbBlockEnd
  0
BLOCK
  5
5E
330
5D
100
AcDbEntity
  8
0
100
AcDbBlockBegin
  2
*D3
 70
     1
 10
0.0
 20
0.0
 30
0.0
  3
*D3
  1

  0
TEXT
  5
5F
330
5D
100
AcDbEntity
  8
CSLAYER1
 62
     4
100
AcDbText
 10
213.808743
 20
122.187822
 30
0.0
 40
3.2
  1
45%%d
 50
112.4999991574825
 41
1.285714348609485
 51
15.0
  7
FX_FONT
 72
     5
 11
210.1349819999999
 21
131.0570659999999
 31
0.0
100
AcDbText
  0
ARC
  5
60
330
5D
100
AcDbEntity
  8
CSLAYER1
  6
CONTINUOUS
 62
     4
100
AcDbCircle
 10
235.094122
 20
136.1999999999998
 30
0.0
 40
24.527353
100
AcDbArc
 50
180.0
 51
225.0
  0
LINE
  5
61
330
5D
100
AcDbEntity
  8
CSLAYER1
  6
CONTINUOUS
 62
     4
100
AcDbLine
 10
210.5667689999999
 20
136.1999999999998
 30
0.0
 11
209.790312
 21
133.302223
 31
0.0
  0
LINE
  5
62
330
5D
100
AcDbEntity
  8
CSLAYER1
  6
CONTINUOUS
 62
     4
100
AcDbLine
 10
210.5667689999999
 20
136.1999999999998
 30
0.0
 11
211.3432259999999
 21
133.302223
 31
0.0
  0
LINE
  5
63
330
5D
100
AcDbEntity
  8
CSLAYER1
  6
CONTINUOUS
 62
     4
100
AcDbLine
 10
217.750664
 20
118.8565429999999
 30
0.0
 11
215.1525879999999
 21
120.3565429999999
 31
0.0
  0
LINE
  5
64
330
5D
100
AcDbEntity
  8
CSLAYER1
  6
CONTINUOUS
 62
     4
100
AcDbLine
 10
217.750664
 20
118.8565429999999
 30
0.0
 11
216.250664
 21
121.4546189999999
 31
0.0
  0
LINE
  5
65
330
5D
100
AcDbEntity
  8
CSLAYER1
  6
CONTINUOUS
 62
     4
100
AcDbLine
 10
220.123213
 20
136.1999999999998
 30
0.0
 11
209.5667689999999
 21
136.1999999999998
 31
0.0
  0
LINE
  5
66
330
5D
100
AcDbEntity
  8
CSLAYER1
  6
CONTINUOUS
 62
     4
100
AcDbLine
 10
225.6596229999999
 20
126.765501
 30
0.0
 11
217.043558
 21
118.149436
 31
0.0
  0
ENDBLK
  5
67
330
5D
100
AcDbEntity
  8
0
100
AcDbBlockEnd
  0
BLOCK
  5
69
330
68
100
AcDbEntity
  8
0
100
AcDbBlockBegin
  2
FXDIM0001
 70
     0
 10
0.0
 20
0.0
 30
0.0
  3
FXDIM0001
  1

  0
LINE
  5
6A
330
68
100
AcDbEntity
  8
CSLAYER1
  6
CONTINUOUS
 62
     4
100
AcDbLine
 10
228.2228369999999
 20
128.9642749999998
 30
0.0
 11
220.740454
 21
109.4165489999999
 31
0.0
  0
LINE
  5
6B
330
68
100
AcDbEntity
  8
CSLAYER1
  6
CONTINUOUS
 62
     4
100
AcDbLine
 10
228.2228369999999
 20
128.9642749999998
 30
0.0
 11
227.912085
 21
125.9804129999998
 31
0.0
  0
LINE
  5
6C
330
68
100
AcDbEntity
  8
CSLAYER1
  6
CONTINUOUS
 62
     4
100
AcDbLine
 10
228.2228369999999
 20
128.9642749999998
 30
0.0
 11
226.461787
 21
126.535551
 31
0.0
  0
LINE
  5
6D
330
68
100
AcDbEntity
  8
CSLAYER1
  6
CONTINUOUS
 62
     4
100
AcDbLine
 10
220.740454
 20
109.4165489999999
 30
0.0
 11
241.9404549999999
 21
109.4165489999999
 31
0.0
  0
TEXT
  5
6E
330
68
100
AcDbEntity
  8
CSLAYER1
 62
     4
100
AcDbText
 10
221.7404539999999
 20
109.91655
 30
0.0
 40
3.2
  1
M3ネジ深8
 41
0.9574468085106433
 51
15.0
  7
FX_FONT
 72
     5
 11
240.940454
 21
109.91655
 31
0.0
100
AcDbText
  0
ENDBLK
  5
6F
330
68
100
AcDbEntity
  8
0
100
AcDbBlockEnd
  0
BLOCK
  5
71
330
70
100
AcDbEntity
  8
0
100
AcDbBlockBegin
  2
FXDIM0002
 70
     0
 10
0.0
 20
0.0
 30
0.0
  3
FXDIM0002
  1

  0
LINE
  5
72
330
70
100
AcDbEntity
  8
CSLAYER1
  6
CONTINUOUS
 62
     4
100
AcDbLine
 10
162.6370649999999
 20
143.510536
 30
0.0
 11
181.002341
 21
168.900179
 31
0.0
  0
LINE
  5
73
330
70
100
AcDbEntity
  8
CSLAYER1
  6
CONTINUOUS
 62
     4
100
AcDbLine
 10
162.6370649999999
 20
143.510536
 30
0.0
 11
163.706282
 21
146.31353
 31
0.0
  0
LINE
  5
74
330
70
100
AcDbEntity
  8
CSLAYER1
  6
CONTINUOUS
 62
     4
100
AcDbLine
 10
162.6370649999999
 20
143.510536
 30
0.0
 11
164.9645309999999
 21
145.403392
 31
0.0
  0
LINE
  5
75
330
70
100
AcDbEntity
  8
CSLAYER1
  6
CONTINUOUS
 62
     4
100
AcDbLine
 10
181.002341
 20
168.900179
 30
0.0
 11
205.4023409999999
 21
168.900179
 31
0.0
  0
TEXT
  5
76
330
70
100
AcDbEntity
  8
CSLAYER1
 62
     4
100
AcDbText
 10
182.0023769999998
 20
169.400177
 30
0.0
 40
3.2
  1
Rc1/8ネジ
 41
0.9813084112149535
 51
15.0
  7
FX_FONT
 72
     5
 11
204.4023769999999
 21
169.400177
 31
0.0
100
AcDbText
  0
ENDBLK
  5
77
330
70
100
AcDbEntity
  8
0
100
AcDbBlockEnd
  0
BLOCK
  5
79
330
78
100
AcDbEntity
  8
0
100
AcDbBlockBegin
  2
*D6
 70
     1
 10
0.0
 20
0.0
 30
0.0
  3
*D6
  1

  0
TEXT
  5
7A
330
78
100
AcDbEntity
  8
CSLAYER1
 62
     4
100
AcDbText
 10
50.54097399999999
 20
72.600001
 30
0.0
 40
3.2
  1
%%c23
 50
90.0
 41
1.125000117187497
 51
15.0
  7
FX_FONT
 72
     5
 11
50.54097399999999
 21
82.20000199999999
 31
0.0
100
AcDbText
  0
LINE
  5
7B
330
78
100
AcDbEntity
  8
CSLAYER1
  6
CONTINUOUS
 62
     4
100
AcDbLine
 10
51.040976
 20
65.9
 30
0.0
 11
51.040976
 21
88.9
 31
0.0
  0
LINE
  5
7C
330
78
100
AcDbEntity
  8
CSLAYER1
  6
CONTINUOUS
 62
     4
100
AcDbLine
 10
51.040976
 20
65.9
 30
0.0
 11
50.264519
 21
68.79777699999999
 31
0.0
  0
LINE
  5
7D
330
78
100
AcDbEntity
  8
CSLAYER1
  6
CONTINUOUS
 62
     4
100
AcDbLine
 10
51.040976
 20
65.9
 30
0.0
 11
51.817433
 21
68.79777699999999
 31
0.0
  0
LINE
  5
7E
330
78
100
AcDbEntity
  8
CSLAYER1
  6
CONTINUOUS
 62
     4
100
AcDbLine
 10
51.040976
 20
88.9
 30
0.0
 11
50.264519
 21
86.002223
 31
0.0
  0
LINE
  5
7F
330
78
100
AcDbEntity
  8
CSLAYER1
  6
CONTINUOUS
 62
     4
100
AcDbLine
 10
51.040976
 20
88.9
 30
0.0
 11
51.817433
 21
86.002223
 31
0.0
  0
LINE
  5
80
330
78
100
AcDbEntity
  8
CSLAYER1
  6
CONTINUOUS
 62
     4
100
AcDbLine
 10
84.974419
 20
65.9
 30
0.0
 11
50.040976
 21
65.9
 31
0.0
  0
LINE
  5
81
330
78
100
AcDbEntity
  8
CSLAYER1
  6
CONTINUOUS
 62
     4
100
AcDbLine
 10
84.974419
 20
88.9
 30
0.0
 11
50.040976
 21
88.9
 31
0.0
  0
ENDBLK
  5
82
330
78
100
AcDbEntity
  8
0
100
AcDbBlockEnd
  0
BLOCK
  5
84
330
83
100
AcDbEntity
  8
0
100
AcDbBlockBegin
  2
*D7
 70
     1
 10
0.0
 20
0.0
 30
0.0
  3
*D7
  1

  0
TEXT
  5
85
330
83
100
AcDbEntity
  8
CSLAYER1
 62
     4
100
AcDbText
 10
50.54097399999999
 20
132.999982
 30
0.0
 40
3.2
  1
14
 50
90.0
 41
1.199999999999979
 51
15.0
  7
FX_FONT
 72
     5
 11
50.54097399999999
 21
139.3999819999999
 31
0.0
100
AcDbText
  0
LINE
  5
86
330
83
100
AcDbEntity
  8
CSLAYER1
  6
CONTINUOUS
 62
     4
100
AcDbLine
 10
51.040976
 20
129.1999999999999
 30
0.0
 11
51.040976
 21
143.1999999999999
 31
0.0
  0
LINE
  5
87
330
83
100
AcDbEntity
  8
CSLAYER1
  6
CONTINUOUS
 62
     4
100
AcDbLine
 10
51.040976
 20
129.1999999999999
 30
0.0
 11
50.264519
 21
132.097777
 31
0.0
  0
LINE
  5
88
330
83
100
AcDbEntity
  8
CSLAYER1
  6
CONTINUOUS
 62
     4
100
AcDbLine
 10
51.040976
 20
129.1999999999999
 30
0.0
 11
51.817433
 21
132.097777
 31
0.0
  0
LINE
  5
89
330
83
100
AcDbEntity
  8
CSLAYER1
  6
CONTINUOUS
 62
     4
100
AcDbLine
 10
51.040976
 20
143.1999999999999
 30
0.0
 11
50.264519
 21
140.3022229999999
 31
0.0
  0
LINE
  5
8A
330
83
100
AcDbEntity
  8
CSLAYER1
  6
CONTINUOUS
 62
     4
100
AcDbLine
 10
51.040976
 20
143.1999999999999
 30
0.0
 11
51.817433
 21
140.3022229999999
 31
0.0
  0
LINE
  5
8B
330
83
100
AcDbEntity
  8
CSLAYER1
  6
CONTINUOUS
 62
     4
100
AcDbLine
 10
64.474419
 20
129.1999999999999
 30
0.0
 11
50.040976
 21
129.1999999999999
 31
0.0
  0
LINE
  5
8C
330
83
100
AcDbEntity
  8
CSLAYER1
  6
CONTINUOUS
 62
     4
100
AcDbLine
 10
64.474419
 20
143.1999999999999
 30
0.0
 11
50.040976
 21
143.1999999999999
 31
0.0
  0
ENDBLK
  5
8D
330
83
100
AcDbEntity
  8
0
100
AcDbBlockEnd
  0
BLOCK
  5
8F
330
8E
100
AcDbEntity
  8
0
100
AcDbBlockBegin
  2
*D8
 70
     1
 10
0.0
 20
0.0
 30
0.0
  3
*D8
  1

  0
TEXT
  5
90
330
8E
100
AcDbEntity
  8
CSLAYER1
 62
     4
100
AcDbText
 10
56.540974
 20
134.599982
 30
0.0
 40
3.2
  1
7
 50
90.0
 41
1.499999999999994
 51
15.0
  7
FX_FONT
 72
     5
 11
56.540974
 21
137.799982
 31
0.0
100
AcDbText
  0
LINE
  5
91
330
8E
100
AcDbEntity
  8
CSLAYER1
  6
CONTINUOUS
 62
     4
100
AcDbLine
 10
57.040976
 20
132.6999999999999
 30
0.0
 11
57.040976
 21
139.7
 31
0.0
  0
LINE
  5
92
330
8E
100
AcDbEntity
  8
CSLAYER1
  6
CONTINUOUS
 62
     4
100
AcDbLine
 10
57.040976
 20
132.6999999999999
 30
0.0
 11
56.26451899999999
 21
135.597777
 31
0.0
  0
LINE
  5
93
330
8E
100
AcDbEntity
  8
CSLAYER1
  6
CONTINUOUS
 62
     4
100
AcDbLine
 10
57.040976
 20
132.6999999999999
 30
0.0
 11
57.81743299999998
 21
135.597777
 31
0.0
  0
LINE
  5
94
330
8E
100
AcDbEntity
  8
CSLAYER1
  6
CONTINUOUS
 62
     4
100
AcDbLine
 10
57.040976
 20
139.7
 30
0.0
 11
56.26451899999999
 21
136.802223
 31
0.0
  0
LINE
  5
95
330
8E
100
AcDbEntity
  8
CSLAYER1
  6
CONTINUOUS
 62
     4
100
AcDbLine
 10
57.040976
 20
139.7
 30
0.0
 11
57.81743299999998
 21
136.802223
 31
0.0
  0
LINE
  5
96
330
8E
100
AcDbEntity
  8
CSLAYER1
  6
CONTINUOUS
 62
     4
100
AcDbLine
 10
62.474419
 20
132.6999999999999
 30
0.0
 11
56.040976
 21
132.6999999999999
 31
0.0
  0
LINE
  5
97
330
8E
100
AcDbEntity
  8
CSLAYER1
  6
CONTINUOUS
 62
     4
100
AcDbLine
 10
62.474419
 20
139.7
 30
0.0
 11
56.040976
 21
139.7
 31
0.0
  0
ENDBLK
  5
98
330
8E
100
AcDbEntity
  8
0
100
AcDbBlockEnd
  0
BLOCK
  5
9A
330
99
100
AcDbEntity
  8
0
100
AcDbBlockBegin
  2
*D9
 70
     1
 10
0.0
 20
0.0
 30
0.0
  3
*D9
  1

  0
TEXT
  5
9B
330
99
100
AcDbEntity
  8
CSLAYER1
 62
     4
100
AcDbText
 10
104.7744189999999
 20
168.912979
 30
0.0
 40
3.2
  1
89
 41
1.200000000000017
 51
15.0
  7
FX_FONT
 72
     5
 11
111.174419
 21
168.912979
 31
0.0
100
AcDbText
  0
LINE
  5
9C
330
99
100
AcDbEntity
  8
CSLAYER1
  6
CONTINUOUS
 62
     4
100
AcDbLine
 10
63.47441899999999
 20
168.4129809999999
 30
0.0
 11
152.4744189999998
 21
168.4129809999999
 31
0.0
  0
LINE
  5
9D
330
99
100
AcDbEntity
  8
CSLAYER1
  6
CONTINUOUS
 62
     4
100
AcDbLine
 10
63.47441899999999
 20
168.4129809999999
 30
0.0
 11
66.372196
 21
169.1894379999999
 31
0.0
  0
LINE
  5
9E
330
99
100
AcDbEntity
  8
CSLAYER1
  6
CONTINUOUS
 62
     4
100
AcDbLine
 10
63.47441899999999
 20
168.4129809999999
 30
0.0
 11
66.372196
 21
167.636524
 31
0.0
  0
LINE
  5
9F
330
99
100
AcDbEntity
  8
CSLAYER1
  6
CONTINUOUS
 62
     4
100
AcDbLine
 10
152.4744189999998
 20
168.4129809999999
 30
0.0
 11
149.5766409999999
 21
169.1894379999999
 31
0.0
  0
LINE
  5
A0
330
99
100
AcDbEntity
  8
CSLAYER1
  6
CONTINUOUS
 62
     4
100
AcDbLine
 10
152.4744189999998
 20
168.4129809999999
 30
0.0
 11
149.5766409999999
 21
167.636524
 31
0.0
  0
LINE
  5
A1
330
99
100
AcDbEntity
  8
CSLAYER1
  6
CONTINUOUS
 62
     4
100
AcDbLine
 10
63.47441899999999
 20
142.1999999999998
 30
0.0
 11
63.47441899999999
 21
169.4129809999999
 31
0.0
  0
LINE
  5
A2
330
99
100
AcDbEntity
  8
CSLAYER1
  6
CONTINUOUS
 62
     4
100
AcDbLine
 10
152.4744189999998
 20
148.6999999999999
 30
0.0
 11
152.4744189999998
 21
169.4129809999999
 31
0.0
  0
ENDBLK
  5
A3
330
99
100
AcDbEntity
  8
0
100
AcDbBlockEnd
  0
BLOCK
  5
A5
330
A4
100
AcDbEntity
  8
0
100
AcDbBlockBegin
  2
*D10
 70
     1
 10
0.0
 20
0.0
 30
0.0
  3
*D10
  1

  0
TEXT
  5
A6
330
A4
100
AcDbEntity
  8
CSLAYER1
 62
     4
100
AcDbText
 10
159.774411
 20
168.912979
 30
0.0
 40
3.2
  1
21
 41
1.333333333333334
 51
15.0
  7
FX_FONT
 72
     5
 11
166.174411
 21
168.912979
 31
0.0
100
AcDbText
  0
LINE
  5
A7
330
A4
100
AcDbEntity
  8
CSLAYER1
  6
CONTINUOUS
 62
     4
100
AcDbLine
 10
152.4744189999998
 20
168.4129809999999
 30
0.0
 11
173.4744189999999
 21
168.4129809999999
 31
0.0
  0
LINE
  5
A8
330
A4
100
AcDbEntity
  8
CSLAYER1
  6
CONTINUOUS
 62
     4
100
AcDbLine
 10
152.4744189999998
 20
168.4129809999999
 30
0.0
 11
155.372196
 21
169.1894379999999
 31
0.0
  0
LINE
  5
A9
330
A4
100
AcDbEntity
  8
CSLAYER1
  6
CONTINUOUS
 62
     4
100
AcDbLine
 10
152.4744189999998
 20
168.4129809999999
 30
0.0
 11
155.372196
 21
167.636524
 31
0.0
  0
LINE
  5
AA
330
A4
100
AcDbEntity
  8
CSLAYER1
  6
CONTINUOUS
 62
     4
100
AcDbLine
 10
173.4744189999999
 20
168.4129809999999
 30
0.0
 11
170.576641
 21
169.1894379999999
 31
0.0
  0
LINE
  5
AB
330
A4
100
AcDbEntity
  8
CSLAYER1
  6
CONTINUOUS
 62
     4
100
AcDbLine
 10
173.4744189999999
 20
168.4129809999999
 30
0.0
 11
170.576641
 21
167.636524
 31
0.0
  0
LINE
  5
AC
330
A4
100
AcDbEntity
  8
CSLAYER1
  6
CONTINUOUS
 62
     4
100
AcDbLine
 10
173.4744189999999
 20
145.6999999999998
 30
0.0
 11
173.4744189999999
 21
169.4129809999999
 31
0.0
  0
ENDBLK
  5
AD
330
A4
100
AcDbEntity
  8
0
100
AcDbBlockEnd
  0
BLOCK
  5
AF
330
AE
100
AcDbEntity
  8
0
100
AcDbBlockBegin
  2
*D11
 70
     1
 10
0.0
 20
0.0
 30
0.0
  3
*D11
  1

  0
TEXT
  5
B0
330
AE
100
AcDbEntity
  8
CSLAYER1
 62
     4
100
AcDbText
 10
65.37441899999999
 20
162.912979
 30
0.0
 40
3.2
  1
7
 41
1.500000000000001
 51
15.0
  7
FX_FONT
 72
     5
 11
68.57441899999999
 21
162.912979
 31
0.0
100
AcDbText
  0
LINE
  5
B1
330
AE
100
AcDbEntity
  8
CSLAYER1
  6
CONTINUOUS
 62
     4
100
AcDbLine
 10
63.47441899999999
 20
162.412981
 30
0.0
 11
70.47441899999999
 21
162.412981
 31
0.0
  0
LINE
  5
B2
330
AE
100
AcDbEntity
  8
CSLAYER1
  6
CONTINUOUS
 62
     4
100
AcDbLine
 10
63.47441899999999
 20
162.412981
 30
0.0
 11
66.372196
 21
163.189438
 31
0.0
  0
LINE
  5
B3
330
AE
100
AcDbEntity
  8
CSLAYER1
  6
CONTINUOUS
 62
     4
100
AcDbLine
 10
63.47441899999999
 20
162.412981
 30
0.0
 11
66.372196
 21
161.636524
 31
0.0
  0
LINE
  5
B4
330
AE
100
AcDbEntity
  8
CSLAYER1
  6
CONTINUOUS
 62
     4
100
AcDbLine
 10
70.47441899999999
 20
162.412981
 30
0.0
 11
67.57664100000001
 21
163.189438
 31
0.0
  0
LINE
  5
B5
330
AE
100
AcDbEntity
  8
CSLAYER1
  6
CONTINUOUS
 62
     4
100
AcDbLine
 10
70.47441899999999
 20
162.412981
 30
0.0
 11
67.57664100000001
 21
161.636524
 31
0.0
  0
LINE
  5
B6
330
AE
100
AcDbEntity
  8
CSLAYER1
  6
CONTINUOUS
 62
     4
100
AcDbLine
 10
70.47441899999999
 20
147.080783
 30
0.0
 11
70.47441899999999
 21
163.412981
 31
0.0
  0
ENDBLK
  5
B7
330
AE
100
AcDbEntity
  8
0
100
AcDbBlockEnd
  0
BLOCK
  5
B9
330
B8
100
AcDbEntity
  8
0
100
AcDbBlockBegin
  2
*D12
 70
     1
 10
0.0
 20
0.0
 30
0.0
  3
*D12
  1

  0
TEXT
  5
BA
330
B8
100
AcDbEntity
  8
CSLAYER1
 62
     4
100
AcDbText
 10
115.2744189999999
 20
162.912979
 30
0.0
 40
3.2
  1
68
 41
1.200000000000017
 51
15.0
  7
FX_FONT
 72
     5
 11
121.674419
 21
162.912979
 31
0.0
100
AcDbText
  0
LINE
  5
BB
330
B8
100
AcDbEntity
  8
CSLAYER1
  6
CONTINUOUS
 62
     4
100
AcDbLine
 10
84.47441899999999
 20
162.412981
 30
0.0
 11
152.4744189999998
 21
162.412981
 31
0.0
  0
LINE
  5
BC
330
B8
100
AcDbEntity
  8
CSLAYER1
  6
CONTINUOUS
 62
     4
100
AcDbLine
 10
84.47441899999999
 20
162.412981
 30
0.0
 11
87.37219600000001
 21
163.189438
 31
0.0
  0
LINE
  5
BD
330
B8
100
AcDbEntity
  8
CSLAYER1
  6
CONTINUOUS
 62
     4
100
AcDbLine
 10
84.47441899999999
 20
162.412981
 30
0.0
 11
87.37219600000001
 21
161.636524
 31
0.0
  0
LINE
  5
BE
330
B8
100
AcDbEntity
  8
CSLAYER1
  6
CONTINUOUS
 62
     4
100
AcDbLine
 10
152.4744189999998
 20
162.412981
 30
0.0
 11
149.5766409999999
 21
163.189438
 31
0.0
  0
LINE
  5
BF
330
B8
100
AcDbEntity
  8
CSLAYER1
  6
CONTINUOUS
 62
     4
100
AcDbLine
 10
152.4744189999998
 20
162.412981
 30
0.0
 11
149.5766409999999
 21
161.636524
 31
0.0
  0
LINE
  5
C0
330
B8
100
AcDbEntity
  8
CSLAYER1
  6
CONTINUOUS
 62
     4
100
AcDbLine
 10
84.47441899999999
 20
148.6999999999999
 30
0.0
 11
84.47441899999999
 21
163.412981
 31
0.0
  0
ENDBLK
  5
C1
330
B8
100
AcDbEntity
  8
0
100
AcDbBlockEnd
  0
BLOCK
  5
C3
330
C2
100
AcDbEntity
  8
0
100
AcDbBlockBegin
  2
*D13
 70
     1
 10
0.0
 20
0.0
 30
0.0
  3
*D13
  1

  0
TEXT
  5
C4
330
C2
100
AcDbEntity
  8
CSLAYER1
 62
     4
100
AcDbText
 10
113.6744189999999
 20
111.004181
 30
0.0
 40
3.2
  1
110
 41
1.12500000000001
 51
15.0
  7
FX_FONT
 72
     5
 11
123.274419
 21
111.004181
 31
0.0
100
AcDbText
  0
LINE
  5
C5
330
C2
100
AcDbEntity
  8
CSLAYER1
  6
CONTINUOUS
 62
     4
100
AcDbLine
 10
63.47441899999999
 20
110.50418
 30
0.0
 11
173.4744189999999
 21
110.50418
 31
0.0
  0
LINE
  5
C6
330
C2
100
AcDbEntity
  8
CSLAYER1
  6
CONTINUOUS
 62
     4
100
AcDbLine
 10
63.47441899999999
 20
110.50418
 30
0.0
 11
66.372196
 21
111.280637
 31
0.0
  0
LINE
  5
C7
330
C2
100
AcDbEntity
  8
CSLAYER1
  6
CONTINUOUS
 62
     4
100
AcDbLine
 10
63.47441899999999
 20
110.50418
 30
0.0
 11
66.372196
 21
109.7277229999999
 31
0.0
  0
LINE
  5
C8
330
C2
100
AcDbEntity
  8
CSLAYER1
  6
CONTINUOUS
 62
     4
100
AcDbLine
 10
173.4744189999999
 20
110.50418
 30
0.0
 11
170.576641
 21
111.280637
 31
0.0
  0
LINE
  5
C9
330
C2
100
AcDbEntity
  8
CSLAYER1
  6
CONTINUOUS
 62
     4
100
AcDbLine
 10
173.4744189999999
 20
110.50418
 30
0.0
 11
170.576641
 21
109.7277229999999
 31
0.0
  0
LINE
  5
CA
330
C2
100
AcDbEntity
  8
CSLAYER1
  6
CONTINUOUS
 62
     4
100
AcDbLine
 10
63.47441899999999
 20
81.84612900000002
 30
0.0
 11
63.47441899999999
 21
111.5041799999999
 31
0.0
  0
LINE
  5
CB
330
C2
100
AcDbEntity
  8
CSLAYER1
  6
CONTINUOUS
 62
     4
100
AcDbLine
 10
173.4744189999999
 20
88.9
 30
0.0
 11
173.4744189999999
 21
111.5041799999999
 31
0.0
  0
ENDBLK
  5
CC
330
C2
100
AcDbEntity
  8
0
100
AcDbBlockEnd
  0
BLOCK
  5
CE
330
CD
100
AcDbEntity
  8
0
100
AcDbBlockBegin
  2
*D14
 70
     1
 10
0.0
 20
0.0
 30
0.0
  3
*D14
  1

  0
TEXT
  5
CF
330
CD
100
AcDbEntity
  8
CSLAYER1
 62
     4
100
AcDbText
 10
65.37441899999999
 20
105.0041809999999
 30
0.0
 40
3.2
  1
7
 41
1.500000000000001
 51
15.0
  7
FX_FONT
 72
     5
 11
68.57441899999999
 21
105.0041809999999
 31
0.0
100
AcDbText
  0
LINE
  5
D0
330
CD
100
AcDbEntity
  8
CSLAYER1
  6
CONTINUOUS
 62
     4
100
AcDbLine
 10
63.47441899999999
 20
104.50418
 30
0.0
 11
70.47441899999999
 21
104.50418
 31
0.0
  0
LINE
  5
D1
330
CD
100
AcDbEntity
  8
CSLAYER1
  6
CONTINUOUS
 62
     4
100
AcDbLine
 10
63.47441899999999
 20
104.50418
 30
0.0
 11
66.372196
 21
105.280637
 31
0.0
  0
LINE
  5
D2
330
CD
100
AcDbEntity
  8
CSLAYER1
  6
CONTINUOUS
 62
     4
100
AcDbLine
 10
63.47441899999999
 20
104.50418
 30
0.0
 11
66.372196
 21
103.7277229999999
 31
0.0
  0
LINE
  5
D3
330
CD
100
AcDbEntity
  8
CSLAYER1
  6
CONTINUOUS
 62
     4
100
AcDbLine
 10
70.47441899999999
 20
104.50418
 30
0.0
 11
67.57664100000001
 21
105.280637
 31
0.0
  0
LINE
  5
D4
330
CD
100
AcDbEntity
  8
CSLAYER1
  6
CONTINUOUS
 62
     4
100
AcDbLine
 10
70.47441899999999
 20
104.50418
 30
0.0
 11
67.57664100000001
 21
103.7277229999999
 31
0.0
  0
LINE
  5
D5
330
CD
100
AcDbEntity
  8
CSLAYER1
  6
CONTINUOUS
 62
     4
100
AcDbLine
 10
70.47441899999999
 20
84.287179
 30
0.0
 11
70.47441899999999
 21
105.50418
 31
0.0
  0
ENDBLK
  5
D6
330
CD
100
AcDbEntity
  8
0
100
AcDbBlockEnd
  0
BLOCK
  5
D8
330
D7
100
AcDbEntity
  8
0
100
AcDbBlockBegin
  2
*D15
 70
     1
 10
0.0
 20
0.0
 30
0.0
  3
*D15
  1

  0
TEXT
  5
D9
330
D7
100
AcDbEntity
  8
CSLAYER1
 62
     4
100
AcDbText
 10
76.12300000000002
 20
120.534768
 30
0.0
 40
3.2
  1
R8
 50
51.87507762355384
 41
1.200000017870449
 51
15.0
  7
FX_FONT
 72
     5
 11
80.07422
 21
125.569434
 31
0.0
100
AcDbText
  0
LINE
  5
DA
330
D7
100
AcDbEntity
  8
CSLAYER1
  6
CONTINUOUS
 62
     4
100
AcDbLine
 10
82.21969599999999
 20
127.493332
 30
0.0
 11
77.280671
 21
121.1999999999999
 31
0.0
  0
LINE
  5
DB
330
D7
100
AcDbEntity
  8
CSLAYER1
  6
CONTINUOUS
 62
     4
100
AcDbLine
 10
82.21969599999999
 20
127.493332
 30
0.0
 11
81.04148499999999
 21
124.73438
 31
0.0
  0
LINE
  5
DC
330
D7
100
AcDbEntity
  8
CSLAYER1
  6
CONTINUOUS
 62
     4
100
AcDbLine
 10
82.21969599999999
 20
127.493332
 30
0.0
 11
79.81985899999997
 21
125.6931149999999
 31
0.0
  0
ENDBLK
  5
DD
330
D7
100
AcDbEntity
  8
0
100
AcDbBlockEnd
  0
BLOCK
  5
DF
330
DE
100
AcDbEntity
  8
0
100
AcDbBlockBegin
  2
FXDIM0003
 70
     0
 10
0.0
 20
0.0
 30
0.0
  3
FXDIM0003
  1

  0
TEXT
  5
E0
330
DE
100
AcDbEntity
  8
CSLAYER1
 62
     4
100
AcDbText
 10
58.060226
 20
120.789359
 30
0.0
 40
3.2
  1
C2
 50
45.00000633034844
 41
1.200000026624179
 51
15.0
  7
FX_FONT
 72
     5
 11
62.58570899999998
 21
125.3148429999999
 31
0.0
100
AcDbText
  0
LINE
  5
E1
330
DE
100
AcDbEntity
  8
CSLAYER1
  6
CONTINUOUS
 62
     4
100
AcDbLine
 10
64.474419
 20
130.1999999999999
 30
0.0
 11
61.97203
 21
127.697611
 31
0.0
  0
LINE
  5
E2
330
DE
100
AcDbEntity
  8
CSLAYER1
  6
CONTINUOUS
 62
     4
100
AcDbLine
 10
64.474419
 20
130.1999999999999
 30
0.0
 11
62.97441899999999
 21
127.6019239999999
 31
0.0
  0
LINE
  5
E3
330
DE
100
AcDbEntity
  8
CSLAYER1
  6
CONTINUOUS
 62
     4
100
AcDbLine
 10
64.474419
 20
130.1999999999999
 30
0.0
 11
61.876342
 21
128.6999999999999
 31
0.0
  0
ENDBLK
  5
E4
330
DE
100
AcDbEntity
  8
0
100
AcDbBlockEnd
  0
BLOCK
  5
24B
330
23E
100
AcDbEntity
  8
0
100
AcDbBlockBegin
  2
*D17
 70
     1
 10
0.0
 20
0.0
 30
0.0
  3
*D17
  1

  0
LINE
  5
23F
330
23E
100
AcDbEntity
  8
CSLAYER1
 62
     0
100
AcDbLine
 10
221.060713
 20
136.1999999999998
 30
0.0
 11
210.386769250657
 21
136.1999999999998
 31
0.0
  0
LINE
  5
240
330
23E
100
AcDbEntity
  8
CSLAYER1
 62
     0
100
AcDbLine
 10
226.3225358261757
 20
127.4284138261758
 30
0.0
 11
217.6233853257714
 21
118.7292633257714
 31
0.0
  0
ARC
  5
241
330
23E
100
AcDbEntity
  8
CSLAYER1
 62
     0
100
AcDbCircle
 10
235.094122
 20
136.1999999999999
 30
0.0
 40
24.52735274934301
100
AcDbArc
 50
180.420480088549
 51
202.0456181865781
  0
ARC
  5
242
330
23E
100
AcDbEntity
  8
CSLAYER1
 62
     0
100
AcDbCircle
 10
235.094122
 20
136.1999999999999
 30
0.0
 40
24.52735274934301
100
AcDbArc
 50
202.9558793806983
 51
224.5795199114509
  0
SOLID
  5
243
330
23E
100
AcDbEntity
  8
CSLAYER1
 62
     0
100
AcDbTrace
 10
210.5374299397185
 20
136.019891130608
 30
0.0
 11
210.5974295357881
 21
136.0201112929734
 31
0.0
 12
210.5667692506568
 22
136.1999999999998
 32
0.0
 13
210.5667692506568
 23
136.1999999999998
 33
0.0
  0
SOLID
  5
244
330
23E
100
AcDbEntity
  8
CSLAYER1
 62
     0
100
AcDbTrace
 10
217.645144117317
 20
119.0054231665118
 30
0.0
 11
217.6025623177661
 21
118.9631527235639
 31
0.0
 12
217.7506645463848
 22
118.856542546385
 32
0.0
 13
217.7506645463848
 23
118.856542546385
 33
0.0
  0
MTEXT
  5
245
330
23E
100
AcDbEntity
  8
CSLAYER1
 62
     0
100
AcDbMText
 10
212.4338028081974
 20
126.8137884630521
 30
0.0
 40
0.18
 41
0.0
 71
     5
 72
     1
  1
\A1;45°
1001
ACAD
1000
MTEXTBEGIN
1070
    73
1070
     1
1070
    44
1040
1.0
1070
    74
1070
     0
1000
MTEXTEND
  0
POINT
  5
246
330
23E
100
AcDbEntity
  8
DEFPOINTS
 62
     0
100
AcDbPoint
 10
211.4025185289073
 20
129.8518539825223
 30
0.0
  0
POINT
  5
247
330
23E
100
AcDbEntity
  8
DEFPOINTS
 62
     0
100
AcDbPoint
 10
235.094122
 20
136.1999999999998
 30
0.0
  0
POINT
  5
248
330
23E
100
AcDbEntity
  8
DEFPOINTS
 62
     0
100
AcDbPoint
 10
226.3667299999999
 20
127.472608
 30
0.0
  0
POINT
  5
249
330
23E
100
AcDbEntity
  8
DEFPOINTS
 62
     0
100
AcDbPoint
 10
231.0691509999999
 20
132.1750289999999
 30
0.0
  0
POINT
  5
24A
330
23E
100
AcDbEntity
  8
DEFPOINTS
 62
     0
100
AcDbPoint
 10
221.1232129999999
 20
136.1999999999998
 30
0.0
  0
ENDBLK
  5
24C
330
23E
100
AcDbEntity
  8
0
100
AcDbBlockEnd
  0
ENDSEC
  0
SECTION
  2
ENTITIES
  0
LINE
  5
E5
330
1E
100
AcDbEntity
  8
CSLAYER1
  6
CONTINUOUS
 62
     3
100
AcDbLine
 10
65.809555
 20
71.02847199999998
 30
0.0
 11
85.97441899999997
 21
66.445549
 31
0.0
  0
LINE
  5
E6
330
1E
100
AcDbEntity
  8
CSLAYER1
  6
CONTINUOUS
 62
     3
100
AcDbLine
 10
85.97441899999997
 20
66.445549
 30
0.0
 11
85.97441899999997
 21
65.9
 31
0.0
  0
LINE
  5
E7
330
1E
100
AcDbEntity
  8
CSLAYER1
  6
CONTINUOUS
 62
     3
100
AcDbLine
 10
85.97441899999997
 20
65.9
 30
0.0
 11
152.274419
 21
65.9
 31
0.0
  0
LINE
  5
E8
330
1E
100
AcDbEntity
  8
CSLAYER1
  6
CONTINUOUS
 62
     3
100
AcDbLine
 10
152.4744189999998
 20
65.9
 30
0.0
 11
172.4744189999999
 21
65.9
 31
0.0
  0
LINE
  5
E9
330
1E
100
AcDbEntity
  8
CSLAYER1
  6
CONTINUOUS
 62
     3
100
AcDbLine
 10
172.4744189999999
 20
65.9
 30
0.0
 11
173.4744189999999
 21
66.90000000000001
 31
0.0
  0
LINE
  5
EA
330
1E
100
AcDbEntity
  8
CSLAYER1
  6
CONTINUOUS
 62
     3
100
AcDbLine
 10
173.4744189999999
 20
66.90000000000001
 30
0.0
 11
173.4744189999999
 21
87.9
 31
0.0
  0
LINE
  5
EB
330
1E
100
AcDbEntity
  8
CSLAYER1
  6
CONTINUOUS
 62
     3
100
AcDbLine
 10
173.4744189999999
 20
87.9
 30
0.0
 11
172.4744189999999
 21
88.9
 31
0.0
  0
LINE
  5
EC
330
1E
100
AcDbEntity
  8
CSLAYER1
  6
CONTINUOUS
 62
     3
100
AcDbLine
 10
172.4744189999999
 20
88.9
 30
0.0
 11
172.4744189999999
 21
83.880741
 31
0.0
  0
LINE
  5
ED
330
1E
100
AcDbEntity
  8
CSLAYER1
  6
CONTINUOUS
 62
     3
100
AcDbLine
 10
172.4744189999999
 20
83.880741
 30
0.0
 11
173.4744189999999
 21
82.88074100000001
 31
0.0
  0
LINE
  5
EE
330
1E
100
AcDbEntity
  8
CSLAYER1
  6
CONTINUOUS
 62
     3
100
AcDbLine
 10
172.4744189999999
 20
83.880741
 30
0.0
 11
160.4744189999999
 21
83.880741
 31
0.0
  0
ARC
  5
EF
330
1E
100
AcDbEntity
  8
CSLAYER1
  6
CONTINUOUS
 62
     3
100
AcDbCircle
 10
160.4744189999999
 20
81.88074099999999
 30
0.0
 40
2.0
100
AcDbArc
 50
90.0
 51
180.0
  0
LINE
  5
F0
330
1E
100
AcDbEntity
  8
CSLAYER1
  6
CONTINUOUS
 62
     3
100
AcDbLine
 10
158.4744189999998
 20
81.88074099999999
 30
0.0
 11
158.4744189999998
 21
72.91925899999998
 31
0.0
  0
ARC
  5
F1
330
1E
100
AcDbEntity
  8
CSLAYER1
  6
CONTINUOUS
 62
     3
100
AcDbCircle
 10
160.4744189999999
 20
72.91925899999998
 30
0.0
 40
2.0
100
AcDbArc
 50
180.0
 51
270.0
  0
LINE
  5
F2
330
1E
100
AcDbEntity
  8
CSLAYER1
  6
CONTINUOUS
 62
     3
100
AcDbLine
 10
160.4744189999999
 20
70.91925899999998
 30
0.0
 11
172.4744189999999
 21
70.91925899999998
 31
0.0
  0
LINE
  5
F3
330
1E
100
AcDbEntity
  8
CSLAYER1
  6
CONTINUOUS
 62
     3
100
AcDbLine
 10
172.4744189999999
 20
70.91925899999998
 30
0.0
 11
173.4744189999999
 21
71.919259
 31
0.0
  0
LINE
  5
F4
330
1E
100
AcDbEntity
  8
CSLAYER1
  6
CONTINUOUS
 62
     3
100
AcDbLine
 10
172.292419
 20
70.91925899999998
 30
0.0
 11
172.292419
 21
65.9
 31
0.0
  0
LINE
  5
F5
330
1E
100
AcDbEntity
  8
CSLAYER1
  6
CONTINUOUS
 62
     3
100
AcDbLine
 10
152.4744189999998
 20
65.9
 30
0.0
 11
152.4744189999998
 21
88.9
 31
0.0
  0
LINE
  5
F6
330
1E
100
AcDbEntity
  8
CSLAYER1
  6
CONTINUOUS
 62
     3
100
AcDbLine
 10
152.4744189999998
 20
88.9
 30
0.0
 11
172.4744189999999
 21
88.9
 31
0.0
  0
LINE
  5
F7
330
1E
100
AcDbEntity
  8
CSLAYER1
  6
CONTINUOUS
 62
     3
100
AcDbLine
 10
152.274419
 20
88.9
 30
0.0
 11
85.97441899999997
 21
88.9
 31
0.0
  0
LINE
  5
F8
330
1E
100
AcDbEntity
  8
CSLAYER1
  6
CONTINUOUS
 62
     3
100
AcDbLine
 10
85.97441899999997
 20
88.9
 30
0.0
 11
85.97441899999997
 21
88.35445099999999
 31
0.0
  0
LINE
  5
F9
330
1E
100
AcDbEntity
  8
CSLAYER1
  6
CONTINUOUS
 62
     3
100
AcDbLine
 10
85.97441899999997
 20
88.35445099999999
 30
0.0
 11
65.809555
 21
83.77152800000002
 31
0.0
  0
ARC
  5
FA
330
1E
100
AcDbEntity
  8
CSLAYER1
  6
CONTINUOUS
 62
     3
100
AcDbCircle
 10
66.474419
 20
80.84612900000001
 30
0.0
 40
3.0
100
AcDbArc
 50
102.8042659999998
 51
180.0
  0
LINE
  5
FB
330
1E
100
AcDbEntity
  8
CSLAYER1
  6
CONTINUOUS
 62
     3
100
AcDbLine
 10
63.47441899999999
 20
80.84612900000001
 30
0.0
 11
63.47441899999999
 21
73.95387099999997
 31
0.0
  0
ARC
  5
FC
330
1E
100
AcDbEntity
  8
CSLAYER1
  6
CONTINUOUS
 62
     3
100
AcDbCircle
 10
66.474419
 20
73.95387099999997
 30
0.0
 40
3.0
100
AcDbArc
 50
180.0
 51
257.1957339999999
  0
ARC
  5
FD
330
1E
100
AcDbEntity
  8
CSLAYER1
  6
CONTINUOUS
 62
     3
100
AcDbCircle
 10
64.474419
 20
75.59999999999998
 30
0.0
 40
1.0
100
AcDbArc
 50
180.0
 51
0.0
  0
LINE
  5
FE
330
1E
100
AcDbEntity
  8
CSLAYER1
  6
CONTINUOUS
 62
     3
100
AcDbLine
 10
65.47441899999999
 20
75.59999999999998
 30
0.0
 11
65.47441899999999
 21
79.2
 31
0.0
  0
ARC
  5
FF
330
1E
100
AcDbEntity
  8
CSLAYER1
  6
CONTINUOUS
 62
     3
100
AcDbCircle
 10
64.474419
 20
79.2
 30
0.0
 40
1.0
100
AcDbArc
 50
0.0
 51
180.0
  0
LINE
  5
100
330
1E
100
AcDbEntity
  8
CSLAYER1
  6
CONTINUOUS
 62
     3
100
AcDbLine
 10
65.47441899999999
 20
79.11963399999997
 30
0.0
 11
78.357282
 21
84.44769499999997
 31
0.0
  0
LINE
  5
101
330
1E
100
AcDbEntity
  8
CSLAYER1
  6
CONTINUOUS
 62
     3
100
AcDbLine
 10
78.357282
 20
84.44769499999997
 30
0.0
 11
78.79852199999998
 21
84.64444399999997
 31
0.0
  0
LINE
  5
102
330
1E
100
AcDbEntity
  8
CSLAYER1
  6
CONTINUOUS
 62
     3
100
AcDbLine
 10
78.79852199999998
 20
84.64444399999997
 30
0.0
 11
79.25020899999998
 21
84.786058
 31
0.0
  0
LINE
  5
103
330
1E
100
AcDbEntity
  8
CSLAYER1
  6
CONTINUOUS
 62
     3
100
AcDbLine
 10
79.25020899999998
 20
84.786058
 30
0.0
 11
79.708905
 21
84.87146
 31
0.0
  0
LINE
  5
104
330
1E
100
AcDbEntity
  8
CSLAYER1
  6
CONTINUOUS
 62
     3
100
AcDbLine
 10
79.708905
 20
84.87146
 30
0.0
 11
80.171118
 21
84.9
 31
0.0
  0
LINE
  5
105
330
1E
100
AcDbEntity
  8
CSLAYER1
  6
CONTINUOUS
 62
     3
100
AcDbLine
 10
80.171118
 20
84.9
 30
0.0
 11
80.63333100000001
 21
84.87146
 31
0.0
  0
LINE
  5
106
330
1E
100
AcDbEntity
  8
CSLAYER1
  6
CONTINUOUS
 62
     3
100
AcDbLine
 10
80.63333100000001
 20
84.87146
 30
0.0
 11
81.09202600000001
 21
84.786058
 31
0.0
  0
LINE
  5
107
330
1E
100
AcDbEntity
  8
CSLAYER1
  6
CONTINUOUS
 62
     3
100
AcDbLine
 10
81.09202600000001
 20
84.786058
 30
0.0
 11
81.54371299999999
 21
84.64444399999997
 31
0.0
  0
LINE
  5
108
330
1E
100
AcDbEntity
  8
CSLAYER1
  6
CONTINUOUS
 62
     3
100
AcDbLine
 10
81.54371299999999
 20
84.64444399999997
 30
0.0
 11
81.98495300000002
 21
84.44769499999997
 31
0.0
  0
LINE
  5
109
330
1E
100
AcDbEntity
  8
CSLAYER1
  6
CONTINUOUS
 62
     3
100
AcDbLine
 10
81.98495300000002
 20
84.44769499999997
 30
0.0
 11
82.41239
 21
84.19730799999998
 31
0.0
  0
LINE
  5
10A
330
1E
100
AcDbEntity
  8
CSLAYER1
  6
CONTINUOUS
 62
     3
100
AcDbLine
 10
82.41239
 20
84.19730799999998
 30
0.0
 11
82.82276800000003
 21
83.89519099999999
 31
0.0
  0
LINE
  5
10B
330
1E
100
AcDbEntity
  8
CSLAYER1
  6
CONTINUOUS
 62
     3
100
AcDbLine
 10
82.82276800000003
 20
83.89519099999999
 30
0.0
 11
83.21296600000001
 21
83.54364
 31
0.0
  0
LINE
  5
10C
330
1E
100
AcDbEntity
  8
CSLAYER1
  6
CONTINUOUS
 62
     3
100
AcDbLine
 10
83.21296600000001
 20
83.54364
 30
0.0
 11
83.580014
 21
83.14533299999999
 31
0.0
  0
LINE
  5
10D
330
1E
100
AcDbEntity
  8
CSLAYER1
  6
CONTINUOUS
 62
     3
100
AcDbLine
 10
83.580014
 20
83.14533299999999
 30
0.0
 11
83.921118
 21
82.703301
 31
0.0
  0
LINE
  5
10E
330
1E
100
AcDbEntity
  8
CSLAYER1
  6
CONTINUOUS
 62
     3
100
AcDbLine
 10
83.921118
 20
82.703301
 30
0.0
 11
84.233682
 21
82.220907
 31
0.0
  0
LINE
  5
10F
330
1E
100
AcDbEntity
  8
CSLAYER1
  6
CONTINUOUS
 62
     3
100
AcDbLine
 10
84.233682
 20
82.220907
 30
0.0
 11
84.51532699999999
 21
81.701823
 31
0.0
  0
LINE
  5
110
330
1E
100
AcDbEntity
  8
CSLAYER1
  6
CONTINUOUS
 62
     3
100
AcDbLine
 10
84.51532699999999
 20
81.701823
 30
0.0
 11
84.76391099999998
 21
81.15
 31
0.0
  0
LINE
  5
111
330
1E
100
AcDbEntity
  8
CSLAYER1
  6
CONTINUOUS
 62
     3
100
AcDbLine
 10
84.76391099999998
 20
81.15
 30
0.0
 11
84.97754099999999
 21
80.569637
 31
0.0
  0
LINE
  5
112
330
1E
100
AcDbEntity
  8
CSLAYER1
  6
CONTINUOUS
 62
     3
100
AcDbLine
 10
84.97754099999999
 20
80.569637
 30
0.0
 11
85.15458999999998
 21
79.965151
 31
0.0
  0
LINE
  5
113
330
1E
100
AcDbEntity
  8
CSLAYER1
  6
CONTINUOUS
 62
     3
100
AcDbLine
 10
85.15458999999998
 20
79.965151
 30
0.0
 11
85.29371299999999
 21
79.341143
 31
0.0
  0
LINE
  5
114
330
1E
100
AcDbEntity
  8
CSLAYER1
  6
CONTINUOUS
 62
     3
100
AcDbLine
 10
85.29371299999999
 20
79.341143
 30
0.0
 11
85.39385000000001
 21
78.70236099999998
 31
0.0
  0
LINE
  5
115
330
1E
100
AcDbEntity
  8
CSLAYER1
  6
CONTINUOUS
 62
     3
100
AcDbLine
 10
85.39385000000001
 20
78.70236099999998
 30
0.0
 11
85.454238
 21
78.053668
 31
0.0
  0
LINE
  5
116
330
1E
100
AcDbEntity
  8
CSLAYER1
  6
CONTINUOUS
 62
     3
100
AcDbLine
 10
85.454238
 20
78.053668
 30
0.0
 11
85.474419
 21
77.40000000000001
 31
0.0
  0
LINE
  5
117
330
1E
100
AcDbEntity
  8
CSLAYER1
  6
CONTINUOUS
 62
     3
100
AcDbLine
 10
85.474419
 20
77.40000000000001
 30
0.0
 11
85.454238
 21
76.74633199999998
 31
0.0
  0
LINE
  5
118
330
1E
100
AcDbEntity
  8
CSLAYER1
  6
CONTINUOUS
 62
     3
100
AcDbLine
 10
85.454238
 20
76.74633199999998
 30
0.0
 11
85.39385000000001
 21
76.097639
 31
0.0
  0
LINE
  5
119
330
1E
100
AcDbEntity
  8
CSLAYER1
  6
CONTINUOUS
 62
     3
100
AcDbLine
 10
85.39385000000001
 20
76.097639
 30
0.0
 11
85.29371299999999
 21
75.45885699999998
 31
0.0
  0
LINE
  5
11A
330
1E
100
AcDbEntity
  8
CSLAYER1
  6
CONTINUOUS
 62
     3
100
AcDbLine
 10
85.29371299999999
 20
75.45885699999998
 30
0.0
 11
85.15458999999998
 21
74.834849
 31
0.0
  0
LINE
  5
11B
330
1E
100
AcDbEntity
  8
CSLAYER1
  6
CONTINUOUS
 62
     3
100
AcDbLine
 10
85.15458999999998
 20
74.834849
 30
0.0
 11
84.97754099999999
 21
74.23036299999998
 31
0.0
  0
LINE
  5
11C
330
1E
100
AcDbEntity
  8
CSLAYER1
  6
CONTINUOUS
 62
     3
100
AcDbLine
 10
84.97754099999999
 20
74.23036299999998
 30
0.0
 11
84.76391099999998
 21
73.65000000000001
 31
0.0
  0
LINE
  5
11D
330
1E
100
AcDbEntity
  8
CSLAYER1
  6
CONTINUOUS
 62
     3
100
AcDbLine
 10
84.76391099999998
 20
73.65000000000001
 30
0.0
 11
84.51532699999999
 21
73.098177
 31
0.0
  0
LINE
  5
11E
330
1E
100
AcDbEntity
  8
CSLAYER1
  6
CONTINUOUS
 62
     3
100
AcDbLine
 10
84.51532699999999
 20
73.098177
 30
0.0
 11
84.233682
 21
72.579093
 31
0.0
  0
LINE
  5
11F
330
1E
100
AcDbEntity
  8
CSLAYER1
  6
CONTINUOUS
 62
     3
100
AcDbLine
 10
84.233682
 20
72.579093
 30
0.0
 11
83.921118
 21
72.096699
 31
0.0
  0
LINE
  5
120
330
1E
100
AcDbEntity
  8
CSLAYER1
  6
CONTINUOUS
 62
     3
100
AcDbLine
 10
83.921118
 20
72.096699
 30
0.0
 11
83.580014
 21
71.654667
 31
0.0
  0
LINE
  5
121
330
1E
100
AcDbEntity
  8
CSLAYER1
  6
CONTINUOUS
 62
     3
100
AcDbLine
 10
83.580014
 20
71.654667
 30
0.0
 11
83.21296600000001
 21
71.25636
 31
0.0
  0
LINE
  5
122
330
1E
100
AcDbEntity
  8
CSLAYER1
  6
CONTINUOUS
 62
     3
100
AcDbLine
 10
83.21296600000001
 20
71.25636
 30
0.0
 11
82.82276800000003
 21
70.904809
 31
0.0
  0
LINE
  5
123
330
1E
100
AcDbEntity
  8
CSLAYER1
  6
CONTINUOUS
 62
     3
100
AcDbLine
 10
82.82276800000003
 20
70.904809
 30
0.0
 11
82.41239
 21
70.602692
 31
0.0
  0
LINE
  5
124
330
1E
100
AcDbEntity
  8
CSLAYER1
  6
CONTINUOUS
 62
     3
100
AcDbLine
 10
82.41239
 20
70.602692
 30
0.0
 11
81.98495300000002
 21
70.352305
 31
0.0
  0
LINE
  5
125
330
1E
100
AcDbEntity
  8
CSLAYER1
  6
CONTINUOUS
 62
     3
100
AcDbLine
 10
81.98495300000002
 20
70.352305
 30
0.0
 11
81.54371299999999
 21
70.155556
 31
0.0
  0
LINE
  5
126
330
1E
100
AcDbEntity
  8
CSLAYER1
  6
CONTINUOUS
 62
     3
100
AcDbLine
 10
81.54371299999999
 20
70.155556
 30
0.0
 11
81.09202600000001
 21
70.013942
 31
0.0
  0
LINE
  5
127
330
1E
100
AcDbEntity
  8
CSLAYER1
  6
CONTINUOUS
 62
     3
100
AcDbLine
 10
81.09202600000001
 20
70.013942
 30
0.0
 11
80.63333100000001
 21
69.92854
 31
0.0
  0
LINE
  5
128
330
1E
100
AcDbEntity
  8
CSLAYER1
  6
CONTINUOUS
 62
     3
100
AcDbLine
 10
80.63333100000001
 20
69.92854
 30
0.0
 11
80.171118
 21
69.90000000000001
 31
0.0
  0
LINE
  5
129
330
1E
100
AcDbEntity
  8
CSLAYER1
  6
CONTINUOUS
 62
     3
100
AcDbLine
 10
80.171118
 20
69.90000000000001
 30
0.0
 11
79.708905
 21
69.92854
 31
0.0
  0
LINE
  5
12A
330
1E
100
AcDbEntity
  8
CSLAYER1
  6
CONTINUOUS
 62
     3
100
AcDbLine
 10
79.708905
 20
69.92854
 30
0.0
 11
79.25020899999998
 21
70.013942
 31
0.0
  0
LINE
  5
12B
330
1E
100
AcDbEntity
  8
CSLAYER1
  6
CONTINUOUS
 62
     3
100
AcDbLine
 10
79.25020899999998
 20
70.013942
 30
0.0
 11
78.79852199999998
 21
70.155556
 31
0.0
  0
LINE
  5
12C
330
1E
100
AcDbEntity
  8
CSLAYER1
  6
CONTINUOUS
 62
     3
100
AcDbLine
 10
78.79852199999998
 20
70.155556
 30
0.0
 11
78.357282
 21
70.352305
 31
0.0
  0
LINE
  5
12D
330
1E
100
AcDbEntity
  8
CSLAYER1
  6
CONTINUOUS
 62
     3
100
AcDbLine
 10
78.357282
 20
70.352305
 30
0.0
 11
65.47441899999999
 21
75.68036600000002
 31
0.0
  0
LINE
  5
12E
330
1E
100
AcDbEntity
  8
CSLAYER1
  6
CONTINUOUS
 62
     3
100
AcDbLine
 10
67.298992
 20
77.40000000000001
 30
0.0
 11
68.886705
 21
74.65
 31
0.0
  0
LINE
  5
12F
330
1E
100
AcDbEntity
  8
CSLAYER1
  6
CONTINUOUS
 62
     3
100
AcDbLine
 10
68.886705
 20
74.65
 30
0.0
 11
72.06213199999997
 21
74.65
 31
0.0
  0
LINE
  5
130
330
1E
100
AcDbEntity
  8
CSLAYER1
  6
CONTINUOUS
 62
     3
100
AcDbLine
 10
72.06213199999997
 20
74.65
 30
0.0
 11
73.649845
 21
77.40000000000001
 31
0.0
  0
LINE
  5
131
330
1E
100
AcDbEntity
  8
CSLAYER1
  6
CONTINUOUS
 62
     3
100
AcDbLine
 10
73.649845
 20
77.40000000000001
 30
0.0
 11
72.06213199999997
 21
80.15
 31
0.0
  0
LINE
  5
132
330
1E
100
AcDbEntity
  8
CSLAYER1
  6
CONTINUOUS
 62
     3
100
AcDbLine
 10
72.06213199999997
 20
80.15
 30
0.0
 11
68.886705
 21
80.15
 31
0.0
  0
LINE
  5
133
330
1E
100
AcDbEntity
  8
CSLAYER1
  6
CONTINUOUS
 62
     3
100
AcDbLine
 10
68.886705
 20
80.15
 30
0.0
 11
67.298992
 21
77.40000000000001
 31
0.0
  0
CIRCLE
  5
134
330
1E
100
AcDbEntity
  8
CSLAYER1
  6
CONTINUOUS
 62
     3
100
AcDbCircle
 10
70.47441899999999
 20
77.40000000000001
 30
0.0
 40
2.75
  0
CIRCLE
  5
135
330
1E
100
AcDbEntity
  8
CSLAYER1
  6
CONTINUOUS
 62
     3
100
AcDbCircle
 10
70.47441899999999
 20
77.40000000000001
 30
0.0
 40
3.5
  0
CIRCLE
  5
136
330
1E
100
AcDbEntity
  8
CSLAYER1
  6
CONTINUOUS
 62
     3
100
AcDbCircle
 10
70.47441899999999
 20
77.40000000000001
 30
0.0
 40
1.5
  0
LINE
  5
137
330
1E
100
AcDbEntity
  8
CSLAYER1
  6
CONTINUOUS
 62
     3
100
AcDbLine
 10
85.474419
 20
66.559185
 30
0.0
 11
85.474419
 21
88.240815
 31
0.0
  0
LINE
  5
138
330
1E
100
AcDbEntity
  8
CSLAYER1
  6
CONTINUOUS
 62
     3
100
AcDbLine
 10
84.47441899999999
 20
124.7
 30
0.0
 11
158.4744189999998
 21
124.7
 31
0.0
  0
LINE
  5
139
330
1E
100
AcDbEntity
  8
CSLAYER1
  6
CONTINUOUS
 62
     3
100
AcDbLine
 10
158.4744189999998
 20
124.7
 30
0.0
 11
158.4744189999998
 21
125.7
 31
0.0
  0
ARC
  5
13A
330
1E
100
AcDbEntity
  8
CSLAYER1
  6
CONTINUOUS
 62
     3
100
AcDbCircle
 10
159.4744189999999
 20
125.7
 30
0.0
 40
1.0
100
AcDbArc
 50
90.0
 51
180.0
  0
LINE
  5
13B
330
1E
100
AcDbEntity
  8
CSLAYER1
  6
CONTINUOUS
 62
     3
100
AcDbLine
 10
159.4744189999999
 20
126.7
 30
0.0
 11
172.4744189999999
 21
126.7
 31
0.0
  0
LINE
  5
13C
330
1E
100
AcDbEntity
  8
CSLAYER1
  6
CONTINUOUS
 62
     3
100
AcDbLine
 10
172.4744189999999
 20
126.7
 30
0.0
 11
173.4744189999999
 21
127.7
 31
0.0
  0
LINE
  5
13D
330
1E
100
AcDbEntity
  8
CSLAYER1
  6
CONTINUOUS
 62
     3
100
AcDbLine
 10
173.4744189999999
 20
127.7
 30
0.0
 11
173.4744189999999
 21
144.6999999999998
 31
0.0
  0
LINE
  5
13E
330
1E
100
AcDbEntity
  8
CSLAYER1
  6
CONTINUOUS
 62
     3
100
AcDbLine
 10
173.4744189999999
 20
144.6999999999998
 30
0.0
 11
172.4744189999999
 21
145.6999999999998
 31
0.0
  0
LINE
  5
13F
330
1E
100
AcDbEntity
  8
CSLAYER1
  6
CONTINUOUS
 62
     3
100
AcDbLine
 10
172.4744189999999
 20
145.6999999999998
 30
0.0
 11
159.4744189999999
 21
145.6999999999998
 31
0.0
  0
ARC
  5
140
330
1E
100
AcDbEntity
  8
CSLAYER1
  6
CONTINUOUS
 62
     3
100
AcDbCircle
 10
159.4744189999999
 20
146.6999999999998
 30
0.0
 40
1.0
100
AcDbArc
 50
180.0
 51
270.0
  0
LINE
  5
141
330
1E
100
AcDbEntity
  8
CSLAYER1
  6
CONTINUOUS
 62
     3
100
AcDbLine
 10
158.4744189999998
 20
146.6999999999998
 30
0.0
 11
158.4744189999998
 21
147.6999999999998
 31
0.0
  0
LINE
  5
142
330
1E
100
AcDbEntity
  8
CSLAYER1
  6
CONTINUOUS
 62
     3
100
AcDbLine
 10
158.4744189999998
 20
147.6999999999998
 30
0.0
 11
152.4744189999998
 21
147.6999999999998
 31
0.0
  0
LINE
  5
143
330
1E
100
AcDbEntity
  8
CSLAYER1
  6
CONTINUOUS
 62
     3
100
AcDbLine
 10
152.4744189999998
 20
147.6999999999998
 30
0.0
 11
152.4744189999998
 21
124.7
 31
0.0
  0
LINE
  5
144
330
1E
100
AcDbEntity
  8
CSLAYER1
  6
CONTINUOUS
 62
     3
100
AcDbLine
 10
172.4744189999999
 20
126.7
 30
0.0
 11
172.4744189999999
 21
145.6999999999998
 31
0.0
  0
LINE
  5
145
330
1E
100
AcDbEntity
  8
CSLAYER1
  6
CONTINUOUS
 62
     3
100
AcDbLine
 10
152.274419
 20
147.6999999999998
 30
0.0
 11
84.47441899999999
 21
147.6999999999998
 31
0.0
  0
LINE
  5
146
330
1E
100
AcDbEntity
  8
CSLAYER1
  6
CONTINUOUS
 62
     3
100
AcDbLine
 10
84.47441899999999
 20
147.6999999999998
 30
0.0
 11
84.47441899999999
 21
139.7
 31
0.0
  0
LINE
  5
147
330
1E
100
AcDbEntity
  8
CSLAYER1
  6
CONTINUOUS
 62
     3
100
AcDbLine
 10
85.97441899999997
 20
139.7
 30
0.0
 11
63.47441899999999
 21
139.7
 31
0.0
  0
LINE
  5
148
330
1E
100
AcDbEntity
  8
CSLAYER1
  6
CONTINUOUS
 62
     3
100
AcDbLine
 10
63.47441899999999
 20
139.7
 30
0.0
 11
63.47441899999999
 21
141.1999999999999
 31
0.0
  0
LINE
  5
149
330
1E
100
AcDbEntity
  8
CSLAYER1
  6
CONTINUOUS
 62
     3
100
AcDbLine
 10
63.47441899999999
 20
141.1999999999999
 30
0.0
 11
65.47441899999999
 21
143.1999999999999
 31
0.0
  0
LINE
  5
14A
330
1E
100
AcDbEntity
  8
CSLAYER1
  6
CONTINUOUS
 62
     3
100
AcDbLine
 10
65.47441899999999
 20
143.1999999999999
 30
0.0
 11
77.280671
 21
143.1999999999999
 31
0.0
  0
ARC
  5
14B
330
1E
100
AcDbEntity
  8
CSLAYER1
  6
CONTINUOUS
 62
     3
100
AcDbCircle
 10
77.280671
 20
151.2
 30
0.0
 40
8.0
100
AcDbArc
 50
270.0
 51
334.05552
  0
LINE
  5
14C
330
1E
100
AcDbEntity
  8
CSLAYER1
  6
CONTINUOUS
 62
     3
100
AcDbLine
 10
85.97441899999997
 20
139.7
 30
0.0
 11
85.97441899999997
 21
132.6999999999999
 31
0.0
  0
LINE
  5
14D
330
1E
100
AcDbEntity
  8
CSLAYER1
  6
CONTINUOUS
 62
     3
100
AcDbLine
 10
85.97441899999997
 20
132.6999999999999
 30
0.0
 11
63.47441899999999
 21
132.6999999999999
 31
0.0
  0
LINE
  5
14E
330
1E
100
AcDbEntity
  8
CSLAYER1
  6
CONTINUOUS
 62
     3
100
AcDbLine
 10
63.47441899999999
 20
132.6999999999999
 30
0.0
 11
63.47441899999999
 21
131.1999999999999
 31
0.0
  0
LINE
  5
14F
330
1E
100
AcDbEntity
  8
CSLAYER1
  6
CONTINUOUS
 62
     3
100
AcDbLine
 10
63.47441899999999
 20
131.1999999999999
 30
0.0
 11
65.47441899999999
 21
129.1999999999999
 31
0.0
  0
LINE
  5
150
330
1E
100
AcDbEntity
  8
CSLAYER1
  6
CONTINUOUS
 62
     3
100
AcDbLine
 10
65.47441899999999
 20
129.1999999999999
 30
0.0
 11
77.280671
 21
129.1999999999999
 31
0.0
  0
ARC
  5
151
330
1E
100
AcDbEntity
  8
CSLAYER1
  6
CONTINUOUS
 62
     3
100
AcDbCircle
 10
77.280671
 20
121.1999999999999
 30
0.0
 40
8.0
100
AcDbArc
 50
25.94448
 51
90.0
  0
LINE
  5
152
330
1E
100
AcDbEntity
  8
CSLAYER1
  6
CONTINUOUS
 62
     3
100
AcDbLine
 10
84.47441899999999
 20
124.7
 30
0.0
 11
84.47441899999999
 21
132.6999999999999
 31
0.0
  0
LINE
  5
153
330
1E
100
AcDbEntity
  8
CSLAYER1
  6
CONTINUOUS
 62
     3
100
AcDbLine
 10
73.649845
 20
129.1999999999999
 30
0.0
 11
73.649845
 21
129.0456199999999
 31
0.0
  0
LINE
  5
154
330
1E
100
AcDbEntity
  8
CSLAYER1
  6
CONTINUOUS
 62
     3
100
AcDbLine
 10
73.649845
 20
129.0456199999999
 30
0.0
 11
73.224419
 21
128.8
 31
0.0
  0
LINE
  5
155
330
1E
100
AcDbEntity
  8
CSLAYER1
  6
CONTINUOUS
 62
     3
100
AcDbLine
 10
73.224419
 20
128.8
 30
0.0
 11
67.724419
 21
128.8
 31
0.0
  0
LINE
  5
156
330
1E
100
AcDbEntity
  8
CSLAYER1
  6
CONTINUOUS
 62
     3
100
AcDbLine
 10
67.724419
 20
128.8
 30
0.0
 11
67.298992
 21
129.0456199999999
 31
0.0
  0
LINE
  5
157
330
1E
100
AcDbEntity
  8
CSLAYER1
  6
CONTINUOUS
 62
     3
100
AcDbLine
 10
67.298992
 20
129.0456199999999
 30
0.0
 11
67.298992
 21
129.1999999999999
 31
0.0
  0
ARC
  5
158
330
1E
100
AcDbEntity
  8
CSLAYER1
  6
CONTINUOUS
 62
     3
100
AcDbCircle
 10
67.27909
 20
133.780129
 30
0.0
 40
5.0
100
AcDbArc
 50
275.109864
 51
288.755062
  0
LINE
  5
159
330
1E
100
AcDbEntity
  8
CSLAYER1
  6
CONTINUOUS
 62
     3
100
AcDbLine
 10
68.886705
 20
129.0456199999999
 30
0.0
 11
68.886705
 21
129.1999999999999
 31
0.0
  0
ARC
  5
15A
330
1E
100
AcDbEntity
  8
CSLAYER1
  6
CONTINUOUS
 62
     3
100
AcDbCircle
 10
70.47441899999999
 20
134.05438
 30
0.0
 40
5.25438
100
AcDbArc
 50
252.412046
 51
287.587954
  0
LINE
  5
15B
330
1E
100
AcDbEntity
  8
CSLAYER1
  6
CONTINUOUS
 62
     3
100
AcDbLine
 10
72.06213199999997
 20
129.0456199999999
 30
0.0
 11
72.06213199999997
 21
129.1999999999999
 31
0.0
  0
ARC
  5
15C
330
1E
100
AcDbEntity
  8
CSLAYER1
  6
CONTINUOUS
 62
     3
100
AcDbCircle
 10
73.669747
 20
133.780129
 30
0.0
 40
5.0
100
AcDbArc
 50
251.244938
 51
264.8901359999999
  0
LINE
  5
15D
330
1E
100
AcDbEntity
  8
CSLAYER1
  6
CONTINUOUS
 62
     3
100
AcDbLine
 10
71.974419
 20
128.8
 30
0.0
 11
71.974419
 21
125.9
 31
0.0
  0
LINE
  5
15E
330
1E
100
AcDbEntity
  8
CSLAYER1
  6
CONTINUOUS
 62
     3
100
AcDbLine
 10
71.974419
 20
125.9
 30
0.0
 11
71.474419
 21
125.4
 31
0.0
  0
LINE
  5
15F
330
1E
100
AcDbEntity
  8
CSLAYER1
  6
CONTINUOUS
 62
     3
100
AcDbLine
 10
71.474419
 20
125.4
 30
0.0
 11
69.474419
 21
125.4
 31
0.0
  0
LINE
  5
160
330
1E
100
AcDbEntity
  8
CSLAYER1
  6
CONTINUOUS
 62
     3
100
AcDbLine
 10
69.474419
 20
125.4
 30
0.0
 11
68.974419
 21
125.9
 31
0.0
  0
LINE
  5
161
330
1E
100
AcDbEntity
  8
CSLAYER1
  6
CONTINUOUS
 62
     3
100
AcDbLine
 10
68.974419
 20
125.9
 30
0.0
 11
68.974419
 21
128.8
 31
0.0
  0
LINE
  5
162
330
1E
100
AcDbEntity
  8
CSLAYER1
  6
CONTINUOUS
 62
     3
100
AcDbLine
 10
68.47441899999999
 20
132.6999999999999
 30
0.0
 11
68.47441899999999
 21
139.7
 31
0.0
  0
LINE
  5
163
330
1E
100
AcDbEntity
  8
CSLAYER1
  6
CONTINUOUS
 62
     3
100
AcDbLine
 10
72.474419
 20
139.7
 30
0.0
 11
72.474419
 21
132.6999999999999
 31
0.0
  0
LINE
  5
164
330
1E
100
AcDbEntity
  8
CSLAYER1
  6
CONTINUOUS
 62
     3
100
AcDbLine
 10
228.6133809999999
 20
126.7
 30
0.0
 11
241.5748629999999
 21
126.7
 31
0.0
  0
ARC
  5
165
330
1E
100
AcDbEntity
  8
CSLAYER1
  6
CONTINUOUS
 62
     3
100
AcDbCircle
 10
235.094122
 20
136.1999999999998
 30
0.0
 40
10.5
100
AcDbArc
 50
295.2087649999998
 51
64.791235
  0
LINE
  5
166
330
1E
100
AcDbEntity
  8
CSLAYER1
  6
CONTINUOUS
 62
     3
100
AcDbLine
 10
241.5748629999999
 20
145.6999999999998
 30
0.0
 11
228.6133809999999
 21
145.6999999999998
 31
0.0
  0
ARC
  5
167
330
1E
100
AcDbEntity
  8
CSLAYER1
  6
CONTINUOUS
 62
     3
100
AcDbCircle
 10
235.094122
 20
136.1999999999998
 30
0.0
 40
10.5
100
AcDbArc
 50
115.2087649999999
 51
244.791235
  0
CIRCLE
  5
168
330
1E
100
AcDbEntity
  8
CSLAYER1
  6
CONTINUOUS
 62
     3
100
AcDbCircle
 10
229.083714
 20
130.1895919999998
 30
0.0
 40
1.25
  0
CIRCLE
  5
169
330
1E
100
AcDbEntity
  8
CSLAYER1
  6
CONTINUOUS
 62
     3
100
AcDbCircle
 10
235.094122
 20
136.1999999999998
 30
0.0
 40
4.25
  0
CIRCLE
  5
16A
330
1E
100
AcDbEntity
  8
CSLAYER1
  6
CONTINUOUS
 62
     3
100
AcDbCircle
 10
235.094122
 20
136.1999999999998
 30
0.0
 40
11.5
  0
CIRCLE
  5
16B
330
1E
100
AcDbEntity
  8
CSLAYER1
  6
CONTINUOUS
 62
     3
100
AcDbCircle
 10
235.094122
 20
136.1999999999998
 30
0.0
 40
3.0
  0
CIRCLE
  5
16C
330
1E
100
AcDbEntity
  8
CSLAYER1
  6
CONTINUOUS
 62
     3
100
AcDbCircle
 10
241.10453
 20
142.2104079999999
 30
0.0
 40
1.25
  0
TEXT
  5
16D
330
1E
100
AcDbEntity
  8
CSLAYER1
 62
     3
100
AcDbText
 10
242.3999999999999
 20
17.4
 30
0.0
 40
3.2
  1
GT-NR3
 41
1.05882352941177
  7
FX_FONT
 72
     5
 11
261.6
 21
17.4
 31
0.0
100
AcDbText
  0
POINT
  5
16E
330
1E
100
AcDbEntity
  8
CSLAYER1
 62
     3
100
AcDbPoint
 10
252.0
 20
19.0
 30
0.0
  0
POLYLINE
  5
16F
330
1E
100
AcDbEntity
  8
CSLAYER1
  6
CONTINUOUS
 62
     3
100
AcDb2dPolyline
 66
     1
 10
0.0
 20
0.0
 30
0.0
  0
VERTEX
  5
170
330
16F
100
AcDbEntity
  8
CSLAYER1
  6
CONTINUOUS
 62
     3
100
AcDbVertex
100
AcDb2dVertex
 10
160.4744189999999
 20
143.5314159999999
 30
0.0
  0
VERTEX
  5
171
330
16F
100
AcDbEntity
  8
CSLAYER1
  6
CONTINUOUS
 62
     3
100
AcDbVertex
100
AcDb2dVertex
 10
160.116644
 20
143.515243
 30
0.0
  0
VERTEX
  5
172
330
16F
100
AcDbEntity
  8
CSLAYER1
  6
CONTINUOUS
 62
     3
100
AcDbVertex
100
AcDb2dVertex
 10
159.761593
 20
143.4668489999999
 30
0.0
  0
VERTEX
  5
173
330
16F
100
AcDbEntity
  8
CSLAYER1
  6
CONTINUOUS
 62
     3
100
AcDbVertex
100
AcDb2dVertex
 10
159.4119659999998
 20
143.3865999999999
 30
0.0
  0
VERTEX
  5
174
330
16F
100
AcDbEntity
  8
CSLAYER1
  6
CONTINUOUS
 62
     3
100
AcDbVertex
100
AcDb2dVertex
 10
159.070426
 20
143.275109
 30
0.0
  0
VERTEX
  5
175
330
16F
100
AcDbEntity
  8
CSLAYER1
  6
CONTINUOUS
 62
     3
100
AcDbVertex
100
AcDb2dVertex
 10
158.7395709999999
 20
143.133224
 30
0.0
  0
VERTEX
  5
176
330
16F
100
AcDbEntity
  8
CSLAYER1
  6
CONTINUOUS
 62
     3
100
AcDbVertex
100
AcDb2dVertex
 10
158.4219189999999
 20
142.962024
 30
0.0
  0
VERTEX
  5
177
330
16F
100
AcDbEntity
  8
CSLAYER1
  6
CONTINUOUS
 62
     3
100
AcDbVertex
100
AcDb2dVertex
 10
158.119887
 20
142.762812
 30
0.0
  0
VERTEX
  5
178
330
16F
100
AcDbEntity
  8
CSLAYER1
  6
CONTINUOUS
 62
     3
100
AcDbVertex
100
AcDb2dVertex
 10
157.835775
 20
142.537105
 30
0.0
  0
VERTEX
  5
179
330
16F
100
AcDbEntity
  8
CSLAYER1
  6
CONTINUOUS
 62
     3
100
AcDbVertex
100
AcDb2dVertex
 10
157.5717449999999
 20
142.28662
 30
0.0
  0
VERTEX
  5
17A
330
16F
100
AcDbEntity
  8
CSLAYER1
  6
CONTINUOUS
 62
     3
100
AcDbVertex
100
AcDb2dVertex
 10
157.329806
 20
142.0132629999999
 30
0.0
  0
VERTEX
  5
17B
330
16F
100
AcDbEntity
  8
CSLAYER1
  6
CONTINUOUS
 62
     3
100
AcDbVertex
100
AcDb2dVertex
 10
157.1117989999999
 20
141.7191159999999
 30
0.0
  0
VERTEX
  5
17C
330
16F
100
AcDbEntity
  8
CSLAYER1
  6
CONTINUOUS
 62
     3
100
AcDbVertex
100
AcDb2dVertex
 10
156.919384
 20
141.4064159999998
 30
0.0
  0
VERTEX
  5
17D
330
16F
100
AcDbEntity
  8
CSLAYER1
  6
CONTINUOUS
 62
     3
100
AcDbVertex
100
AcDb2dVertex
 10
156.754025
 20
141.0775429999999
 30
0.0
  0
VERTEX
  5
17E
330
16F
100
AcDbEntity
  8
CSLAYER1
  6
CONTINUOUS
 62
     3
100
AcDbVertex
100
AcDb2dVertex
 10
156.61698
 20
140.735001
 30
0.0
  0
VERTEX
  5
17F
330
16F
100
AcDbEntity
  8
CSLAYER1
  6
CONTINUOUS
 62
     3
100
AcDbVertex
100
AcDb2dVertex
 10
156.5092929999998
 20
140.3813969999999
 30
0.0
  0
VERTEX
  5
180
330
16F
100
AcDbEntity
  8
CSLAYER1
  6
CONTINUOUS
 62
     3
100
AcDbVertex
100
AcDb2dVertex
 10
156.431783
 20
140.01942
 30
0.0
  0
VERTEX
  5
181
330
16F
100
AcDbEntity
  8
CSLAYER1
  6
CONTINUOUS
 62
     3
100
AcDbVertex
100
AcDb2dVertex
 10
156.3850389999998
 20
139.651828
 30
0.0
  0
VERTEX
  5
182
330
16F
100
AcDbEntity
  8
CSLAYER1
  6
CONTINUOUS
 62
     3
100
AcDbVertex
100
AcDb2dVertex
 10
156.3694189999999
 20
139.2814159999999
 30
0.0
  0
VERTEX
  5
183
330
16F
100
AcDbEntity
  8
CSLAYER1
  6
CONTINUOUS
 62
     3
100
AcDbVertex
100
AcDb2dVertex
 10
156.3850389999998
 20
138.911004
 30
0.0
  0
VERTEX
  5
184
330
16F
100
AcDbEntity
  8
CSLAYER1
  6
CONTINUOUS
 62
     3
100
AcDbVertex
100
AcDb2dVertex
 10
156.431783
 20
138.543411
 30
0.0
  0
VERTEX
  5
185
330
16F
100
AcDbEntity
  8
CSLAYER1
  6
CONTINUOUS
 62
     3
100
AcDbVertex
100
AcDb2dVertex
 10
156.5092929999998
 20
138.181435
 30
0.0
  0
VERTEX
  5
186
330
16F
100
AcDbEntity
  8
CSLAYER1
  6
CONTINUOUS
 62
     3
100
AcDbVertex
100
AcDb2dVertex
 10
156.61698
 20
137.82783
 30
0.0
  0
VERTEX
  5
187
330
16F
100
AcDbEntity
  8
CSLAYER1
  6
CONTINUOUS
 62
     3
100
AcDbVertex
100
AcDb2dVertex
 10
156.754025
 20
137.4852879999999
 30
0.0
  0
VERTEX
  5
188
330
16F
100
AcDbEntity
  8
CSLAYER1
  6
CONTINUOUS
 62
     3
100
AcDbVertex
100
AcDb2dVertex
 10
156.919384
 20
137.1564159999999
 30
0.0
  0
VERTEX
  5
189
330
16F
100
AcDbEntity
  8
CSLAYER1
  6
CONTINUOUS
 62
     3
100
AcDbVertex
100
AcDb2dVertex
 10
157.1117989999999
 20
136.843716
 30
0.0
  0
VERTEX
  5
18A
330
16F
100
AcDbEntity
  8
CSLAYER1
  6
CONTINUOUS
 62
     3
100
AcDbVertex
100
AcDb2dVertex
 10
157.329806
 20
136.5495679999999
 30
0.0
  0
VERTEX
  5
18B
330
16F
100
AcDbEntity
  8
CSLAYER1
  6
CONTINUOUS
 62
     3
100
AcDbVertex
100
AcDb2dVertex
 10
157.5717449999999
 20
136.276212
 30
0.0
  0
VERTEX
  5
18C
330
16F
100
AcDbEntity
  8
CSLAYER1
  6
CONTINUOUS
 62
     3
100
AcDbVertex
100
AcDb2dVertex
 10
157.835775
 20
136.0257269999999
 30
0.0
  0
VERTEX
  5
18D
330
16F
100
AcDbEntity
  8
CSLAYER1
  6
CONTINUOUS
 62
     3
100
AcDbVertex
100
AcDb2dVertex
 10
158.119887
 20
135.8000199999999
 30
0.0
  0
VERTEX
  5
18E
330
16F
100
AcDbEntity
  8
CSLAYER1
  6
CONTINUOUS
 62
     3
100
AcDbVertex
100
AcDb2dVertex
 10
158.4219189999999
 20
135.600808
 30
0.0
  0
VERTEX
  5
18F
330
16F
100
AcDbEntity
  8
CSLAYER1
  6
CONTINUOUS
 62
     3
100
AcDbVertex
100
AcDb2dVertex
 10
158.7395709999999
 20
135.429608
 30
0.0
  0
VERTEX
  5
190
330
16F
100
AcDbEntity
  8
CSLAYER1
  6
CONTINUOUS
 62
     3
100
AcDbVertex
100
AcDb2dVertex
 10
159.070426
 20
135.287722
 30
0.0
  0
VERTEX
  5
191
330
16F
100
AcDbEntity
  8
CSLAYER1
  6
CONTINUOUS
 62
     3
100
AcDbVertex
100
AcDb2dVertex
 10
159.4119659999998
 20
135.176231
 30
0.0
  0
VERTEX
  5
192
330
16F
100
AcDbEntity
  8
CSLAYER1
  6
CONTINUOUS
 62
     3
100
AcDbVertex
100
AcDb2dVertex
 10
159.761593
 20
135.095983
 30
0.0
  0
VERTEX
  5
193
330
16F
100
AcDbEntity
  8
CSLAYER1
  6
CONTINUOUS
 62
     3
100
AcDbVertex
100
AcDb2dVertex
 10
160.116644
 20
135.0475879999999
 30
0.0
  0
VERTEX
  5
194
330
16F
100
AcDbEntity
  8
CSLAYER1
  6
CONTINUOUS
 62
     3
100
AcDbVertex
100
AcDb2dVertex
 10
160.4744189999999
 20
135.0314159999999
 30
0.0
  0
VERTEX
  5
195
330
16F
100
AcDbEntity
  8
CSLAYER1
  6
CONTINUOUS
 62
     3
100
AcDbVertex
100
AcDb2dVertex
 10
160.8321929999999
 20
135.0475879999999
 30
0.0
  0
VERTEX
  5
196
330
16F
100
AcDbEntity
  8
CSLAYER1
  6
CONTINUOUS
 62
     3
100
AcDbVertex
100
AcDb2dVertex
 10
161.1872439999999
 20
135.095983
 30
0.0
  0
VERTEX
  5
197
330
16F
100
AcDbEntity
  8
CSLAYER1
  6
CONTINUOUS
 62
     3
100
AcDbVertex
100
AcDb2dVertex
 10
161.536871
 20
135.176231
 30
0.0
  0
VERTEX
  5
198
330
16F
100
AcDbEntity
  8
CSLAYER1
  6
CONTINUOUS
 62
     3
100
AcDbVertex
100
AcDb2dVertex
 10
161.8784109999999
 20
135.287722
 30
0.0
  0
VERTEX
  5
199
330
16F
100
AcDbEntity
  8
CSLAYER1
  6
CONTINUOUS
 62
     3
100
AcDbVertex
100
AcDb2dVertex
 10
162.2092669999998
 20
135.429608
 30
0.0
  0
VERTEX
  5
19A
330
16F
100
AcDbEntity
  8
CSLAYER1
  6
CONTINUOUS
 62
     3
100
AcDbVertex
100
AcDb2dVertex
 10
162.526919
 20
135.600808
 30
0.0
  0
VERTEX
  5
19B
330
16F
100
AcDbEntity
  8
CSLAYER1
  6
CONTINUOUS
 62
     3
100
AcDbVertex
100
AcDb2dVertex
 10
162.8289499999999
 20
135.8000199999999
 30
0.0
  0
VERTEX
  5
19C
330
16F
100
AcDbEntity
  8
CSLAYER1
  6
CONTINUOUS
 62
     3
100
AcDbVertex
100
AcDb2dVertex
 10
163.113062
 20
136.0257269999999
 30
0.0
  0
VERTEX
  5
19D
330
16F
100
AcDbEntity
  8
CSLAYER1
  6
CONTINUOUS
 62
     3
100
AcDbVertex
100
AcDb2dVertex
 10
163.377092
 20
136.276212
 30
0.0
  0
VERTEX
  5
19E
330
16F
100
AcDbEntity
  8
CSLAYER1
  6
CONTINUOUS
 62
     3
100
AcDbVertex
100
AcDb2dVertex
 10
163.619031
 20
136.5495679999999
 30
0.0
  0
VERTEX
  5
19F
330
16F
100
AcDbEntity
  8
CSLAYER1
  6
CONTINUOUS
 62
     3
100
AcDbVertex
100
AcDb2dVertex
 10
163.8370379999998
 20
136.843716
 30
0.0
  0
VERTEX
  5
1A0
330
16F
100
AcDbEntity
  8
CSLAYER1
  6
CONTINUOUS
 62
     3
100
AcDbVertex
100
AcDb2dVertex
 10
164.029453
 20
137.1564159999999
 30
0.0
  0
VERTEX
  5
1A1
330
16F
100
AcDbEntity
  8
CSLAYER1
  6
CONTINUOUS
 62
     3
100
AcDbVertex
100
AcDb2dVertex
 10
164.194812
 20
137.4852879999999
 30
0.0
  0
VERTEX
  5
1A2
330
16F
100
AcDbEntity
  8
CSLAYER1
  6
CONTINUOUS
 62
     3
100
AcDbVertex
100
AcDb2dVertex
 10
164.331857
 20
137.82783
 30
0.0
  0
VERTEX
  5
1A3
330
16F
100
AcDbEntity
  8
CSLAYER1
  6
CONTINUOUS
 62
     3
100
AcDbVertex
100
AcDb2dVertex
 10
164.4395439999998
 20
138.181435
 30
0.0
  0
VERTEX
  5
1A4
330
16F
100
AcDbEntity
  8
CSLAYER1
  6
CONTINUOUS
 62
     3
100
AcDbVertex
100
AcDb2dVertex
 10
164.517054
 20
138.543411
 30
0.0
  0
VERTEX
  5
1A5
330
16F
100
AcDbEntity
  8
CSLAYER1
  6
CONTINUOUS
 62
     3
100
AcDbVertex
100
AcDb2dVertex
 10
164.563798
 20
138.911004
 30
0.0
  0
VERTEX
  5
1A6
330
16F
100
AcDbEntity
  8
CSLAYER1
  6
CONTINUOUS
 62
     3
100
AcDbVertex
100
AcDb2dVertex
 10
164.579419
 20
139.2814159999999
 30
0.0
  0
VERTEX
  5
1A7
330
16F
100
AcDbEntity
  8
CSLAYER1
  6
CONTINUOUS
 62
     3
100
AcDbVertex
100
AcDb2dVertex
 10
164.563798
 20
139.651828
 30
0.0
  0
VERTEX
  5
1A8
330
16F
100
AcDbEntity
  8
CSLAYER1
  6
CONTINUOUS
 62
     3
100
AcDbVertex
100
AcDb2dVertex
 10
164.517054
 20
140.01942
 30
0.0
  0
VERTEX
  5
1A9
330
16F
100
AcDbEntity
  8
CSLAYER1
  6
CONTINUOUS
 62
     3
100
AcDbVertex
100
AcDb2dVertex
 10
164.4395439999998
 20
140.3813969999999
 30
0.0
  0
VERTEX
  5
1AA
330
16F
100
AcDbEntity
  8
CSLAYER1
  6
CONTINUOUS
 62
     3
100
AcDbVertex
100
AcDb2dVertex
 10
164.331857
 20
140.735001
 30
0.0
  0
VERTEX
  5
1AB
330
16F
100
AcDbEntity
  8
CSLAYER1
  6
CONTINUOUS
 62
     3
100
AcDbVertex
100
AcDb2dVertex
 10
164.194812
 20
141.0775429999999
 30
0.0
  0
VERTEX
  5
1AC
330
16F
100
AcDbEntity
  8
CSLAYER1
  6
CONTINUOUS
 62
     3
100
AcDbVertex
100
AcDb2dVertex
 10
164.029453
 20
141.4064159999998
 30
0.0
  0
VERTEX
  5
1AD
330
16F
100
AcDbEntity
  8
CSLAYER1
  6
CONTINUOUS
 62
     3
100
AcDbVertex
100
AcDb2dVertex
 10
163.8370379999998
 20
141.7191159999999
 30
0.0
  0
VERTEX
  5
1AE
330
16F
100
AcDbEntity
  8
CSLAYER1
  6
CONTINUOUS
 62
     3
100
AcDbVertex
100
AcDb2dVertex
 10
163.619031
 20
142.0132629999999
 30
0.0
  0
VERTEX
  5
1AF
330
16F
100
AcDbEntity
  8
CSLAYER1
  6
CONTINUOUS
 62
     3
100
AcDbVertex
100
AcDb2dVertex
 10
163.377092
 20
142.28662
 30
0.0
  0
VERTEX
  5
1B0
330
16F
100
AcDbEntity
  8
CSLAYER1
  6
CONTINUOUS
 62
     3
100
AcDbVertex
100
AcDb2dVertex
 10
163.113062
 20
142.537105
 30
0.0
  0
VERTEX
  5
1B1
330
16F
100
AcDbEntity
  8
CSLAYER1
  6
CONTINUOUS
 62
     3
100
AcDbVertex
100
AcDb2dVertex
 10
162.8289499999999
 20
142.762812
 30
0.0
  0
VERTEX
  5
1B2
330
16F
100
AcDbEntity
  8
CSLAYER1
  6
CONTINUOUS
 62
     3
100
AcDbVertex
100
AcDb2dVertex
 10
162.526919
 20
142.962024
 30
0.0
  0
VERTEX
  5
1B3
330
16F
100
AcDbEntity
  8
CSLAYER1
  6
CONTINUOUS
 62
     3
100
AcDbVertex
100
AcDb2dVertex
 10
162.2092669999998
 20
143.133224
 30
0.0
  0
VERTEX
  5
1B4
330
16F
100
AcDbEntity
  8
CSLAYER1
  6
CONTINUOUS
 62
     3
100
AcDbVertex
100
AcDb2dVertex
 10
161.8784109999999
 20
143.275109
 30
0.0
  0
VERTEX
  5
1B5
330
16F
100
AcDbEntity
  8
CSLAYER1
  6
CONTINUOUS
 62
     3
100
AcDbVertex
100
AcDb2dVertex
 10
161.536871
 20
143.3865999999999
 30
0.0
  0
VERTEX
  5
1B6
330
16F
100
AcDbEntity
  8
CSLAYER1
  6
CONTINUOUS
 62
     3
100
AcDbVertex
100
AcDb2dVertex
 10
161.1872439999999
 20
143.4668489999999
 30
0.0
  0
VERTEX
  5
1B7
330
16F
100
AcDbEntity
  8
CSLAYER1
  6
CONTINUOUS
 62
     3
100
AcDbVertex
100
AcDb2dVertex
 10
160.8321929999999
 20
143.515243
 30
0.0
  0
VERTEX
  5
1B8
330
16F
100
AcDbEntity
  8
CSLAYER1
  6
CONTINUOUS
 62
     3
100
AcDbVertex
100
AcDb2dVertex
 10
160.4744189999999
 20
143.5314159999999
 30
0.0
  0
SEQEND
  5
1B9
330
16F
100
AcDbEntity
  8
CSLAYER1
 62
     3
  0
LINE
  5
1BA
330
1E
100
AcDbEntity
  8
CSLAYER1
  6
CENTER
 62
     4
100
AcDbLine
 10
61.02773299999999
 20
77.40000000000001
 30
0.0
 11
180.602751
 21
77.40000000000001
 31
0.0
  0
LINE
  5
1BB
330
1E
100
AcDbEntity
  8
CSLAYER1
  6
CENTER
 62
     4
100
AcDbLine
 10
160.4744189999999
 20
132.17278
 30
0.0
 11
160.4744189999999
 21
146.2571599999999
 31
0.0
  0
LINE
  5
1BC
330
1E
100
AcDbEntity
  8
CSLAYER1
  6
CENTER
 62
     4
100
AcDbLine
 10
167.74263
 20
139.2814159999999
 30
0.0
 11
153.151212
 21
139.2814159999999
 31
0.0
  0
LINE
  5
1BD
330
1E
100
AcDbEntity
  8
CSLAYER1
  6
CENTER
 62
     4
100
AcDbLine
 10
180.602751
 20
136.1999999999998
 30
0.0
 11
59.896825
 21
136.1999999999998
 31
0.0
  0
LINE
  5
1BE
330
1E
100
AcDbEntity
  8
CSLAYER1
  6
CONTINUOUS
 62
     4
100
AcDbLine
 10
69.22441899999999
 20
128.8
 30
0.0
 11
69.22441899999999
 21
125.65
 31
0.0
  0
LINE
  5
1BF
330
1E
100
AcDbEntity
  8
CSLAYER1
  6
CONTINUOUS
 62
     4
100
AcDbLine
 10
68.974419
 20
125.9
 30
0.0
 11
71.974419
 21
125.9
 31
0.0
  0
LINE
  5
1C0
330
1E
100
AcDbEntity
  8
CSLAYER1
  6
CONTINUOUS
 62
     4
100
AcDbLine
 10
71.72441899999999
 20
125.65
 30
0.0
 11
71.72441899999999
 21
128.8
 31
0.0
  0
LINE
  5
1C1
330
1E
100
AcDbEntity
  8
CSLAYER1
  6
CENTER
 62
     4
100
AcDbLine
 10
70.47441899999999
 20
124.579145
 30
0.0
 11
70.47441899999999
 21
146.080783
 31
0.0
  0
LINE
  5
1C2
330
1E
100
AcDbEntity
  8
CSLAYER1
  6
CENTER
 62
     4
100
AcDbLine
 10
70.47441899999999
 20
83.287179
 30
0.0
 11
70.47441899999999
 21
71.403926
 31
0.0
  0
CIRCLE
  5
1C3
330
1E
100
AcDbEntity
  8
CSLAYER1
  6
CONTINUOUS
 62
     4
100
AcDbCircle
 10
70.47441899999999
 20
77.40000000000001
 30
0.0
 40
1.25
  0
LINE
  5
1C4
330
1E
100
AcDbEntity
  8
CSLAYER1
  6
CENTER
 62
     4
100
AcDbLine
 10
221.1232129999999
 20
136.1999999999998
 30
0.0
 11
249.868667
 21
136.1999999999998
 31
0.0
  0
LINE
  5
1C5
330
1E
100
AcDbEntity
  8
CSLAYER1
  6
CENTER
 62
     4
100
AcDbLine
 10
243.061439
 20
140.253499
 30
0.0
 11
239.2039839999999
 21
144.110953
 31
0.0
  0
CIRCLE
  5
1C6
330
1E
100
AcDbEntity
  8
CSLAYER1
  6
CONTINUOUS
 62
     4
100
AcDbCircle
 10
241.10453
 20
142.2104079999999
 30
0.0
 40
1.5
  0
LINE
  5
1C7
330
1E
100
AcDbEntity
  8
CSLAYER1
  6
CENTER
 62
     4
100
AcDbLine
 10
239.0412229999999
 20
140.1471009999999
 30
0.0
 11
244.2579709999999
 21
145.3638489999999
 31
0.0
  0
LINE
  5
1C8
330
1E
100
AcDbEntity
  8
CSLAYER1
  6
CENTER
 62
     4
100
AcDbLine
 10
235.094122
 20
150.485455
 30
0.0
 11
235.094122
 21
121.678182
 31
0.0
  0
LINE
  5
1C9
330
1E
100
AcDbEntity
  8
CSLAYER1
  6
CENTER
 62
     4
100
AcDbLine
 10
231.1508359999999
 20
128.1224699999999
 30
0.0
 11
226.7790549999999
 21
132.494252
 31
0.0
  0
CIRCLE
  5
1CA
330
1E
100
AcDbEntity
  8
CSLAYER1
  6
CONTINUOUS
 62
     4
100
AcDbCircle
 10
229.083714
 20
130.1895919999998
 30
0.0
 40
1.5
  0
LINE
  5
1CB
330
1E
100
AcDbEntity
  8
CSLAYER1
  6
CENTER
 62
     4
100
AcDbLine
 10
231.0691509999999
 20
132.1750289999999
 30
0.0
 11
226.3667299999999
 21
127.472608
 31
0.0
  0
CIRCLE
  5
1CC
330
1E
100
AcDbEntity
  8
CSLAYER1
  6
CONTINUOUS
 62
     4
100
AcDbCircle
 10
235.094122
 20
136.1999999999998
 30
0.0
 40
4.75
  0
LINE
  5
1CD
330
1E
100
AcDbEntity
  8
CSLAYER1
  6
CENTER
 62
     4
100
AcDbLine
 10
235.094122
 20
136.1999999999998
 30
0.0
 11
220.49943
 21
140.1106359999999
 31
0.0
  0
POLYLINE
  5
1CE
330
1E
100
AcDbEntity
  8
CSLAYER1
  6
CONTINUOUS
 62
     4
100
AcDb2dPolyline
 66
     1
 10
0.0
 20
0.0
 30
0.0
  0
VERTEX
  5
1CF
330
1CE
100
AcDbEntity
  8
CSLAYER1
  6
CONTINUOUS
 62
     4
100
AcDbVertex
100
AcDb2dVertex
 10
160.4744189999999
 20
144.0314159999998
 30
0.0
  0
VERTEX
  5
1D0
330
1CE
100
AcDbEntity
  8
CSLAYER1
  6
CONTINUOUS
 62
     4
100
AcDbVertex
100
AcDb2dVertex
 10
160.07481
 20
144.013341
 30
0.0
  0
VERTEX
  5
1D1
330
1CE
100
AcDbEntity
  8
CSLAYER1
  6
CONTINUOUS
 62
     4
100
AcDbVertex
100
AcDb2dVertex
 10
159.6782419999998
 20
143.9592529999998
 30
0.0
  0
VERTEX
  5
1D2
330
1CE
100
AcDbEntity
  8
CSLAYER1
  6
CONTINUOUS
 62
     4
100
AcDbVertex
100
AcDb2dVertex
 10
159.287733
 20
143.8695629999999
 30
0.0
  0
VERTEX
  5
1D3
330
1CE
100
AcDbEntity
  8
CSLAYER1
  6
CONTINUOUS
 62
     4
100
AcDbVertex
100
AcDb2dVertex
 10
158.906256
 20
143.744956
 30
0.0
  0
VERTEX
  5
1D4
330
1CE
100
AcDbEntity
  8
CSLAYER1
  6
CONTINUOUS
 62
     4
100
AcDbVertex
100
AcDb2dVertex
 10
158.5367139999999
 20
143.586378
 30
0.0
  0
VERTEX
  5
1D5
330
1CE
100
AcDbEntity
  8
CSLAYER1
  6
CONTINUOUS
 62
     4
100
AcDbVertex
100
AcDb2dVertex
 10
158.181919
 20
143.395036
 30
0.0
  0
VERTEX
  5
1D6
330
1CE
100
AcDbEntity
  8
CSLAYER1
  6
CONTINUOUS
 62
     4
100
AcDbVertex
100
AcDb2dVertex
 10
157.844571
 20
143.1723879999998
 30
0.0
  0
VERTEX
  5
1D7
330
1CE
100
AcDbEntity
  8
CSLAYER1
  6
CONTINUOUS
 62
     4
100
AcDbVertex
100
AcDb2dVertex
 10
157.527237
 20
142.920127
 30
0.0
  0
VERTEX
  5
1D8
330
1CE
100
AcDbEntity
  8
CSLAYER1
  6
CONTINUOUS
 62
     4
100
AcDbVertex
100
AcDb2dVertex
 10
157.232334
 20
142.640173
 30
0.0
  0
VERTEX
  5
1D9
330
1CE
100
AcDbEntity
  8
CSLAYER1
  6
CONTINUOUS
 62
     4
100
AcDbVertex
100
AcDb2dVertex
 10
156.962105
 20
142.3346569999999
 30
0.0
  0
VERTEX
  5
1DA
330
1CE
100
AcDbEntity
  8
CSLAYER1
  6
CONTINUOUS
 62
     4
100
AcDbVertex
100
AcDb2dVertex
 10
156.718606
 20
142.005904
 30
0.0
  0
VERTEX
  5
1DB
330
1CE
100
AcDbEntity
  8
CSLAYER1
  6
CONTINUOUS
 62
     4
100
AcDbVertex
100
AcDb2dVertex
 10
156.503692
 20
141.6564159999999
 30
0.0
  0
VERTEX
  5
1DC
330
1CE
100
AcDbEntity
  8
CSLAYER1
  6
CONTINUOUS
 62
     4
100
AcDbVertex
100
AcDb2dVertex
 10
156.3189969999999
 20
141.2888519999999
 30
0.0
  0
VERTEX
  5
1DD
330
1CE
100
AcDbEntity
  8
CSLAYER1
  6
CONTINUOUS
 62
     4
100
AcDbVertex
100
AcDb2dVertex
 10
156.165928
 20
140.906011
 30
0.0
  0
VERTEX
  5
1DE
330
1CE
100
AcDbEntity
  8
CSLAYER1
  6
CONTINUOUS
 62
     4
100
AcDbVertex
100
AcDb2dVertex
 10
156.0456489999999
 20
140.510806
 30
0.0
  0
VERTEX
  5
1DF
330
1CE
100
AcDbEntity
  8
CSLAYER1
  6
CONTINUOUS
 62
     4
100
AcDbVertex
100
AcDb2dVertex
 10
155.959075
 20
140.1062449999999
 30
0.0
  0
VERTEX
  5
1E0
330
1CE
100
AcDbEntity
  8
CSLAYER1
  6
CONTINUOUS
 62
     4
100
AcDbVertex
100
AcDb2dVertex
 10
155.9068659999998
 20
139.6954049999999
 30
0.0
  0
VERTEX
  5
1E1
330
1CE
100
AcDbEntity
  8
CSLAYER1
  6
CONTINUOUS
 62
     4
100
AcDbVertex
100
AcDb2dVertex
 10
155.889419
 20
139.2814159999999
 30
0.0
  0
VERTEX
  5
1E2
330
1CE
100
AcDbEntity
  8
CSLAYER1
  6
CONTINUOUS
 62
     4
100
AcDbVertex
100
AcDb2dVertex
 10
155.9068659999998
 20
138.8674259999999
 30
0.0
  0
VERTEX
  5
1E3
330
1CE
100
AcDbEntity
  8
CSLAYER1
  6
CONTINUOUS
 62
     4
100
AcDbVertex
100
AcDb2dVertex
 10
155.959075
 20
138.456587
 30
0.0
  0
VERTEX
  5
1E4
330
1CE
100
AcDbEntity
  8
CSLAYER1
  6
CONTINUOUS
 62
     4
100
AcDbVertex
100
AcDb2dVertex
 10
156.0456489999999
 20
138.0520249999999
 30
0.0
  0
VERTEX
  5
1E5
330
1CE
100
AcDbEntity
  8
CSLAYER1
  6
CONTINUOUS
 62
     4
100
AcDbVertex
100
AcDb2dVertex
 10
156.165928
 20
137.6568199999999
 30
0.0
  0
VERTEX
  5
1E6
330
1CE
100
AcDbEntity
  8
CSLAYER1
  6
CONTINUOUS
 62
     4
100
AcDbVertex
100
AcDb2dVertex
 10
156.3189969999999
 20
137.273979
 30
0.0
  0
VERTEX
  5
1E7
330
1CE
100
AcDbEntity
  8
CSLAYER1
  6
CONTINUOUS
 62
     4
100
AcDbVertex
100
AcDb2dVertex
 10
156.503692
 20
136.9064159999998
 30
0.0
  0
VERTEX
  5
1E8
330
1CE
100
AcDbEntity
  8
CSLAYER1
  6
CONTINUOUS
 62
     4
100
AcDbVertex
100
AcDb2dVertex
 10
156.718606
 20
136.556928
 30
0.0
  0
VERTEX
  5
1E9
330
1CE
100
AcDbEntity
  8
CSLAYER1
  6
CONTINUOUS
 62
     4
100
AcDbVertex
100
AcDb2dVertex
 10
156.962105
 20
136.2281749999999
 30
0.0
  0
VERTEX
  5
1EA
330
1CE
100
AcDbEntity
  8
CSLAYER1
  6
CONTINUOUS
 62
     4
100
AcDbVertex
100
AcDb2dVertex
 10
157.232334
 20
135.922659
 30
0.0
  0
VERTEX
  5
1EB
330
1CE
100
AcDbEntity
  8
CSLAYER1
  6
CONTINUOUS
 62
     4
100
AcDbVertex
100
AcDb2dVertex
 10
157.527237
 20
135.642705
 30
0.0
  0
VERTEX
  5
1EC
330
1CE
100
AcDbEntity
  8
CSLAYER1
  6
CONTINUOUS
 62
     4
100
AcDbVertex
100
AcDb2dVertex
 10
157.844571
 20
135.3904439999999
 30
0.0
  0
VERTEX
  5
1ED
330
1CE
100
AcDbEntity
  8
CSLAYER1
  6
CONTINUOUS
 62
     4
100
AcDbVertex
100
AcDb2dVertex
 10
158.181919
 20
135.1677949999998
 30
0.0
  0
VERTEX
  5
1EE
330
1CE
100
AcDbEntity
  8
CSLAYER1
  6
CONTINUOUS
 62
     4
100
AcDbVertex
100
AcDb2dVertex
 10
158.5367139999999
 20
134.976454
 30
0.0
  0
VERTEX
  5
1EF
330
1CE
100
AcDbEntity
  8
CSLAYER1
  6
CONTINUOUS
 62
     4
100
AcDbVertex
100
AcDb2dVertex
 10
158.906256
 20
134.817876
 30
0.0
  0
VERTEX
  5
1F0
330
1CE
100
AcDbEntity
  8
CSLAYER1
  6
CONTINUOUS
 62
     4
100
AcDbVertex
100
AcDb2dVertex
 10
159.287733
 20
134.6932679999998
 30
0.0
  0
VERTEX
  5
1F1
330
1CE
100
AcDbEntity
  8
CSLAYER1
  6
CONTINUOUS
 62
     4
100
AcDbVertex
100
AcDb2dVertex
 10
159.6782419999998
 20
134.6035789999999
 30
0.0
  0
VERTEX
  5
1F2
330
1CE
100
AcDbEntity
  8
CSLAYER1
  6
CONTINUOUS
 62
     4
100
AcDbVertex
100
AcDb2dVertex
 10
160.07481
 20
134.5494909999999
 30
0.0
  0
VERTEX
  5
1F3
330
1CE
100
AcDbEntity
  8
CSLAYER1
  6
CONTINUOUS
 62
     4
100
AcDbVertex
100
AcDb2dVertex
 10
160.4744189999999
 20
134.5314159999998
 30
0.0
  0
VERTEX
  5
1F4
330
1CE
100
AcDbEntity
  8
CSLAYER1
  6
CONTINUOUS
 62
     4
100
AcDbVertex
100
AcDb2dVertex
 10
160.874028
 20
134.5494909999999
 30
0.0
  0
VERTEX
  5
1F5
330
1CE
100
AcDbEntity
  8
CSLAYER1
  6
CONTINUOUS
 62
     4
100
AcDbVertex
100
AcDb2dVertex
 10
161.2705949999998
 20
134.6035789999999
 30
0.0
  0
VERTEX
  5
1F6
330
1CE
100
AcDbEntity
  8
CSLAYER1
  6
CONTINUOUS
 62
     4
100
AcDbVertex
100
AcDb2dVertex
 10
161.6611039999999
 20
134.6932679999998
 30
0.0
  0
VERTEX
  5
1F7
330
1CE
100
AcDbEntity
  8
CSLAYER1
  6
CONTINUOUS
 62
     4
100
AcDbVertex
100
AcDb2dVertex
 10
162.042581
 20
134.817876
 30
0.0
  0
VERTEX
  5
1F8
330
1CE
100
AcDbEntity
  8
CSLAYER1
  6
CONTINUOUS
 62
     4
100
AcDbVertex
100
AcDb2dVertex
 10
162.412123
 20
134.976454
 30
0.0
  0
VERTEX
  5
1F9
330
1CE
100
AcDbEntity
  8
CSLAYER1
  6
CONTINUOUS
 62
     4
100
AcDbVertex
100
AcDb2dVertex
 10
162.7669189999999
 20
135.1677949999998
 30
0.0
  0
VERTEX
  5
1FA
330
1CE
100
AcDbEntity
  8
CSLAYER1
  6
CONTINUOUS
 62
     4
100
AcDbVertex
100
AcDb2dVertex
 10
163.104267
 20
135.3904439999999
 30
0.0
  0
VERTEX
  5
1FB
330
1CE
100
AcDbEntity
  8
CSLAYER1
  6
CONTINUOUS
 62
     4
100
AcDbVertex
100
AcDb2dVertex
 10
163.4216
 20
135.642705
 30
0.0
  0
VERTEX
  5
1FC
330
1CE
100
AcDbEntity
  8
CSLAYER1
  6
CONTINUOUS
 62
     4
100
AcDbVertex
100
AcDb2dVertex
 10
163.716503
 20
135.922659
 30
0.0
  0
VERTEX
  5
1FD
330
1CE
100
AcDbEntity
  8
CSLAYER1
  6
CONTINUOUS
 62
     4
100
AcDbVertex
100
AcDb2dVertex
 10
163.986732
 20
136.2281749999999
 30
0.0
  0
VERTEX
  5
1FE
330
1CE
100
AcDbEntity
  8
CSLAYER1
  6
CONTINUOUS
 62
     4
100
AcDbVertex
100
AcDb2dVertex
 10
164.2302309999999
 20
136.556928
 30
0.0
  0
VERTEX
  5
1FF
330
1CE
100
AcDbEntity
  8
CSLAYER1
  6
CONTINUOUS
 62
     4
100
AcDbVertex
100
AcDb2dVertex
 10
164.445145
 20
136.9064159999998
 30
0.0
  0
VERTEX
  5
200
330
1CE
100
AcDbEntity
  8
CSLAYER1
  6
CONTINUOUS
 62
     4
100
AcDbVertex
100
AcDb2dVertex
 10
164.62984
 20
137.273979
 30
0.0
  0
VERTEX
  5
201
330
1CE
100
AcDbEntity
  8
CSLAYER1
  6
CONTINUOUS
 62
     4
100
AcDbVertex
100
AcDb2dVertex
 10
164.782909
 20
137.6568199999999
 30
0.0
  0
VERTEX
  5
202
330
1CE
100
AcDbEntity
  8
CSLAYER1
  6
CONTINUOUS
 62
     4
100
AcDbVertex
100
AcDb2dVertex
 10
164.903189
 20
138.0520249999999
 30
0.0
  0
VERTEX
  5
203
330
1CE
100
AcDbEntity
  8
CSLAYER1
  6
CONTINUOUS
 62
     4
100
AcDbVertex
100
AcDb2dVertex
 10
164.989762
 20
138.456587
 30
0.0
  0
VERTEX
  5
204
330
1CE
100
AcDbEntity
  8
CSLAYER1
  6
CONTINUOUS
 62
     4
100
AcDbVertex
100
AcDb2dVertex
 10
165.0419709999999
 20
138.8674259999999
 30
0.0
  0
VERTEX
  5
205
330
1CE
100
AcDbEntity
  8
CSLAYER1
  6
CONTINUOUS
 62
     4
100
AcDbVertex
100
AcDb2dVertex
 10
165.0594189999999
 20
139.2814159999999
 30
0.0
  0
VERTEX
  5
206
330
1CE
100
AcDbEntity
  8
CSLAYER1
  6
CONTINUOUS
 62
     4
100
AcDbVertex
100
AcDb2dVertex
 10
165.0419709999999
 20
139.6954049999999
 30
0.0
  0
VERTEX
  5
207
330
1CE
100
AcDbEntity
  8
CSLAYER1
  6
CONTINUOUS
 62
     4
100
AcDbVertex
100
AcDb2dVertex
 10
164.989762
 20
140.1062449999999
 30
0.0
  0
VERTEX
  5
208
330
1CE
100
AcDbEntity
  8
CSLAYER1
  6
CONTINUOUS
 62
     4
100
AcDbVertex
100
AcDb2dVertex
 10
164.903189
 20
140.510806
 30
0.0
  0
VERTEX
  5
209
330
1CE
100
AcDbEntity
  8
CSLAYER1
  6
CONTINUOUS
 62
     4
100
AcDbVertex
100
AcDb2dVertex
 10
164.782909
 20
140.906011
 30
0.0
  0
VERTEX
  5
20A
330
1CE
100
AcDbEntity
  8
CSLAYER1
  6
CONTINUOUS
 62
     4
100
AcDbVertex
100
AcDb2dVertex
 10
164.62984
 20
141.2888519999999
 30
0.0
  0
VERTEX
  5
20B
330
1CE
100
AcDbEntity
  8
CSLAYER1
  6
CONTINUOUS
 62
     4
100
AcDbVertex
100
AcDb2dVertex
 10
164.445145
 20
141.6564159999999
 30
0.0
  0
VERTEX
  5
20C
330
1CE
100
AcDbEntity
  8
CSLAYER1
  6
CONTINUOUS
 62
     4
100
AcDbVertex
100
AcDb2dVertex
 10
164.2302309999999
 20
142.005904
 30
0.0
  0
VERTEX
  5
20D
330
1CE
100
AcDbEntity
  8
CSLAYER1
  6
CONTINUOUS
 62
     4
100
AcDbVertex
100
AcDb2dVertex
 10
163.986732
 20
142.3346569999999
 30
0.0
  0
VERTEX
  5
20E
330
1CE
100
AcDbEntity
  8
CSLAYER1
  6
CONTINUOUS
 62
     4
100
AcDbVertex
100
AcDb2dVertex
 10
163.716503
 20
142.640173
 30
0.0
  0
VERTEX
  5
20F
330
1CE
100
AcDbEntity
  8
CSLAYER1
  6
CONTINUOUS
 62
     4
100
AcDbVertex
100
AcDb2dVertex
 10
163.4216
 20
142.920127
 30
0.0
  0
VERTEX
  5
210
330
1CE
100
AcDbEntity
  8
CSLAYER1
  6
CONTINUOUS
 62
     4
100
AcDbVertex
100
AcDb2dVertex
 10
163.104267
 20
143.1723879999998
 30
0.0
  0
VERTEX
  5
211
330
1CE
100
AcDbEntity
  8
CSLAYER1
  6
CONTINUOUS
 62
     4
100
AcDbVertex
100
AcDb2dVertex
 10
162.7669189999999
 20
143.395036
 30
0.0
  0
VERTEX
  5
212
330
1CE
100
AcDbEntity
  8
CSLAYER1
  6
CONTINUOUS
 62
     4
100
AcDbVertex
100
AcDb2dVertex
 10
162.412123
 20
143.586378
 30
0.0
  0
VERTEX
  5
213
330
1CE
100
AcDbEntity
  8
CSLAYER1
  6
CONTINUOUS
 62
     4
100
AcDbVertex
100
AcDb2dVertex
 10
162.042581
 20
143.744956
 30
0.0
  0
VERTEX
  5
214
330
1CE
100
AcDbEntity
  8
CSLAYER1
  6
CONTINUOUS
 62
     4
100
AcDbVertex
100
AcDb2dVertex
 10
161.6611039999999
 20
143.8695629999999
 30
0.0
  0
VERTEX
  5
215
330
1CE
100
AcDbEntity
  8
CSLAYER1
  6
CONTINUOUS
 62
     4
100
AcDbVertex
100
AcDb2dVertex
 10
161.2705949999998
 20
143.9592529999998
 30
0.0
  0
VERTEX
  5
216
330
1CE
100
AcDbEntity
  8
CSLAYER1
  6
CONTINUOUS
 62
     4
100
AcDbVertex
100
AcDb2dVertex
 10
160.874028
 20
144.013341
 30
0.0
  0
VERTEX
  5
217
330
1CE
100
AcDbEntity
  8
CSLAYER1
  6
CONTINUOUS
 62
     4
100
AcDbVertex
100
AcDb2dVertex
 10
160.4744189999999
 20
144.0314159999998
 30
0.0
  0
SEQEND
  5
218
330
1CE
100
AcDbEntity
  8
CSLAYER1
 62
     4
  0
DIMENSION
  5
219
330
1E
100
AcDbEntity
  8
CSLAYER1
 62
     4
100
AcDbDimension
  2
*D0
 10
257.2456369999999
 20
145.6999999999998
 30
0.0
 11
256.7456359999999
 21
136.200012
 31
0.0
 70
     1
100
AcDbAlignedDimension
 13
241.5748629999999
 23
126.7
 33
0.0
 14
241.5748629999999
 24
145.6999999999998
 34
0.0
  0
DIMENSION
  5
21A
330
1E
100
AcDbEntity
  8
CSLAYER1
 62
     4
100
AcDbDimension
  2
*D1
 10
226.228166
 20
157.0867709999999
 30
0.0
 11
219.864212
 21
151.429916
 31
0.0
 70
     1
100
AcDbAlignedDimension
 13
228.023054
 23
131.250253
 33
0.0
 14
240.043869
 24
143.2710679999999
 34
0.0
  0
INSERT
  5
21B
330
1E
100
AcDbEntity
  8
CSLAYER1
100
AcDbBlockReference
  2
FXDIM0000
 10
0.0
 20
0.0
 30
0.0
  0
INSERT
  5
21D
330
1E
100
AcDbEntity
  8
CSLAYER1
100
AcDbBlockReference
  2
FXDIM0001
 10
0.0
 20
0.0
 30
0.0
  0
INSERT
  5
21E
330
1E
100
AcDbEntity
  8
CSLAYER1
100
AcDbBlockReference
  2
FXDIM0002
 10
0.0
 20
0.0
 30
0.0
  0
DIMENSION
  5
21F
330
1E
100
AcDbEntity
  8
CSLAYER1
 62
     4
100
AcDbDimension
  2
*D6
 10
51.040976
 20
88.9
 30
0.0
 11
50.54097399999999
 21
77.400002
 31
0.0
 70
     1
100
AcDbAlignedDimension
 13
85.97441899999997
 23
65.9
 33
0.0
 14
85.97441899999997
 24
88.9
 34
0.0
  0
DIMENSION
  5
220
330
1E
100
AcDbEntity
  8
CSLAYER1
 62
     4
100
AcDbDimension
  2
*D7
 10
51.040976
 20
143.1999999999999
 30
0.0
 11
50.54097399999999
 21
136.199982
 31
0.0
 70
     1
100
AcDbAlignedDimension
 13
65.47441899999999
 23
129.1999999999999
 33
0.0
 14
65.47441899999999
 24
143.1999999999999
 34
0.0
  0
DIMENSION
  5
221
330
1E
100
AcDbEntity
  8
CSLAYER1
 62
     4
100
AcDbDimension
  2
*D8
 10
57.040976
 20
139.7
 30
0.0
 11
56.540974
 21
136.199982
 31
0.0
 70
     1
100
AcDbAlignedDimension
 13
63.47441899999999
 23
132.6999999999999
 33
0.0
 14
63.47441899999999
 24
139.7
 34
0.0
  0
DIMENSION
  5
222
330
1E
100
AcDbEntity
  8
CSLAYER1
 62
     4
100
AcDbDimension
  2
*D9
 10
152.4744189999998
 20
168.4129809999999
 30
0.0
 11
107.9744189999999
 21
168.912979
 31
0.0
100
AcDbAlignedDimension
 13
63.47441899999999
 23
141.1999999999999
 33
0.0
 14
152.4744189999998
 24
147.6999999999998
 34
0.0
100
AcDbRotatedDimension
  0
DIMENSION
  5
223
330
1E
100
AcDbEntity
  8
CSLAYER1
 62
     4
100
AcDbDimension
  2
*D10
 10
173.4744189999999
 20
168.4129809999999
 30
0.0
 11
162.974411
 21
168.912979
 31
0.0
100
AcDbAlignedDimension
 13
152.4744189999998
 23
147.6999999999998
 33
0.0
 14
173.4744189999999
 24
144.6999999999998
 34
0.0
100
AcDbRotatedDimension
  0
DIMENSION
  5
224
330
1E
100
AcDbEntity
  8
CSLAYER1
 62
     4
100
AcDbDimension
  2
*D11
 10
70.47441899999999
 20
162.412981
 30
0.0
 11
66.974419
 21
162.912979
 31
0.0
100
AcDbAlignedDimension
 13
63.47441899999999
 23
141.1999999999999
 33
0.0
 14
70.47441899999999
 24
146.080783
 34
0.0
100
AcDbRotatedDimension
  0
DIMENSION
  5
225
330
1E
100
AcDbEntity
  8
CSLAYER1
 62
     4
100
AcDbDimension
  2
*D12
 10
152.4744189999998
 20
162.412981
 30
0.0
 11
118.4744189999999
 21
162.912979
 31
0.0
100
AcDbAlignedDimension
 13
84.47441899999999
 23
147.6999999999998
 33
0.0
 14
152.4744189999998
 24
148.6999999999999
 34
0.0
100
AcDbRotatedDimension
  0
DIMENSION
  5
226
330
1E
100
AcDbEntity
  8
CSLAYER1
 62
     4
100
AcDbDimension
  2
*D13
 10
173.4744189999999
 20
110.50418
 30
0.0
 11
118.4744189999999
 21
111.004181
 31
0.0
100
AcDbAlignedDimension
 13
63.47441899999999
 23
80.84612900000001
 33
0.0
 14
173.4744189999999
 24
87.9
 34
0.0
100
AcDbRotatedDimension
  0
DIMENSION
  5
227
330
1E
100
AcDbEntity
  8
CSLAYER1
 62
     4
100
AcDbDimension
  2
*D14
 10
70.47441899999999
 20
104.50418
 30
0.0
 11
66.974419
 21
105.0041809999999
 31
0.0
100
AcDbAlignedDimension
 13
63.47441899999999
 23
80.84612900000001
 33
0.0
 14
70.47441899999999
 24
83.287179
 34
0.0
100
AcDbRotatedDimension
  0
DIMENSION
  5
228
330
1E
100
AcDbEntity
  8
CSLAYER1
 62
     4
100
AcDbDimension
  2
*D15
 10
77.280671
 20
121.1999999999999
 30
0.0
 11
78.09860999999997
 21
123.052101
 31
0.0
 70
     4
100
AcDbRadialDimension
 15
82.21969599999999
 25
127.493332
 35
0.0
 40
0.0
  0
INSERT
  5
229
330
1E
100
AcDbEntity
  8
CSLAYER1
100
AcDbBlockReference
  2
FXDIM0003
 10
0.0
 20
0.0
 30
0.0
  0
LINE
  5
22A
330
1E
100
AcDbEntity
  8
CSLAYER1
  6
DOT
 62
     3
100
AcDbLine
 10
4.0
 20
1.0
 30
0.0
 11
283.0
 21
1.0
 31
0.0
  0
LINE
  5
22B
330
1E
100
AcDbEntity
  8
CSLAYER1
  6
DOT
 62
     3
100
AcDbLine
 10
283.0
 20
195.0
 30
0.0
 11
4.0
 21
195.0
 31
0.0
  0
LINE
  5
22C
330
1E
100
AcDbEntity
  8
CSLAYER1
  6
DOT
 62
     3
100
AcDbLine
 10
4.0
 20
195.0
 30
0.0
 11
4.0
 21
1.0
 31
0.0
  0
LINE
  5
22D
330
1E
100
AcDbEntity
  8
CSLAYER1
  6
DOT
 62
     3
100
AcDbLine
 10
4.0
 20
98.0
 30
0.0
 11
0.0
 21
98.0
 31
0.0
  0
LINE
  5
22E
330
1E
100
AcDbEntity
  8
CSLAYER1
  6
DOT
 62
     3
100
AcDbLine
 10
4.0
 20
187.0
 30
0.0
 11
34.0
 21
187.0
 31
0.0
  0
LINE
  5
22F
330
1E
100
AcDbEntity
  8
CSLAYER1
  6
DOT
 62
     3
100
AcDbLine
 10
34.0
 20
187.0
 30
0.0
 11
34.0
 21
195.0
 31
0.0
  0
LINE
  5
230
330
1E
100
AcDbEntity
  8
CSLAYER1
  6
DOT
 62
     3
100
AcDbLine
 10
143.5
 20
195.0
 30
0.0
 11
143.5
 21
199.0
 31
0.0
  0
LINE
  5
231
330
1E
100
AcDbEntity
  8
CSLAYER1
  6
DOT
 62
     3
100
AcDbLine
 10
283.0
 20
195.0
 30
0.0
 11
283.0
 21
1.0
 31
0.0
  0
ENDSEC
  0
SECTION
  2
OBJECTS
  0
DICTIONARY
  5
C
330
0
100
AcDbDictionary
  3
ACAD_GROUP
350
D
  3
ACAD_LAYOUT
350
19
  3
ACAD_MLINESTYLE
350
16
  3
ACAD_PLOTSETTINGS
350
18
1001
ACAD
1000
TREAT_AS_HARD
1070
     0
1000
TREAT_AS_HARD
1070
     0
  0
DICTIONARY
  5
23B
330
1E
100
AcDbDictionary
  3
ACAD_LAYOUTSELFREF
350
25A
1001
ACAD
1000
TREAT_AS_HARD
1070
     0
  0
DICTIONARY
  5
239
330
1A
100
AcDbDictionary
  3
ACAD_LAYOUTSELFREF
350
259
1001
ACAD
1000
TREAT_AS_HARD
1070
     0
  0
DICTIONARY
  5
D
102
{ACAD_REACTORS
330
C
102
}
330
C
100
AcDbDictionary
1001
ACAD
1000
TREAT_AS_HARD
1070
     0
1000
TREAT_AS_HARD
1070
     0
  0
DICTIONARY
  5
19
102
{ACAD_REACTORS
330
C
102
}
330
C
100
AcDbDictionary
1001
ACAD
1000
TREAT_AS_HARD
1070
     0
1000
TREAT_AS_HARD
1070
     0
  0
DICTIONARY
  5
16
102
{ACAD_REACTORS
330
C
102
}
330
C
100
AcDbDictionary
  3
STANDARD
350
17
1001
ACAD
1000
TREAT_AS_HARD
1070
     0
1000
TREAT_AS_HARD
1070
     0
  0
DICTIONARY
  5
18
102
{ACAD_REACTORS
330
C
102
}
330
C
100
AcDbDictionary
1001
ACAD
1000
TREAT_AS_HARD
1070
     0
1000
TREAT_AS_HARD
1070
     0
  0
XRECORD
  5
25A
102
{ACAD_REACTORS
330
23B
102
}
330
23B
100
AcDbXrecord
340
1E
  0
XRECORD
  5
259
102
{ACAD_REACTORS
330
239
102
}
330
239
100
AcDbXrecord
340
1A
  0
MLINESTYLE
  5
17
102
{ACAD_REACTORS
330
16
102
}
330
16
100
AcDbMlineStyle
  2
STANDARD
 70
     0
  3

 62
   256
 51
90.0
 52
90.0
 71
     2
 49
0.5
 62
   256
  6
BYLAYER
 49
-0.5
 62
   256
  6
BYLAYER
  0
ENDSEC
  0
EOF
