  0
SECTION
  2
HEADER
  9
$ACADVER
  1
AC1012
  9
$DWGCODEPAGE
  3
dos932
  9
$INSBASE
 10
0.0
 20
0.0
 30
0.0
  9
$EXTMIN
 10
9.98474220045
 20
2.981964806306564
 30
-0.0015258207003583
  9
$EXTMAX
 10
395.0189218472444
 20
275.0068823797708
 30
0.0000000349246037
  9
$LIMMIN
 10
0.0
 20
0.0
  9
$LIMMAX
 10
420.0
 20
297.0
  9
$ORTHOMODE
 70
     0
  9
$REGENMODE
 70
     1
  9
$FILLMODE
 70
     1
  9
$QTEXTMODE
 70
     0
  9
$MIRRTEXT
 70
     1
  9
$DRAGMODE
 70
     2
  9
$LTSCALE
 40
15.0
  9
$OSMODE
 70
    37
  9
$ATTMODE
 70
     1
  9
$TEXTSIZE
 40
0.2
  9
$TRACEWID
 40
0.05
  9
$TEXTSTYLE
  7
GOTHIC
  9
$CLAYER
  8
CSLAYER1
  9
$CELTYPE
  6
BYLAYER
  9
$CECOLOR
 62
   256
  9
$CELTSCALE
 40
1.0
  9
$DELOBJ
 70
     1
  9
$DISPSILH
 70
     0
  9
$DIMSCALE
 40
1.0
  9
$DIMASZ
 40
0.18
  9
$DIMEXO
 40
0.0625
  9
$DIMDLI
 40
0.38
  9
$DIMRND
 40
0.0
  9
$DIMDLE
 40
0.0
  9
$DIMEXE
 40
0.18
  9
$DIMTP
 40
0.0
  9
$DIMTM
 40
0.0
  9
$DIMTXT
 40
0.18
  9
$DIMCEN
 40
0.09
  9
$DIMTSZ
 40
0.0
  9
$DIMTOL
 70
     0
  9
$DIMLIM
 70
     0
  9
$DIMTIH
 70
     1
  9
$DIMTOH
 70
     1
  9
$DIMSE1
 70
     0
  9
$DIMSE2
 70
     0
  9
$DIMTAD
 70
     0
  9
$DIMZIN
 70
     0
  9
$DIMBLK
  1

  9
$DIMASO
 70
     1
  9
$DIMSHO
 70
     1
  9
$DIMPOST
  1

  9
$DIMAPOST
  1

  9
$DIMALT
 70
     0
  9
$DIMALTD
 70
     2
  9
$DIMALTF
 40
25.4
  9
$DIMLFAC
 40
1.0
  9
$DIMTOFL
 70
     0
  9
$DIMTVP
 40
0.0
  9
$DIMTIX
 70
     0
  9
$DIMSOXD
 70
     0
  9
$DIMSAH
 70
     0
  9
$DIMBLK1
  1

  9
$DIMBLK2
  1

  9
$DIMSTYLE
  2
STANDARD
  9
$DIMCLRD
 70
     0
  9
$DIMCLRE
 70
     0
  9
$DIMCLRT
 70
     0
  9
$DIMTFAC
 40
1.0
  9
$DIMGAP
 40
0.09
  9
$DIMJUST
 70
     0
  9
$DIMSD1
 70
     0
  9
$DIMSD2
 70
     0
  9
$DIMTOLJ
 70
     1
  9
$DIMTZIN
 70
     0
  9
$DIMALTZ
 70
     0
  9
$DIMALTTZ
 70
     0
  9
$DIMFIT
 70
     3
  9
$DIMUPT
 70
     0
  9
$DIMUNIT
 70
     2
  9
$DIMDEC
 70
     4
  9
$DIMTDEC
 70
     4
  9
$DIMALTU
 70
     2
  9
$DIMALTTD
 70
     2
  9
$DIMTXSTY
  7
STANDARD
  9
$DIMAUNIT
 70
     0
  9
$LUNITS
 70
     2
  9
$LUPREC
 70
     4
  9
$SKETCHINC
 40
0.1
  9
$FILLETRAD
 40
0.0
  9
$AUNITS
 70
     0
  9
$AUPREC
 70
     0
  9
$MENU
  1
ACAD
  9
$ELEVATION
 40
0.0
  9
$PELEVATION
 40
0.0
  9
$THICKNESS
 40
0.0
  9
$LIMCHECK
 70
     0
  9
$BLIPMODE
 70
     1
  9
$CHAMFERA
 40
0.0
  9
$CHAMFERB
 40
0.0
  9
$CHAMFERC
 40
0.0
  9
$CHAMFERD
 40
0.0
  9
$SKPOLY
 70
     0
  9
$TDCREATE
 40
2453482.000000000
  9
$TDUPDATE
 40
2453516.441903333
  9
$TDINDWG
 40
0.0006897569
  9
$TDUSRTIMER
 40
0.0006897569
  9
$USRTIMER
 70
     1
  9
$ANGBASE
 50
0.0
  9
$ANGDIR
 70
     0
  9
$PDMODE
 70
     0
  9
$PDSIZE
 40
0.0
  9
$PLINEWID
 40
0.0
  9
$COORDS
 70
     0
  9
$SPLFRAME
 70
     0
  9
$SPLINETYPE
 70
     6
  9
$SPLINESEGS
 70
     8
  9
$ATTDIA
 70
     0
  9
$ATTREQ
 70
     1
  9
$HANDLING
 70
-16383
  9
$HANDSEED
  5
238
  9
$SURFTAB1
 70
     6
  9
$SURFTAB2
 70
     6
  9
$SURFTYPE
 70
     6
  9
$SURFU
 70
     6
  9
$SURFV
 70
     6
  9
$UCSNAME
  2

  9
$UCSORG
 10
0.0
 20
0.0
 30
0.0
  9
$UCSXDIR
 10
1.0
 20
0.0
 30
0.0
  9
$UCSYDIR
 10
0.0
 20
1.0
 30
0.0
  9
$PUCSNAME
  2

  9
$PUCSORG
 10
0.0
 20
0.0
 30
0.0
  9
$PUCSXDIR
 10
1.0
 20
0.0
 30
0.0
  9
$PUCSYDIR
 10
0.0
 20
1.0
 30
0.0
  9
$USERI1
 70
     0
  9
$USERI2
 70
     0
  9
$USERI3
 70
     0
  9
$USERI4
 70
     0
  9
$USERI5
 70
     0
  9
$USERR1
 40
0.0
  9
$USERR2
 40
0.0
  9
$USERR3
 40
0.0
  9
$USERR4
 40
0.0
  9
$USERR5
 40
0.0
  9
$WORLDVIEW
 70
     1
  9
$SHADEDGE
 70
     3
  9
$SHADEDIF
 70
    70
  9
$TILEMODE
 70
     1
  9
$MAXACTVP
 70
    64
  9
$PINSBASE
 10
0.0
 20
0.0
 30
0.0
  9
$PLIMCHECK
 70
     0
  9
$PEXTMIN
 10
1.000000000000000E+20
 20
1.000000000000000E+20
 30
1.000000000000000E+20
  9
$PEXTMAX
 10
-1.000000000000000E+20
 20
-1.000000000000000E+20
 30
-1.000000000000000E+20
  9
$PLIMMIN
 10
0.0
 20
0.0
  9
$PLIMMAX
 10
12.0
 20
9.0
  9
$UNITMODE
 70
     0
  9
$VISRETAIN
 70
     1
  9
$PLINEGEN
 70
     0
  9
$PSLTSCALE
 70
     1
  9
$TREEDEPTH
 70
  3020
  9
$PICKSTYLE
 70
     3
  9
$CMLSTYLE
  2
STANDARD
  9
$CMLJUST
 70
     0
  9
$CMLSCALE
 40
1.0
  9
$SAVEIMAGES
 70
     1
  0
ENDSEC
  0
SECTION
  2
CLASSES
  0
CLASS
  1
ACDBDICTIONARYWDFLT
  2
AcDbDictionaryWithDefault
  3
AutoCAD 2000
 90
    32768
280
     0
281
     0
  0
CLASS
  1
ACDBPLACEHOLDER
  2
AcDbPlaceHolder
  3
AutoCAD 2000
 90
    32768
280
     0
281
     0
  0
CLASS
  1
LAYOUT
  2
AcDbLayout
  3
AutoCAD 2000
 90
    32768
280
     0
281
     0
  0
CLASS
  1
DICTIONARYVAR
  2
AcDbDictionaryVar
  3
AutoCAD 2000
 90
    32768
280
     0
281
     0
  0
CLASS
  1
LONG_TRANSACTION
  2
AcDbLongTransaction
  3
AutoCAD 2000
 90
    32768
280
     0
281
     0
  0
CLASS
  1
LWPOLYLINE
  2
AcDbPolyline
  3
AutoCAD 2000
 90
    32768
280
     0
281
     1
  0
CLASS
  1
HATCH
  2
AcDbHatch
  3
AutoCAD 2000
 90
    32768
280
     0
281
     1
  0
CLASS
  1
XRECORD
  2
AcDbXrecord
  3
AutoCAD 2000
 90
    32768
280
     0
281
     0
  0
CLASS
  1
LONG_TRANSACTION
  2
AcDbLongTransaction
  3
AutoCAD 2000
 90
    32768
280
     0
281
     0
  0
CLASS
  1
LWPOLYLINE
  2
AcDbPolyline
  3
AutoCAD 2000
 90
    32768
280
     0
281
     1
  0
CLASS
  1
HATCH
  2
AcDbHatch
  3
AutoCAD 2000
 90
    32768
280
     0
281
     1
  0
CLASS
  1
XRECORD
  2
AcDbXrecord
  3
AutoCAD 2000
 90
    32768
280
     0
281
     0
  0
ENDSEC
  0
SECTION
  2
TABLES
  0
TABLE
  2
VPORT
  5
8
330
0
100
AcDbSymbolTable
 70
     2
  0
VPORT
  5
235
330
8
100
AcDbSymbolTableRecord
100
AcDbViewportTableRecord
  2
*ACTIVE
 70
     0
 10
0.0
 20
0.0
 11
1.0
 21
1.0
 12
202.5018320238472
 22
138.9944235930387
 13
0.0
 23
0.0
 14
1.0
 24
1.0
 15
0.0
 25
0.0
 16
0.0
 26
0.0
 36
1.0
 17
0.0
 27
0.0
 37
0.0
 40
274.0676578806492
 41
1.510025062656641
 42
50.0
 43
0.0
 44
0.0
 50
0.0
 51
0.0
 71
     0
 72
   100
 73
     1
 74
     1
 75
     0
 76
     0
 77
     0
 78
     0
  0
ENDTAB
  0
TABLE
  2
LTYPE
  5
5
330
0
100
AcDbSymbolTable
 70
     3
  0
LTYPE
  5
13
330
5
100
AcDbSymbolTableRecord
100
AcDbLinetypeTableRecord
  2
BYBLOCK
 70
     0
  3

 72
    65
 73
     0
 40
0.0
  0
LTYPE
  5
14
330
5
100
AcDbSymbolTableRecord
100
AcDbLinetypeTableRecord
  2
BYLAYER
 70
     0
  3

 72
    65
 73
     0
 40
0.0
  0
LTYPE
  5
15
330
5
100
AcDbSymbolTableRecord
100
AcDbLinetypeTableRecord
  2
CONTINUOUS
 70
     0
  3
Solid line
 72
    65
 73
     0
 40
0.0
  0
LTYPE
  5
25
330
5
100
AcDbSymbolTableRecord
100
AcDbLinetypeTableRecord
  2
DOT
 70
     0
  3
...............................................
 72
    65
 73
     2
 40
0.25
 49
0.0
 74
     0
 49
-0.25
 74
     0
  0
LTYPE
  5
28
330
5
100
AcDbSymbolTableRecord
100
AcDbLinetypeTableRecord
  2
CENTER
 70
     0
  3
____ _ ____ _ ____ _ ____ _ ____ _ ____ _ ____ 
 72
    65
 73
     4
 40
2.0
 49
1.25
 74
     0
 49
-0.25
 74
     0
 49
0.25
 74
     0
 49
-0.25
 74
     0
  0
ENDTAB
  0
TABLE
  2
LAYER
  5
2
330
0
100
AcDbSymbolTable
 70
     3
  0
LAYER
  5
10
330
2
100
AcDbSymbolTableRecord
100
AcDbLayerTableRecord
  2
0
 70
     0
 62
     7
  6
CONTINUOUS
  0
LAYER
  5
22
330
2
100
AcDbSymbolTableRecord
100
AcDbLayerTableRecord
  2
CSLAYER1
 70
     0
 62
     7
  6
CONTINUOUS
  0
LAYER
  5
21A
330
2
100
AcDbSymbolTableRecord
100
AcDbLayerTableRecord
  2
DEFPOINTS
 70
     0
 62
     7
  6
CONTINUOUS
  0
ENDTAB
  0
TABLE
  2
STYLE
  5
3
330
0
100
AcDbSymbolTable
 70
     3
  0
STYLE
  5
11
330
3
100
AcDbSymbolTableRecord
100
AcDbTextStyleTableRecord
  2
STANDARD
 70
     0
 40
0.0
 41
1.0
 50
0.0
 71
     0
 42
0.2
  3
txt
  4
extfont.shx
  0
STYLE
  5
3A
330
3
100
AcDbSymbolTableRecord
100
AcDbTextStyleTableRecord
  2
FX_FONT
 70
     0
 40
1.0
 41
1.0
 50
0.0
 71
     0
 42
1.0
  3
monotxt
  4
bigfont
  0
STYLE
  5
212
330
3
100
AcDbSymbolTableRecord
100
AcDbTextStyleTableRecord
  2
GOTHIC
 70
     0
 40
0.0
 41
1.0
 50
0.0
 71
     0
 42
0.2
  3
txt.shx
  4
extfont.shx
  0
ENDTAB
  0
TABLE
  2
VIEW
  5
6
330
0
100
AcDbSymbolTable
 70
     0
  0
ENDTAB
  0
TABLE
  2
UCS
  5
7
330
0
100
AcDbSymbolTable
 70
     0
  0
ENDTAB
  0
TABLE
  2
APPID
  5
9
330
0
100
AcDbSymbolTable
 70
     1
  0
APPID
  5
12
330
9
100
AcDbSymbolTableRecord
100
AcDbRegAppTableRecord
  2
ACAD
 70
     0
  0
ENDTAB
  0
TABLE
  2
DIMSTYLE
  5
A
330
0
100
AcDbSymbolTable
 70
     1
  0
DIMSTYLE
105
20F
330
A
100
AcDbSymbolTableRecord
100
AcDbDimStyleTableRecord
  2
STANDARD
 70
     0
  3

  4

  5

  6

  7

 40
1.0
 41
0.18
 42
0.0625
 43
0.38
 44
0.18
 45
0.0
 46
0.0
 47
0.0
 48
0.0
140
0.18
141
0.09
142
0.0
143
25.4
144
1.0
145
0.0
146
1.0
147
0.09
 71
     0
 72
     0
 73
     1
 74
     1
 75
     0
 76
     0
 77
     0
 78
     0
170
     0
171
     2
172
     0
173
     0
174
     0
175
     0
176
     0
177
     0
178
     0
270
     2
271
     4
272
     4
273
     2
274
     2
340
11
275
     0
280
     0
281
     0
282
     0
283
     1
284
     0
285
     0
286
     0
287
     3
288
     0
  0
ENDTAB
  0
TABLE
  2
BLOCK_RECORD
  5
1
330
0
100
AcDbSymbolTable
 70
    18
  0
BLOCK_RECORD
  5
1E
102
{ACAD_XDICTIONARY
360
218
102
}
330
1
100
AcDbSymbolTableRecord
100
AcDbBlockTableRecord
  2
*MODEL_SPACE
  0
BLOCK_RECORD
  5
1A
102
{ACAD_XDICTIONARY
360
216
102
}
330
1
100
AcDbSymbolTableRecord
100
AcDbBlockTableRecord
  2
*PAPER_SPACE
  0
BLOCK_RECORD
  5
3F
330
1
100
AcDbSymbolTableRecord
100
AcDbBlockTableRecord
  2
*D0
  0
BLOCK_RECORD
  5
4A
330
1
100
AcDbSymbolTableRecord
100
AcDbBlockTableRecord
  2
FXDIM0000
  0
BLOCK_RECORD
  5
52
330
1
100
AcDbSymbolTableRecord
100
AcDbBlockTableRecord
  2
FXDIM0001
  0
BLOCK_RECORD
  5
5A
330
1
100
AcDbSymbolTableRecord
100
AcDbBlockTableRecord
  2
*D3
  0
BLOCK_RECORD
  5
65
330
1
100
AcDbSymbolTableRecord
100
AcDbBlockTableRecord
  2
*D4
  0
BLOCK_RECORD
  5
70
330
1
100
AcDbSymbolTableRecord
100
AcDbBlockTableRecord
  2
FXDIM0002
  0
BLOCK_RECORD
  5
78
330
1
100
AcDbSymbolTableRecord
100
AcDbBlockTableRecord
  2
*D6
  0
BLOCK_RECORD
  5
83
330
1
100
AcDbSymbolTableRecord
100
AcDbBlockTableRecord
  2
*D7
  0
BLOCK_RECORD
  5
8D
330
1
100
AcDbSymbolTableRecord
100
AcDbBlockTableRecord
  2
*D8
  0
BLOCK_RECORD
  5
99
330
1
100
AcDbSymbolTableRecord
100
AcDbBlockTableRecord
  2
*D9
  0
BLOCK_RECORD
  5
A3
330
1
100
AcDbSymbolTableRecord
100
AcDbBlockTableRecord
  2
*D10
  0
BLOCK_RECORD
  5
AE
330
1
100
AcDbSymbolTableRecord
100
AcDbBlockTableRecord
  2
*D11
  0
BLOCK_RECORD
  5
B9
330
1
100
AcDbSymbolTableRecord
100
AcDbBlockTableRecord
  2
*D12
  0
BLOCK_RECORD
  5
C4
330
1
100
AcDbSymbolTableRecord
100
AcDbBlockTableRecord
  2
*D13
  0
BLOCK_RECORD
  5
CF
330
1
100
AcDbSymbolTableRecord
100
AcDbBlockTableRecord
  2
*D14
  0
BLOCK_RECORD
  5
DB
330
1
100
AcDbSymbolTableRecord
100
AcDbBlockTableRecord
  2
FXDIM0003
  0
BLOCK_RECORD
  5
E2
330
1
100
AcDbSymbolTableRecord
100
AcDbBlockTableRecord
  2
*D16
  0
BLOCK_RECORD
  5
21B
330
1
100
AcDbSymbolTableRecord
100
AcDbBlockTableRecord
  2
*D17
  0
ENDTAB
  0
ENDSEC
  0
SECTION
  2
BLOCKS
  0
BLOCK
  5
1F
330
1E
100
AcDbEntity
  8
0
100
AcDbBlockBegin
  2
*MODEL_SPACE
 70
     0
 10
0.0
 20
0.0
 30
0.0
  3
*MODEL_SPACE
  1

  0
ENDBLK
  5
20
330
1E
100
AcDbEntity
  8
0
100
AcDbBlockEnd
  0
BLOCK
  5
1B
330
1A
100
AcDbEntity
 67
     1
  8
0
100
AcDbBlockBegin
  2
*PAPER_SPACE
 70
     0
 10
0.0
 20
0.0
 30
0.0
  3
*PAPER_SPACE
  1

  0
ENDBLK
  5
1C
330
1A
100
AcDbEntity
 67
     1
  8
0
100
AcDbBlockEnd
  0
BLOCK
  5
40
330
3F
100
AcDbEntity
  8
0
100
AcDbBlockBegin
  2
*D0
 70
     1
 10
0.0
 20
0.0
 30
0.0
  3
*D0
  1

  0
TEXT
  5
41
330
3F
100
AcDbEntity
  8
CSLAYER1
 62
     4
100
AcDbText
 10
346.8964839999998
 20
174.8479129999999
 30
0.0
 40
3.2
  1
46
 50
90.0
 41
1.200000000000001
 51
15.0
  7
FX_FONT
 72
     5
 11
346.8964839999998
 21
181.2479129999999
 31
0.0
100
AcDbText
  0
LINE
  5
42
330
3F
100
AcDbEntity
  8
CSLAYER1
  6
CONTINUOUS
 62
     4
100
AcDbLine
 10
327.377563
 20
155.047907
 30
0.0
 11
348.3964859999998
 21
155.047907
 31
0.0
  0
LINE
  5
43
330
3F
100
AcDbEntity
  8
CSLAYER1
  6
CONTINUOUS
 62
     4
100
AcDbLine
 10
327.377563
 20
201.047907
 30
0.0
 11
348.3964859999998
 21
201.047907
 31
0.0
  0
LINE
  5
44
330
3F
100
AcDbEntity
  8
CSLAYER1
  6
CONTINUOUS
 62
     4
100
AcDbLine
 10
347.3964859999998
 20
155.047907
 30
0.0
 11
347.3964859999998
 21
201.047907
 31
0.0
  0
LINE
  5
45
330
3F
100
AcDbEntity
  8
CSLAYER1
  6
CONTINUOUS
 62
     4
100
AcDbLine
 10
347.3964859999998
 20
155.047907
 30
0.0
 11
346.6200289999998
 21
157.9456839999999
 31
0.0
  0
LINE
  5
46
330
3F
100
AcDbEntity
  8
CSLAYER1
  6
CONTINUOUS
 62
     4
100
AcDbLine
 10
347.3964859999998
 20
155.047907
 30
0.0
 11
348.172943
 21
157.9456839999999
 31
0.0
  0
LINE
  5
47
330
3F
100
AcDbEntity
  8
CSLAYER1
  6
CONTINUOUS
 62
     4
100
AcDbLine
 10
347.3964859999998
 20
201.047907
 30
0.0
 11
346.6200289999998
 21
198.1501289999999
 31
0.0
  0
LINE
  5
48
330
3F
100
AcDbEntity
  8
CSLAYER1
  6
CONTINUOUS
 62
     4
100
AcDbLine
 10
347.3964859999998
 20
201.047907
 30
0.0
 11
348.172943
 21
198.1501289999999
 31
0.0
  0
ENDBLK
  5
49
330
3F
100
AcDbEntity
  8
0
100
AcDbBlockEnd
  0
BLOCK
  5
4B
330
4A
100
AcDbEntity
  8
0
100
AcDbBlockBegin
  2
FXDIM0000
 70
     0
 10
0.0
 20
0.0
 30
0.0
  3
FXDIM0000
  1

  0
LINE
  5
4C
330
4A
100
AcDbEntity
  8
CSLAYER1
  6
CONTINUOUS
 62
     4
100
AcDbLine
 10
295.107897
 20
161.1378409999999
 30
0.0
 11
282.9210069999998
 21
135.8326909999999
 31
0.0
  0
LINE
  5
4D
330
4A
100
AcDbEntity
  8
CSLAYER1
  6
CONTINUOUS
 62
     4
100
AcDbLine
 10
295.107897
 20
161.1378409999999
 30
0.0
 11
294.550108
 21
158.190151
 31
0.0
  0
LINE
  5
4E
330
4A
100
AcDbEntity
  8
CSLAYER1
  6
CONTINUOUS
 62
     4
100
AcDbLine
 10
295.107897
 20
161.1378409999999
 30
0.0
 11
293.150993
 21
158.863961
 31
0.0
  0
LINE
  5
4F
330
4A
100
AcDbEntity
  8
CSLAYER1
  6
CONTINUOUS
 62
     4
100
AcDbLine
 10
282.9210069999998
 20
135.8326909999999
 30
0.0
 11
307.321007
 21
135.8326909999999
 31
0.0
  0
TEXT
  5
50
330
4A
100
AcDbEntity
  8
CSLAYER1
 62
     4
100
AcDbText
 10
283.921021
 20
136.332687
 30
0.0
 40
3.2
  1
M6ネジ深１２
 41
0.9210526315789413
 51
15.0
  7
FX_FONT
 72
     5
 11
306.3210209999998
 21
136.332687
 31
0.0
100
AcDbText
  0
ENDBLK
  5
51
330
4A
100
AcDbEntity
  8
0
100
AcDbBlockEnd
  0
BLOCK
  5
53
330
52
100
AcDbEntity
  8
0
100
AcDbBlockBegin
  2
FXDIM0001
 70
     0
 10
0.0
 20
0.0
 30
0.0
  3
FXDIM0001
  1

  0
LINE
  5
54
330
52
100
AcDbEntity
  8
CSLAYER1
  6
CONTINUOUS
 62
     4
100
AcDbLine
 10
312.5714899999998
 20
182.277028
 30
0.0
 11
321.804364
 21
221.1674079999999
 31
0.0
  0
LINE
  5
55
330
52
100
AcDbEntity
  8
CSLAYER1
  6
CONTINUOUS
 62
     4
100
AcDbLine
 10
312.5714899999998
 20
182.277028
 30
0.0
 11
312.485381
 21
185.2757919999999
 31
0.0
  0
LINE
  5
56
330
52
100
AcDbEntity
  8
CSLAYER1
  6
CONTINUOUS
 62
     4
100
AcDbLine
 10
312.5714899999998
 20
182.277028
 30
0.0
 11
313.996299
 21
184.9170879999999
 31
0.0
  0
LINE
  5
57
330
52
100
AcDbEntity
  8
CSLAYER1
  6
CONTINUOUS
 62
     4
100
AcDbLine
 10
321.804364
 20
221.1674079999999
 30
0.0
 11
346.204364
 21
221.1674079999999
 31
0.0
  0
TEXT
  5
58
330
52
100
AcDbEntity
  8
CSLAYER1
 62
     4
100
AcDbText
 10
322.804394
 20
221.6674189999999
 30
0.0
 40
3.2
  1
Rc1/8ネジ
 41
0.9813084550233657
 51
15.0
  7
FX_FONT
 72
     5
 11
345.204395
 21
221.6674189999999
 31
0.0
100
AcDbText
  0
ENDBLK
  5
59
330
52
100
AcDbEntity
  8
0
100
AcDbBlockEnd
  0
BLOCK
  5
5B
330
5A
100
AcDbEntity
  8
0
100
AcDbBlockBegin
  2
*D3
 70
     1
 10
0.0
 20
0.0
 30
0.0
  3
*D3
  1

  0
TEXT
  5
5C
330
5A
100
AcDbEntity
  8
CSLAYER1
 62
     4
100
AcDbText
 10
277.5505209999999
 20
206.380782
 30
0.0
 40
3.2
  1
40
 50
44.99999999999964
 41
1.200000159206717
 51
15.0
  7
FX_FONT
 72
     5
 11
282.076005
 21
210.906266
 31
0.0
100
AcDbText
  0
LINE
  5
5D
330
5A
100
AcDbEntity
  8
CSLAYER1
  6
CONTINUOUS
 62
     4
100
AcDbLine
 10
266.024645
 20
194.147835
 30
0.0
 11
294.3089159999999
 21
222.432106
 31
0.0
  0
LINE
  5
5E
330
5A
100
AcDbEntity
  8
CSLAYER1
  6
CONTINUOUS
 62
     4
100
AcDbLine
 10
266.024645
 20
194.147835
 30
0.0
 11
267.524645
 21
196.745911
 31
0.0
  0
LINE
  5
5F
330
5A
100
AcDbEntity
  8
CSLAYER1
  6
CONTINUOUS
 62
     4
100
AcDbLine
 10
266.024645
 20
194.147835
 30
0.0
 11
268.622721
 21
195.647835
 31
0.0
  0
LINE
  5
60
330
5A
100
AcDbEntity
  8
CSLAYER1
  6
CONTINUOUS
 62
     4
100
AcDbLine
 10
294.3089159999999
 20
222.432106
 30
0.0
 11
292.808916
 21
219.8340299999999
 31
0.0
  0
LINE
  5
61
330
5A
100
AcDbEntity
  8
CSLAYER1
  6
CONTINUOUS
 62
     4
100
AcDbLine
 10
294.3089159999999
 20
222.432106
 30
0.0
 11
291.71084
 21
220.932106
 31
0.0
  0
LINE
  5
62
330
5A
100
AcDbEntity
  8
CSLAYER1
  6
CONTINUOUS
 62
     4
100
AcDbLine
 10
295.5596009999998
 20
164.6128779999999
 30
0.0
 11
265.3175379999999
 21
194.8549419999999
 31
0.0
  0
LINE
  5
63
330
5A
100
AcDbEntity
  8
CSLAYER1
  6
CONTINUOUS
 62
     4
100
AcDbLine
 10
323.8438729999998
 20
192.897149
 30
0.0
 11
293.601809
 21
223.1392129999999
 31
0.0
  0
ENDBLK
  5
64
330
5A
100
AcDbEntity
  8
0
100
AcDbBlockEnd
  0
BLOCK
  5
66
330
65
100
AcDbEntity
  8
0
100
AcDbBlockBegin
  2
*D4
 70
     1
 10
0.0
 20
0.0
 30
0.0
  3
*D4
  1

  0
TEXT
  5
67
330
65
100
AcDbEntity
  8
CSLAYER1
 62
     4
100
AcDbText
 10
271.888608
 20
156.8967989999999
 30
0.0
 40
3.2
  1
45%%d
 50
112.4999991574818
 41
1.285714348609493
 51
15.0
  7
FX_FONT
 72
     5
 11
268.214847
 21
165.7660429999999
 31
0.0
100
AcDbText
  0
ARC
  5
68
330
65
100
AcDbEntity
  8
CSLAYER1
  6
CONTINUOUS
 62
     4
100
AcDbCircle
 10
310.4088439999998
 20
178.047907
 30
0.0
 40
43.182271
100
AcDbArc
 50
180.0
 51
225.0
  0
LINE
  5
69
330
65
100
AcDbEntity
  8
CSLAYER1
  6
CONTINUOUS
 62
     4
100
AcDbLine
 10
267.2265729999999
 20
178.047907
 30
0.0
 11
266.450116
 21
175.150129
 31
0.0
  0
LINE
  5
6A
330
65
100
AcDbEntity
  8
CSLAYER1
  6
CONTINUOUS
 62
     4
100
AcDbLine
 10
267.2265729999999
 20
178.047907
 30
0.0
 11
268.0030299999998
 21
175.150129
 31
0.0
  0
LINE
  5
6B
330
65
100
AcDbEntity
  8
CSLAYER1
  6
CONTINUOUS
 62
     4
100
AcDbLine
 10
279.8743669999999
 20
147.51343
 30
0.0
 11
277.276291
 21
149.01343
 31
0.0
  0
LINE
  5
6C
330
65
100
AcDbEntity
  8
CSLAYER1
  6
CONTINUOUS
 62
     4
100
AcDbLine
 10
279.8743669999999
 20
147.51343
 30
0.0
 11
278.374367
 21
150.111506
 31
0.0
  0
LINE
  5
6D
330
65
100
AcDbEntity
  8
CSLAYER1
  6
CONTINUOUS
 62
     4
100
AcDbLine
 10
275.718292
 20
178.047907
 30
0.0
 11
266.2265729999999
 21
178.047907
 31
0.0
  0
LINE
  5
6E
330
65
100
AcDbEntity
  8
CSLAYER1
  6
CONTINUOUS
 62
     4
100
AcDbLine
 10
291.8532379999998
 20
159.492301
 30
0.0
 11
279.16726
 21
146.806323
 31
0.0
  0
ENDBLK
  5
6F
330
65
100
AcDbEntity
  8
0
100
AcDbBlockEnd
  0
BLOCK
  5
71
330
70
100
AcDbEntity
  8
0
100
AcDbBlockBegin
  2
FXDIM0002
 70
     0
 10
0.0
 20
0.0
 30
0.0
  3
FXDIM0002
  1

  0
LINE
  5
72
330
70
100
AcDbEntity
  8
CSLAYER1
  6
CONTINUOUS
 62
     4
100
AcDbLine
 10
245.5160999999999
 20
189.523961
 30
0.0
 11
260.74377
 21
223.274174
 31
0.0
  0
LINE
  5
73
330
70
100
AcDbEntity
  8
CSLAYER1
  6
CONTINUOUS
 62
     4
100
AcDbLine
 10
245.5160999999999
 20
189.523961
 30
0.0
 11
246.0001
 21
192.484661
 31
0.0
  0
LINE
  5
74
330
70
100
AcDbEntity
  8
CSLAYER1
  6
CONTINUOUS
 62
     4
100
AcDbLine
 10
245.5160999999999
 20
189.523961
 30
0.0
 11
247.4156059999998
 21
191.8460019999999
 31
0.0
  0
LINE
  5
75
330
70
100
AcDbEntity
  8
CSLAYER1
  6
CONTINUOUS
 62
     4
100
AcDbLine
 10
260.74377
 20
223.274174
 30
0.0
 11
285.143771
 21
223.274174
 31
0.0
  0
TEXT
  5
76
330
70
100
AcDbEntity
  8
CSLAYER1
 62
     4
100
AcDbText
 10
261.7438169999999
 20
223.774185
 30
0.0
 40
3.2
  1
Rc1/8ネジ
 41
0.9813084112149525
 51
15.0
  7
FX_FONT
 72
     5
 11
284.1438169999999
 21
223.774185
 31
0.0
100
AcDbText
  0
ENDBLK
  5
77
330
70
100
AcDbEntity
  8
0
100
AcDbBlockEnd
  0
BLOCK
  5
79
330
78
100
AcDbEntity
  8
0
100
AcDbBlockBegin
  2
*D6
 70
     1
 10
0.0
 20
0.0
 30
0.0
  3
*D6
  1

  0
TEXT
  5
7A
330
78
100
AcDbEntity
  8
CSLAYER1
 62
     4
100
AcDbText
 10
156.053455
 20
234.3946229999999
 30
0.0
 40
3.2
  1
145
 41
1.124999999999999
 51
15.0
  7
FX_FONT
 72
     5
 11
165.653455
 21
234.3946229999999
 31
0.0
100
AcDbText
  0
LINE
  5
7B
330
78
100
AcDbEntity
  8
CSLAYER1
  6
CONTINUOUS
 62
     4
100
AcDbLine
 10
88.35345399999999
 20
233.8946259999999
 30
0.0
 11
233.353454
 21
233.8946259999999
 31
0.0
  0
LINE
  5
7C
330
78
100
AcDbEntity
  8
CSLAYER1
  6
CONTINUOUS
 62
     4
100
AcDbLine
 10
88.35345399999999
 20
233.8946259999999
 30
0.0
 11
91.25123100000001
 21
234.671083
 31
0.0
  0
LINE
  5
7D
330
78
100
AcDbEntity
  8
CSLAYER1
  6
CONTINUOUS
 62
     4
100
AcDbLine
 10
88.35345399999999
 20
233.8946259999999
 30
0.0
 11
91.25123100000001
 21
233.118169
 31
0.0
  0
LINE
  5
7E
330
78
100
AcDbEntity
  8
CSLAYER1
  6
CONTINUOUS
 62
     4
100
AcDbLine
 10
233.353454
 20
233.8946259999999
 30
0.0
 11
230.455676
 21
234.671083
 31
0.0
  0
LINE
  5
7F
330
78
100
AcDbEntity
  8
CSLAYER1
  6
CONTINUOUS
 62
     4
100
AcDbLine
 10
233.353454
 20
233.8946259999999
 30
0.0
 11
230.455676
 21
233.118169
 31
0.0
  0
LINE
  5
80
330
78
100
AcDbEntity
  8
CSLAYER1
  6
CONTINUOUS
 62
     4
100
AcDbLine
 10
88.35345399999999
 20
190.047907
 30
0.0
 11
88.35345399999999
 21
234.8946259999999
 31
0.0
  0
LINE
  5
81
330
78
100
AcDbEntity
  8
CSLAYER1
  6
CONTINUOUS
 62
     4
100
AcDbLine
 10
233.353454
 20
207.047907
 30
0.0
 11
233.353454
 21
234.8946259999999
 31
0.0
  0
ENDBLK
  5
82
330
78
100
AcDbEntity
  8
0
100
AcDbBlockEnd
  0
BLOCK
  5
84
330
83
100
AcDbEntity
  8
0
100
AcDbBlockBegin
  2
*D7
 70
     1
 10
0.0
 20
0.0
 30
0.0
  3
*D7
  1

  0
TEXT
  5
85
330
83
100
AcDbEntity
  8
CSLAYER1
 62
     4
100
AcDbText
 10
240.153455
 20
234.3946229999999
 30
0.0
 40
3.2
  1
20
 41
1.200000000000001
 51
15.0
  7
FX_FONT
 72
     5
 11
246.553455
 21
234.3946229999999
 31
0.0
100
AcDbText
  0
LINE
  5
86
330
83
100
AcDbEntity
  8
CSLAYER1
  6
CONTINUOUS
 62
     4
100
AcDbLine
 10
233.353454
 20
233.8946259999999
 30
0.0
 11
253.353454
 21
233.8946259999999
 31
0.0
  0
LINE
  5
87
330
83
100
AcDbEntity
  8
CSLAYER1
  6
CONTINUOUS
 62
     4
100
AcDbLine
 10
233.353454
 20
233.8946259999999
 30
0.0
 11
236.251231
 21
234.671083
 31
0.0
  0
LINE
  5
88
330
83
100
AcDbEntity
  8
CSLAYER1
  6
CONTINUOUS
 62
     4
100
AcDbLine
 10
233.353454
 20
233.8946259999999
 30
0.0
 11
236.251231
 21
233.118169
 31
0.0
  0
LINE
  5
89
330
83
100
AcDbEntity
  8
CSLAYER1
  6
CONTINUOUS
 62
     4
100
AcDbLine
 10
253.353454
 20
233.8946259999999
 30
0.0
 11
250.4556759999999
 21
234.671083
 31
0.0
  0
LINE
  5
8A
330
83
100
AcDbEntity
  8
CSLAYER1
  6
CONTINUOUS
 62
     4
100
AcDbLine
 10
253.353454
 20
233.8946259999999
 30
0.0
 11
250.4556759999999
 21
233.118169
 31
0.0
  0
LINE
  5
8B
330
83
100
AcDbEntity
  8
CSLAYER1
  6
CONTINUOUS
 62
     4
100
AcDbLine
 10
253.353454
 20
200.547907
 30
0.0
 11
253.353454
 21
234.8946259999999
 31
0.0
  0
ENDBLK
  5
8C
330
83
100
AcDbEntity
  8
0
100
AcDbBlockEnd
  0
BLOCK
  5
8E
330
8D
100
AcDbEntity
  8
0
100
AcDbBlockBegin
  2
*D8
 70
     1
 10
0.0
 20
0.0
 30
0.0
  3
*D8
  1

  0
TEXT
  5
8F
330
8D
100
AcDbEntity
  8
CSLAYER1
 62
     4
100
AcDbText
 10
88.79497699999998
 20
229.0457759999999
 30
0.0
 40
3.2
  1
10.5
 41
1.090909090909084
 51
15.0
  7
FX_FONT
 72
     5
 11
101.5949769999999
 21
229.0457759999999
 31
0.0
100
AcDbText
  0
LINE
  5
90
330
8D
100
AcDbEntity
  8
CSLAYER1
  6
CONTINUOUS
 62
     4
100
AcDbLine
 10
88.35345399999999
 20
227.894626
 30
0.0
 11
98.853454
 21
227.894626
 31
0.0
  0
LINE
  5
91
330
8D
100
AcDbEntity
  8
CSLAYER1
  6
CONTINUOUS
 62
     4
100
AcDbLine
 10
98.853454
 20
199.5843199999999
 30
0.0
 11
98.853454
 21
228.8946259999999
 31
0.0
  0
LINE
  5
92
330
8D
100
AcDbEntity
  8
CSLAYER1
  6
CONTINUOUS
 62
     4
100
AcDbLine
 10
85.353454
 20
227.894626
 30
0.0
 11
88.35345399999999
 21
227.894626
 31
0.0
  0
LINE
  5
93
330
8D
100
AcDbEntity
  8
CSLAYER1
  6
CONTINUOUS
 62
     4
100
AcDbLine
 10
88.35345399999999
 20
227.894626
 30
0.0
 11
85.455676
 21
228.671083
 31
0.0
  0
LINE
  5
94
330
8D
100
AcDbEntity
  8
CSLAYER1
  6
CONTINUOUS
 62
     4
100
AcDbLine
 10
88.35345399999999
 20
227.894626
 30
0.0
 11
85.455676
 21
227.118169
 31
0.0
  0
LINE
  5
95
330
8D
100
AcDbEntity
  8
CSLAYER1
  6
CONTINUOUS
 62
     4
100
AcDbLine
 10
98.853454
 20
227.894626
 30
0.0
 11
101.853454
 21
227.894626
 31
0.0
  0
LINE
  5
96
330
8D
100
AcDbEntity
  8
CSLAYER1
  6
CONTINUOUS
 62
     4
100
AcDbLine
 10
98.853454
 20
227.894626
 30
0.0
 11
101.751231
 21
228.671083
 31
0.0
  0
LINE
  5
97
330
8D
100
AcDbEntity
  8
CSLAYER1
  6
CONTINUOUS
 62
     4
100
AcDbLine
 10
98.853454
 20
227.894626
 30
0.0
 11
101.751231
 21
227.118169
 31
0.0
  0
ENDBLK
  5
98
330
8D
100
AcDbEntity
  8
0
100
AcDbBlockEnd
  0
BLOCK
  5
9A
330
99
100
AcDbEntity
  8
0
100
AcDbBlockBegin
  2
*D9
 70
     1
 10
0.0
 20
0.0
 30
0.0
  3
*D9
  1

  0
TEXT
  5
9B
330
99
100
AcDbEntity
  8
CSLAYER1
 62
     4
100
AcDbText
 10
175.553455
 20
228.394623
 30
0.0
 40
3.2
  1
106
 41
1.124999999999999
 51
15.0
  7
FX_FONT
 72
     5
 11
185.153455
 21
228.394623
 31
0.0
100
AcDbText
  0
LINE
  5
9C
330
99
100
AcDbEntity
  8
CSLAYER1
  6
CONTINUOUS
 62
     4
100
AcDbLine
 10
127.3534539999999
 20
227.894626
 30
0.0
 11
233.353454
 21
227.894626
 31
0.0
  0
LINE
  5
9D
330
99
100
AcDbEntity
  8
CSLAYER1
  6
CONTINUOUS
 62
     4
100
AcDbLine
 10
127.3534539999999
 20
227.894626
 30
0.0
 11
130.251231
 21
228.671083
 31
0.0
  0
LINE
  5
9E
330
99
100
AcDbEntity
  8
CSLAYER1
  6
CONTINUOUS
 62
     4
100
AcDbLine
 10
127.3534539999999
 20
227.894626
 30
0.0
 11
130.251231
 21
227.118169
 31
0.0
  0
LINE
  5
9F
330
99
100
AcDbEntity
  8
CSLAYER1
  6
CONTINUOUS
 62
     4
100
AcDbLine
 10
233.353454
 20
227.894626
 30
0.0
 11
230.455676
 21
228.671083
 31
0.0
  0
LINE
  5
A0
330
99
100
AcDbEntity
  8
CSLAYER1
  6
CONTINUOUS
 62
     4
100
AcDbLine
 10
233.353454
 20
227.894626
 30
0.0
 11
230.455676
 21
227.118169
 31
0.0
  0
LINE
  5
A1
330
99
100
AcDbEntity
  8
CSLAYER1
  6
CONTINUOUS
 62
     4
100
AcDbLine
 10
127.3534539999999
 20
207.047907
 30
0.0
 11
127.3534539999999
 21
228.8946259999999
 31
0.0
  0
ENDBLK
  5
A2
330
99
100
AcDbEntity
  8
0
100
AcDbBlockEnd
  0
BLOCK
  5
A4
330
A3
100
AcDbEntity
  8
0
100
AcDbBlockBegin
  2
*D10
 70
     1
 10
0.0
 20
0.0
 30
0.0
  3
*D10
  1

  0
TEXT
  5
A5
330
A3
100
AcDbEntity
  8
CSLAYER1
 62
     4
100
AcDbText
 10
67.688393
 20
174.8479129999999
 30
0.0
 40
3.2
  1
30
 50
90.0
 41
1.200000000000001
 51
15.0
  7
FX_FONT
 72
     5
 11
67.688393
 21
181.2479129999999
 31
0.0
100
AcDbText
  0
LINE
  5
A6
330
A3
100
AcDbEntity
  8
CSLAYER1
  6
CONTINUOUS
 62
     4
100
AcDbLine
 10
68.18839200000001
 20
163.0479069999998
 30
0.0
 11
68.18839200000001
 21
193.047907
 31
0.0
  0
LINE
  5
A7
330
A3
100
AcDbEntity
  8
CSLAYER1
  6
CONTINUOUS
 62
     4
100
AcDbLine
 10
68.18839200000001
 20
163.0479069999998
 30
0.0
 11
67.411935
 21
165.9456839999999
 31
0.0
  0
LINE
  5
A8
330
A3
100
AcDbEntity
  8
CSLAYER1
  6
CONTINUOUS
 62
     4
100
AcDbLine
 10
68.18839200000001
 20
163.0479069999998
 30
0.0
 11
68.96485
 21
165.9456839999999
 31
0.0
  0
LINE
  5
A9
330
A3
100
AcDbEntity
  8
CSLAYER1
  6
CONTINUOUS
 62
     4
100
AcDbLine
 10
68.18839200000001
 20
193.047907
 30
0.0
 11
67.411935
 21
190.1501289999999
 31
0.0
  0
LINE
  5
AA
330
A3
100
AcDbEntity
  8
CSLAYER1
  6
CONTINUOUS
 62
     4
100
AcDbLine
 10
68.18839200000001
 20
193.047907
 30
0.0
 11
68.96485
 21
190.1501289999999
 31
0.0
  0
LINE
  5
AB
330
A3
100
AcDbEntity
  8
CSLAYER1
  6
CONTINUOUS
 62
     4
100
AcDbLine
 10
91.353454
 20
163.0479069999998
 30
0.0
 11
67.18839200000001
 21
163.0479069999998
 31
0.0
  0
LINE
  5
AC
330
A3
100
AcDbEntity
  8
CSLAYER1
  6
CONTINUOUS
 62
     4
100
AcDbLine
 10
91.353454
 20
193.047907
 30
0.0
 11
67.18839200000001
 21
193.047907
 31
0.0
  0
ENDBLK
  5
AD
330
A3
100
AcDbEntity
  8
0
100
AcDbBlockEnd
  0
BLOCK
  5
AF
330
AE
100
AcDbEntity
  8
0
100
AcDbBlockBegin
  2
*D11
 70
     1
 10
0.0
 20
0.0
 30
0.0
  3
*D11
  1

  0
TEXT
  5
B0
330
AE
100
AcDbEntity
  8
CSLAYER1
 62
     4
100
AcDbText
 10
73.68839300000002
 20
174.8479129999999
 30
0.0
 40
3.2
  1
17
 50
90.0
 41
1.200000000000001
 51
15.0
  7
FX_FONT
 72
     5
 11
73.68839300000002
 21
181.2479129999999
 31
0.0
100
AcDbText
  0
LINE
  5
B1
330
AE
100
AcDbEntity
  8
CSLAYER1
  6
CONTINUOUS
 62
     4
100
AcDbLine
 10
74.188392
 20
169.547907
 30
0.0
 11
74.188392
 21
186.547907
 31
0.0
  0
LINE
  5
B2
330
AE
100
AcDbEntity
  8
CSLAYER1
  6
CONTINUOUS
 62
     4
100
AcDbLine
 10
74.188392
 20
169.547907
 30
0.0
 11
73.411935
 21
172.445684
 31
0.0
  0
LINE
  5
B3
330
AE
100
AcDbEntity
  8
CSLAYER1
  6
CONTINUOUS
 62
     4
100
AcDbLine
 10
74.188392
 20
169.547907
 30
0.0
 11
74.96484999999998
 21
172.445684
 31
0.0
  0
LINE
  5
B4
330
AE
100
AcDbEntity
  8
CSLAYER1
  6
CONTINUOUS
 62
     4
100
AcDbLine
 10
74.188392
 20
186.547907
 30
0.0
 11
73.411935
 21
183.6501289999999
 31
0.0
  0
LINE
  5
B5
330
AE
100
AcDbEntity
  8
CSLAYER1
  6
CONTINUOUS
 62
     4
100
AcDbLine
 10
74.188392
 20
186.547907
 30
0.0
 11
74.96484999999998
 21
183.6501289999999
 31
0.0
  0
LINE
  5
B6
330
AE
100
AcDbEntity
  8
CSLAYER1
  6
CONTINUOUS
 62
     4
100
AcDbLine
 10
87.35345399999998
 20
169.547907
 30
0.0
 11
73.18839200000002
 21
169.547907
 31
0.0
  0
LINE
  5
B7
330
AE
100
AcDbEntity
  8
CSLAYER1
  6
CONTINUOUS
 62
     4
100
AcDbLine
 10
87.35345399999998
 20
186.547907
 30
0.0
 11
73.18839200000002
 21
186.547907
 31
0.0
  0
ENDBLK
  5
B8
330
AE
100
AcDbEntity
  8
0
100
AcDbBlockEnd
  0
BLOCK
  5
BA
330
B9
100
AcDbEntity
  8
0
100
AcDbBlockBegin
  2
*D12
 70
     1
 10
0.0
 20
0.0
 30
0.0
  3
*D12
  1

  0
TEXT
  5
BB
330
B9
100
AcDbEntity
  8
CSLAYER1
 62
     4
100
AcDbText
 10
73.68839300000002
 20
77.36219300000001
 30
0.0
 40
3.2
  1
%%c56
 50
90.0
 41
1.124999999999997
 51
15.0
  7
FX_FONT
 72
     5
 11
73.68839300000002
 21
86.962193
 31
0.0
100
AcDbText
  0
LINE
  5
BC
330
B9
100
AcDbEntity
  8
CSLAYER1
  6
CONTINUOUS
 62
     4
100
AcDbLine
 10
74.188392
 20
54.162193
 30
0.0
 11
74.188392
 21
110.1621929999998
 31
0.0
  0
LINE
  5
BD
330
B9
100
AcDbEntity
  8
CSLAYER1
  6
CONTINUOUS
 62
     4
100
AcDbLine
 10
74.188392
 20
54.162193
 30
0.0
 11
73.411935
 21
57.05996999999999
 31
0.0
  0
LINE
  5
BE
330
B9
100
AcDbEntity
  8
CSLAYER1
  6
CONTINUOUS
 62
     4
100
AcDbLine
 10
74.188392
 20
54.162193
 30
0.0
 11
74.96484999999998
 21
57.05996999999999
 31
0.0
  0
LINE
  5
BF
330
B9
100
AcDbEntity
  8
CSLAYER1
  6
CONTINUOUS
 62
     4
100
AcDbLine
 10
74.188392
 20
110.1621929999998
 30
0.0
 11
73.411935
 21
107.2644149999999
 31
0.0
  0
LINE
  5
C0
330
B9
100
AcDbEntity
  8
CSLAYER1
  6
CONTINUOUS
 62
     4
100
AcDbLine
 10
74.188392
 20
110.1621929999998
 30
0.0
 11
74.96484999999998
 21
107.2644149999999
 31
0.0
  0
LINE
  5
C1
330
B9
100
AcDbEntity
  8
CSLAYER1
  6
CONTINUOUS
 62
     4
100
AcDbLine
 10
126.3534539999999
 20
54.162193
 30
0.0
 11
73.18839200000002
 21
54.162193
 31
0.0
  0
LINE
  5
C2
330
B9
100
AcDbEntity
  8
CSLAYER1
  6
CONTINUOUS
 62
     4
100
AcDbLine
 10
126.3534539999999
 20
110.1621929999998
 30
0.0
 11
73.18839200000002
 21
110.1621929999998
 31
0.0
  0
ENDBLK
  5
C3
330
B9
100
AcDbEntity
  8
0
100
AcDbBlockEnd
  0
BLOCK
  5
C5
330
C4
100
AcDbEntity
  8
0
100
AcDbBlockBegin
  2
*D13
 70
     1
 10
0.0
 20
0.0
 30
0.0
  3
*D13
  1

  0
TEXT
  5
C6
330
C4
100
AcDbEntity
  8
CSLAYER1
 62
     4
100
AcDbText
 10
166.053455
 20
133.544037
 30
0.0
 40
3.2
  1
165
 41
1.124999999999999
 51
15.0
  7
FX_FONT
 72
     5
 11
175.653455
 21
133.544037
 31
0.0
100
AcDbText
  0
LINE
  5
C7
330
C4
100
AcDbEntity
  8
CSLAYER1
  6
CONTINUOUS
 62
     4
100
AcDbLine
 10
88.35345399999999
 20
133.044041
 30
0.0
 11
253.353454
 21
133.044041
 31
0.0
  0
LINE
  5
C8
330
C4
100
AcDbEntity
  8
CSLAYER1
  6
CONTINUOUS
 62
     4
100
AcDbLine
 10
88.35345399999999
 20
133.044041
 30
0.0
 11
91.25123100000001
 21
133.8204979999999
 31
0.0
  0
LINE
  5
C9
330
C4
100
AcDbEntity
  8
CSLAYER1
  6
CONTINUOUS
 62
     4
100
AcDbLine
 10
88.35345399999999
 20
133.044041
 30
0.0
 11
91.25123100000001
 21
132.267584
 31
0.0
  0
LINE
  5
CA
330
C4
100
AcDbEntity
  8
CSLAYER1
  6
CONTINUOUS
 62
     4
100
AcDbLine
 10
253.353454
 20
133.044041
 30
0.0
 11
250.4556759999999
 21
133.8204979999999
 31
0.0
  0
LINE
  5
CB
330
C4
100
AcDbEntity
  8
CSLAYER1
  6
CONTINUOUS
 62
     4
100
AcDbLine
 10
253.353454
 20
133.044041
 30
0.0
 11
250.4556759999999
 21
132.267584
 31
0.0
  0
LINE
  5
CC
330
C4
100
AcDbEntity
  8
CSLAYER1
  6
CONTINUOUS
 62
     4
100
AcDbLine
 10
88.35345399999999
 20
92.97662
 30
0.0
 11
88.35345399999999
 21
134.044041
 31
0.0
  0
LINE
  5
CD
330
C4
100
AcDbEntity
  8
CSLAYER1
  6
CONTINUOUS
 62
     4
100
AcDbLine
 10
253.353454
 20
109.6621929999999
 30
0.0
 11
253.353454
 21
134.044041
 31
0.0
  0
ENDBLK
  5
CE
330
C4
100
AcDbEntity
  8
0
100
AcDbBlockEnd
  0
BLOCK
  5
D0
330
CF
100
AcDbEntity
  8
0
100
AcDbBlockBegin
  2
*D14
 70
     1
 10
0.0
 20
0.0
 30
0.0
  3
*D14
  1

  0
TEXT
  5
D1
330
CF
100
AcDbEntity
  8
CSLAYER1
 62
     4
100
AcDbText
 10
88.977304
 20
128.248337
 30
0.0
 40
3.2
  1
10.5
 41
1.09090909090909
 51
15.0
  7
FX_FONT
 72
     5
 11
101.777304
 21
128.248337
 31
0.0
100
AcDbText
  0
LINE
  5
D2
330
CF
100
AcDbEntity
  8
CSLAYER1
  6
CONTINUOUS
 62
     4
100
AcDbLine
 10
88.35345399999999
 20
127.0440409999999
 30
0.0
 11
98.853454
 21
127.0440409999999
 31
0.0
  0
LINE
  5
D3
330
CF
100
AcDbEntity
  8
CSLAYER1
  6
CONTINUOUS
 62
     4
100
AcDbLine
 10
98.853454
 20
89.697966
 30
0.0
 11
98.853454
 21
128.0440409999999
 31
0.0
  0
LINE
  5
D4
330
CF
100
AcDbEntity
  8
CSLAYER1
  6
CONTINUOUS
 62
     4
100
AcDbLine
 10
85.353454
 20
127.0440409999999
 30
0.0
 11
88.35345399999999
 21
127.0440409999999
 31
0.0
  0
LINE
  5
D5
330
CF
100
AcDbEntity
  8
CSLAYER1
  6
CONTINUOUS
 62
     4
100
AcDbLine
 10
88.35345399999999
 20
127.0440409999999
 30
0.0
 11
85.455676
 21
127.8204979999999
 31
0.0
  0
LINE
  5
D6
330
CF
100
AcDbEntity
  8
CSLAYER1
  6
CONTINUOUS
 62
     4
100
AcDbLine
 10
88.35345399999999
 20
127.0440409999999
 30
0.0
 11
85.455676
 21
126.267584
 31
0.0
  0
LINE
  5
D7
330
CF
100
AcDbEntity
  8
CSLAYER1
  6
CONTINUOUS
 62
     4
100
AcDbLine
 10
98.853454
 20
127.0440409999999
 30
0.0
 11
101.853454
 21
127.0440409999999
 31
0.0
  0
LINE
  5
D8
330
CF
100
AcDbEntity
  8
CSLAYER1
  6
CONTINUOUS
 62
     4
100
AcDbLine
 10
98.853454
 20
127.0440409999999
 30
0.0
 11
101.751231
 21
127.8204979999999
 31
0.0
  0
LINE
  5
D9
330
CF
100
AcDbEntity
  8
CSLAYER1
  6
CONTINUOUS
 62
     4
100
AcDbLine
 10
98.853454
 20
127.0440409999999
 30
0.0
 11
101.751231
 21
126.267584
 31
0.0
  0
ENDBLK
  5
DA
330
CF
100
AcDbEntity
  8
0
100
AcDbBlockEnd
  0
BLOCK
  5
DC
330
DB
100
AcDbEntity
  8
0
100
AcDbBlockBegin
  2
FXDIM0003
 70
     0
 10
0.0
 20
0.0
 30
0.0
  3
FXDIM0003
  1

  0
TEXT
  5
DD
330
DB
100
AcDbEntity
  8
CSLAYER1
 62
     4
100
AcDbText
 10
84.386863
 20
155.8117209999998
 30
0.0
 40
3.2
  1
C4
 50
45.0000000000008
 41
1.200000159206722
 51
15.0
  7
FX_FONT
 72
     5
 11
88.912347
 21
160.337205
 31
0.0
100
AcDbText
  0
LINE
  5
DE
330
DB
100
AcDbEntity
  8
CSLAYER1
  6
CONTINUOUS
 62
     4
100
AcDbLine
 10
90.353454
 20
165.047907
 30
0.0
 11
88.192941
 21
162.887394
 31
0.0
  0
LINE
  5
DF
330
DB
100
AcDbEntity
  8
CSLAYER1
  6
CONTINUOUS
 62
     4
100
AcDbLine
 10
90.353454
 20
165.047907
 30
0.0
 11
88.853454
 21
162.449831
 31
0.0
  0
LINE
  5
E0
330
DB
100
AcDbEntity
  8
CSLAYER1
  6
CONTINUOUS
 62
     4
100
AcDbLine
 10
90.353454
 20
165.047907
 30
0.0
 11
87.755378
 21
163.547907
 31
0.0
  0
ENDBLK
  5
E1
330
DB
100
AcDbEntity
  8
0
100
AcDbBlockEnd
  0
BLOCK
  5
E3
330
E2
100
AcDbEntity
  8
0
100
AcDbBlockBegin
  2
*D16
 70
     1
 10
0.0
 20
0.0
 30
0.0
  3
*D16
  1

  0
TEXT
  5
E4
330
E2
100
AcDbEntity
  8
CSLAYER1
 62
     4
100
AcDbText
 10
112.2199959999999
 20
148.685534
 30
0.0
 40
3.2
  1
R18
 50
52.53097095828898
 41
1.125000005997094
 51
15.0
  7
FX_FONT
 72
     5
 11
118.0599879999999
 21
156.304884
 31
0.0
100
AcDbText
  0
LINE
  5
E5
330
E2
100
AcDbEntity
  8
CSLAYER1
  6
CONTINUOUS
 62
     4
100
AcDbLine
 10
121.0118229999999
 20
159.334187
 30
0.0
 11
110.061837
 21
145.047907
 31
0.0
  0
LINE
  5
E6
330
E2
100
AcDbEntity
  8
CSLAYER1
  6
CONTINUOUS
 62
     4
100
AcDbLine
 10
121.0118229999999
 20
159.334187
 30
0.0
 11
119.8652709999999
 21
156.5619289999998
 31
0.0
  0
LINE
  5
E7
330
E2
100
AcDbEntity
  8
CSLAYER1
  6
CONTINUOUS
 62
     4
100
AcDbLine
 10
121.0118229999999
 20
159.334187
 30
0.0
 11
118.6327509999999
 21
157.506617
 31
0.0
  0
ENDBLK
  5
E8
330
E2
100
AcDbEntity
  8
0
100
AcDbBlockEnd
  0
BLOCK
  5
228
330
21B
100
AcDbEntity
  8
0
100
AcDbBlockBegin
  2
*D17
 70
     1
 10
0.0
 20
0.0
 30
0.0
  3
*D17
  1

  0
LINE
  5
21C
330
21B
100
AcDbEntity
  8
CSLAYER1
 62
     0
100
AcDbLine
 10
276.655792
 20
178.047907
 30
0.0
 11
267.0465722730899
 21
178.047907
 31
0.0
  0
LINE
  5
21D
330
21B
100
AcDbEntity
  8
CSLAYER1
 62
     0
100
AcDbLine
 10
292.5161508261758
 20
160.1552138261758
 30
0.0
 11
279.747087614248
 21
147.3861506142481
 31
0.0
  0
ARC
  5
21E
330
21B
100
AcDbEntity
  8
CSLAYER1
 62
     0
100
AcDbCircle
 10
310.4088440000001
 20
178.047907
 30
0.0
 40
43.18227172691011
100
AcDbArc
 50
180.2388305979848
 51
202.2417320443042
  0
ARC
  5
21F
330
21B
100
AcDbEntity
  8
CSLAYER1
 62
     0
100
AcDbCircle
 10
310.4088440000001
 20
178.047907
 30
0.0
 40
43.18227172691011
100
AcDbArc
 50
202.758751079927
 51
224.7611694020149
  0
SOLID
  5
220
330
21B
100
AcDbEntity
  8
CSLAYER1
 62
     0
100
AcDbTrace
 10
267.1969474922021
 20
177.8678448652871
 30
0.0
 11
267.2569473618866
 21
177.8679699166052
 31
0.0
 12
267.2265722730899
 22
178.047907
 32
0.0
 13
267.2265722730899
 23
178.047907
 33
0.0
  0
SOLID
  5
221
330
21B
100
AcDbEntity
  8
CSLAYER1
 62
     0
100
AcDbTrace
 10
279.7686105342737
 20
147.6621429979845
 30
0.0
 11
279.7260957949144
 21
147.6198051078951
 31
0.0
 12
279.8743668348615
 22
147.5134298348618
 32
0.0
 13
279.8743668348615
 23
147.5134298348618
 33
0.0
  0
MTEXT
  5
222
330
21B
100
AcDbEntity
  8
CSLAYER1
 62
     0
100
AcDbMText
 10
270.5136269841669
 20
161.5227670382241
 30
0.0
 40
0.18
 41
0.0
 71
     5
 72
     1
  1
\A1;45°
1001
ACAD
1000
MTEXTBEGIN
1070
    73
1070
     1
1070
    44
1040
1.0
1070
    74
1070
     0
1000
MTEXTEND
  0
POINT
  5
223
330
21B
100
AcDbEntity
  8
DEFPOINTS
 62
     0
100
AcDbPoint
 10
268.6979725011453
 20
166.8715126662835
 30
0.0
  0
POINT
  5
224
330
21B
100
AcDbEntity
  8
DEFPOINTS
 62
     0
100
AcDbPoint
 10
310.4088439999999
 20
178.047907
 30
0.0
  0
POINT
  5
225
330
21B
100
AcDbEntity
  8
DEFPOINTS
 62
     0
100
AcDbPoint
 10
292.560345
 20
160.199408
 30
0.0
  0
POINT
  5
226
330
21B
100
AcDbEntity
  8
DEFPOINTS
 62
     0
100
AcDbPoint
 10
299.708718
 20
167.347781
 30
0.0
  0
POINT
  5
227
330
21B
100
AcDbEntity
  8
DEFPOINTS
 62
     0
100
AcDbPoint
 10
276.718292
 20
178.047907
 30
0.0
  0
ENDBLK
  5
229
330
21B
100
AcDbEntity
  8
0
100
AcDbBlockEnd
  0
ENDSEC
  0
SECTION
  2
ENTITIES
  0
ARC
  5
E9
330
1E
100
AcDbEntity
  8
CSLAYER1
  6
CONTINUOUS
 62
     3
100
AcDbCircle
 10
91.353454
 20
72.34776499999998
 30
0.0
 40
3.0
100
AcDbArc
 50
180.0
 51
249.6051239999999
  0
LINE
  5
EA
330
1E
100
AcDbEntity
  8
CSLAYER1
  6
CONTINUOUS
 62
     3
100
AcDbLine
 10
88.35345399999999
 20
72.34776499999998
 30
0.0
 11
88.35345399999999
 21
91.97661999999999
 31
0.0
  0
ARC
  5
EB
330
1E
100
AcDbEntity
  8
CSLAYER1
  6
CONTINUOUS
 62
     3
100
AcDbCircle
 10
91.353454
 20
91.97661999999999
 30
0.0
 40
3.0
100
AcDbArc
 50
110.3948759999999
 51
180.0
  0
LINE
  5
EC
330
1E
100
AcDbEntity
  8
CSLAYER1
  6
CONTINUOUS
 62
     3
100
AcDbLine
 10
90.307989
 20
94.78856
 30
0.0
 11
118.3534539999999
 21
105.2157199999999
 31
0.0
  0
LINE
  5
ED
330
1E
100
AcDbEntity
  8
CSLAYER1
  6
CONTINUOUS
 62
     3
100
AcDbLine
 10
118.3534539999999
 20
105.2157199999999
 30
0.0
 11
118.3534539999999
 21
106.8160389999998
 31
0.0
  0
LINE
  5
EE
330
1E
100
AcDbEntity
  8
CSLAYER1
  6
CONTINUOUS
 62
     3
100
AcDbLine
 10
118.3534539999999
 20
106.8160389999998
 30
0.0
 11
127.3534539999999
 21
110.1621929999998
 31
0.0
  0
LINE
  5
EF
330
1E
100
AcDbEntity
  8
CSLAYER1
  6
CONTINUOUS
 62
     3
100
AcDbLine
 10
127.3534539999999
 20
110.1621929999998
 30
0.0
 11
127.3534539999999
 21
54.162193
 31
0.0
  0
LINE
  5
F0
330
1E
100
AcDbEntity
  8
CSLAYER1
  6
CONTINUOUS
 62
     3
100
AcDbLine
 10
127.3534539999999
 20
54.162193
 30
0.0
 11
118.3534539999999
 21
57.508347
 31
0.0
  0
LINE
  5
F1
330
1E
100
AcDbEntity
  8
CSLAYER1
  6
CONTINUOUS
 62
     3
100
AcDbLine
 10
118.3534539999999
 20
57.508347
 30
0.0
 11
118.3534539999999
 21
59.108665
 31
0.0
  0
LINE
  5
F2
330
1E
100
AcDbEntity
  8
CSLAYER1
  6
CONTINUOUS
 62
     3
100
AcDbLine
 10
118.3534539999999
 20
59.108665
 30
0.0
 11
90.307989
 21
69.535825
 31
0.0
  0
LINE
  5
F3
330
1E
100
AcDbEntity
  8
CSLAYER1
  6
CONTINUOUS
 62
     3
100
AcDbLine
 10
92.150172
 20
74.283668
 30
0.0
 11
107.138482
 21
68.71109100000001
 31
0.0
  0
ARC
  5
F4
330
1E
100
AcDbEntity
  8
CSLAYER1
  6
CONTINUOUS
 62
     3
100
AcDbCircle
 10
112.365805
 20
82.77078799999998
 30
0.0
 40
15.0
100
AcDbArc
 50
249.6051239999999
 51
357.6746979999998
  0
ARC
  5
F5
330
1E
100
AcDbEntity
  8
CSLAYER1
  6
CONTINUOUS
 62
     3
100
AcDbCircle
 10
112.365805
 20
81.55359699999998
 30
0.0
 40
15.0
100
AcDbArc
 50
2.325302
 51
110.3948759999999
  0
LINE
  5
F6
330
1E
100
AcDbEntity
  8
CSLAYER1
  6
CONTINUOUS
 62
     3
100
AcDbLine
 10
107.138482
 20
95.61329499999999
 30
0.0
 11
92.150172
 21
90.040718
 31
0.0
  0
ARC
  5
F7
330
1E
100
AcDbEntity
  8
CSLAYER1
  6
CONTINUOUS
 62
     3
100
AcDbCircle
 10
90.353454
 20
89.16219299999999
 30
0.0
 40
2.0
100
AcDbArc
 50
0.0
 51
180.0
  0
LINE
  5
F8
330
1E
100
AcDbEntity
  8
CSLAYER1
  6
CONTINUOUS
 62
     3
100
AcDbLine
 10
92.35345399999999
 20
89.16219299999999
 30
0.0
 11
92.35345399999999
 21
75.162193
 31
0.0
  0
ARC
  5
F9
330
1E
100
AcDbEntity
  8
CSLAYER1
  6
CONTINUOUS
 62
     3
100
AcDbCircle
 10
90.353454
 20
75.162193
 30
0.0
 40
2.0
100
AcDbArc
 50
180.0
 51
0.0
  0
LINE
  5
FA
330
1E
100
AcDbEntity
  8
CSLAYER1
  6
CONTINUOUS
 62
     3
100
AcDbLine
 10
96.544053
 20
78.162193
 30
0.0
 11
101.162855
 21
78.162193
 31
0.0
  0
LINE
  5
FB
330
1E
100
AcDbEntity
  8
CSLAYER1
  6
CONTINUOUS
 62
     3
100
AcDbLine
 10
101.098646
 20
78.05098
 30
0.0
 11
103.472256
 21
82.162193
 31
0.0
  0
LINE
  5
FC
330
1E
100
AcDbEntity
  8
CSLAYER1
  6
CONTINUOUS
 62
     3
100
AcDbLine
 10
103.472256
 20
82.162193
 30
0.0
 11
101.098646
 21
86.27340600000001
 31
0.0
  0
LINE
  5
FD
330
1E
100
AcDbEntity
  8
CSLAYER1
  6
CONTINUOUS
 62
     3
100
AcDbLine
 10
101.162855
 20
86.162193
 30
0.0
 11
96.544053
 21
86.162193
 31
0.0
  0
LINE
  5
FE
330
1E
100
AcDbEntity
  8
CSLAYER1
  6
CONTINUOUS
 62
     3
100
AcDbLine
 10
96.608262
 20
86.27340600000001
 30
0.0
 11
94.234652
 21
82.162193
 31
0.0
  0
LINE
  5
FF
330
1E
100
AcDbEntity
  8
CSLAYER1
  6
CONTINUOUS
 62
     3
100
AcDbLine
 10
94.234652
 20
82.162193
 30
0.0
 11
96.608262
 21
78.05098
 31
0.0
  0
CIRCLE
  5
100
330
1E
100
AcDbEntity
  8
CSLAYER1
  6
CONTINUOUS
 62
     3
100
AcDbCircle
 10
98.853454
 20
82.162193
 30
0.0
 40
4.0
  0
CIRCLE
  5
101
330
1E
100
AcDbEntity
  8
CSLAYER1
  6
CONTINUOUS
 62
     3
100
AcDbCircle
 10
98.853454
 20
82.162193
 30
0.0
 40
2.5
  0
LINE
  5
102
330
1E
100
AcDbEntity
  8
CSLAYER1
  6
CONTINUOUS
 62
     3
100
AcDbLine
 10
127.3534539999999
 20
54.162193
 30
0.0
 11
251.853454
 21
54.162193
 31
0.0
  0
LINE
  5
103
330
1E
100
AcDbEntity
  8
CSLAYER1
  6
CONTINUOUS
 62
     3
100
AcDbLine
 10
251.853454
 20
54.162193
 30
0.0
 11
253.353454
 21
55.662193
 31
0.0
  0
LINE
  5
104
330
1E
100
AcDbEntity
  8
CSLAYER1
  6
CONTINUOUS
 62
     3
100
AcDbLine
 10
253.353454
 20
55.662193
 30
0.0
 11
253.353454
 21
108.6621929999999
 31
0.0
  0
LINE
  5
105
330
1E
100
AcDbEntity
  8
CSLAYER1
  6
CONTINUOUS
 62
     3
100
AcDbLine
 10
253.353454
 20
108.6621929999999
 30
0.0
 11
251.853454
 21
110.1621929999998
 31
0.0
  0
LINE
  5
106
330
1E
100
AcDbEntity
  8
CSLAYER1
  6
CONTINUOUS
 62
     3
100
AcDbLine
 10
251.853454
 20
110.1621929999998
 30
0.0
 11
251.853454
 21
98.130912
 31
0.0
  0
LINE
  5
107
330
1E
100
AcDbEntity
  8
CSLAYER1
  6
CONTINUOUS
 62
     3
100
AcDbLine
 10
251.853454
 20
98.130912
 30
0.0
 11
240.3534539999998
 21
98.130912
 31
0.0
  0
ARC
  5
108
330
1E
100
AcDbEntity
  8
CSLAYER1
  6
CONTINUOUS
 62
     3
100
AcDbCircle
 10
240.3534539999998
 20
96.13091199999999
 30
0.0
 40
2.0
100
AcDbArc
 50
90.0
 51
180.0
  0
LINE
  5
109
330
1E
100
AcDbEntity
  8
CSLAYER1
  6
CONTINUOUS
 62
     3
100
AcDbLine
 10
238.3534539999998
 20
96.13091199999999
 30
0.0
 11
238.3534539999998
 21
68.193473
 31
0.0
  0
ARC
  5
10A
330
1E
100
AcDbEntity
  8
CSLAYER1
  6
CONTINUOUS
 62
     3
100
AcDbCircle
 10
240.3534539999998
 20
68.193473
 30
0.0
 40
2.0
100
AcDbArc
 50
180.0
 51
270.0
  0
LINE
  5
10B
330
1E
100
AcDbEntity
  8
CSLAYER1
  6
CONTINUOUS
 62
     3
100
AcDbLine
 10
240.3534539999998
 20
66.193473
 30
0.0
 11
251.853454
 21
66.193473
 31
0.0
  0
LINE
  5
10C
330
1E
100
AcDbEntity
  8
CSLAYER1
  6
CONTINUOUS
 62
     3
100
AcDbLine
 10
251.853454
 20
66.193473
 30
0.0
 11
251.853454
 21
54.162193
 31
0.0
  0
LINE
  5
10D
330
1E
100
AcDbEntity
  8
CSLAYER1
  6
CONTINUOUS
 62
     3
100
AcDbLine
 10
251.853454
 20
66.193473
 30
0.0
 11
253.353454
 21
67.69347299999999
 31
0.0
  0
LINE
  5
10E
330
1E
100
AcDbEntity
  8
CSLAYER1
  6
CONTINUOUS
 62
     3
100
AcDbLine
 10
233.353454
 20
54.162193
 30
0.0
 11
233.353454
 21
110.1621929999998
 31
0.0
  0
LINE
  5
10F
330
1E
100
AcDbEntity
  8
CSLAYER1
  6
CONTINUOUS
 62
     3
100
AcDbLine
 10
251.853454
 20
110.1621929999998
 30
0.0
 11
127.3534539999999
 21
110.1621929999998
 31
0.0
  0
LINE
  5
110
330
1E
100
AcDbEntity
  8
CSLAYER1
  6
CONTINUOUS
 62
     3
100
AcDbLine
 10
127.3534539999999
 20
150.047907
 30
0.0
 11
238.3534539999998
 21
150.047907
 31
0.0
  0
LINE
  5
111
330
1E
100
AcDbEntity
  8
CSLAYER1
  6
CONTINUOUS
 62
     3
100
AcDbLine
 10
238.3534539999998
 20
150.047907
 30
0.0
 11
238.3534539999998
 21
153.047907
 31
0.0
  0
ARC
  5
112
330
1E
100
AcDbEntity
  8
CSLAYER1
  6
CONTINUOUS
 62
     3
100
AcDbCircle
 10
240.3534539999998
 20
153.047907
 30
0.0
 40
2.0
100
AcDbArc
 50
90.0
 51
180.0
  0
LINE
  5
113
330
1E
100
AcDbEntity
  8
CSLAYER1
  6
CONTINUOUS
 62
     3
100
AcDbLine
 10
240.3534539999998
 20
155.047907
 30
0.0
 11
251.853454
 21
155.047907
 31
0.0
  0
LINE
  5
114
330
1E
100
AcDbEntity
  8
CSLAYER1
  6
CONTINUOUS
 62
     3
100
AcDbLine
 10
251.853454
 20
155.047907
 30
0.0
 11
253.353454
 21
156.547907
 31
0.0
  0
LINE
  5
115
330
1E
100
AcDbEntity
  8
CSLAYER1
  6
CONTINUOUS
 62
     3
100
AcDbLine
 10
253.353454
 20
156.547907
 30
0.0
 11
253.353454
 21
199.547907
 31
0.0
  0
LINE
  5
116
330
1E
100
AcDbEntity
  8
CSLAYER1
  6
CONTINUOUS
 62
     3
100
AcDbLine
 10
253.353454
 20
199.547907
 30
0.0
 11
251.853454
 21
201.047907
 31
0.0
  0
LINE
  5
117
330
1E
100
AcDbEntity
  8
CSLAYER1
  6
CONTINUOUS
 62
     3
100
AcDbLine
 10
251.853454
 20
201.047907
 30
0.0
 11
240.3534539999998
 21
201.047907
 31
0.0
  0
ARC
  5
118
330
1E
100
AcDbEntity
  8
CSLAYER1
  6
CONTINUOUS
 62
     3
100
AcDbCircle
 10
240.3534539999998
 20
203.047907
 30
0.0
 40
2.0
100
AcDbArc
 50
180.0
 51
270.0
  0
LINE
  5
119
330
1E
100
AcDbEntity
  8
CSLAYER1
  6
CONTINUOUS
 62
     3
100
AcDbLine
 10
238.3534539999998
 20
203.047907
 30
0.0
 11
238.3534539999998
 21
206.0479069999999
 31
0.0
  0
LINE
  5
11A
330
1E
100
AcDbEntity
  8
CSLAYER1
  6
CONTINUOUS
 62
     3
100
AcDbLine
 10
238.3534539999998
 20
206.0479069999999
 30
0.0
 11
127.3534539999999
 21
206.0479069999999
 31
0.0
  0
LINE
  5
11B
330
1E
100
AcDbEntity
  8
CSLAYER1
  6
CONTINUOUS
 62
     3
100
AcDbLine
 10
127.3534539999999
 20
206.0479069999999
 30
0.0
 11
127.3534539999999
 21
150.047907
 31
0.0
  0
ARC
  5
11C
330
1E
100
AcDbEntity
  8
CSLAYER1
  6
CONTINUOUS
 62
     3
100
AcDbCircle
 10
110.061837
 20
145.047907
 30
0.0
 40
18.0
100
AcDbArc
 50
16.12762
 51
90.0
  0
LINE
  5
11D
330
1E
100
AcDbEntity
  8
CSLAYER1
  6
CONTINUOUS
 62
     3
100
AcDbLine
 10
110.061837
 20
163.0479069999998
 30
0.0
 11
92.35345399999999
 21
163.0479069999998
 31
0.0
  0
LINE
  5
11E
330
1E
100
AcDbEntity
  8
CSLAYER1
  6
CONTINUOUS
 62
     3
100
AcDbLine
 10
92.35345399999999
 20
163.0479069999998
 30
0.0
 11
88.35345399999999
 21
167.047907
 31
0.0
  0
LINE
  5
11F
330
1E
100
AcDbEntity
  8
CSLAYER1
  6
CONTINUOUS
 62
     3
100
AcDbLine
 10
88.35345399999999
 20
167.047907
 30
0.0
 11
88.35345399999999
 21
169.547907
 31
0.0
  0
LINE
  5
120
330
1E
100
AcDbEntity
  8
CSLAYER1
  6
CONTINUOUS
 62
     3
100
AcDbLine
 10
88.35345399999999
 20
169.547907
 30
0.0
 11
118.3534539999999
 21
169.547907
 31
0.0
  0
LINE
  5
121
330
1E
100
AcDbEntity
  8
CSLAYER1
  6
CONTINUOUS
 62
     3
100
AcDbLine
 10
118.3534539999999
 20
169.547907
 30
0.0
 11
118.3534539999999
 21
186.547907
 31
0.0
  0
LINE
  5
122
330
1E
100
AcDbEntity
  8
CSLAYER1
  6
CONTINUOUS
 62
     3
100
AcDbLine
 10
118.3534539999999
 20
186.547907
 30
0.0
 11
88.35345399999999
 21
186.547907
 31
0.0
  0
LINE
  5
123
330
1E
100
AcDbEntity
  8
CSLAYER1
  6
CONTINUOUS
 62
     3
100
AcDbLine
 10
88.35345399999999
 20
186.547907
 30
0.0
 11
88.35345399999999
 21
189.0479069999999
 31
0.0
  0
LINE
  5
124
330
1E
100
AcDbEntity
  8
CSLAYER1
  6
CONTINUOUS
 62
     3
100
AcDbLine
 10
88.35345399999999
 20
189.0479069999999
 30
0.0
 11
92.35345399999999
 21
193.047907
 31
0.0
  0
LINE
  5
125
330
1E
100
AcDbEntity
  8
CSLAYER1
  6
CONTINUOUS
 62
     3
100
AcDbLine
 10
92.35345399999999
 20
193.047907
 30
0.0
 11
110.061837
 21
193.047907
 31
0.0
  0
ARC
  5
126
330
1E
100
AcDbEntity
  8
CSLAYER1
  6
CONTINUOUS
 62
     3
100
AcDbCircle
 10
110.061837
 20
211.0479069999999
 30
0.0
 40
18.0
100
AcDbArc
 50
270.0
 51
343.8723799999998
  0
LINE
  5
127
330
1E
100
AcDbEntity
  8
CSLAYER1
  6
CONTINUOUS
 62
     3
100
AcDbLine
 10
103.353454
 20
195.047907
 30
0.0
 11
94.353454
 21
195.047907
 31
0.0
  0
LINE
  5
128
330
1E
100
AcDbEntity
  8
CSLAYER1
  6
CONTINUOUS
 62
     3
100
AcDbLine
 10
94.353454
 20
195.047907
 30
0.0
 11
94.353454
 21
193.047907
 31
0.0
  0
LINE
  5
129
330
1E
100
AcDbEntity
  8
CSLAYER1
  6
CONTINUOUS
 62
     3
100
AcDbLine
 10
94.353454
 20
195.047907
 30
0.0
 11
95.353454
 21
196.047907
 31
0.0
  0
LINE
  5
12A
330
1E
100
AcDbEntity
  8
CSLAYER1
  6
CONTINUOUS
 62
     3
100
AcDbLine
 10
95.353454
 20
196.047907
 30
0.0
 11
98.35345400000001
 21
196.047907
 31
0.0
  0
LINE
  5
12B
330
1E
100
AcDbEntity
  8
CSLAYER1
  6
CONTINUOUS
 62
     3
100
AcDbLine
 10
98.35345400000001
 20
196.047907
 30
0.0
 11
98.35345400000001
 21
195.047907
 31
0.0
  0
LINE
  5
12C
330
1E
100
AcDbEntity
  8
CSLAYER1
  6
CONTINUOUS
 62
     3
100
AcDbLine
 10
99.353454
 20
195.047907
 30
0.0
 11
99.353454
 21
196.047907
 31
0.0
  0
LINE
  5
12D
330
1E
100
AcDbEntity
  8
CSLAYER1
  6
CONTINUOUS
 62
     3
100
AcDbLine
 10
99.353454
 20
196.047907
 30
0.0
 11
102.3534539999999
 21
196.047907
 31
0.0
  0
LINE
  5
12E
330
1E
100
AcDbEntity
  8
CSLAYER1
  6
CONTINUOUS
 62
     3
100
AcDbLine
 10
102.3534539999999
 20
196.047907
 30
0.0
 11
103.353454
 21
195.047907
 31
0.0
  0
LINE
  5
12F
330
1E
100
AcDbEntity
  8
CSLAYER1
  6
CONTINUOUS
 62
     3
100
AcDbLine
 10
103.353454
 20
195.047907
 30
0.0
 11
103.353454
 21
193.047907
 31
0.0
  0
LINE
  5
130
330
1E
100
AcDbEntity
  8
CSLAYER1
  6
CONTINUOUS
 62
     3
100
AcDbLine
 10
101.3534539999999
 20
186.547907
 30
0.0
 11
101.3534539999999
 21
169.547907
 31
0.0
  0
LINE
  5
131
330
1E
100
AcDbEntity
  8
CSLAYER1
  6
CONTINUOUS
 62
     3
100
AcDbLine
 10
96.353454
 20
169.547907
 30
0.0
 11
96.353454
 21
186.547907
 31
0.0
  0
LINE
  5
132
330
1E
100
AcDbEntity
  8
CSLAYER1
  6
CONTINUOUS
 62
     3
100
AcDbLine
 10
96.544053
 20
163.0479069999998
 30
0.0
 11
96.544053
 21
158.7051729999999
 31
0.0
  0
ARC
  5
133
330
1E
100
AcDbEntity
  8
CSLAYER1
  6
CONTINUOUS
 62
     3
100
AcDbCircle
 10
98.853454
 20
165.9906409999998
 30
0.0
 40
7.642733999999999
100
AcDbArc
 50
252.412046
 51
287.587954
  0
ARC
  5
134
330
1E
100
AcDbEntity
  8
CSLAYER1
  6
CONTINUOUS
 62
     3
100
AcDbCircle
 10
103.5485199999999
 20
165.8156299999999
 30
0.0
 40
7.5
100
AcDbArc
 50
251.452622
 51
264.6824529999999
  0
LINE
  5
135
330
1E
100
AcDbEntity
  8
CSLAYER1
  6
CONTINUOUS
 62
     3
100
AcDbLine
 10
102.853454
 20
158.347907
 30
0.0
 11
94.85345399999999
 21
158.347907
 31
0.0
  0
ARC
  5
136
330
1E
100
AcDbEntity
  8
CSLAYER1
  6
CONTINUOUS
 62
     3
100
AcDbCircle
 10
94.158387
 20
165.8156299999999
 30
0.0
 40
7.5
100
AcDbArc
 50
275.317547
 51
288.5473779999998
  0
LINE
  5
137
330
1E
100
AcDbEntity
  8
CSLAYER1
  6
CONTINUOUS
 62
     3
100
AcDbLine
 10
96.353454
 20
158.347907
 30
0.0
 11
96.353454
 21
154.547907
 31
0.0
  0
LINE
  5
138
330
1E
100
AcDbEntity
  8
CSLAYER1
  6
CONTINUOUS
 62
     3
100
AcDbLine
 10
96.353454
 20
154.547907
 30
0.0
 11
96.853454
 21
154.047907
 31
0.0
  0
LINE
  5
139
330
1E
100
AcDbEntity
  8
CSLAYER1
  6
CONTINUOUS
 62
     3
100
AcDbLine
 10
96.853454
 20
154.047907
 30
0.0
 11
100.853454
 21
154.047907
 31
0.0
  0
LINE
  5
13A
330
1E
100
AcDbEntity
  8
CSLAYER1
  6
CONTINUOUS
 62
     3
100
AcDbLine
 10
100.853454
 20
154.047907
 30
0.0
 11
101.3534539999999
 21
154.547907
 31
0.0
  0
LINE
  5
13B
330
1E
100
AcDbEntity
  8
CSLAYER1
  6
CONTINUOUS
 62
     3
100
AcDbLine
 10
101.3534539999999
 20
154.547907
 30
0.0
 11
101.3534539999999
 21
158.347907
 31
0.0
  0
LINE
  5
13C
330
1E
100
AcDbEntity
  8
CSLAYER1
  6
CONTINUOUS
 62
     3
100
AcDbLine
 10
101.162855
 20
158.7051729999999
 30
0.0
 11
101.162855
 21
163.0479069999998
 31
0.0
  0
LINE
  5
13D
330
1E
100
AcDbEntity
  8
CSLAYER1
  6
CONTINUOUS
 62
     3
100
AcDbLine
 10
103.472256
 20
163.0479069999998
 30
0.0
 11
103.472256
 21
158.7051729999999
 31
0.0
  0
LINE
  5
13E
330
1E
100
AcDbEntity
  8
CSLAYER1
  6
CONTINUOUS
 62
     3
100
AcDbLine
 10
103.472256
 20
158.7051729999999
 30
0.0
 11
102.853454
 21
158.347907
 31
0.0
  0
LINE
  5
13F
330
1E
100
AcDbEntity
  8
CSLAYER1
  6
CONTINUOUS
 62
     3
100
AcDbLine
 10
94.85345399999999
 20
158.347907
 30
0.0
 11
94.234652
 21
158.7051729999999
 31
0.0
  0
LINE
  5
140
330
1E
100
AcDbEntity
  8
CSLAYER1
  6
CONTINUOUS
 62
     3
100
AcDbLine
 10
94.234652
 20
158.7051729999999
 30
0.0
 11
94.234652
 21
163.0479069999998
 31
0.0
  0
LINE
  5
141
330
1E
100
AcDbEntity
  8
CSLAYER1
  6
CONTINUOUS
 62
     3
100
AcDbLine
 10
253.353454
 20
96.630912
 30
0.0
 11
251.853454
 21
98.130912
 31
0.0
  0
LINE
  5
142
330
1E
100
AcDbEntity
  8
CSLAYER1
  6
CONTINUOUS
 62
     3
100
AcDbLine
 10
233.353454
 20
150.047907
 30
0.0
 11
233.353454
 21
206.0479069999999
 31
0.0
  0
LINE
  5
143
330
1E
100
AcDbEntity
  8
CSLAYER1
  6
CONTINUOUS
 62
     3
100
AcDbLine
 10
251.853454
 20
201.047907
 30
0.0
 11
251.853454
 21
155.047907
 31
0.0
  0
LINE
  5
144
330
1E
100
AcDbEntity
  8
CSLAYER1
  6
CONTINUOUS
 62
     3
100
AcDbLine
 10
294.440124
 20
155.047907
 30
0.0
 11
326.377563
 21
155.047907
 31
0.0
  0
ARC
  5
145
330
1E
100
AcDbEntity
  8
CSLAYER1
  6
CONTINUOUS
 62
     3
100
AcDbCircle
 10
310.4088439999998
 20
178.047907
 30
0.0
 40
26.5
100
AcDbArc
 50
299.7816549999999
 51
60.21834499999999
  0
LINE
  5
146
330
1E
100
AcDbEntity
  8
CSLAYER1
  6
CONTINUOUS
 62
     3
100
AcDbLine
 10
326.377563
 20
201.047907
 30
0.0
 11
294.440124
 21
201.047907
 31
0.0
  0
ARC
  5
147
330
1E
100
AcDbEntity
  8
CSLAYER1
  6
CONTINUOUS
 62
     3
100
AcDbCircle
 10
310.4088439999998
 20
178.047907
 30
0.0
 40
26.5
100
AcDbArc
 50
119.781655
 51
240.218345
  0
CIRCLE
  5
148
330
1E
100
AcDbEntity
  8
CSLAYER1
  6
CONTINUOUS
 62
     3
100
AcDbCircle
 10
296.266708
 20
163.9057709999999
 30
0.0
 40
2.5
  0
CIRCLE
  5
149
330
1E
100
AcDbEntity
  8
CSLAYER1
  6
CONTINUOUS
 62
     3
100
AcDbCircle
 10
310.4088439999998
 20
178.047907
 30
0.0
 40
4.25
  0
CIRCLE
  5
14A
330
1E
100
AcDbEntity
  8
CSLAYER1
  6
CONTINUOUS
 62
     3
100
AcDbCircle
 10
310.4088439999998
 20
178.047907
 30
0.0
 40
28.0
  0
CIRCLE
  5
14B
330
1E
100
AcDbEntity
  8
CSLAYER1
  6
CONTINUOUS
 62
     3
100
AcDbCircle
 10
310.4088439999998
 20
178.047907
 30
0.0
 40
3.0
  0
CIRCLE
  5
14C
330
1E
100
AcDbEntity
  8
CSLAYER1
  6
CONTINUOUS
 62
     3
100
AcDbCircle
 10
324.5509799999998
 20
192.1900429999999
 30
0.0
 40
2.5
  0
POINT
  5
14D
330
1E
100
AcDbEntity
  8
CSLAYER1
 62
     3
100
AcDbPoint
 10
10.0
 20
3.0
 30
0.0
  0
POINT
  5
14E
330
1E
100
AcDbEntity
  8
CSLAYER1
 62
     3
100
AcDbPoint
 10
365.5
 20
20.5
 30
0.0
  0
TEXT
  5
14F
330
1E
100
AcDbEntity
  8
CSLAYER1
 62
     3
100
AcDbText
 10
354.3
 20
18.89999999999998
 30
0.0
 40
3.2
  1
GT-NR30
 41
1.049999999999993
  7
FX_FONT
 72
     5
 11
376.6999999999999
 21
18.89999999999998
 31
0.0
100
AcDbText
  0
POLYLINE
  5
150
330
1E
100
AcDbEntity
  8
CSLAYER1
  6
CONTINUOUS
 62
     3
100
AcDb2dPolyline
 66
     1
 10
0.0
 20
0.0
 30
0.0
  0
VERTEX
  5
151
330
150
100
AcDbEntity
  8
CSLAYER1
  6
CONTINUOUS
 62
     3
100
AcDbVertex
100
AcDb2dVertex
 10
243.353454
 20
189.54484
 30
0.0
  0
VERTEX
  5
152
330
150
100
AcDbEntity
  8
CSLAYER1
  6
CONTINUOUS
 62
     3
100
AcDbVertex
100
AcDb2dVertex
 10
242.9956799999999
 20
189.5286679999999
 30
0.0
  0
VERTEX
  5
153
330
150
100
AcDbEntity
  8
CSLAYER1
  6
CONTINUOUS
 62
     3
100
AcDbVertex
100
AcDb2dVertex
 10
242.640628
 20
189.480273
 30
0.0
  0
VERTEX
  5
154
330
150
100
AcDbEntity
  8
CSLAYER1
  6
CONTINUOUS
 62
     3
100
AcDbVertex
100
AcDb2dVertex
 10
242.2910019999999
 20
189.4000249999999
 30
0.0
  0
VERTEX
  5
155
330
150
100
AcDbEntity
  8
CSLAYER1
  6
CONTINUOUS
 62
     3
100
AcDbVertex
100
AcDb2dVertex
 10
241.949461
 20
189.288534
 30
0.0
  0
VERTEX
  5
156
330
150
100
AcDbEntity
  8
CSLAYER1
  6
CONTINUOUS
 62
     3
100
AcDbVertex
100
AcDb2dVertex
 10
241.618606
 20
189.146648
 30
0.0
  0
VERTEX
  5
157
330
150
100
AcDbEntity
  8
CSLAYER1
  6
CONTINUOUS
 62
     3
100
AcDbVertex
100
AcDb2dVertex
 10
241.300954
 20
188.975448
 30
0.0
  0
VERTEX
  5
158
330
150
100
AcDbEntity
  8
CSLAYER1
  6
CONTINUOUS
 62
     3
100
AcDbVertex
100
AcDb2dVertex
 10
240.9989229999999
 20
188.776236
 30
0.0
  0
VERTEX
  5
159
330
150
100
AcDbEntity
  8
CSLAYER1
  6
CONTINUOUS
 62
     3
100
AcDbVertex
100
AcDb2dVertex
 10
240.714811
 20
188.550529
 30
0.0
  0
VERTEX
  5
15A
330
150
100
AcDbEntity
  8
CSLAYER1
  6
CONTINUOUS
 62
     3
100
AcDbVertex
100
AcDb2dVertex
 10
240.450781
 20
188.3000439999999
 30
0.0
  0
VERTEX
  5
15B
330
150
100
AcDbEntity
  8
CSLAYER1
  6
CONTINUOUS
 62
     3
100
AcDbVertex
100
AcDb2dVertex
 10
240.208842
 20
188.0266879999999
 30
0.0
  0
VERTEX
  5
15C
330
150
100
AcDbEntity
  8
CSLAYER1
  6
CONTINUOUS
 62
     3
100
AcDbVertex
100
AcDb2dVertex
 10
239.990835
 20
187.73254
 30
0.0
  0
VERTEX
  5
15D
330
150
100
AcDbEntity
  8
CSLAYER1
  6
CONTINUOUS
 62
     3
100
AcDbVertex
100
AcDb2dVertex
 10
239.79842
 20
187.41984
 30
0.0
  0
VERTEX
  5
15E
330
150
100
AcDbEntity
  8
CSLAYER1
  6
CONTINUOUS
 62
     3
100
AcDbVertex
100
AcDb2dVertex
 10
239.63306
 20
187.090968
 30
0.0
  0
VERTEX
  5
15F
330
150
100
AcDbEntity
  8
CSLAYER1
  6
CONTINUOUS
 62
     3
100
AcDbVertex
100
AcDb2dVertex
 10
239.496016
 20
186.7484259999999
 30
0.0
  0
VERTEX
  5
160
330
150
100
AcDbEntity
  8
CSLAYER1
  6
CONTINUOUS
 62
     3
100
AcDbVertex
100
AcDb2dVertex
 10
239.3883279999999
 20
186.394821
 30
0.0
  0
VERTEX
  5
161
330
150
100
AcDbEntity
  8
CSLAYER1
  6
CONTINUOUS
 62
     3
100
AcDbVertex
100
AcDb2dVertex
 10
239.310818
 20
186.032845
 30
0.0
  0
VERTEX
  5
162
330
150
100
AcDbEntity
  8
CSLAYER1
  6
CONTINUOUS
 62
     3
100
AcDbVertex
100
AcDb2dVertex
 10
239.2640749999999
 20
185.665252
 30
0.0
  0
VERTEX
  5
163
330
150
100
AcDbEntity
  8
CSLAYER1
  6
CONTINUOUS
 62
     3
100
AcDbVertex
100
AcDb2dVertex
 10
239.248454
 20
185.29484
 30
0.0
  0
VERTEX
  5
164
330
150
100
AcDbEntity
  8
CSLAYER1
  6
CONTINUOUS
 62
     3
100
AcDbVertex
100
AcDb2dVertex
 10
239.2640749999999
 20
184.924428
 30
0.0
  0
VERTEX
  5
165
330
150
100
AcDbEntity
  8
CSLAYER1
  6
CONTINUOUS
 62
     3
100
AcDbVertex
100
AcDb2dVertex
 10
239.310818
 20
184.556835
 30
0.0
  0
VERTEX
  5
166
330
150
100
AcDbEntity
  8
CSLAYER1
  6
CONTINUOUS
 62
     3
100
AcDbVertex
100
AcDb2dVertex
 10
239.3883279999999
 20
184.194859
 30
0.0
  0
VERTEX
  5
167
330
150
100
AcDbEntity
  8
CSLAYER1
  6
CONTINUOUS
 62
     3
100
AcDbVertex
100
AcDb2dVertex
 10
239.496016
 20
183.841255
 30
0.0
  0
VERTEX
  5
168
330
150
100
AcDbEntity
  8
CSLAYER1
  6
CONTINUOUS
 62
     3
100
AcDbVertex
100
AcDb2dVertex
 10
239.63306
 20
183.4987129999999
 30
0.0
  0
VERTEX
  5
169
330
150
100
AcDbEntity
  8
CSLAYER1
  6
CONTINUOUS
 62
     3
100
AcDbVertex
100
AcDb2dVertex
 10
239.79842
 20
183.16984
 30
0.0
  0
VERTEX
  5
16A
330
150
100
AcDbEntity
  8
CSLAYER1
  6
CONTINUOUS
 62
     3
100
AcDbVertex
100
AcDb2dVertex
 10
239.990835
 20
182.8571399999999
 30
0.0
  0
VERTEX
  5
16B
330
150
100
AcDbEntity
  8
CSLAYER1
  6
CONTINUOUS
 62
     3
100
AcDbVertex
100
AcDb2dVertex
 10
240.208842
 20
182.562993
 30
0.0
  0
VERTEX
  5
16C
330
150
100
AcDbEntity
  8
CSLAYER1
  6
CONTINUOUS
 62
     3
100
AcDbVertex
100
AcDb2dVertex
 10
240.450781
 20
182.289636
 30
0.0
  0
VERTEX
  5
16D
330
150
100
AcDbEntity
  8
CSLAYER1
  6
CONTINUOUS
 62
     3
100
AcDbVertex
100
AcDb2dVertex
 10
240.714811
 20
182.039151
 30
0.0
  0
VERTEX
  5
16E
330
150
100
AcDbEntity
  8
CSLAYER1
  6
CONTINUOUS
 62
     3
100
AcDbVertex
100
AcDb2dVertex
 10
240.9989229999999
 20
181.813444
 30
0.0
  0
VERTEX
  5
16F
330
150
100
AcDbEntity
  8
CSLAYER1
  6
CONTINUOUS
 62
     3
100
AcDbVertex
100
AcDb2dVertex
 10
241.300954
 20
181.614232
 30
0.0
  0
VERTEX
  5
170
330
150
100
AcDbEntity
  8
CSLAYER1
  6
CONTINUOUS
 62
     3
100
AcDbVertex
100
AcDb2dVertex
 10
241.618606
 20
181.443032
 30
0.0
  0
VERTEX
  5
171
330
150
100
AcDbEntity
  8
CSLAYER1
  6
CONTINUOUS
 62
     3
100
AcDbVertex
100
AcDb2dVertex
 10
241.949461
 20
181.301147
 30
0.0
  0
VERTEX
  5
172
330
150
100
AcDbEntity
  8
CSLAYER1
  6
CONTINUOUS
 62
     3
100
AcDbVertex
100
AcDb2dVertex
 10
242.2910019999999
 20
181.189655
 30
0.0
  0
VERTEX
  5
173
330
150
100
AcDbEntity
  8
CSLAYER1
  6
CONTINUOUS
 62
     3
100
AcDbVertex
100
AcDb2dVertex
 10
242.640628
 20
181.109407
 30
0.0
  0
VERTEX
  5
174
330
150
100
AcDbEntity
  8
CSLAYER1
  6
CONTINUOUS
 62
     3
100
AcDbVertex
100
AcDb2dVertex
 10
242.9956799999999
 20
181.061013
 30
0.0
  0
VERTEX
  5
175
330
150
100
AcDbEntity
  8
CSLAYER1
  6
CONTINUOUS
 62
     3
100
AcDbVertex
100
AcDb2dVertex
 10
243.353454
 20
181.04484
 30
0.0
  0
VERTEX
  5
176
330
150
100
AcDbEntity
  8
CSLAYER1
  6
CONTINUOUS
 62
     3
100
AcDbVertex
100
AcDb2dVertex
 10
243.711228
 20
181.061013
 30
0.0
  0
VERTEX
  5
177
330
150
100
AcDbEntity
  8
CSLAYER1
  6
CONTINUOUS
 62
     3
100
AcDbVertex
100
AcDb2dVertex
 10
244.0662799999999
 20
181.109407
 30
0.0
  0
VERTEX
  5
178
330
150
100
AcDbEntity
  8
CSLAYER1
  6
CONTINUOUS
 62
     3
100
AcDbVertex
100
AcDb2dVertex
 10
244.415906
 20
181.189655
 30
0.0
  0
VERTEX
  5
179
330
150
100
AcDbEntity
  8
CSLAYER1
  6
CONTINUOUS
 62
     3
100
AcDbVertex
100
AcDb2dVertex
 10
244.757447
 20
181.301147
 30
0.0
  0
VERTEX
  5
17A
330
150
100
AcDbEntity
  8
CSLAYER1
  6
CONTINUOUS
 62
     3
100
AcDbVertex
100
AcDb2dVertex
 10
245.088302
 20
181.443032
 30
0.0
  0
VERTEX
  5
17B
330
150
100
AcDbEntity
  8
CSLAYER1
  6
CONTINUOUS
 62
     3
100
AcDbVertex
100
AcDb2dVertex
 10
245.405954
 20
181.614232
 30
0.0
  0
VERTEX
  5
17C
330
150
100
AcDbEntity
  8
CSLAYER1
  6
CONTINUOUS
 62
     3
100
AcDbVertex
100
AcDb2dVertex
 10
245.7079849999999
 20
181.813444
 30
0.0
  0
VERTEX
  5
17D
330
150
100
AcDbEntity
  8
CSLAYER1
  6
CONTINUOUS
 62
     3
100
AcDbVertex
100
AcDb2dVertex
 10
245.992097
 20
182.039151
 30
0.0
  0
VERTEX
  5
17E
330
150
100
AcDbEntity
  8
CSLAYER1
  6
CONTINUOUS
 62
     3
100
AcDbVertex
100
AcDb2dVertex
 10
246.256127
 20
182.289636
 30
0.0
  0
VERTEX
  5
17F
330
150
100
AcDbEntity
  8
CSLAYER1
  6
CONTINUOUS
 62
     3
100
AcDbVertex
100
AcDb2dVertex
 10
246.498066
 20
182.562993
 30
0.0
  0
VERTEX
  5
180
330
150
100
AcDbEntity
  8
CSLAYER1
  6
CONTINUOUS
 62
     3
100
AcDbVertex
100
AcDb2dVertex
 10
246.7160729999999
 20
182.8571399999999
 30
0.0
  0
VERTEX
  5
181
330
150
100
AcDbEntity
  8
CSLAYER1
  6
CONTINUOUS
 62
     3
100
AcDbVertex
100
AcDb2dVertex
 10
246.908488
 20
183.16984
 30
0.0
  0
VERTEX
  5
182
330
150
100
AcDbEntity
  8
CSLAYER1
  6
CONTINUOUS
 62
     3
100
AcDbVertex
100
AcDb2dVertex
 10
247.073847
 20
183.4987129999999
 30
0.0
  0
VERTEX
  5
183
330
150
100
AcDbEntity
  8
CSLAYER1
  6
CONTINUOUS
 62
     3
100
AcDbVertex
100
AcDb2dVertex
 10
247.210892
 20
183.841255
 30
0.0
  0
VERTEX
  5
184
330
150
100
AcDbEntity
  8
CSLAYER1
  6
CONTINUOUS
 62
     3
100
AcDbVertex
100
AcDb2dVertex
 10
247.318579
 20
184.194859
 30
0.0
  0
VERTEX
  5
185
330
150
100
AcDbEntity
  8
CSLAYER1
  6
CONTINUOUS
 62
     3
100
AcDbVertex
100
AcDb2dVertex
 10
247.3960899999999
 20
184.556835
 30
0.0
  0
VERTEX
  5
186
330
150
100
AcDbEntity
  8
CSLAYER1
  6
CONTINUOUS
 62
     3
100
AcDbVertex
100
AcDb2dVertex
 10
247.442833
 20
184.924428
 30
0.0
  0
VERTEX
  5
187
330
150
100
AcDbEntity
  8
CSLAYER1
  6
CONTINUOUS
 62
     3
100
AcDbVertex
100
AcDb2dVertex
 10
247.458454
 20
185.29484
 30
0.0
  0
VERTEX
  5
188
330
150
100
AcDbEntity
  8
CSLAYER1
  6
CONTINUOUS
 62
     3
100
AcDbVertex
100
AcDb2dVertex
 10
247.442833
 20
185.665252
 30
0.0
  0
VERTEX
  5
189
330
150
100
AcDbEntity
  8
CSLAYER1
  6
CONTINUOUS
 62
     3
100
AcDbVertex
100
AcDb2dVertex
 10
247.3960899999999
 20
186.032845
 30
0.0
  0
VERTEX
  5
18A
330
150
100
AcDbEntity
  8
CSLAYER1
  6
CONTINUOUS
 62
     3
100
AcDbVertex
100
AcDb2dVertex
 10
247.318579
 20
186.394821
 30
0.0
  0
VERTEX
  5
18B
330
150
100
AcDbEntity
  8
CSLAYER1
  6
CONTINUOUS
 62
     3
100
AcDbVertex
100
AcDb2dVertex
 10
247.210892
 20
186.7484259999999
 30
0.0
  0
VERTEX
  5
18C
330
150
100
AcDbEntity
  8
CSLAYER1
  6
CONTINUOUS
 62
     3
100
AcDbVertex
100
AcDb2dVertex
 10
247.073847
 20
187.090968
 30
0.0
  0
VERTEX
  5
18D
330
150
100
AcDbEntity
  8
CSLAYER1
  6
CONTINUOUS
 62
     3
100
AcDbVertex
100
AcDb2dVertex
 10
246.908488
 20
187.41984
 30
0.0
  0
VERTEX
  5
18E
330
150
100
AcDbEntity
  8
CSLAYER1
  6
CONTINUOUS
 62
     3
100
AcDbVertex
100
AcDb2dVertex
 10
246.7160729999999
 20
187.73254
 30
0.0
  0
VERTEX
  5
18F
330
150
100
AcDbEntity
  8
CSLAYER1
  6
CONTINUOUS
 62
     3
100
AcDbVertex
100
AcDb2dVertex
 10
246.498066
 20
188.0266879999999
 30
0.0
  0
VERTEX
  5
190
330
150
100
AcDbEntity
  8
CSLAYER1
  6
CONTINUOUS
 62
     3
100
AcDbVertex
100
AcDb2dVertex
 10
246.256127
 20
188.3000439999999
 30
0.0
  0
VERTEX
  5
191
330
150
100
AcDbEntity
  8
CSLAYER1
  6
CONTINUOUS
 62
     3
100
AcDbVertex
100
AcDb2dVertex
 10
245.992097
 20
188.550529
 30
0.0
  0
VERTEX
  5
192
330
150
100
AcDbEntity
  8
CSLAYER1
  6
CONTINUOUS
 62
     3
100
AcDbVertex
100
AcDb2dVertex
 10
245.7079849999999
 20
188.776236
 30
0.0
  0
VERTEX
  5
193
330
150
100
AcDbEntity
  8
CSLAYER1
  6
CONTINUOUS
 62
     3
100
AcDbVertex
100
AcDb2dVertex
 10
245.405954
 20
188.975448
 30
0.0
  0
VERTEX
  5
194
330
150
100
AcDbEntity
  8
CSLAYER1
  6
CONTINUOUS
 62
     3
100
AcDbVertex
100
AcDb2dVertex
 10
245.088302
 20
189.146648
 30
0.0
  0
VERTEX
  5
195
330
150
100
AcDbEntity
  8
CSLAYER1
  6
CONTINUOUS
 62
     3
100
AcDbVertex
100
AcDb2dVertex
 10
244.757447
 20
189.288534
 30
0.0
  0
VERTEX
  5
196
330
150
100
AcDbEntity
  8
CSLAYER1
  6
CONTINUOUS
 62
     3
100
AcDbVertex
100
AcDb2dVertex
 10
244.415906
 20
189.4000249999999
 30
0.0
  0
VERTEX
  5
197
330
150
100
AcDbEntity
  8
CSLAYER1
  6
CONTINUOUS
 62
     3
100
AcDbVertex
100
AcDb2dVertex
 10
244.0662799999999
 20
189.480273
 30
0.0
  0
VERTEX
  5
198
330
150
100
AcDbEntity
  8
CSLAYER1
  6
CONTINUOUS
 62
     3
100
AcDbVertex
100
AcDb2dVertex
 10
243.711228
 20
189.5286679999999
 30
0.0
  0
VERTEX
  5
199
330
150
100
AcDbEntity
  8
CSLAYER1
  6
CONTINUOUS
 62
     3
100
AcDbVertex
100
AcDb2dVertex
 10
243.353454
 20
189.54484
 30
0.0
  0
SEQEND
  5
19A
330
150
100
AcDbEntity
  8
CSLAYER1
 62
     3
  0
LINE
  5
19B
330
1E
100
AcDbEntity
  8
CSLAYER1
  6
CENTER
 62
     4
100
AcDbLine
 10
83.20371800000001
 20
82.162193
 30
0.0
 11
262.9620249999999
 21
82.162193
 31
0.0
  0
LINE
  5
19C
330
1E
100
AcDbEntity
  8
CSLAYER1
  6
CENTER
 62
     4
100
AcDbLine
 10
310.4088439999998
 20
144.055336
 30
0.0
 11
310.4088439999998
 21
214.0280209999999
 31
0.0
  0
LINE
  5
19D
330
1E
100
AcDbEntity
  8
CSLAYER1
  6
CENTER
 62
     4
100
AcDbLine
 10
310.4088439999998
 20
178.047907
 30
0.0
 11
277.350163
 21
186.905954
 31
0.0
  0
LINE
  5
19E
330
1E
100
AcDbEntity
  8
CSLAYER1
  6
CENTER
 62
     4
100
AcDbLine
 10
276.718292
 20
178.047907
 30
0.0
 11
341.795789
 21
178.047907
 31
0.0
  0
LINE
  5
19F
330
1E
100
AcDbEntity
  8
CSLAYER1
  6
CENTER
 62
     4
100
AcDbLine
 10
328.125995
 20
188.6150269999999
 30
0.0
 11
321.19736
 21
195.543662
 31
0.0
  0
CIRCLE
  5
1A0
330
1E
100
AcDbEntity
  8
CSLAYER1
  6
CONTINUOUS
 62
     4
100
AcDbCircle
 10
324.5509799999998
 20
192.1900429999999
 30
0.0
 40
3.0
  0
LINE
  5
1A1
330
1E
100
AcDbEntity
  8
CSLAYER1
  6
CENTER
 62
     4
100
AcDbLine
 10
320.85902
 20
188.498083
 30
0.0
 11
328.301485
 21
195.940548
 31
0.0
  0
CIRCLE
  5
1A2
330
1E
100
AcDbEntity
  8
CSLAYER1
  6
CONTINUOUS
 62
     4
100
AcDbCircle
 10
310.4088439999998
 20
178.047907
 30
0.0
 40
4.75
  0
LINE
  5
1A3
330
1E
100
AcDbEntity
  8
CSLAYER1
  6
CENTER
 62
     4
100
AcDbLine
 10
299.708718
 20
167.347781
 30
0.0
 11
292.560345
 21
160.199408
 31
0.0
  0
CIRCLE
  5
1A4
330
1E
100
AcDbEntity
  8
CSLAYER1
  6
CONTINUOUS
 62
     4
100
AcDbCircle
 10
296.266708
 20
163.9057709999999
 30
0.0
 40
3.0
  0
LINE
  5
1A5
330
1E
100
AcDbEntity
  8
CSLAYER1
  6
CENTER
 62
     4
100
AcDbLine
 10
299.4492149999998
 20
160.723264
 30
0.0
 11
292.588842
 21
167.5836379999998
 31
0.0
  0
LINE
  5
1A6
330
1E
100
AcDbEntity
  8
CSLAYER1
  6
CENTER
 62
     4
100
AcDbLine
 10
256.9514779999999
 20
178.047907
 30
0.0
 11
83.705537
 21
178.047907
 31
0.0
  0
LINE
  5
1A7
330
1E
100
AcDbEntity
  8
CSLAYER1
  6
CONTINUOUS
 62
     4
100
AcDbLine
 10
96.75345400000001
 20
158.347907
 30
0.0
 11
96.75345400000001
 21
154.147907
 31
0.0
  0
LINE
  5
1A8
330
1E
100
AcDbEntity
  8
CSLAYER1
  6
CONTINUOUS
 62
     4
100
AcDbLine
 10
96.353454
 20
154.547907
 30
0.0
 11
101.3534539999999
 21
154.547907
 31
0.0
  0
LINE
  5
1A9
330
1E
100
AcDbEntity
  8
CSLAYER1
  6
CONTINUOUS
 62
     4
100
AcDbLine
 10
100.953454
 20
154.147907
 30
0.0
 11
100.953454
 21
158.347907
 31
0.0
  0
LINE
  5
1AA
330
1E
100
AcDbEntity
  8
CSLAYER1
  6
CENTER
 62
     4
100
AcDbLine
 10
98.853454
 20
151.593429
 30
0.0
 11
98.853454
 21
198.5843199999999
 31
0.0
  0
LINE
  5
1AB
330
1E
100
AcDbEntity
  8
CSLAYER1
  6
CENTER
 62
     4
100
AcDbLine
 10
98.853454
 20
88.697966
 30
0.0
 11
98.853454
 21
75.879958
 31
0.0
  0
CIRCLE
  5
1AC
330
1E
100
AcDbEntity
  8
CSLAYER1
  6
CONTINUOUS
 62
     4
100
AcDbCircle
 10
98.853454
 20
82.162193
 30
0.0
 40
2.1
  0
LINE
  5
1AD
330
1E
100
AcDbEntity
  8
CSLAYER1
  6
CENTER
 62
     4
100
AcDbLine
 10
243.353454
 20
178.1862049999999
 30
0.0
 11
243.353454
 21
192.270585
 31
0.0
  0
LINE
  5
1AE
330
1E
100
AcDbEntity
  8
CSLAYER1
  6
CENTER
 62
     4
100
AcDbLine
 10
250.6216649999999
 20
185.29484
 30
0.0
 11
236.030248
 21
185.29484
 31
0.0
  0
POLYLINE
  5
1AF
330
1E
100
AcDbEntity
  8
CSLAYER1
  6
CONTINUOUS
 62
     4
100
AcDb2dPolyline
 66
     1
 10
0.0
 20
0.0
 30
0.0
  0
VERTEX
  5
1B0
330
1AF
100
AcDbEntity
  8
CSLAYER1
  6
CONTINUOUS
 62
     4
100
AcDbVertex
100
AcDb2dVertex
 10
243.353454
 20
190.0448399999999
 30
0.0
  0
VERTEX
  5
1B1
330
1AF
100
AcDbEntity
  8
CSLAYER1
  6
CONTINUOUS
 62
     4
100
AcDbVertex
100
AcDb2dVertex
 10
242.953845
 20
190.0267649999999
 30
0.0
  0
VERTEX
  5
1B2
330
1AF
100
AcDbEntity
  8
CSLAYER1
  6
CONTINUOUS
 62
     4
100
AcDbVertex
100
AcDb2dVertex
 10
242.557277
 20
189.972677
 30
0.0
  0
VERTEX
  5
1B3
330
1AF
100
AcDbEntity
  8
CSLAYER1
  6
CONTINUOUS
 62
     4
100
AcDbVertex
100
AcDb2dVertex
 10
242.166769
 20
189.8829879999999
 30
0.0
  0
VERTEX
  5
1B4
330
1AF
100
AcDbEntity
  8
CSLAYER1
  6
CONTINUOUS
 62
     4
100
AcDbVertex
100
AcDb2dVertex
 10
241.785292
 20
189.75838
 30
0.0
  0
VERTEX
  5
1B5
330
1AF
100
AcDbEntity
  8
CSLAYER1
  6
CONTINUOUS
 62
     4
100
AcDbVertex
100
AcDb2dVertex
 10
241.415749
 20
189.599802
 30
0.0
  0
VERTEX
  5
1B6
330
1AF
100
AcDbEntity
  8
CSLAYER1
  6
CONTINUOUS
 62
     4
100
AcDbVertex
100
AcDb2dVertex
 10
241.060954
 20
189.408461
 30
0.0
  0
VERTEX
  5
1B7
330
1AF
100
AcDbEntity
  8
CSLAYER1
  6
CONTINUOUS
 62
     4
100
AcDbVertex
100
AcDb2dVertex
 10
240.723606
 20
189.185812
 30
0.0
  0
VERTEX
  5
1B8
330
1AF
100
AcDbEntity
  8
CSLAYER1
  6
CONTINUOUS
 62
     4
100
AcDbVertex
100
AcDb2dVertex
 10
240.406273
 20
188.933551
 30
0.0
  0
VERTEX
  5
1B9
330
1AF
100
AcDbEntity
  8
CSLAYER1
  6
CONTINUOUS
 62
     4
100
AcDbVertex
100
AcDb2dVertex
 10
240.1113689999998
 20
188.6535969999999
 30
0.0
  0
VERTEX
  5
1BA
330
1AF
100
AcDbEntity
  8
CSLAYER1
  6
CONTINUOUS
 62
     4
100
AcDbVertex
100
AcDb2dVertex
 10
239.84114
 20
188.348081
 30
0.0
  0
VERTEX
  5
1BB
330
1AF
100
AcDbEntity
  8
CSLAYER1
  6
CONTINUOUS
 62
     4
100
AcDbVertex
100
AcDb2dVertex
 10
239.5976419999999
 20
188.019328
 30
0.0
  0
VERTEX
  5
1BC
330
1AF
100
AcDbEntity
  8
CSLAYER1
  6
CONTINUOUS
 62
     4
100
AcDbVertex
100
AcDb2dVertex
 10
239.382727
 20
187.66984
 30
0.0
  0
VERTEX
  5
1BD
330
1AF
100
AcDbEntity
  8
CSLAYER1
  6
CONTINUOUS
 62
     4
100
AcDbVertex
100
AcDb2dVertex
 10
239.1980329999999
 20
187.302277
 30
0.0
  0
VERTEX
  5
1BE
330
1AF
100
AcDbEntity
  8
CSLAYER1
  6
CONTINUOUS
 62
     4
100
AcDbVertex
100
AcDb2dVertex
 10
239.0449629999999
 20
186.919436
 30
0.0
  0
VERTEX
  5
1BF
330
1AF
100
AcDbEntity
  8
CSLAYER1
  6
CONTINUOUS
 62
     4
100
AcDbVertex
100
AcDb2dVertex
 10
238.9246839999999
 20
186.524231
 30
0.0
  0
VERTEX
  5
1C0
330
1AF
100
AcDbEntity
  8
CSLAYER1
  6
CONTINUOUS
 62
     4
100
AcDbVertex
100
AcDb2dVertex
 10
238.83811
 20
186.1196689999999
 30
0.0
  0
VERTEX
  5
1C1
330
1AF
100
AcDbEntity
  8
CSLAYER1
  6
CONTINUOUS
 62
     4
100
AcDbVertex
100
AcDb2dVertex
 10
238.7859009999999
 20
185.70883
 30
0.0
  0
VERTEX
  5
1C2
330
1AF
100
AcDbEntity
  8
CSLAYER1
  6
CONTINUOUS
 62
     4
100
AcDbVertex
100
AcDb2dVertex
 10
238.7684539999999
 20
185.29484
 30
0.0
  0
VERTEX
  5
1C3
330
1AF
100
AcDbEntity
  8
CSLAYER1
  6
CONTINUOUS
 62
     4
100
AcDbVertex
100
AcDb2dVertex
 10
238.7859009999999
 20
184.88085
 30
0.0
  0
VERTEX
  5
1C4
330
1AF
100
AcDbEntity
  8
CSLAYER1
  6
CONTINUOUS
 62
     4
100
AcDbVertex
100
AcDb2dVertex
 10
238.83811
 20
184.4700109999999
 30
0.0
  0
VERTEX
  5
1C5
330
1AF
100
AcDbEntity
  8
CSLAYER1
  6
CONTINUOUS
 62
     4
100
AcDbVertex
100
AcDb2dVertex
 10
238.9246839999999
 20
184.06545
 30
0.0
  0
VERTEX
  5
1C6
330
1AF
100
AcDbEntity
  8
CSLAYER1
  6
CONTINUOUS
 62
     4
100
AcDbVertex
100
AcDb2dVertex
 10
239.0449629999999
 20
183.6702449999999
 30
0.0
  0
VERTEX
  5
1C7
330
1AF
100
AcDbEntity
  8
CSLAYER1
  6
CONTINUOUS
 62
     4
100
AcDbVertex
100
AcDb2dVertex
 10
239.1980329999999
 20
183.287403
 30
0.0
  0
VERTEX
  5
1C8
330
1AF
100
AcDbEntity
  8
CSLAYER1
  6
CONTINUOUS
 62
     4
100
AcDbVertex
100
AcDb2dVertex
 10
239.382727
 20
182.9198399999999
 30
0.0
  0
VERTEX
  5
1C9
330
1AF
100
AcDbEntity
  8
CSLAYER1
  6
CONTINUOUS
 62
     4
100
AcDbVertex
100
AcDb2dVertex
 10
239.5976419999999
 20
182.570352
 30
0.0
  0
VERTEX
  5
1CA
330
1AF
100
AcDbEntity
  8
CSLAYER1
  6
CONTINUOUS
 62
     4
100
AcDbVertex
100
AcDb2dVertex
 10
239.84114
 20
182.241599
 30
0.0
  0
VERTEX
  5
1CB
330
1AF
100
AcDbEntity
  8
CSLAYER1
  6
CONTINUOUS
 62
     4
100
AcDbVertex
100
AcDb2dVertex
 10
240.1113689999998
 20
181.9360829999999
 30
0.0
  0
VERTEX
  5
1CC
330
1AF
100
AcDbEntity
  8
CSLAYER1
  6
CONTINUOUS
 62
     4
100
AcDbVertex
100
AcDb2dVertex
 10
240.406273
 20
181.6561289999999
 30
0.0
  0
VERTEX
  5
1CD
330
1AF
100
AcDbEntity
  8
CSLAYER1
  6
CONTINUOUS
 62
     4
100
AcDbVertex
100
AcDb2dVertex
 10
240.723606
 20
181.4038679999999
 30
0.0
  0
VERTEX
  5
1CE
330
1AF
100
AcDbEntity
  8
CSLAYER1
  6
CONTINUOUS
 62
     4
100
AcDbVertex
100
AcDb2dVertex
 10
241.060954
 20
181.18122
 30
0.0
  0
VERTEX
  5
1CF
330
1AF
100
AcDbEntity
  8
CSLAYER1
  6
CONTINUOUS
 62
     4
100
AcDbVertex
100
AcDb2dVertex
 10
241.415749
 20
180.989878
 30
0.0
  0
VERTEX
  5
1D0
330
1AF
100
AcDbEntity
  8
CSLAYER1
  6
CONTINUOUS
 62
     4
100
AcDbVertex
100
AcDb2dVertex
 10
241.785292
 20
180.8313
 30
0.0
  0
VERTEX
  5
1D1
330
1AF
100
AcDbEntity
  8
CSLAYER1
  6
CONTINUOUS
 62
     4
100
AcDbVertex
100
AcDb2dVertex
 10
242.166769
 20
180.7066929999999
 30
0.0
  0
VERTEX
  5
1D2
330
1AF
100
AcDbEntity
  8
CSLAYER1
  6
CONTINUOUS
 62
     4
100
AcDbVertex
100
AcDb2dVertex
 10
242.557277
 20
180.617003
 30
0.0
  0
VERTEX
  5
1D3
330
1AF
100
AcDbEntity
  8
CSLAYER1
  6
CONTINUOUS
 62
     4
100
AcDbVertex
100
AcDb2dVertex
 10
242.953845
 20
180.562915
 30
0.0
  0
VERTEX
  5
1D4
330
1AF
100
AcDbEntity
  8
CSLAYER1
  6
CONTINUOUS
 62
     4
100
AcDbVertex
100
AcDb2dVertex
 10
243.353454
 20
180.5448399999999
 30
0.0
  0
VERTEX
  5
1D5
330
1AF
100
AcDbEntity
  8
CSLAYER1
  6
CONTINUOUS
 62
     4
100
AcDbVertex
100
AcDb2dVertex
 10
243.7530629999999
 20
180.562915
 30
0.0
  0
VERTEX
  5
1D6
330
1AF
100
AcDbEntity
  8
CSLAYER1
  6
CONTINUOUS
 62
     4
100
AcDbVertex
100
AcDb2dVertex
 10
244.149631
 20
180.617003
 30
0.0
  0
VERTEX
  5
1D7
330
1AF
100
AcDbEntity
  8
CSLAYER1
  6
CONTINUOUS
 62
     4
100
AcDbVertex
100
AcDb2dVertex
 10
244.540139
 20
180.7066929999999
 30
0.0
  0
VERTEX
  5
1D8
330
1AF
100
AcDbEntity
  8
CSLAYER1
  6
CONTINUOUS
 62
     4
100
AcDbVertex
100
AcDb2dVertex
 10
244.921616
 20
180.8313
 30
0.0
  0
VERTEX
  5
1D9
330
1AF
100
AcDbEntity
  8
CSLAYER1
  6
CONTINUOUS
 62
     4
100
AcDbVertex
100
AcDb2dVertex
 10
245.2911589999999
 20
180.989878
 30
0.0
  0
VERTEX
  5
1DA
330
1AF
100
AcDbEntity
  8
CSLAYER1
  6
CONTINUOUS
 62
     4
100
AcDbVertex
100
AcDb2dVertex
 10
245.645954
 20
181.18122
 30
0.0
  0
VERTEX
  5
1DB
330
1AF
100
AcDbEntity
  8
CSLAYER1
  6
CONTINUOUS
 62
     4
100
AcDbVertex
100
AcDb2dVertex
 10
245.983302
 20
181.4038679999999
 30
0.0
  0
VERTEX
  5
1DC
330
1AF
100
AcDbEntity
  8
CSLAYER1
  6
CONTINUOUS
 62
     4
100
AcDbVertex
100
AcDb2dVertex
 10
246.300635
 20
181.6561289999999
 30
0.0
  0
VERTEX
  5
1DD
330
1AF
100
AcDbEntity
  8
CSLAYER1
  6
CONTINUOUS
 62
     4
100
AcDbVertex
100
AcDb2dVertex
 10
246.5955389999999
 20
181.9360829999999
 30
0.0
  0
VERTEX
  5
1DE
330
1AF
100
AcDbEntity
  8
CSLAYER1
  6
CONTINUOUS
 62
     4
100
AcDbVertex
100
AcDb2dVertex
 10
246.865768
 20
182.241599
 30
0.0
  0
VERTEX
  5
1DF
330
1AF
100
AcDbEntity
  8
CSLAYER1
  6
CONTINUOUS
 62
     4
100
AcDbVertex
100
AcDb2dVertex
 10
247.109266
 20
182.570352
 30
0.0
  0
VERTEX
  5
1E0
330
1AF
100
AcDbEntity
  8
CSLAYER1
  6
CONTINUOUS
 62
     4
100
AcDbVertex
100
AcDb2dVertex
 10
247.3241799999999
 20
182.9198399999999
 30
0.0
  0
VERTEX
  5
1E1
330
1AF
100
AcDbEntity
  8
CSLAYER1
  6
CONTINUOUS
 62
     4
100
AcDbVertex
100
AcDb2dVertex
 10
247.5088749999999
 20
183.287403
 30
0.0
  0
VERTEX
  5
1E2
330
1AF
100
AcDbEntity
  8
CSLAYER1
  6
CONTINUOUS
 62
     4
100
AcDbVertex
100
AcDb2dVertex
 10
247.661945
 20
183.6702449999999
 30
0.0
  0
VERTEX
  5
1E3
330
1AF
100
AcDbEntity
  8
CSLAYER1
  6
CONTINUOUS
 62
     4
100
AcDbVertex
100
AcDb2dVertex
 10
247.782224
 20
184.06545
 30
0.0
  0
VERTEX
  5
1E4
330
1AF
100
AcDbEntity
  8
CSLAYER1
  6
CONTINUOUS
 62
     4
100
AcDbVertex
100
AcDb2dVertex
 10
247.868798
 20
184.4700109999999
 30
0.0
  0
VERTEX
  5
1E5
330
1AF
100
AcDbEntity
  8
CSLAYER1
  6
CONTINUOUS
 62
     4
100
AcDbVertex
100
AcDb2dVertex
 10
247.9210069999999
 20
184.88085
 30
0.0
  0
VERTEX
  5
1E6
330
1AF
100
AcDbEntity
  8
CSLAYER1
  6
CONTINUOUS
 62
     4
100
AcDbVertex
100
AcDb2dVertex
 10
247.938454
 20
185.29484
 30
0.0
  0
VERTEX
  5
1E7
330
1AF
100
AcDbEntity
  8
CSLAYER1
  6
CONTINUOUS
 62
     4
100
AcDbVertex
100
AcDb2dVertex
 10
247.9210069999999
 20
185.70883
 30
0.0
  0
VERTEX
  5
1E8
330
1AF
100
AcDbEntity
  8
CSLAYER1
  6
CONTINUOUS
 62
     4
100
AcDbVertex
100
AcDb2dVertex
 10
247.868798
 20
186.1196689999999
 30
0.0
  0
VERTEX
  5
1E9
330
1AF
100
AcDbEntity
  8
CSLAYER1
  6
CONTINUOUS
 62
     4
100
AcDbVertex
100
AcDb2dVertex
 10
247.782224
 20
186.524231
 30
0.0
  0
VERTEX
  5
1EA
330
1AF
100
AcDbEntity
  8
CSLAYER1
  6
CONTINUOUS
 62
     4
100
AcDbVertex
100
AcDb2dVertex
 10
247.661945
 20
186.919436
 30
0.0
  0
VERTEX
  5
1EB
330
1AF
100
AcDbEntity
  8
CSLAYER1
  6
CONTINUOUS
 62
     4
100
AcDbVertex
100
AcDb2dVertex
 10
247.5088749999999
 20
187.302277
 30
0.0
  0
VERTEX
  5
1EC
330
1AF
100
AcDbEntity
  8
CSLAYER1
  6
CONTINUOUS
 62
     4
100
AcDbVertex
100
AcDb2dVertex
 10
247.3241799999999
 20
187.66984
 30
0.0
  0
VERTEX
  5
1ED
330
1AF
100
AcDbEntity
  8
CSLAYER1
  6
CONTINUOUS
 62
     4
100
AcDbVertex
100
AcDb2dVertex
 10
247.109266
 20
188.019328
 30
0.0
  0
VERTEX
  5
1EE
330
1AF
100
AcDbEntity
  8
CSLAYER1
  6
CONTINUOUS
 62
     4
100
AcDbVertex
100
AcDb2dVertex
 10
246.865768
 20
188.348081
 30
0.0
  0
VERTEX
  5
1EF
330
1AF
100
AcDbEntity
  8
CSLAYER1
  6
CONTINUOUS
 62
     4
100
AcDbVertex
100
AcDb2dVertex
 10
246.5955389999999
 20
188.6535969999999
 30
0.0
  0
VERTEX
  5
1F0
330
1AF
100
AcDbEntity
  8
CSLAYER1
  6
CONTINUOUS
 62
     4
100
AcDbVertex
100
AcDb2dVertex
 10
246.300635
 20
188.933551
 30
0.0
  0
VERTEX
  5
1F1
330
1AF
100
AcDbEntity
  8
CSLAYER1
  6
CONTINUOUS
 62
     4
100
AcDbVertex
100
AcDb2dVertex
 10
245.983302
 20
189.185812
 30
0.0
  0
VERTEX
  5
1F2
330
1AF
100
AcDbEntity
  8
CSLAYER1
  6
CONTINUOUS
 62
     4
100
AcDbVertex
100
AcDb2dVertex
 10
245.645954
 20
189.408461
 30
0.0
  0
VERTEX
  5
1F3
330
1AF
100
AcDbEntity
  8
CSLAYER1
  6
CONTINUOUS
 62
     4
100
AcDbVertex
100
AcDb2dVertex
 10
245.2911589999999
 20
189.599802
 30
0.0
  0
VERTEX
  5
1F4
330
1AF
100
AcDbEntity
  8
CSLAYER1
  6
CONTINUOUS
 62
     4
100
AcDbVertex
100
AcDb2dVertex
 10
244.921616
 20
189.75838
 30
0.0
  0
VERTEX
  5
1F5
330
1AF
100
AcDbEntity
  8
CSLAYER1
  6
CONTINUOUS
 62
     4
100
AcDbVertex
100
AcDb2dVertex
 10
244.540139
 20
189.8829879999999
 30
0.0
  0
VERTEX
  5
1F6
330
1AF
100
AcDbEntity
  8
CSLAYER1
  6
CONTINUOUS
 62
     4
100
AcDbVertex
100
AcDb2dVertex
 10
244.149631
 20
189.972677
 30
0.0
  0
VERTEX
  5
1F7
330
1AF
100
AcDbEntity
  8
CSLAYER1
  6
CONTINUOUS
 62
     4
100
AcDbVertex
100
AcDb2dVertex
 10
243.7530629999999
 20
190.0267649999999
 30
0.0
  0
VERTEX
  5
1F8
330
1AF
100
AcDbEntity
  8
CSLAYER1
  6
CONTINUOUS
 62
     4
100
AcDbVertex
100
AcDb2dVertex
 10
243.353454
 20
190.0448399999999
 30
0.0
  0
SEQEND
  5
1F9
330
1AF
100
AcDbEntity
  8
CSLAYER1
 62
     4
  0
DIMENSION
  5
1FA
330
1E
100
AcDbEntity
  8
CSLAYER1
 62
     4
100
AcDbDimension
  2
*D0
 10
347.3964859999998
 20
201.047907
 30
0.0
 11
346.8964839999998
 21
178.0479129999999
 31
0.0
 70
     1
100
AcDbAlignedDimension
 13
326.377563
 23
155.047907
 33
0.0
 14
326.377563
 24
201.047907
 34
0.0
  0
INSERT
  5
1FB
330
1E
100
AcDbEntity
  8
CSLAYER1
100
AcDbBlockReference
  2
FXDIM0000
 10
0.0
 20
0.0
 30
0.0
  0
INSERT
  5
1FC
330
1E
100
AcDbEntity
  8
CSLAYER1
100
AcDbBlockReference
  2
FXDIM0001
 10
0.0
 20
0.0
 30
0.0
  0
DIMENSION
  5
1FD
330
1E
100
AcDbEntity
  8
CSLAYER1
 62
     4
100
AcDbDimension
  2
*D3
 10
294.3089159999999
 20
222.432106
 30
0.0
 11
279.813263
 21
208.6435239999999
 31
0.0
 70
     1
100
AcDbAlignedDimension
 13
296.266708
 23
163.9057709999999
 33
0.0
 14
324.5509799999998
 24
192.1900429999999
 34
0.0
  0
INSERT
  5
1FF
330
1E
100
AcDbEntity
  8
CSLAYER1
100
AcDbBlockReference
  2
FXDIM0002
 10
0.0
 20
0.0
 30
0.0
  0
DIMENSION
  5
200
330
1E
100
AcDbEntity
  8
CSLAYER1
 62
     4
100
AcDbDimension
  2
*D6
 10
233.353454
 20
233.8946259999999
 30
0.0
 11
160.8534549999999
 21
234.3946229999999
 31
0.0
100
AcDbAlignedDimension
 13
88.35345399999999
 23
189.0479069999999
 33
0.0
 14
233.353454
 24
206.0479069999999
 34
0.0
100
AcDbRotatedDimension
  0
DIMENSION
  5
201
330
1E
100
AcDbEntity
  8
CSLAYER1
 62
     4
100
AcDbDimension
  2
*D7
 10
253.353454
 20
233.8946259999999
 30
0.0
 11
243.3534549999999
 21
234.3946229999999
 31
0.0
100
AcDbAlignedDimension
 13
233.353454
 23
206.0479069999999
 33
0.0
 14
253.353454
 24
199.547907
 34
0.0
100
AcDbRotatedDimension
  0
DIMENSION
  5
202
330
1E
100
AcDbEntity
  8
CSLAYER1
 62
     4
100
AcDbDimension
  2
*D8
 10
98.853454
 20
227.894626
 30
0.0
 11
95.194977
 21
229.0457759999999
 31
0.0
100
AcDbAlignedDimension
 13
88.35345399999999
 23
189.0479069999999
 33
0.0
 14
98.853454
 24
198.5843199999999
 34
0.0
100
AcDbRotatedDimension
  0
DIMENSION
  5
203
330
1E
100
AcDbEntity
  8
CSLAYER1
 62
     4
100
AcDbDimension
  2
*D9
 10
233.353454
 20
227.894626
 30
0.0
 11
180.353455
 21
228.394623
 31
0.0
100
AcDbAlignedDimension
 13
127.3534539999999
 23
206.0479069999999
 33
0.0
 14
233.353454
 24
207.047907
 34
0.0
100
AcDbRotatedDimension
  0
DIMENSION
  5
204
330
1E
100
AcDbEntity
  8
CSLAYER1
 62
     4
100
AcDbDimension
  2
*D10
 10
68.18839200000001
 20
193.047907
 30
0.0
 11
67.688393
 21
178.0479129999999
 31
0.0
 70
     1
100
AcDbAlignedDimension
 13
92.35345399999999
 23
163.0479069999998
 33
0.0
 14
92.35345399999999
 24
193.047907
 34
0.0
  0
DIMENSION
  5
205
330
1E
100
AcDbEntity
  8
CSLAYER1
 62
     4
100
AcDbDimension
  2
*D11
 10
74.188392
 20
186.547907
 30
0.0
 11
73.68839300000002
 21
178.0479129999999
 31
0.0
 70
     1
100
AcDbAlignedDimension
 13
88.35345399999999
 23
169.547907
 33
0.0
 14
88.35345399999999
 24
186.547907
 34
0.0
  0
DIMENSION
  5
206
330
1E
100
AcDbEntity
  8
CSLAYER1
 62
     4
100
AcDbDimension
  2
*D12
 10
74.188392
 20
110.1621929999998
 30
0.0
 11
73.68839300000002
 21
82.162193
 31
0.0
 70
     1
100
AcDbAlignedDimension
 13
127.3534539999999
 23
54.162193
 33
0.0
 14
127.3534539999999
 24
110.1621929999998
 34
0.0
  0
DIMENSION
  5
207
330
1E
100
AcDbEntity
  8
CSLAYER1
 62
     4
100
AcDbDimension
  2
*D13
 10
253.353454
 20
133.044041
 30
0.0
 11
170.8534549999999
 21
133.544037
 31
0.0
100
AcDbAlignedDimension
 13
88.35345399999999
 23
91.97661999999999
 33
0.0
 14
253.353454
 24
108.6621929999999
 34
0.0
100
AcDbRotatedDimension
  0
DIMENSION
  5
208
330
1E
100
AcDbEntity
  8
CSLAYER1
 62
     4
100
AcDbDimension
  2
*D14
 10
98.853454
 20
127.0440409999999
 30
0.0
 11
95.377304
 21
128.248337
 31
0.0
100
AcDbAlignedDimension
 13
88.35345399999999
 23
91.97661999999999
 33
0.0
 14
98.853454
 24
88.697966
 34
0.0
100
AcDbRotatedDimension
  0
INSERT
  5
209
330
1E
100
AcDbEntity
  8
CSLAYER1
100
AcDbBlockReference
  2
FXDIM0003
 10
0.0
 20
0.0
 30
0.0
  0
DIMENSION
  5
20A
330
1E
100
AcDbEntity
  8
CSLAYER1
 62
     4
100
AcDbDimension
  2
*D16
 10
110.061837
 20
145.047907
 30
0.0
 11
115.139992
 21
152.495209
 31
0.0
 70
     4
100
AcDbRadialDimension
 15
121.0118229999999
 25
159.334187
 35
0.0
 40
0.0
  0
LINE
  5
20B
330
1E
100
AcDbEntity
  8
CSLAYER1
  6
DOT
 62
     3
100
AcDbLine
 10
10.0
 20
3.0
 30
0.0
 11
395.0
 21
3.0
 31
0.0
  0
LINE
  5
20C
330
1E
100
AcDbEntity
  8
CSLAYER1
  6
DOT
 62
     3
100
AcDbLine
 10
395.0
 20
3.0
 30
0.0
 11
395.0
 21
275.0
 31
0.0
  0
LINE
  5
20D
330
1E
100
AcDbEntity
  8
CSLAYER1
  6
DOT
 62
     3
100
AcDbLine
 10
395.0
 20
275.0
 30
0.0
 11
10.0
 21
275.0
 31
0.0
  0
LINE
  5
20E
330
1E
100
AcDbEntity
  8
CSLAYER1
  6
DOT
 62
     3
100
AcDbLine
 10
10.0
 20
275.0
 30
0.0
 11
10.0
 21
3.0
 31
0.0
  0
ENDSEC
  0
SECTION
  2
OBJECTS
  0
DICTIONARY
  5
C
330
0
100
AcDbDictionary
  3
ACAD_GROUP
350
D
  3
ACAD_LAYOUT
350
19
  3
ACAD_MLINESTYLE
350
16
  3
ACAD_PLOTSETTINGS
350
18
1001
ACAD
1000
TREAT_AS_HARD
1070
     0
1000
TREAT_AS_HARD
1070
     0
  0
DICTIONARY
  5
218
330
1E
100
AcDbDictionary
  3
ACAD_LAYOUTSELFREF
350
237
1001
ACAD
1000
TREAT_AS_HARD
1070
     0
  0
DICTIONARY
  5
216
330
1A
100
AcDbDictionary
  3
ACAD_LAYOUTSELFREF
350
236
1001
ACAD
1000
TREAT_AS_HARD
1070
     0
  0
DICTIONARY
  5
D
102
{ACAD_REACTORS
330
C
102
}
330
C
100
AcDbDictionary
1001
ACAD
1000
TREAT_AS_HARD
1070
     0
1000
TREAT_AS_HARD
1070
     0
  0
DICTIONARY
  5
19
102
{ACAD_REACTORS
330
C
102
}
330
C
100
AcDbDictionary
1001
ACAD
1000
TREAT_AS_HARD
1070
     0
1000
TREAT_AS_HARD
1070
     0
  0
DICTIONARY
  5
16
102
{ACAD_REACTORS
330
C
102
}
330
C
100
AcDbDictionary
  3
STANDARD
350
17
1001
ACAD
1000
TREAT_AS_HARD
1070
     0
1000
TREAT_AS_HARD
1070
     0
  0
DICTIONARY
  5
18
102
{ACAD_REACTORS
330
C
102
}
330
C
100
AcDbDictionary
1001
ACAD
1000
TREAT_AS_HARD
1070
     0
1000
TREAT_AS_HARD
1070
     0
  0
XRECORD
  5
237
102
{ACAD_REACTORS
330
218
102
}
330
218
100
AcDbXrecord
340
1E
  0
XRECORD
  5
236
102
{ACAD_REACTORS
330
216
102
}
330
216
100
AcDbXrecord
340
1A
  0
MLINESTYLE
  5
17
102
{ACAD_REACTORS
330
16
102
}
330
16
100
AcDbMlineStyle
  2
STANDARD
 70
     0
  3

 62
   256
 51
90.0
 52
90.0
 71
     2
 49
0.5
 62
   256
  6
BYLAYER
 49
-0.5
 62
   256
  6
BYLAYER
  0
ENDSEC
  0
EOF
