  0
SECTION
  2
HEADER
  9
$ACADVER
  1
AC1012
  9
$DWGCODEPAGE
  3
dos932
  9
$INSBASE
 10
0.0
 20
0.0
 30
0.0
  9
$EXTMIN
 10
10.0
 20
3.0
 30
0.0
  9
$EXTMAX
 10
395.0
 20
275.0
 30
0.0
  9
$LIMMIN
 10
0.0
 20
0.0
  9
$LIMMAX
 10
420.0
 20
297.0
  9
$ORTHOMODE
 70
     0
  9
$REGENMODE
 70
     1
  9
$FILLMODE
 70
     1
  9
$QTEXTMODE
 70
     0
  9
$MIRRTEXT
 70
     1
  9
$DRAGMODE
 70
     2
  9
$LTSCALE
 40
15.0
  9
$OSMODE
 70
    37
  9
$ATTMODE
 70
     1
  9
$TEXTSIZE
 40
0.2
  9
$TRACEWID
 40
0.05
  9
$TEXTSTYLE
  7
GOTHIC
  9
$CLAYER
  8
CSLAYER17
  9
$CELTYPE
  6
BYLAYER
  9
$CECOLOR
 62
   256
  9
$CELTSCALE
 40
1.0
  9
$DELOBJ
 70
     1
  9
$DISPSILH
 70
     0
  9
$DIMSCALE
 40
1.0
  9
$DIMASZ
 40
0.18
  9
$DIMEXO
 40
0.0625
  9
$DIMDLI
 40
0.38
  9
$DIMRND
 40
0.0
  9
$DIMDLE
 40
0.0
  9
$DIMEXE
 40
0.18
  9
$DIMTP
 40
0.0
  9
$DIMTM
 40
0.0
  9
$DIMTXT
 40
0.18
  9
$DIMCEN
 40
0.09
  9
$DIMTSZ
 40
0.0
  9
$DIMTOL
 70
     0
  9
$DIMLIM
 70
     0
  9
$DIMTIH
 70
     1
  9
$DIMTOH
 70
     1
  9
$DIMSE1
 70
     0
  9
$DIMSE2
 70
     0
  9
$DIMTAD
 70
     0
  9
$DIMZIN
 70
     0
  9
$DIMBLK
  1

  9
$DIMASO
 70
     1
  9
$DIMSHO
 70
     1
  9
$DIMPOST
  1

  9
$DIMAPOST
  1

  9
$DIMALT
 70
     0
  9
$DIMALTD
 70
     2
  9
$DIMALTF
 40
25.4
  9
$DIMLFAC
 40
1.0
  9
$DIMTOFL
 70
     0
  9
$DIMTVP
 40
0.0
  9
$DIMTIX
 70
     0
  9
$DIMSOXD
 70
     0
  9
$DIMSAH
 70
     0
  9
$DIMBLK1
  1

  9
$DIMBLK2
  1

  9
$DIMSTYLE
  2
STANDARD
  9
$DIMCLRD
 70
     0
  9
$DIMCLRE
 70
     0
  9
$DIMCLRT
 70
     0
  9
$DIMTFAC
 40
1.0
  9
$DIMGAP
 40
0.09
  9
$DIMJUST
 70
     0
  9
$DIMSD1
 70
     0
  9
$DIMSD2
 70
     0
  9
$DIMTOLJ
 70
     1
  9
$DIMTZIN
 70
     0
  9
$DIMALTZ
 70
     0
  9
$DIMALTTZ
 70
     0
  9
$DIMFIT
 70
     3
  9
$DIMUPT
 70
     0
  9
$DIMUNIT
 70
     2
  9
$DIMDEC
 70
     4
  9
$DIMTDEC
 70
     4
  9
$DIMALTU
 70
     2
  9
$DIMALTTD
 70
     2
  9
$DIMTXSTY
  7
STANDARD
  9
$DIMAUNIT
 70
     0
  9
$LUNITS
 70
     2
  9
$LUPREC
 70
     4
  9
$SKETCHINC
 40
0.1
  9
$FILLETRAD
 40
0.0
  9
$AUNITS
 70
     0
  9
$AUPREC
 70
     0
  9
$MENU
  1
ACAD
  9
$ELEVATION
 40
0.0
  9
$PELEVATION
 40
0.0
  9
$THICKNESS
 40
0.0
  9
$LIMCHECK
 70
     0
  9
$BLIPMODE
 70
     1
  9
$CHAMFERA
 40
0.0
  9
$CHAMFERB
 40
0.0
  9
$CHAMFERC
 40
0.0
  9
$CHAMFERD
 40
0.0
  9
$SKPOLY
 70
     0
  9
$TDCREATE
 40
2453483.000000000
  9
$TDUPDATE
 40
2453483.000000000
  9
$TDINDWG
 40
0.0000048727
  9
$TDUSRTIMER
 40
0.0000047569
  9
$USRTIMER
 70
     1
  9
$ANGBASE
 50
0.0
  9
$ANGDIR
 70
     0
  9
$PDMODE
 70
     0
  9
$PDSIZE
 40
0.0
  9
$PLINEWID
 40
0.0
  9
$COORDS
 70
     2
  9
$SPLFRAME
 70
     0
  9
$SPLINETYPE
 70
     6
  9
$SPLINESEGS
 70
     8
  9
$ATTDIA
 70
     0
  9
$ATTREQ
 70
     1
  9
$HANDLING
 70
 22529
  9
$HANDSEED
  5
43D
  9
$SURFTAB1
 70
     6
  9
$SURFTAB2
 70
     6
  9
$SURFTYPE
 70
     6
  9
$SURFU
 70
     6
  9
$SURFV
 70
     6
  9
$UCSNAME
  2

  9
$UCSORG
 10
0.0
 20
0.0
 30
0.0
  9
$UCSXDIR
 10
1.0
 20
0.0
 30
0.0
  9
$UCSYDIR
 10
0.0
 20
1.0
 30
0.0
  9
$PUCSNAME
  2

  9
$PUCSORG
 10
0.0
 20
0.0
 30
0.0
  9
$PUCSXDIR
 10
1.0
 20
0.0
 30
0.0
  9
$PUCSYDIR
 10
0.0
 20
1.0
 30
0.0
  9
$USERI1
 70
     0
  9
$USERI2
 70
     0
  9
$USERI3
 70
     0
  9
$USERI4
 70
     0
  9
$USERI5
 70
     0
  9
$USERR1
 40
0.0
  9
$USERR2
 40
0.0
  9
$USERR3
 40
0.0
  9
$USERR4
 40
0.0
  9
$USERR5
 40
0.0
  9
$WORLDVIEW
 70
     1
  9
$SHADEDGE
 70
     3
  9
$SHADEDIF
 70
    70
  9
$TILEMODE
 70
     1
  9
$MAXACTVP
 70
    64
  9
$PINSBASE
 10
0.0
 20
0.0
 30
0.0
  9
$PLIMCHECK
 70
     0
  9
$PEXTMIN
 10
1.000000000000000E+20
 20
1.000000000000000E+20
 30
1.000000000000000E+20
  9
$PEXTMAX
 10
-1.000000000000000E+20
 20
-1.000000000000000E+20
 30
-1.000000000000000E+20
  9
$PLIMMIN
 10
0.0
 20
0.0
  9
$PLIMMAX
 10
12.0
 20
9.0
  9
$UNITMODE
 70
     0
  9
$VISRETAIN
 70
     1
  9
$PLINEGEN
 70
     0
  9
$PSLTSCALE
 70
     1
  9
$TREEDEPTH
 70
  3020
  9
$PICKSTYLE
 70
     3
  9
$CMLSTYLE
  2
STANDARD
  9
$CMLJUST
 70
     0
  9
$CMLSCALE
 40
1.0
  9
$SAVEIMAGES
 70
     1
  0
ENDSEC
  0
SECTION
  2
CLASSES
  0
CLASS
  1
ACDBDICTIONARYWDFLT
  2
AcDbDictionaryWithDefault
  3
AutoCAD 2000
 90
    32768
280
     0
281
     0
  0
CLASS
  1
ACDBPLACEHOLDER
  2
AcDbPlaceHolder
  3
AutoCAD 2000
 90
    32768
280
     0
281
     0
  0
CLASS
  1
LAYOUT
  2
AcDbLayout
  3
AutoCAD 2000
 90
    32768
280
     0
281
     0
  0
CLASS
  1
DICTIONARYVAR
  2
AcDbDictionaryVar
  3
AutoCAD 2000
 90
    32768
280
     0
281
     0
  0
CLASS
  1
LONG_TRANSACTION
  2
AcDbLongTransaction
  3
AutoCAD 2000
 90
    32768
280
     0
281
     0
  0
CLASS
  1
LWPOLYLINE
  2
AcDbPolyline
  3
AutoCAD 2000
 90
    32768
280
     0
281
     1
  0
CLASS
  1
HATCH
  2
AcDbHatch
  3
AutoCAD 2000
 90
    32768
280
     0
281
     1
  0
CLASS
  1
XRECORD
  2
AcDbXrecord
  3
AutoCAD 2000
 90
    32768
280
     0
281
     0
  0
ENDSEC
  0
SECTION
  2
TABLES
  0
TABLE
  2
VPORT
  5
8
330
0
100
AcDbSymbolTable
 70
     2
  0
VPORT
  5
438
330
8
100
AcDbSymbolTableRecord
100
AcDbViewportTableRecord
  2
*ACTIVE
 70
     0
 10
0.0
 20
0.0
 11
1.0
 21
1.0
 12
202.5018320238472
 22
138.9944235930386
 13
0.0
 23
0.0
 14
1.0
 24
1.0
 15
0.0
 25
0.0
 16
0.0
 26
0.0
 36
1.0
 17
0.0
 27
0.0
 37
0.0
 40
274.1445922558548
 41
1.637191157347204
 42
50.0
 43
0.0
 44
0.0
 50
0.0
 51
0.0
 71
     0
 72
   100
 73
     1
 74
     1
 75
     0
 76
     0
 77
     0
 78
     0
  0
ENDTAB
  0
TABLE
  2
LTYPE
  5
5
330
0
100
AcDbSymbolTable
 70
     9
  0
LTYPE
  5
13
330
5
100
AcDbSymbolTableRecord
100
AcDbLinetypeTableRecord
  2
BYBLOCK
 70
     0
  3

 72
    65
 73
     0
 40
0.0
  0
LTYPE
  5
14
330
5
100
AcDbSymbolTableRecord
100
AcDbLinetypeTableRecord
  2
BYLAYER
 70
     0
  3

 72
    65
 73
     0
 40
0.0
  0
LTYPE
  5
15
330
5
100
AcDbSymbolTableRecord
100
AcDbLinetypeTableRecord
  2
CONTINUOUS
 70
     0
  3
Solid line
 72
    65
 73
     0
 40
0.0
  0
LTYPE
  5
23
330
5
100
AcDbSymbolTableRecord
100
AcDbLinetypeTableRecord
  2
DASHED
 70
     0
  3
__ __ __ __ __ __ __ __ __ __ __ __ __ __ __
 72
    65
 73
     2
 40
0.75
 49
0.5
 74
     0
 49
-0.25
 74
     0
  0
LTYPE
  5
25
330
5
100
AcDbSymbolTableRecord
100
AcDbLinetypeTableRecord
  2
DOT
 70
     0
  3
...............................................
 72
    65
 73
     2
 40
0.25
 49
0.0
 74
     0
 49
-0.25
 74
     0
  0
LTYPE
  5
28
330
5
100
AcDbSymbolTableRecord
100
AcDbLinetypeTableRecord
  2
CENTER
 70
     0
  3
____ _ ____ _ ____ _ ____ _ ____ _ ____ _ ____ 
 72
    65
 73
     4
 40
2.0
 49
1.25
 74
     0
 49
-0.25
 74
     0
 49
0.25
 74
     0
 49
-0.25
 74
     0
  0
ENDTAB
  0
TABLE
  2
LAYER
  5
2
330
0
100
AcDbSymbolTable
 70
    18
  0
LAYER
  5
10
330
2
100
AcDbSymbolTableRecord
100
AcDbLayerTableRecord
  2
0
 70
     0
 62
     7
  6
CONTINUOUS
  0
LAYER
  5
22
330
2
100
AcDbSymbolTableRecord
100
AcDbLayerTableRecord
  2
CSLAYER17
 70
     0
 62
     7
  6
CONTINUOUS
  0
LAYER
  5
2B
330
2
100
AcDbSymbolTableRecord
100
AcDbLayerTableRecord
  2
CSLAYER1
 70
     0
 62
     7
  6
CONTINUOUS
  0
ENDTAB
  0
TABLE
  2
STYLE
  5
3
330
0
100
AcDbSymbolTable
 70
     3
  0
STYLE
  5
11
330
3
100
AcDbSymbolTableRecord
100
AcDbTextStyleTableRecord
  2
STANDARD
 70
     0
 40
0.0
 41
1.0
 50
0.0
 71
     0
 42
0.2
  3
txt
  4
extfont.shx
  0
STYLE
  5
3B
330
3
100
AcDbSymbolTableRecord
100
AcDbTextStyleTableRecord
  2
FX_FONT
 70
     0
 40
1.0
 41
1.0
 50
0.0
 71
     0
 42
1.0
  3
monotxt
  4
bigfont
  0
STYLE
  5
435
330
3
100
AcDbSymbolTableRecord
100
AcDbTextStyleTableRecord
  2
GOTHIC
 70
     0
 40
0.0
 41
1.0
 50
0.0
 71
     0
 42
0.2
  3
txt.shx
  4
extfont.shx
  0
ENDTAB
  0
TABLE
  2
VIEW
  5
6
330
0
100
AcDbSymbolTable
 70
     0
  0
ENDTAB
  0
TABLE
  2
UCS
  5
7
330
0
100
AcDbSymbolTable
 70
     0
  0
ENDTAB
  0
TABLE
  2
APPID
  5
9
330
0
100
AcDbSymbolTable
 70
     1
  0
APPID
  5
12
330
9
100
AcDbSymbolTableRecord
100
AcDbRegAppTableRecord
  2
ACAD
 70
     0
  0
ENDTAB
  0
TABLE
  2
DIMSTYLE
  5
A
330
0
100
AcDbSymbolTable
 70
     1
  0
DIMSTYLE
105
432
330
A
100
AcDbSymbolTableRecord
100
AcDbDimStyleTableRecord
  2
STANDARD
 70
     0
  3

  4

  5

  6

  7

 40
1.0
 41
0.18
 42
0.0625
 43
0.38
 44
0.18
 45
0.0
 46
0.0
 47
0.0
 48
0.0
140
0.18
141
0.09
142
0.0
143
25.4
144
1.0
145
0.0
146
1.0
147
0.09
 71
     0
 72
     0
 73
     1
 74
     1
 75
     0
 76
     0
 77
     0
 78
     0
170
     0
171
     2
172
     0
173
     0
174
     0
175
     0
176
     0
177
     0
178
     0
270
     2
271
     4
272
     4
273
     2
274
     2
340
11
275
     0
280
     0
281
     0
282
     0
283
     1
284
     0
285
     0
286
     0
287
     3
288
     0
  0
ENDTAB
  0
TABLE
  2
BLOCK_RECORD
  5
1
330
0
100
AcDbSymbolTable
 70
    27
  0
BLOCK_RECORD
  5
1E
102
{ACAD_XDICTIONARY
360
43B
102
}
330
1
100
AcDbSymbolTableRecord
100
AcDbBlockTableRecord
  2
*MODEL_SPACE
  0
BLOCK_RECORD
  5
1A
102
{ACAD_XDICTIONARY
360
439
102
}
330
1
100
AcDbSymbolTableRecord
100
AcDbBlockTableRecord
  2
*PAPER_SPACE
  0
BLOCK_RECORD
  5
40
330
1
100
AcDbSymbolTableRecord
100
AcDbBlockTableRecord
  2
FXDIM0000
  0
BLOCK_RECORD
  5
48
330
1
100
AcDbSymbolTableRecord
100
AcDbBlockTableRecord
  2
*D1
  0
BLOCK_RECORD
  5
51
330
1
100
AcDbSymbolTableRecord
100
AcDbBlockTableRecord
  2
*D2
  0
BLOCK_RECORD
  5
5B
330
1
100
AcDbSymbolTableRecord
100
AcDbBlockTableRecord
  2
*D3
  0
BLOCK_RECORD
  5
64
330
1
100
AcDbSymbolTableRecord
100
AcDbBlockTableRecord
  2
*D4
  0
BLOCK_RECORD
  5
6F
330
1
100
AcDbSymbolTableRecord
100
AcDbBlockTableRecord
  2
*D5
  0
BLOCK_RECORD
  5
77
330
1
100
AcDbSymbolTableRecord
100
AcDbBlockTableRecord
  2
*D6
  0
BLOCK_RECORD
  5
81
330
1
100
AcDbSymbolTableRecord
100
AcDbBlockTableRecord
  2
*D7
  0
BLOCK_RECORD
  5
8B
330
1
100
AcDbSymbolTableRecord
100
AcDbBlockTableRecord
  2
*D8
  0
BLOCK_RECORD
  5
97
330
1
100
AcDbSymbolTableRecord
100
AcDbBlockTableRecord
  2
*D9
  0
BLOCK_RECORD
  5
A2
330
1
100
AcDbSymbolTableRecord
100
AcDbBlockTableRecord
  2
*D10
  0
BLOCK_RECORD
  5
AD
330
1
100
AcDbSymbolTableRecord
100
AcDbBlockTableRecord
  2
FXDIM0001
  0
BLOCK_RECORD
  5
B5
330
1
100
AcDbSymbolTableRecord
100
AcDbBlockTableRecord
  2
*D12
  0
BLOCK_RECORD
  5
BF
330
1
100
AcDbSymbolTableRecord
100
AcDbBlockTableRecord
  2
*D13
  0
BLOCK_RECORD
  5
CA
330
1
100
AcDbSymbolTableRecord
100
AcDbBlockTableRecord
  2
*D14
  0
BLOCK_RECORD
  5
D5
330
1
100
AcDbSymbolTableRecord
100
AcDbBlockTableRecord
  2
*D15
  0
BLOCK_RECORD
  5
E0
330
1
100
AcDbSymbolTableRecord
100
AcDbBlockTableRecord
  2
*D16
  0
BLOCK_RECORD
  5
EA
330
1
100
AcDbSymbolTableRecord
100
AcDbBlockTableRecord
  2
*D17
  0
BLOCK_RECORD
  5
F2
330
1
100
AcDbSymbolTableRecord
100
AcDbBlockTableRecord
  2
*D18
  0
BLOCK_RECORD
  5
FB
330
1
100
AcDbSymbolTableRecord
100
AcDbBlockTableRecord
  2
*D19
  0
BLOCK_RECORD
  5
106
330
1
100
AcDbSymbolTableRecord
100
AcDbBlockTableRecord
  2
*D20
  0
BLOCK_RECORD
  5
111
330
1
100
AcDbSymbolTableRecord
100
AcDbBlockTableRecord
  2
*D21
  0
BLOCK_RECORD
  5
11C
330
1
100
AcDbSymbolTableRecord
100
AcDbBlockTableRecord
  2
*D22
  0
BLOCK_RECORD
  5
127
330
1
100
AcDbSymbolTableRecord
100
AcDbBlockTableRecord
  2
*D23
  0
BLOCK_RECORD
  5
132
330
1
100
AcDbSymbolTableRecord
100
AcDbBlockTableRecord
  2
*D24
  0
BLOCK_RECORD
  5
13B
330
1
100
AcDbSymbolTableRecord
100
AcDbBlockTableRecord
  2
*D25
  0
BLOCK_RECORD
  5
148
330
1
100
AcDbSymbolTableRecord
100
AcDbBlockTableRecord
  2
FXDIM0002
  0
ENDTAB
  0
ENDSEC
  0
SECTION
  2
BLOCKS
  0
BLOCK
  5
1F
330
1E
100
AcDbEntity
  8
0
100
AcDbBlockBegin
  2
*MODEL_SPACE
 70
     0
 10
0.0
 20
0.0
 30
0.0
  3
*MODEL_SPACE
  1

  0
ENDBLK
  5
20
330
1E
100
AcDbEntity
  8
0
100
AcDbBlockEnd
  0
BLOCK
  5
1B
330
1A
100
AcDbEntity
 67
     1
  8
0
100
AcDbBlockBegin
  2
*PAPER_SPACE
 70
     0
 10
0.0
 20
0.0
 30
0.0
  3
*PAPER_SPACE
  1

  0
ENDBLK
  5
1C
330
1A
100
AcDbEntity
 67
     1
  8
0
100
AcDbBlockEnd
  0
BLOCK
  5
41
330
40
100
AcDbEntity
  8
CSLAYER1
100
AcDbBlockBegin
  2
FXDIM0000
 70
     0
 10
0.0
 20
0.0
 30
0.0
  3
FXDIM0000
  1

  0
LINE
  5
42
330
40
100
AcDbEntity
  8
CSLAYER1
  6
CONTINUOUS
 62
     4
100
AcDbLine
 10
75.111241
 20
122.9795199999999
 30
0.0
 11
53.50678000000001
 21
118.370678
 31
0.0
  0
LINE
  5
43
330
40
100
AcDbEntity
  8
CSLAYER1
  6
CONTINUOUS
 62
     4
100
AcDbLine
 10
75.111241
 20
122.9795199999999
 30
0.0
 11
72.43922799999999
 21
121.615576
 31
0.0
  0
LINE
  5
44
330
40
100
AcDbEntity
  8
CSLAYER1
  6
CONTINUOUS
 62
     4
100
AcDbLine
 10
75.111241
 20
122.9795199999999
 30
0.0
 11
72.11523800000001
 21
123.1343159999999
 31
0.0
  0
LINE
  5
45
330
40
100
AcDbEntity
  8
CSLAYER1
  6
CONTINUOUS
 62
     4
100
AcDbLine
 10
53.50678000000001
 20
118.370678
 30
0.0
 11
29.10678
 21
118.370678
 31
0.0
  0
TEXT
  5
46
330
40
100
AcDbEntity
  8
CSLAYER1
 62
     4
100
AcDbText
 10
30.106747
 20
118.8706669999999
 30
0.0
 40
3.2
  1
Rc1/8ネジ
 41
0.9813084550233634
 51
15.0
  7
FX_FONT
 72
     5
 11
52.50674799999999
 21
118.8706669999999
 31
0.0
100
AcDbText
  0
ENDBLK
  5
47
330
40
100
AcDbEntity
  8
0
100
AcDbBlockEnd
  0
BLOCK
  5
49
330
48
100
AcDbEntity
  8
CSLAYER1
100
AcDbBlockBegin
  2
*D1
 70
     1
 10
0.0
 20
0.0
 30
0.0
  3
*D1
  1

  0
TEXT
  5
4A
330
48
100
AcDbEntity
  8
CSLAYER1
 62
     4
100
AcDbText
 10
35.17753499999999
 20
219.663422
 30
0.0
 40
3.2
  1
R14
 41
1.125
 51
15.0
  7
FX_FONT
 72
     5
 11
44.777535
 21
219.663422
 31
0.0
100
AcDbText
  0
LINE
  5
4B
330
48
100
AcDbEntity
  8
CSLAYER1
  6
CONTINUOUS
 62
     4
100
AcDbLine
 10
57.502615
 20
222.943672
 30
0.0
 11
47.044775
 21
232.251389
 31
0.0
  0
LINE
  5
4C
330
48
100
AcDbEntity
  8
CSLAYER1
  6
CONTINUOUS
 62
     4
100
AcDbLine
 10
57.502615
 20
222.943672
 30
0.0
 11
54.821791
 21
224.2902169999999
 31
0.0
  0
LINE
  5
4D
330
48
100
AcDbEntity
  8
CSLAYER1
  6
CONTINUOUS
 62
     4
100
AcDbLine
 10
57.502615
 20
222.943672
 30
0.0
 11
55.85422600000001
 21
225.4502259999999
 31
0.0
  0
LINE
  5
4E
330
48
100
AcDbEntity
  8
CSLAYER1
  6
CONTINUOUS
 62
     4
100
AcDbLine
 10
52.273695
 20
227.5975299999999
 30
0.0
 11
45.777535
 21
219.1634159999999
 31
0.0
  0
LINE
  5
4F
330
48
100
AcDbEntity
  8
CSLAYER1
  6
CONTINUOUS
 62
     4
100
AcDbLine
 10
45.777535
 20
219.1634159999999
 30
0.0
 11
34.17753499999999
 21
219.1634159999999
 31
0.0
  0
ENDBLK
  5
50
330
48
100
AcDbEntity
  8
0
100
AcDbBlockEnd
  0
BLOCK
  5
52
330
51
100
AcDbEntity
  8
CSLAYER1
100
AcDbBlockBegin
  2
*D2
 70
     1
 10
0.0
 20
0.0
 30
0.0
  3
*D2
  1

  0
TEXT
  5
53
330
51
100
AcDbEntity
  8
CSLAYER1
 62
     4
100
AcDbText
 10
32.082382
 20
236.894308
 30
0.0
 40
3.2
  1
9
 50
90.0
 41
1.500000000000007
 51
15.0
  7
FX_FONT
 72
     5
 11
32.082382
 21
240.094308
 31
0.0
100
AcDbText
  0
LINE
  5
54
330
51
100
AcDbEntity
  8
CSLAYER1
  6
CONTINUOUS
 62
     4
100
AcDbLine
 10
32.582384
 20
233.9943149999999
 30
0.0
 11
32.582384
 21
242.994315
 31
0.0
  0
LINE
  5
55
330
51
100
AcDbEntity
  8
CSLAYER1
  6
CONTINUOUS
 62
     4
100
AcDbLine
 10
32.582384
 20
233.9943149999999
 30
0.0
 11
31.805926
 21
236.8920919999999
 31
0.0
  0
LINE
  5
56
330
51
100
AcDbEntity
  8
CSLAYER1
  6
CONTINUOUS
 62
     4
100
AcDbLine
 10
32.582384
 20
233.9943149999999
 30
0.0
 11
33.35884099999999
 21
236.8920919999999
 31
0.0
  0
LINE
  5
57
330
51
100
AcDbEntity
  8
CSLAYER1
  6
CONTINUOUS
 62
     4
100
AcDbLine
 10
32.582384
 20
242.994315
 30
0.0
 11
31.805926
 21
240.096537
 31
0.0
  0
LINE
  5
58
330
51
100
AcDbEntity
  8
CSLAYER1
  6
CONTINUOUS
 62
     4
100
AcDbLine
 10
32.582384
 20
242.994315
 30
0.0
 11
33.35884099999999
 21
240.096537
 31
0.0
  0
LINE
  5
59
330
51
100
AcDbEntity
  8
CSLAYER1
  6
CONTINUOUS
 62
     4
100
AcDbLine
 10
54.27669599999999
 20
233.9943149999999
 30
0.0
 11
31.582384
 21
233.9943149999999
 31
0.0
  0
ENDBLK
  5
5A
330
51
100
AcDbEntity
  8
0
100
AcDbBlockEnd
  0
BLOCK
  5
5C
330
5B
100
AcDbEntity
  8
CSLAYER1
100
AcDbBlockBegin
  2
*D3
 70
     1
 10
0.0
 20
0.0
 30
0.0
  3
*D3
  1

  0
TEXT
  5
5D
330
5B
100
AcDbEntity
  8
CSLAYER1
 62
     4
100
AcDbText
 10
26.082384
 20
173.694308
 30
0.0
 40
3.2
  1
129
 50
90.0
 41
1.125000117187499
 51
15.0
  7
FX_FONT
 72
     5
 11
26.082384
 21
183.294309
 31
0.0
100
AcDbText
  0
LINE
  5
5E
330
5B
100
AcDbEntity
  8
CSLAYER1
  6
CONTINUOUS
 62
     4
100
AcDbLine
 10
26.582384
 20
113.9943149999999
 30
0.0
 11
26.582384
 21
242.994315
 31
0.0
  0
LINE
  5
5F
330
5B
100
AcDbEntity
  8
CSLAYER1
  6
CONTINUOUS
 62
     4
100
AcDbLine
 10
26.582384
 20
113.9943149999999
 30
0.0
 11
25.805926
 21
116.8920919999999
 31
0.0
  0
LINE
  5
60
330
5B
100
AcDbEntity
  8
CSLAYER1
  6
CONTINUOUS
 62
     4
100
AcDbLine
 10
26.582384
 20
113.9943149999999
 30
0.0
 11
27.35884099999999
 21
116.8920919999999
 31
0.0
  0
LINE
  5
61
330
5B
100
AcDbEntity
  8
CSLAYER1
  6
CONTINUOUS
 62
     4
100
AcDbLine
 10
26.582384
 20
242.994315
 30
0.0
 11
25.805926
 21
240.096537
 31
0.0
  0
LINE
  5
62
330
5B
100
AcDbEntity
  8
CSLAYER1
  6
CONTINUOUS
 62
     4
100
AcDbLine
 10
26.582384
 20
242.994315
 30
0.0
 11
27.35884099999999
 21
240.096537
 31
0.0
  0
ENDBLK
  5
63
330
5B
100
AcDbEntity
  8
0
100
AcDbBlockEnd
  0
BLOCK
  5
65
330
64
100
AcDbEntity
  8
CSLAYER1
100
AcDbBlockBegin
  2
*D4
 70
     1
 10
0.0
 20
0.0
 30
0.0
  3
*D4
  1

  0
TEXT
  5
66
330
64
100
AcDbEntity
  8
CSLAYER1
 62
     4
100
AcDbText
 10
20.082384
 20
159.694308
 30
0.0
 40
3.2
  1
157
 50
90.0
 41
1.125000117187499
 51
15.0
  7
FX_FONT
 72
     5
 11
20.082384
 21
169.2943089999999
 31
0.0
100
AcDbText
  0
LINE
  5
67
330
64
100
AcDbEntity
  8
CSLAYER1
  6
CONTINUOUS
 62
     4
100
AcDbLine
 10
20.582384
 20
85.99431499999999
 30
0.0
 11
20.582384
 21
242.994315
 31
0.0
  0
LINE
  5
68
330
64
100
AcDbEntity
  8
CSLAYER1
  6
CONTINUOUS
 62
     4
100
AcDbLine
 10
20.582384
 20
85.99431499999999
 30
0.0
 11
19.80592599999999
 21
88.89209200000001
 31
0.0
  0
LINE
  5
69
330
64
100
AcDbEntity
  8
CSLAYER1
  6
CONTINUOUS
 62
     4
100
AcDbLine
 10
20.582384
 20
85.99431499999999
 30
0.0
 11
21.358841
 21
88.89209200000001
 31
0.0
  0
LINE
  5
6A
330
64
100
AcDbEntity
  8
CSLAYER1
  6
CONTINUOUS
 62
     4
100
AcDbLine
 10
20.582384
 20
242.994315
 30
0.0
 11
19.80592599999999
 21
240.096537
 31
0.0
  0
LINE
  5
6B
330
64
100
AcDbEntity
  8
CSLAYER1
  6
CONTINUOUS
 62
     4
100
AcDbLine
 10
20.582384
 20
242.994315
 30
0.0
 11
21.358841
 21
240.096537
 31
0.0
  0
LINE
  5
6C
330
64
100
AcDbEntity
  8
CSLAYER1
  6
CONTINUOUS
 62
     4
100
AcDbLine
 10
50.544775
 20
85.99431499999999
 30
0.0
 11
19.582384
 21
85.99431499999999
 31
0.0
  0
LINE
  5
6D
330
64
100
AcDbEntity
  8
CSLAYER1
  6
CONTINUOUS
 62
     4
100
AcDbLine
 10
60.044775
 20
242.994315
 30
0.0
 11
19.582384
 21
242.994315
 31
0.0
  0
ENDBLK
  5
6E
330
64
100
AcDbEntity
  8
0
100
AcDbBlockEnd
  0
BLOCK
  5
70
330
6F
100
AcDbEntity
  8
CSLAYER1
100
AcDbBlockBegin
  2
*D5
 70
     1
 10
0.0
 20
0.0
 30
0.0
  3
*D5
  1

  0
TEXT
  5
71
330
6F
100
AcDbEntity
  8
CSLAYER1
 62
     4
100
AcDbText
 10
16.16467499999999
 20
116.4219189999999
 30
0.0
 40
3.2
  1
4
 50
90.0
 41
1.500000000000001
 51
15.0
  7
FX_FONT
 72
     5
 11
16.16467499999999
 21
119.6219189999999
 31
0.0
100
AcDbText
  0
LINE
  5
72
330
6F
100
AcDbEntity
  8
CSLAYER1
  6
CONTINUOUS
 62
     4
100
AcDbLine
 10
26.582384
 20
109.9943149999999
 30
0.0
 11
26.582384
 21
113.9943149999999
 31
0.0
  0
LINE
  5
73
330
6F
100
AcDbEntity
  8
CSLAYER1
  6
CONTINUOUS
 62
     4
100
AcDbLine
 10
55.044775
 20
113.9943149999999
 30
0.0
 11
25.582384
 21
113.9943149999999
 31
0.0
  0
LINE
  5
74
330
6F
100
AcDbEntity
  8
CSLAYER1
  6
CONTINUOUS
 62
     4
100
AcDbLine
 10
26.582384
 20
111.9943149999999
 30
0.0
 11
16.66467399999999
 21
115.4219149999999
 31
0.0
  0
LINE
  5
75
330
6F
100
AcDbEntity
  8
CSLAYER1
  6
CONTINUOUS
 62
     4
100
AcDbLine
 10
16.66467399999999
 20
115.4219149999999
 30
0.0
 11
16.66467399999999
 21
120.6219159999999
 31
0.0
  0
ENDBLK
  5
76
330
6F
100
AcDbEntity
  8
0
100
AcDbBlockEnd
  0
BLOCK
  5
78
330
77
100
AcDbEntity
  8
CSLAYER1
100
AcDbBlockBegin
  2
*D6
 70
     1
 10
0.0
 20
0.0
 30
0.0
  3
*D6
  1

  0
TEXT
  5
79
330
77
100
AcDbEntity
  8
CSLAYER1
 62
     4
100
AcDbText
 10
35.859497
 20
96.81107199999999
 30
0.0
 40
3.2
  1
5
 50
90.0
 41
1.500000000000001
 51
15.0
  7
FX_FONT
 72
     5
 11
35.859497
 21
100.0110719999999
 31
0.0
100
AcDbText
  0
LINE
  5
7A
330
77
100
AcDbEntity
  8
CSLAYER1
  6
CONTINUOUS
 62
     4
100
AcDbLine
 10
26.582384
 20
104.9943149999999
 30
0.0
 11
26.582384
 21
109.9943149999999
 31
0.0
  0
CIRCLE
  5
7B
330
77
100
AcDbEntity
  8
CSLAYER1
  6
CONTINUOUS
 62
     4
100
AcDbCircle
 10
26.582384
 20
109.9943149999999
 30
0.0
 40
0.3
  0
CIRCLE
  5
7C
330
77
100
AcDbEntity
  8
CSLAYER1
  6
CONTINUOUS
 62
     4
100
AcDbCircle
 10
26.582384
 20
109.9943149999999
 30
0.0
 40
0.15
  0
LINE
  5
7D
330
77
100
AcDbEntity
  8
CSLAYER1
  6
CONTINUOUS
 62
     4
100
AcDbLine
 10
53.544775
 20
109.9943149999999
 30
0.0
 11
25.582384
 21
109.9943149999999
 31
0.0
  0
LINE
  5
7E
330
77
100
AcDbEntity
  8
CSLAYER1
  6
CONTINUOUS
 62
     4
100
AcDbLine
 10
26.582384
 20
107.4943149999999
 30
0.0
 11
36.359496
 21
101.0110699999999
 31
0.0
  0
LINE
  5
7F
330
77
100
AcDbEntity
  8
CSLAYER1
  6
CONTINUOUS
 62
     4
100
AcDbLine
 10
36.359496
 20
101.0110699999999
 30
0.0
 11
36.359496
 21
95.81107000000001
 31
0.0
  0
ENDBLK
  5
80
330
77
100
AcDbEntity
  8
0
100
AcDbBlockEnd
  0
BLOCK
  5
82
330
81
100
AcDbEntity
  8
CSLAYER1
100
AcDbBlockBegin
  2
*D7
 70
     1
 10
0.0
 20
0.0
 30
0.0
  3
*D7
  1

  0
TEXT
  5
83
330
81
100
AcDbEntity
  8
CSLAYER1
 62
     4
100
AcDbText
 10
26.082384
 20
94.79431600000001
 30
0.0
 40
3.2
  1
14
 50
90.0
 41
1.199999999999998
 51
15.0
  7
FX_FONT
 72
     5
 11
26.082384
 21
101.1943159999999
 31
0.0
100
AcDbText
  0
LINE
  5
84
330
81
100
AcDbEntity
  8
CSLAYER1
  6
CONTINUOUS
 62
     4
100
AcDbLine
 10
26.582384
 20
90.99431499999999
 30
0.0
 11
26.582384
 21
104.9943149999999
 31
0.0
  0
LINE
  5
85
330
81
100
AcDbEntity
  8
CSLAYER1
  6
CONTINUOUS
 62
     4
100
AcDbLine
 10
26.582384
 20
90.99431499999999
 30
0.0
 11
25.805926
 21
93.89209200000001
 31
0.0
  0
LINE
  5
86
330
81
100
AcDbEntity
  8
CSLAYER1
  6
CONTINUOUS
 62
     4
100
AcDbLine
 10
26.582384
 20
90.99431499999999
 30
0.0
 11
27.35884099999999
 21
93.89209200000001
 31
0.0
  0
LINE
  5
87
330
81
100
AcDbEntity
  8
CSLAYER1
  6
CONTINUOUS
 62
     4
100
AcDbLine
 10
26.582384
 20
104.9943149999999
 30
0.0
 11
25.805926
 21
102.096537
 31
0.0
  0
LINE
  5
88
330
81
100
AcDbEntity
  8
CSLAYER1
  6
CONTINUOUS
 62
     4
100
AcDbLine
 10
26.582384
 20
104.9943149999999
 30
0.0
 11
27.35884099999999
 21
102.096537
 31
0.0
  0
LINE
  5
89
330
81
100
AcDbEntity
  8
CSLAYER1
  6
CONTINUOUS
 62
     4
100
AcDbLine
 10
50.544775
 20
104.9943149999999
 30
0.0
 11
25.582384
 21
104.9943149999999
 31
0.0
  0
ENDBLK
  5
8A
330
81
100
AcDbEntity
  8
0
100
AcDbBlockEnd
  0
BLOCK
  5
8C
330
8B
100
AcDbEntity
  8
CSLAYER1
100
AcDbBlockBegin
  2
*D8
 70
     1
 10
0.0
 20
0.0
 30
0.0
  3
*D8
  1

  0
TEXT
  5
8D
330
8B
100
AcDbEntity
  8
CSLAYER1
 62
     4
100
AcDbText
 10
26.082384
 20
86.894316
 30
0.0
 40
3.2
  1
5
 50
90.0
 41
1.500000000000001
 51
15.0
  7
FX_FONT
 72
     5
 11
26.082384
 21
90.094316
 31
0.0
100
AcDbText
  0
LINE
  5
8E
330
8B
100
AcDbEntity
  8
CSLAYER1
  6
CONTINUOUS
 62
     4
100
AcDbLine
 10
26.582384
 20
85.99431499999999
 30
0.0
 11
26.582384
 21
90.99431499999999
 31
0.0
  0
LINE
  5
8F
330
8B
100
AcDbEntity
  8
CSLAYER1
  6
CONTINUOUS
 62
     4
100
AcDbLine
 10
50.544775
 20
90.99431499999999
 30
0.0
 11
25.582384
 21
90.99431499999999
 31
0.0
  0
LINE
  5
90
330
8B
100
AcDbEntity
  8
CSLAYER1
  6
CONTINUOUS
 62
     4
100
AcDbLine
 10
26.582384
 20
82.994315
 30
0.0
 11
26.582384
 21
85.99431499999999
 31
0.0
  0
LINE
  5
91
330
8B
100
AcDbEntity
  8
CSLAYER1
  6
CONTINUOUS
 62
     4
100
AcDbLine
 10
26.582384
 20
85.99431499999999
 30
0.0
 11
25.805926
 21
83.096537
 31
0.0
  0
LINE
  5
92
330
8B
100
AcDbEntity
  8
CSLAYER1
  6
CONTINUOUS
 62
     4
100
AcDbLine
 10
26.582384
 20
85.99431499999999
 30
0.0
 11
27.35884099999999
 21
83.096537
 31
0.0
  0
LINE
  5
93
330
8B
100
AcDbEntity
  8
CSLAYER1
  6
CONTINUOUS
 62
     4
100
AcDbLine
 10
26.582384
 20
90.99431499999999
 30
0.0
 11
26.582384
 21
93.994315
 31
0.0
  0
LINE
  5
94
330
8B
100
AcDbEntity
  8
CSLAYER1
  6
CONTINUOUS
 62
     4
100
AcDbLine
 10
26.582384
 20
90.99431499999999
 30
0.0
 11
25.805926
 21
93.89209200000001
 31
0.0
  0
LINE
  5
95
330
8B
100
AcDbEntity
  8
CSLAYER1
  6
CONTINUOUS
 62
     4
100
AcDbLine
 10
26.582384
 20
90.99431499999999
 30
0.0
 11
27.35884099999999
 21
93.89209200000001
 31
0.0
  0
ENDBLK
  5
96
330
8B
100
AcDbEntity
  8
0
100
AcDbBlockEnd
  0
BLOCK
  5
98
330
97
100
AcDbEntity
  8
CSLAYER1
100
AcDbBlockBegin
  2
*D9
 70
     1
 10
0.0
 20
0.0
 30
0.0
  3
*D9
  1

  0
TEXT
  5
99
330
97
100
AcDbEntity
  8
CSLAYER1
 62
     4
100
AcDbText
 10
214.333127
 20
267.143585
 30
0.0
 40
3.2
  1
45
 41
1.200000000000001
 51
15.0
  7
FX_FONT
 72
     5
 11
220.733127
 21
267.143585
 31
0.0
100
AcDbText
  0
LINE
  5
9A
330
97
100
AcDbEntity
  8
CSLAYER1
  6
CONTINUOUS
 62
     4
100
AcDbLine
 10
195.033134
 20
266.643613
 30
0.0
 11
240.033134
 21
266.643613
 31
0.0
  0
LINE
  5
9B
330
97
100
AcDbEntity
  8
CSLAYER1
  6
CONTINUOUS
 62
     4
100
AcDbLine
 10
195.033134
 20
266.643613
 30
0.0
 11
197.930911
 21
267.420071
 31
0.0
  0
LINE
  5
9C
330
97
100
AcDbEntity
  8
CSLAYER1
  6
CONTINUOUS
 62
     4
100
AcDbLine
 10
195.033134
 20
266.643613
 30
0.0
 11
197.930911
 21
265.867156
 31
0.0
  0
LINE
  5
9D
330
97
100
AcDbEntity
  8
CSLAYER1
  6
CONTINUOUS
 62
     4
100
AcDbLine
 10
240.033134
 20
266.643613
 30
0.0
 11
237.135356
 21
267.420071
 31
0.0
  0
LINE
  5
9E
330
97
100
AcDbEntity
  8
CSLAYER1
  6
CONTINUOUS
 62
     4
100
AcDbLine
 10
240.033134
 20
266.643613
 30
0.0
 11
237.135356
 21
265.867156
 31
0.0
  0
LINE
  5
9F
330
97
100
AcDbEntity
  8
CSLAYER1
  6
CONTINUOUS
 62
     4
100
AcDbLine
 10
195.033134
 20
219.994315
 30
0.0
 11
195.033134
 21
267.643613
 31
0.0
  0
LINE
  5
A0
330
97
100
AcDbEntity
  8
CSLAYER1
  6
CONTINUOUS
 62
     4
100
AcDbLine
 10
240.033134
 20
219.994315
 30
0.0
 11
240.033134
 21
267.643613
 31
0.0
  0
ENDBLK
  5
A1
330
97
100
AcDbEntity
  8
0
100
AcDbBlockEnd
  0
BLOCK
  5
A3
330
A2
100
AcDbEntity
  8
CSLAYER1
100
AcDbBlockBegin
  2
*D10
 70
     1
 10
0.0
 20
0.0
 30
0.0
  3
*D10
  1

  0
TEXT
  5
A4
330
A2
100
AcDbEntity
  8
CSLAYER1
 62
     4
100
AcDbText
 10
214.333127
 20
261.143616
 30
0.0
 40
3.2
  1
20
 41
1.200000000000001
 51
15.0
  7
FX_FONT
 72
     5
 11
220.733127
 21
261.143616
 31
0.0
100
AcDbText
  0
LINE
  5
A5
330
A2
100
AcDbEntity
  8
CSLAYER1
  6
CONTINUOUS
 62
     4
100
AcDbLine
 10
207.533134
 20
260.643613
 30
0.0
 11
227.533134
 21
260.643613
 31
0.0
  0
LINE
  5
A6
330
A2
100
AcDbEntity
  8
CSLAYER1
  6
CONTINUOUS
 62
     4
100
AcDbLine
 10
207.533134
 20
260.643613
 30
0.0
 11
210.4309109999999
 21
261.4200709999999
 31
0.0
  0
LINE
  5
A7
330
A2
100
AcDbEntity
  8
CSLAYER1
  6
CONTINUOUS
 62
     4
100
AcDbLine
 10
207.533134
 20
260.643613
 30
0.0
 11
210.4309109999999
 21
259.867156
 31
0.0
  0
LINE
  5
A8
330
A2
100
AcDbEntity
  8
CSLAYER1
  6
CONTINUOUS
 62
     4
100
AcDbLine
 10
227.533134
 20
260.643613
 30
0.0
 11
224.635356
 21
261.4200709999999
 31
0.0
  0
LINE
  5
A9
330
A2
100
AcDbEntity
  8
CSLAYER1
  6
CONTINUOUS
 62
     4
100
AcDbLine
 10
227.533134
 20
260.643613
 30
0.0
 11
224.635356
 21
259.867156
 31
0.0
  0
LINE
  5
AA
330
A2
100
AcDbEntity
  8
CSLAYER1
  6
CONTINUOUS
 62
     4
100
AcDbLine
 10
207.533134
 20
243.9943149999999
 30
0.0
 11
207.533134
 21
261.643613
 31
0.0
  0
LINE
  5
AB
330
A2
100
AcDbEntity
  8
CSLAYER1
  6
CONTINUOUS
 62
     4
100
AcDbLine
 10
227.533134
 20
243.9943149999999
 30
0.0
 11
227.533134
 21
261.643613
 31
0.0
  0
ENDBLK
  5
AC
330
A2
100
AcDbEntity
  8
0
100
AcDbBlockEnd
  0
BLOCK
  5
AE
330
AD
100
AcDbEntity
  8
CSLAYER1
100
AcDbBlockBegin
  2
FXDIM0001
 70
     0
 10
0.0
 20
0.0
 30
0.0
  3
FXDIM0001
  1

  0
LINE
  5
AF
330
AD
100
AcDbEntity
  8
CSLAYER1
  6
CONTINUOUS
 62
     4
100
AcDbLine
 10
231.7086149999999
 20
116.060055
 30
0.0
 11
255.852132
 21
135.717038
 31
0.0
  0
LINE
  5
B0
330
AD
100
AcDbEntity
  8
CSLAYER1
  6
CONTINUOUS
 62
     4
100
AcDbLine
 10
231.7086149999999
 20
116.060055
 30
0.0
 11
233.465546
 21
118.491761
 31
0.0
  0
LINE
  5
B1
330
AD
100
AcDbEntity
  8
CSLAYER1
  6
CONTINUOUS
 62
     4
100
AcDbLine
 10
231.7086149999999
 20
116.060055
 30
0.0
 11
234.446014
 21
117.287509
 31
0.0
  0
LINE
  5
B2
330
AD
100
AcDbEntity
  8
CSLAYER1
  6
CONTINUOUS
 62
     4
100
AcDbLine
 10
255.852132
 20
135.717038
 30
0.0
 11
283.4521319999999
 21
135.717038
 31
0.0
  0
TEXT
  5
B3
330
AD
100
AcDbEntity
  8
CSLAYER1
 62
     4
100
AcDbText
 10
256.85216
 20
136.217026
 30
0.0
 40
3.2
  1
ストッパーボルト
 41
0.8759124429744517
 51
15.0
  7
FX_FONT
 72
     5
 11
282.452161
 21
136.217026
 31
0.0
100
AcDbText
  0
ENDBLK
  5
B4
330
AD
100
AcDbEntity
  8
0
100
AcDbBlockEnd
  0
BLOCK
  5
B6
330
B5
100
AcDbEntity
  8
CSLAYER17
100
AcDbBlockBegin
  2
*D12
 70
     1
 10
0.0
 20
0.0
 30
0.0
  3
*D12
  1

  0
TEXT
  5
B7
330
B5
100
AcDbEntity
  8
CSLAYER17
 62
     4
100
AcDbText
 10
70.844777
 20
261.143585
 30
0.0
 40
3.2
  1
45
 41
1.199999999999998
 51
15.0
  7
FX_FONT
 72
     5
 11
77.244777
 21
261.143585
 31
0.0
100
AcDbText
  0
LINE
  5
B8
330
B5
100
AcDbEntity
  8
CSLAYER17
  6
CONTINUOUS
 62
     4
100
AcDbLine
 10
51.544775
 20
260.643613
 30
0.0
 11
96.544775
 21
260.643613
 31
0.0
  0
LINE
  5
B9
330
B5
100
AcDbEntity
  8
CSLAYER17
  6
CONTINUOUS
 62
     4
100
AcDbLine
 10
51.544775
 20
260.643613
 30
0.0
 11
54.442553
 21
261.4200709999999
 31
0.0
  0
LINE
  5
BA
330
B5
100
AcDbEntity
  8
CSLAYER17
  6
CONTINUOUS
 62
     4
100
AcDbLine
 10
51.544775
 20
260.643613
 30
0.0
 11
54.442553
 21
259.867156
 31
0.0
  0
LINE
  5
BB
330
B5
100
AcDbEntity
  8
CSLAYER17
  6
CONTINUOUS
 62
     4
100
AcDbLine
 10
96.544775
 20
260.643613
 30
0.0
 11
93.646998
 21
261.4200709999999
 31
0.0
  0
LINE
  5
BC
330
B5
100
AcDbEntity
  8
CSLAYER17
  6
CONTINUOUS
 62
     4
100
AcDbLine
 10
96.544775
 20
260.643613
 30
0.0
 11
93.646998
 21
259.867156
 31
0.0
  0
LINE
  5
BD
330
B5
100
AcDbEntity
  8
CSLAYER17
  6
CONTINUOUS
 62
     4
100
AcDbLine
 10
96.544775
 20
219.994315
 30
0.0
 11
96.544775
 21
261.643613
 31
0.0
  0
ENDBLK
  5
BE
330
B5
100
AcDbEntity
  8
0
100
AcDbBlockEnd
  0
BLOCK
  5
C0
330
BF
100
AcDbEntity
  8
CSLAYER17
100
AcDbBlockBegin
  2
*D13
 70
     1
 10
0.0
 20
0.0
 30
0.0
  3
*D13
  1

  0
TEXT
  5
C1
330
BF
100
AcDbEntity
  8
CSLAYER17
 62
     4
100
AcDbText
 10
70.844777
 20
255.143616
 30
0.0
 40
3.2
  1
26
 41
1.199999999999998
 51
15.0
  7
FX_FONT
 72
     5
 11
77.244777
 21
255.143616
 31
0.0
100
AcDbText
  0
LINE
  5
C2
330
BF
100
AcDbEntity
  8
CSLAYER17
  6
CONTINUOUS
 62
     4
100
AcDbLine
 10
61.044775
 20
254.643613
 30
0.0
 11
87.04477500000001
 21
254.643613
 31
0.0
  0
LINE
  5
C3
330
BF
100
AcDbEntity
  8
CSLAYER17
  6
CONTINUOUS
 62
     4
100
AcDbLine
 10
61.044775
 20
254.643613
 30
0.0
 11
63.94255300000001
 21
255.4200709999999
 31
0.0
  0
LINE
  5
C4
330
BF
100
AcDbEntity
  8
CSLAYER17
  6
CONTINUOUS
 62
     4
100
AcDbLine
 10
61.044775
 20
254.643613
 30
0.0
 11
63.94255300000001
 21
253.867156
 31
0.0
  0
LINE
  5
C5
330
BF
100
AcDbEntity
  8
CSLAYER17
  6
CONTINUOUS
 62
     4
100
AcDbLine
 10
87.04477500000001
 20
254.643613
 30
0.0
 11
84.14699799999999
 21
255.4200709999999
 31
0.0
  0
LINE
  5
C6
330
BF
100
AcDbEntity
  8
CSLAYER17
  6
CONTINUOUS
 62
     4
100
AcDbLine
 10
87.04477500000001
 20
254.643613
 30
0.0
 11
84.14699799999999
 21
253.867156
 31
0.0
  0
LINE
  5
C7
330
BF
100
AcDbEntity
  8
CSLAYER17
  6
CONTINUOUS
 62
     4
100
AcDbLine
 10
61.044775
 20
243.9943149999999
 30
0.0
 11
61.044775
 21
255.6436129999999
 31
0.0
  0
LINE
  5
C8
330
BF
100
AcDbEntity
  8
CSLAYER17
  6
CONTINUOUS
 62
     4
100
AcDbLine
 10
87.04477500000001
 20
243.9943149999999
 30
0.0
 11
87.04477500000001
 21
255.6436129999999
 31
0.0
  0
ENDBLK
  5
C9
330
BF
100
AcDbEntity
  8
0
100
AcDbBlockEnd
  0
BLOCK
  5
CB
330
CA
100
AcDbEntity
  8
CSLAYER17
100
AcDbBlockBegin
  2
*D14
 70
     1
 10
0.0
 20
0.0
 30
0.0
  3
*D14
  1

  0
TEXT
  5
CC
330
CA
100
AcDbEntity
  8
CSLAYER17
 62
     4
100
AcDbText
 10
70.844777
 20
249.143616
 30
0.0
 40
3.2
  1
12
 41
1.199999999999998
 51
15.0
  7
FX_FONT
 72
     5
 11
77.244777
 21
249.143616
 31
0.0
100
AcDbText
  0
LINE
  5
CD
330
CA
100
AcDbEntity
  8
CSLAYER17
  6
CONTINUOUS
 62
     4
100
AcDbLine
 10
68.044775
 20
248.6436129999999
 30
0.0
 11
80.044775
 21
248.6436129999999
 31
0.0
  0
LINE
  5
CE
330
CA
100
AcDbEntity
  8
CSLAYER17
  6
CONTINUOUS
 62
     4
100
AcDbLine
 10
68.044775
 20
248.6436129999999
 30
0.0
 11
70.942553
 21
249.420071
 31
0.0
  0
LINE
  5
CF
330
CA
100
AcDbEntity
  8
CSLAYER17
  6
CONTINUOUS
 62
     4
100
AcDbLine
 10
68.044775
 20
248.6436129999999
 30
0.0
 11
70.942553
 21
247.8671559999999
 31
0.0
  0
LINE
  5
D0
330
CA
100
AcDbEntity
  8
CSLAYER17
  6
CONTINUOUS
 62
     4
100
AcDbLine
 10
80.044775
 20
248.6436129999999
 30
0.0
 11
77.14699799999999
 21
249.420071
 31
0.0
  0
LINE
  5
D1
330
CA
100
AcDbEntity
  8
CSLAYER17
  6
CONTINUOUS
 62
     4
100
AcDbLine
 10
80.044775
 20
248.6436129999999
 30
0.0
 11
77.14699799999999
 21
247.8671559999999
 31
0.0
  0
LINE
  5
D2
330
CA
100
AcDbEntity
  8
CSLAYER17
  6
CONTINUOUS
 62
     4
100
AcDbLine
 10
68.044775
 20
243.9943149999999
 30
0.0
 11
68.044775
 21
249.6436129999999
 31
0.0
  0
LINE
  5
D3
330
CA
100
AcDbEntity
  8
CSLAYER17
  6
CONTINUOUS
 62
     4
100
AcDbLine
 10
80.044775
 20
243.9943149999999
 30
0.0
 11
80.044775
 21
249.6436129999999
 31
0.0
  0
ENDBLK
  5
D4
330
CA
100
AcDbEntity
  8
0
100
AcDbBlockEnd
  0
BLOCK
  5
D6
330
D5
100
AcDbEntity
  8
CSLAYER17
100
AcDbBlockBegin
  2
*D15
 70
     1
 10
0.0
 20
0.0
 30
0.0
  3
*D15
  1

  0
TEXT
  5
D7
330
D5
100
AcDbEntity
  8
CSLAYER17
 62
     4
100
AcDbText
 10
105.236235
 20
251.3830109999999
 30
0.0
 40
3.2
  1
5
 41
1.500000000000001
 51
15.0
  7
FX_FONT
 72
     5
 11
108.436235
 21
251.3830109999999
 31
0.0
100
AcDbText
  0
LINE
  5
D8
330
D5
100
AcDbEntity
  8
CSLAYER17
  6
CONTINUOUS
 62
     4
100
AcDbLine
 10
96.544775
 20
260.643613
 30
0.0
 11
101.544775
 21
260.643613
 31
0.0
  0
LINE
  5
D9
330
D5
100
AcDbEntity
  8
CSLAYER17
  6
CONTINUOUS
 62
     4
100
AcDbLine
 10
101.544775
 20
200.994315
 30
0.0
 11
101.544775
 21
261.643613
 31
0.0
  0
LINE
  5
DA
330
D5
100
AcDbEntity
  8
CSLAYER17
  6
CONTINUOUS
 62
     4
100
AcDbLine
 10
101.544775
 20
260.643613
 30
0.0
 11
106.744775
 21
260.643613
 31
0.0
  0
LINE
  5
DB
330
D5
100
AcDbEntity
  8
CSLAYER17
  6
CONTINUOUS
 62
     4
100
AcDbLine
 10
101.544775
 20
260.643613
 30
0.0
 11
104.442553
 21
261.4200709999999
 31
0.0
  0
LINE
  5
DC
330
D5
100
AcDbEntity
  8
CSLAYER17
  6
CONTINUOUS
 62
     4
100
AcDbLine
 10
101.544775
 20
260.643613
 30
0.0
 11
104.442553
 21
259.867156
 31
0.0
  0
LINE
  5
DD
330
D5
100
AcDbEntity
  8
CSLAYER17
  6
CONTINUOUS
 62
     4
100
AcDbLine
 10
99.044775
 20
260.643613
 30
0.0
 11
104.2362369999999
 21
250.8830169999999
 31
0.0
  0
LINE
  5
DE
330
D5
100
AcDbEntity
  8
CSLAYER17
  6
CONTINUOUS
 62
     4
100
AcDbLine
 10
104.2362369999999
 20
250.8830169999999
 30
0.0
 11
109.436237
 21
250.8830169999999
 31
0.0
  0
ENDBLK
  5
DF
330
D5
100
AcDbEntity
  8
0
100
AcDbBlockEnd
  0
BLOCK
  5
E1
330
E0
100
AcDbEntity
  8
CSLAYER17
100
AcDbBlockBegin
  2
*D16
 70
     1
 10
0.0
 20
0.0
 30
0.0
  3
*D16
  1

  0
TEXT
  5
E2
330
E0
100
AcDbEntity
  8
CSLAYER17
 62
     4
100
AcDbText
 10
105.844777
 20
261.143616
 30
0.0
 40
3.2
  1
15
 41
1.199999999999998
 51
15.0
  7
FX_FONT
 72
     5
 11
112.2447769999999
 21
261.143616
 31
0.0
100
AcDbText
  0
LINE
  5
E3
330
E0
100
AcDbEntity
  8
CSLAYER17
  6
CONTINUOUS
 62
     4
100
AcDbLine
 10
101.544775
 20
260.643613
 30
0.0
 11
116.544775
 21
260.643613
 31
0.0
  0
LINE
  5
E4
330
E0
100
AcDbEntity
  8
CSLAYER17
  6
CONTINUOUS
 62
     4
100
AcDbLine
 10
101.544775
 20
260.643613
 30
0.0
 11
104.442553
 21
261.4200709999999
 31
0.0
  0
LINE
  5
E5
330
E0
100
AcDbEntity
  8
CSLAYER17
  6
CONTINUOUS
 62
     4
100
AcDbLine
 10
101.544775
 20
260.643613
 30
0.0
 11
104.442553
 21
259.867156
 31
0.0
  0
LINE
  5
E6
330
E0
100
AcDbEntity
  8
CSLAYER17
  6
CONTINUOUS
 62
     4
100
AcDbLine
 10
116.544775
 20
260.643613
 30
0.0
 11
113.6469979999999
 21
261.4200709999999
 31
0.0
  0
LINE
  5
E7
330
E0
100
AcDbEntity
  8
CSLAYER17
  6
CONTINUOUS
 62
     4
100
AcDbLine
 10
116.544775
 20
260.643613
 30
0.0
 11
113.6469979999999
 21
259.867156
 31
0.0
  0
LINE
  5
E8
330
E0
100
AcDbEntity
  8
CSLAYER17
  6
CONTINUOUS
 62
     4
100
AcDbLine
 10
116.544775
 20
133.994315
 30
0.0
 11
116.544775
 21
261.643613
 31
0.0
  0
ENDBLK
  5
E9
330
E0
100
AcDbEntity
  8
0
100
AcDbBlockEnd
  0
BLOCK
  5
EB
330
EA
100
AcDbEntity
  8
CSLAYER17
100
AcDbBlockBegin
  2
*D17
 70
     1
 10
0.0
 20
0.0
 30
0.0
  3
*D17
  1

  0
TEXT
  5
EC
330
EA
100
AcDbEntity
  8
CSLAYER17
 62
     4
100
AcDbText
 10
126.5761169999999
 20
251.402618
 30
0.0
 40
3.2
  1
5
 41
1.500000000000001
 51
15.0
  7
FX_FONT
 72
     5
 11
129.776117
 21
251.402618
 31
0.0
100
AcDbText
  0
LINE
  5
ED
330
EA
100
AcDbEntity
  8
CSLAYER17
  6
CONTINUOUS
 62
     4
100
AcDbLine
 10
116.544775
 20
260.643613
 30
0.0
 11
121.544775
 21
260.643613
 31
0.0
  0
LINE
  5
EE
330
EA
100
AcDbEntity
  8
CSLAYER17
  6
CONTINUOUS
 62
     4
100
AcDbLine
 10
121.544775
 20
136.994315
 30
0.0
 11
121.544775
 21
261.643613
 31
0.0
  0
LINE
  5
EF
330
EA
100
AcDbEntity
  8
CSLAYER17
  6
CONTINUOUS
 62
     4
100
AcDbLine
 10
119.044775
 20
260.643613
 30
0.0
 11
125.576124
 21
250.9026149999999
 31
0.0
  0
LINE
  5
F0
330
EA
100
AcDbEntity
  8
CSLAYER17
  6
CONTINUOUS
 62
     4
100
AcDbLine
 10
125.576124
 20
250.9026149999999
 30
0.0
 11
130.776124
 21
250.9026149999999
 31
0.0
  0
ENDBLK
  5
F1
330
EA
100
AcDbEntity
  8
0
100
AcDbBlockEnd
  0
BLOCK
  5
F3
330
F2
100
AcDbEntity
  8
CSLAYER17
100
AcDbBlockBegin
  2
*D18
 70
     1
 10
0.0
 20
0.0
 30
0.0
  3
*D18
  1

  0
TEXT
  5
F4
330
F2
100
AcDbEntity
  8
CSLAYER17
 62
     4
100
AcDbText
 10
129.3947689999999
 20
261.143616
 30
0.0
 40
3.2
  1
28.5
 41
1.090909090909091
 51
15.0
  7
FX_FONT
 72
     5
 11
142.194769
 21
261.143616
 31
0.0
100
AcDbText
  0
LINE
  5
F5
330
F2
100
AcDbEntity
  8
CSLAYER17
  6
CONTINUOUS
 62
     4
100
AcDbLine
 10
121.544775
 20
260.643613
 30
0.0
 11
150.044775
 21
260.643613
 31
0.0
  0
LINE
  5
F6
330
F2
100
AcDbEntity
  8
CSLAYER17
  6
CONTINUOUS
 62
     4
100
AcDbLine
 10
121.544775
 20
260.643613
 30
0.0
 11
124.442553
 21
261.4200709999999
 31
0.0
  0
LINE
  5
F7
330
F2
100
AcDbEntity
  8
CSLAYER17
  6
CONTINUOUS
 62
     4
100
AcDbLine
 10
121.544775
 20
260.643613
 30
0.0
 11
124.442553
 21
259.867156
 31
0.0
  0
LINE
  5
F8
330
F2
100
AcDbEntity
  8
CSLAYER17
  6
CONTINUOUS
 62
     4
100
AcDbLine
 10
150.044775
 20
260.643613
 30
0.0
 11
147.1469979999999
 21
261.4200709999999
 31
0.0
  0
LINE
  5
F9
330
F2
100
AcDbEntity
  8
CSLAYER17
  6
CONTINUOUS
 62
     4
100
AcDbLine
 10
150.044775
 20
260.643613
 30
0.0
 11
147.1469979999999
 21
259.867156
 31
0.0
  0
ENDBLK
  5
FA
330
F2
100
AcDbEntity
  8
0
100
AcDbBlockEnd
  0
BLOCK
  5
FC
330
FB
100
AcDbEntity
  8
CSLAYER17
100
AcDbBlockBegin
  2
*D19
 70
     1
 10
0.0
 20
0.0
 30
0.0
  3
*D19
  1

  0
TEXT
  5
FD
330
FB
100
AcDbEntity
  8
CSLAYER17
 62
     4
100
AcDbText
 10
94.39477700000001
 20
267.143616
 30
0.0
 40
3.2
  1
98.5
 41
1.09090909090909
 51
15.0
  7
FX_FONT
 72
     5
 11
107.1947769999999
 21
267.143616
 31
0.0
100
AcDbText
  0
LINE
  5
FE
330
FB
100
AcDbEntity
  8
CSLAYER17
  6
CONTINUOUS
 62
     4
100
AcDbLine
 10
51.544775
 20
266.643613
 30
0.0
 11
150.044775
 21
266.643613
 31
0.0
  0
LINE
  5
FF
330
FB
100
AcDbEntity
  8
CSLAYER17
  6
CONTINUOUS
 62
     4
100
AcDbLine
 10
51.544775
 20
266.643613
 30
0.0
 11
54.442553
 21
267.420071
 31
0.0
  0
LINE
  5
100
330
FB
100
AcDbEntity
  8
CSLAYER17
  6
CONTINUOUS
 62
     4
100
AcDbLine
 10
51.544775
 20
266.643613
 30
0.0
 11
54.442553
 21
265.867156
 31
0.0
  0
LINE
  5
101
330
FB
100
AcDbEntity
  8
CSLAYER17
  6
CONTINUOUS
 62
     4
100
AcDbLine
 10
150.044775
 20
266.643613
 30
0.0
 11
147.1469979999999
 21
267.420071
 31
0.0
  0
LINE
  5
102
330
FB
100
AcDbEntity
  8
CSLAYER17
  6
CONTINUOUS
 62
     4
100
AcDbLine
 10
150.044775
 20
266.643613
 30
0.0
 11
147.1469979999999
 21
265.867156
 31
0.0
  0
LINE
  5
103
330
FB
100
AcDbEntity
  8
CSLAYER17
  6
CONTINUOUS
 62
     4
100
AcDbLine
 10
51.544775
 20
219.994315
 30
0.0
 11
51.544775
 21
267.643613
 31
0.0
  0
LINE
  5
104
330
FB
100
AcDbEntity
  8
CSLAYER17
  6
CONTINUOUS
 62
     4
100
AcDbLine
 10
150.044775
 20
129.4943149999999
 30
0.0
 11
150.044775
 21
267.643613
 31
0.0
  0
ENDBLK
  5
105
330
FB
100
AcDbEntity
  8
0
100
AcDbBlockEnd
  0
BLOCK
  5
107
330
106
100
AcDbEntity
  8
CSLAYER17
100
AcDbBlockBegin
  2
*D20
 70
     1
 10
0.0
 20
0.0
 30
0.0
  3
*D20
  1

  0
TEXT
  5
108
330
106
100
AcDbEntity
  8
CSLAYER17
 62
     4
100
AcDbText
 10
20.082382
 20
37.879082
 30
0.0
 40
3.2
  1
73
 50
90.0
 41
1.200000187499999
 51
15.0
  7
FX_FONT
 72
     5
 11
20.082382
 21
44.279083
 31
0.0
100
AcDbText
  0
LINE
  5
109
330
106
100
AcDbEntity
  8
CSLAYER17
  6
CONTINUOUS
 62
     4
100
AcDbLine
 10
20.582384
 20
4.579082999999999
 30
0.0
 11
20.582384
 21
77.579083
 31
0.0
  0
LINE
  5
10A
330
106
100
AcDbEntity
  8
CSLAYER17
  6
CONTINUOUS
 62
     4
100
AcDbLine
 10
20.582384
 20
4.579082999999999
 30
0.0
 11
19.80592599999999
 21
7.47686
 31
0.0
  0
LINE
  5
10B
330
106
100
AcDbEntity
  8
CSLAYER17
  6
CONTINUOUS
 62
     4
100
AcDbLine
 10
20.582384
 20
4.579082999999999
 30
0.0
 11
21.358841
 21
7.47686
 31
0.0
  0
LINE
  5
10C
330
106
100
AcDbEntity
  8
CSLAYER17
  6
CONTINUOUS
 62
     4
100
AcDbLine
 10
20.582384
 20
77.579083
 30
0.0
 11
19.80592599999999
 21
74.681305
 31
0.0
  0
LINE
  5
10D
330
106
100
AcDbEntity
  8
CSLAYER17
  6
CONTINUOUS
 62
     4
100
AcDbLine
 10
20.582384
 20
77.579083
 30
0.0
 11
21.358841
 21
74.681305
 31
0.0
  0
LINE
  5
10E
330
106
100
AcDbEntity
  8
CSLAYER17
  6
CONTINUOUS
 62
     4
100
AcDbLine
 10
64.544775
 20
4.579082999999999
 30
0.0
 11
19.582384
 21
4.579082999999999
 31
0.0
  0
LINE
  5
10F
330
106
100
AcDbEntity
  8
CSLAYER17
  6
CONTINUOUS
 62
     4
100
AcDbLine
 10
64.544775
 20
77.579083
 30
0.0
 11
19.582384
 21
77.579083
 31
0.0
  0
ENDBLK
  5
110
330
106
100
AcDbEntity
  8
0
100
AcDbBlockEnd
  0
BLOCK
  5
112
330
111
100
AcDbEntity
  8
CSLAYER17
100
AcDbBlockBegin
  2
*D21
 70
     1
 10
0.0
 20
0.0
 30
0.0
  3
*D21
  1

  0
TEXT
  5
113
330
111
100
AcDbEntity
  8
CSLAYER17
 62
     4
100
AcDbText
 10
32.082382
 20
37.879082
 30
0.0
 40
3.2
  1
45
 50
90.0
 41
1.200000187499999
 51
15.0
  7
FX_FONT
 72
     5
 11
32.082382
 21
44.279083
 31
0.0
100
AcDbText
  0
LINE
  5
114
330
111
100
AcDbEntity
  8
CSLAYER17
  6
CONTINUOUS
 62
     4
100
AcDbLine
 10
32.582384
 20
18.57908299999999
 30
0.0
 11
32.582384
 21
63.579083
 31
0.0
  0
LINE
  5
115
330
111
100
AcDbEntity
  8
CSLAYER17
  6
CONTINUOUS
 62
     4
100
AcDbLine
 10
32.582384
 20
18.57908299999999
 30
0.0
 11
31.805926
 21
21.47686
 31
0.0
  0
LINE
  5
116
330
111
100
AcDbEntity
  8
CSLAYER17
  6
CONTINUOUS
 62
     4
100
AcDbLine
 10
32.582384
 20
18.57908299999999
 30
0.0
 11
33.35884099999999
 21
21.47686
 31
0.0
  0
LINE
  5
117
330
111
100
AcDbEntity
  8
CSLAYER17
  6
CONTINUOUS
 62
     4
100
AcDbLine
 10
32.582384
 20
63.579083
 30
0.0
 11
31.805926
 21
60.681305
 31
0.0
  0
LINE
  5
118
330
111
100
AcDbEntity
  8
CSLAYER17
  6
CONTINUOUS
 62
     4
100
AcDbLine
 10
32.582384
 20
63.579083
 30
0.0
 11
33.35884099999999
 21
60.681305
 31
0.0
  0
LINE
  5
119
330
111
100
AcDbEntity
  8
CSLAYER17
  6
CONTINUOUS
 62
     4
100
AcDbLine
 10
50.544775
 20
18.57908299999999
 30
0.0
 11
31.582384
 21
18.57908299999999
 31
0.0
  0
LINE
  5
11A
330
111
100
AcDbEntity
  8
CSLAYER17
  6
CONTINUOUS
 62
     4
100
AcDbLine
 10
50.544775
 20
63.579083
 30
0.0
 11
31.582384
 21
63.579083
 31
0.0
  0
ENDBLK
  5
11B
330
111
100
AcDbEntity
  8
0
100
AcDbBlockEnd
  0
BLOCK
  5
11D
330
11C
100
AcDbEntity
  8
CSLAYER17
100
AcDbBlockBegin
  2
*D22
 70
     1
 10
0.0
 20
0.0
 30
0.0
  3
*D22
  1

  0
TEXT
  5
11E
330
11C
100
AcDbEntity
  8
CSLAYER17
 62
     4
100
AcDbText
 10
26.082384
 20
37.879082
 30
0.0
 40
3.2
  1
57
 50
90.0
 41
1.200000187499999
 51
15.0
  7
FX_FONT
 72
     5
 11
26.082384
 21
44.279083
 31
0.0
100
AcDbText
  0
LINE
  5
11F
330
11C
100
AcDbEntity
  8
CSLAYER17
  6
CONTINUOUS
 62
     4
100
AcDbLine
 10
26.582384
 20
12.579083
 30
0.0
 11
26.582384
 21
69.57908299999999
 31
0.0
  0
LINE
  5
120
330
11C
100
AcDbEntity
  8
CSLAYER17
  6
CONTINUOUS
 62
     4
100
AcDbLine
 10
26.582384
 20
12.579083
 30
0.0
 11
25.805926
 21
15.47686
 31
0.0
  0
LINE
  5
121
330
11C
100
AcDbEntity
  8
CSLAYER17
  6
CONTINUOUS
 62
     4
100
AcDbLine
 10
26.582384
 20
12.579083
 30
0.0
 11
27.35884099999999
 21
15.47686
 31
0.0
  0
LINE
  5
122
330
11C
100
AcDbEntity
  8
CSLAYER17
  6
CONTINUOUS
 62
     4
100
AcDbLine
 10
26.582384
 20
69.57908299999999
 30
0.0
 11
25.805926
 21
66.68130500000001
 31
0.0
  0
LINE
  5
123
330
11C
100
AcDbEntity
  8
CSLAYER17
  6
CONTINUOUS
 62
     4
100
AcDbLine
 10
26.582384
 20
69.57908299999999
 30
0.0
 11
27.35884099999999
 21
66.68130500000001
 31
0.0
  0
LINE
  5
124
330
11C
100
AcDbEntity
  8
CSLAYER17
  6
CONTINUOUS
 62
     4
100
AcDbLine
 10
77.86109
 20
12.579083
 30
0.0
 11
25.582384
 21
12.579083
 31
0.0
  0
LINE
  5
125
330
11C
100
AcDbEntity
  8
CSLAYER17
  6
CONTINUOUS
 62
     4
100
AcDbLine
 10
77.77393199999998
 20
69.57908299999999
 30
0.0
 11
25.582384
 21
69.57908299999999
 31
0.0
  0
ENDBLK
  5
126
330
11C
100
AcDbEntity
  8
0
100
AcDbBlockEnd
  0
BLOCK
  5
128
330
127
100
AcDbEntity
  8
CSLAYER17
100
AcDbBlockBegin
  2
*D23
 70
     1
 10
0.0
 20
0.0
 30
0.0
  3
*D23
  1

  0
TEXT
  5
129
330
127
100
AcDbEntity
  8
CSLAYER17
 62
     4
100
AcDbText
 10
83.344777
 20
58.83290500000001
 30
0.0
 40
3.2
  1
10
 41
1.199999999999998
 51
15.0
  7
FX_FONT
 72
     5
 11
89.74477699999999
 21
58.83290500000001
 31
0.0
100
AcDbText
  0
LINE
  5
12A
330
127
100
AcDbEntity
  8
CSLAYER17
  6
CONTINUOUS
 62
     4
100
AcDbLine
 10
81.544775
 20
58.332905
 30
0.0
 11
91.544775
 21
58.332905
 31
0.0
  0
LINE
  5
12B
330
127
100
AcDbEntity
  8
CSLAYER17
  6
CONTINUOUS
 62
     4
100
AcDbLine
 10
81.544775
 20
58.332905
 30
0.0
 11
84.442553
 21
59.109362
 31
0.0
  0
LINE
  5
12C
330
127
100
AcDbEntity
  8
CSLAYER17
  6
CONTINUOUS
 62
     4
100
AcDbLine
 10
81.544775
 20
58.332905
 30
0.0
 11
84.442553
 21
57.556447
 31
0.0
  0
LINE
  5
12D
330
127
100
AcDbEntity
  8
CSLAYER17
  6
CONTINUOUS
 62
     4
100
AcDbLine
 10
91.544775
 20
58.332905
 30
0.0
 11
88.646998
 21
59.109362
 31
0.0
  0
LINE
  5
12E
330
127
100
AcDbEntity
  8
CSLAYER17
  6
CONTINUOUS
 62
     4
100
AcDbLine
 10
91.544775
 20
58.332905
 30
0.0
 11
88.646998
 21
57.556447
 31
0.0
  0
LINE
  5
12F
330
127
100
AcDbEntity
  8
CSLAYER17
  6
CONTINUOUS
 62
     4
100
AcDbLine
 10
81.544775
 20
68.579083
 30
0.0
 11
81.544775
 21
57.332905
 31
0.0
  0
LINE
  5
130
330
127
100
AcDbEntity
  8
CSLAYER17
  6
CONTINUOUS
 62
     4
100
AcDbLine
 10
91.544775
 20
68.579083
 30
0.0
 11
91.544775
 21
57.332905
 31
0.0
  0
ENDBLK
  5
131
330
127
100
AcDbEntity
  8
0
100
AcDbBlockEnd
  0
BLOCK
  5
133
330
132
100
AcDbEntity
  8
CSLAYER17
100
AcDbBlockBegin
  2
*D24
 70
     1
 10
0.0
 20
0.0
 30
0.0
  3
*D24
  1

  0
TEXT
  5
134
330
132
100
AcDbEntity
  8
CSLAYER17
 62
     4
100
AcDbText
 10
103.3447769999999
 20
58.83290500000001
 30
0.0
 40
3.2
  1
30
 41
1.199999999999998
 51
15.0
  7
FX_FONT
 72
     5
 11
109.744777
 21
58.83290500000001
 31
0.0
100
AcDbText
  0
LINE
  5
135
330
132
100
AcDbEntity
  8
CSLAYER17
  6
CONTINUOUS
 62
     4
100
AcDbLine
 10
91.544775
 20
58.332905
 30
0.0
 11
121.544775
 21
58.332905
 31
0.0
  0
LINE
  5
136
330
132
100
AcDbEntity
  8
CSLAYER17
  6
CONTINUOUS
 62
     4
100
AcDbLine
 10
91.544775
 20
58.332905
 30
0.0
 11
94.442553
 21
59.109362
 31
0.0
  0
LINE
  5
137
330
132
100
AcDbEntity
  8
CSLAYER17
  6
CONTINUOUS
 62
     4
100
AcDbLine
 10
91.544775
 20
58.332905
 30
0.0
 11
94.442553
 21
57.556447
 31
0.0
  0
LINE
  5
138
330
132
100
AcDbEntity
  8
CSLAYER17
  6
CONTINUOUS
 62
     4
100
AcDbLine
 10
121.544775
 20
58.332905
 30
0.0
 11
118.646998
 21
59.109362
 31
0.0
  0
LINE
  5
139
330
132
100
AcDbEntity
  8
CSLAYER17
  6
CONTINUOUS
 62
     4
100
AcDbLine
 10
121.544775
 20
58.332905
 30
0.0
 11
118.646998
 21
57.556447
 31
0.0
  0
ENDBLK
  5
13A
330
132
100
AcDbEntity
  8
0
100
AcDbBlockEnd
  0
BLOCK
  5
13C
330
13B
100
AcDbEntity
  8
CSLAYER17
100
AcDbBlockBegin
  2
*D25
 70
     1
 10
0.0
 20
0.0
 30
0.0
  3
*D25
  1

  0
TEXT
  5
13D
330
13B
100
AcDbEntity
  8
CSLAYER17
 62
     4
100
AcDbText
 10
104.085205
 20
64.32673900000001
 30
0.0
 40
3.2
  1
6.5
 50
90.0
 41
1.125000117187499
 51
15.0
  7
FX_FONT
 72
     5
 11
104.085205
 21
73.92673999999999
 31
0.0
100
AcDbText
  0
LINE
  5
13E
330
13B
100
AcDbEntity
  8
CSLAYER17
  6
CONTINUOUS
 62
     4
100
AcDbLine
 10
98.985757
 20
66.329083
 30
0.0
 11
98.985757
 21
72.82908299999999
 31
0.0
  0
LINE
  5
13F
330
13B
100
AcDbEntity
  8
CSLAYER17
  6
CONTINUOUS
 62
     4
100
AcDbLine
 10
89.294775
 20
66.329083
 30
0.0
 11
99.98575699999999
 21
66.329083
 31
0.0
  0
LINE
  5
140
330
13B
100
AcDbEntity
  8
CSLAYER17
  6
CONTINUOUS
 62
     4
100
AcDbLine
 10
89.294775
 20
72.82908299999999
 30
0.0
 11
99.98575699999999
 21
72.82908299999999
 31
0.0
  0
LINE
  5
141
330
13B
100
AcDbEntity
  8
CSLAYER17
  6
CONTINUOUS
 62
     4
100
AcDbLine
 10
98.985757
 20
63.32908299999999
 30
0.0
 11
98.985757
 21
66.329083
 31
0.0
  0
LINE
  5
142
330
13B
100
AcDbEntity
  8
CSLAYER17
  6
CONTINUOUS
 62
     4
100
AcDbLine
 10
98.985757
 20
66.329083
 30
0.0
 11
98.20929900000001
 21
63.431305
 31
0.0
  0
LINE
  5
143
330
13B
100
AcDbEntity
  8
CSLAYER17
  6
CONTINUOUS
 62
     4
100
AcDbLine
 10
98.985757
 20
66.329083
 30
0.0
 11
99.762214
 21
63.431305
 31
0.0
  0
LINE
  5
144
330
13B
100
AcDbEntity
  8
CSLAYER17
  6
CONTINUOUS
 62
     4
100
AcDbLine
 10
98.985757
 20
72.82908299999999
 30
0.0
 11
98.985757
 21
75.82908299999999
 31
0.0
  0
LINE
  5
145
330
13B
100
AcDbEntity
  8
CSLAYER17
  6
CONTINUOUS
 62
     4
100
AcDbLine
 10
98.985757
 20
72.82908299999999
 30
0.0
 11
98.20929900000001
 21
75.72686
 31
0.0
  0
LINE
  5
146
330
13B
100
AcDbEntity
  8
CSLAYER17
  6
CONTINUOUS
 62
     4
100
AcDbLine
 10
98.985757
 20
72.82908299999999
 30
0.0
 11
99.762214
 21
75.72686
 31
0.0
  0
ENDBLK
  5
147
330
13B
100
AcDbEntity
  8
0
100
AcDbBlockEnd
  0
BLOCK
  5
149
330
148
100
AcDbEntity
  8
CSLAYER1
100
AcDbBlockBegin
  2
FXDIM0002
 70
     0
 10
0.0
 20
0.0
 30
0.0
  3
FXDIM0002
  1

  0
LINE
  5
14A
330
148
100
AcDbEntity
  8
CSLAYER1
  6
CONTINUOUS
 62
     4
100
AcDbLine
 10
130.065326
 20
111.54911
 30
0.0
 11
134.223322
 21
92.017606
 31
0.0
  0
LINE
  5
14B
330
148
100
AcDbEntity
  8
CSLAYER1
  6
CONTINUOUS
 62
     4
100
AcDbLine
 10
130.065326
 20
111.54911
 30
0.0
 11
131.4281419999999
 21
108.876521
 31
0.0
  0
LINE
  5
14C
330
148
100
AcDbEntity
  8
CSLAYER1
  6
CONTINUOUS
 62
     4
100
AcDbLine
 10
130.065326
 20
111.54911
 30
0.0
 11
129.9092639999999
 21
108.553172
 31
0.0
  0
LINE
  5
14D
330
148
100
AcDbEntity
  8
CSLAYER1
  6
CONTINUOUS
 62
     4
100
AcDbLine
 10
134.223322
 20
92.017606
 30
0.0
 11
155.4233219999999
 21
92.017606
 31
0.0
  0
TEXT
  5
14E
330
148
100
AcDbEntity
  8
CSLAYER1
 62
     4
100
AcDbText
 10
135.223303
 20
92.517586
 30
0.0
 40
3.2
  1
M5X0.8
 41
1.058823529411763
 51
15.0
  7
FX_FONT
 72
     5
 11
154.423303
 21
92.517586
 31
0.0
100
AcDbText
  0
ENDBLK
  5
14F
330
148
100
AcDbEntity
  8
0
100
AcDbBlockEnd
  0
ENDSEC
  0
SECTION
  2
ENTITIES
  0
LINE
  5
150
330
1E
100
AcDbEntity
  8
CSLAYER17
  6
CONTINUOUS
 62
     3
100
AcDbLine
 10
51.544775
 20
18.57908299999999
 30
0.0
 11
51.544775
 21
63.579083
 31
0.0
  0
LINE
  5
151
330
1E
100
AcDbEntity
  8
CSLAYER17
  6
CONTINUOUS
 62
     3
100
AcDbLine
 10
51.544775
 20
63.579083
 30
0.0
 11
65.544775
 21
77.579083
 31
0.0
  0
LINE
  5
152
330
1E
100
AcDbEntity
  8
CSLAYER1
  6
CONTINUOUS
 62
     3
100
AcDbLine
 10
65.544775
 20
77.579083
 30
0.0
 11
121.544775
 21
77.579083
 31
0.0
  0
LINE
  5
153
330
1E
100
AcDbEntity
  8
CSLAYER17
  6
CONTINUOUS
 62
     3
100
AcDbLine
 10
121.544775
 20
77.579083
 30
0.0
 11
121.544775
 21
4.579082999999999
 31
0.0
  0
LINE
  5
154
330
1E
100
AcDbEntity
  8
CSLAYER1
  6
CONTINUOUS
 62
     3
100
AcDbLine
 10
121.544775
 20
4.579082999999999
 30
0.0
 11
65.544775
 21
4.579082999999999
 31
0.0
  0
LINE
  5
155
330
1E
100
AcDbEntity
  8
CSLAYER17
  6
CONTINUOUS
 62
     3
100
AcDbLine
 10
65.544775
 20
4.579082999999999
 30
0.0
 11
51.544775
 21
18.57908299999999
 31
0.0
  0
CIRCLE
  5
156
330
1E
100
AcDbEntity
  8
CSLAYER17
  6
CONTINUOUS
 62
     3
100
AcDbCircle
 10
58.544775
 20
41.079083
 30
0.0
 40
1.649999999999999
  0
ARC
  5
157
330
1E
100
AcDbEntity
  8
CSLAYER17
  6
CONTINUOUS
 62
     3
100
AcDbCircle
 10
84.79477499999999
 20
69.57908299999999
 30
0.0
 40
3.25
100
AcDbArc
 50
90.0
 51
270.0
  0
LINE
  5
158
330
1E
100
AcDbEntity
  8
CSLAYER1
  6
CONTINUOUS
 62
     3
100
AcDbLine
 10
84.79477499999999
 20
72.82908299999999
 30
0.0
 11
88.29477500000001
 21
72.82908299999999
 31
0.0
  0
ARC
  5
159
330
1E
100
AcDbEntity
  8
CSLAYER17
  6
CONTINUOUS
 62
     3
100
AcDbCircle
 10
88.29477500000001
 20
69.57908299999999
 30
0.0
 40
3.25
100
AcDbArc
 50
270.0
 51
90.0
  0
LINE
  5
15A
330
1E
100
AcDbEntity
  8
CSLAYER1
  6
CONTINUOUS
 62
     3
100
AcDbLine
 10
88.29477500000001
 20
66.329083
 30
0.0
 11
84.79477499999999
 21
66.329083
 31
0.0
  0
CIRCLE
  5
15B
330
1E
100
AcDbEntity
  8
CSLAYER17
  6
CONTINUOUS
 62
     3
100
AcDbCircle
 10
98.54477500000001
 20
41.079083
 30
0.0
 40
1.649999999999999
  0
LINE
  5
15C
330
1E
100
AcDbEntity
  8
CSLAYER1
  6
CONTINUOUS
 62
     3
100
AcDbLine
 10
88.29477500000001
 20
15.82908299999999
 30
0.0
 11
84.79477499999999
 21
15.82908299999999
 31
0.0
  0
ARC
  5
15D
330
1E
100
AcDbEntity
  8
CSLAYER17
  6
CONTINUOUS
 62
     3
100
AcDbCircle
 10
84.79477499999999
 20
12.579083
 30
0.0
 40
3.25
100
AcDbArc
 50
90.0
 51
270.0
  0
LINE
  5
15E
330
1E
100
AcDbEntity
  8
CSLAYER1
  6
CONTINUOUS
 62
     3
100
AcDbLine
 10
84.79477499999999
 20
9.329083
 30
0.0
 11
88.29477500000001
 21
9.329083
 31
0.0
  0
ARC
  5
15F
330
1E
100
AcDbEntity
  8
CSLAYER17
  6
CONTINUOUS
 62
     3
100
AcDbCircle
 10
88.29477500000001
 20
12.579083
 30
0.0
 40
3.25
100
AcDbArc
 50
270.0
 51
90.0
  0
LINE
  5
160
330
1E
100
AcDbEntity
  8
CSLAYER1
  6
CONTINUOUS
 62
     3
100
AcDbLine
 10
372.708362
 20
85.99431499999999
 30
0.0
 11
372.708362
 21
106.9943149999999
 31
0.0
  0
ARC
  5
161
330
1E
100
AcDbEntity
  8
CSLAYER17
  6
CONTINUOUS
 62
     3
100
AcDbCircle
 10
369.708362
 20
106.9943149999999
 30
0.0
 40
3.0
100
AcDbArc
 50
0.0
 51
90.0
  0
LINE
  5
162
330
1E
100
AcDbEntity
  8
CSLAYER1
  6
CONTINUOUS
 62
     3
100
AcDbLine
 10
369.708362
 20
109.9943149999999
 30
0.0
 11
327.708362
 21
109.9943149999999
 31
0.0
  0
LINE
  5
163
330
1E
100
AcDbEntity
  8
CSLAYER1
  6
CONTINUOUS
 62
     3
100
AcDbLine
 10
327.708362
 20
109.9943149999999
 30
0.0
 11
327.708362
 21
218.9943149999999
 31
0.0
  0
LINE
  5
164
330
1E
100
AcDbEntity
  8
CSLAYER1
  6
CONTINUOUS
 62
     3
100
AcDbLine
 10
327.708362
 20
218.9943149999999
 30
0.0
 11
344.208362
 21
218.9943149999999
 31
0.0
  0
LINE
  5
165
330
1E
100
AcDbEntity
  8
CSLAYER1
  6
CONTINUOUS
 62
     3
100
AcDbLine
 10
344.208362
 20
210.7943149999999
 30
0.0
 11
356.208362
 21
210.7943149999999
 31
0.0
  0
LINE
  5
166
330
1E
100
AcDbEntity
  8
CSLAYER1
  6
CONTINUOUS
 62
     3
100
AcDbLine
 10
356.208362
 20
210.7943149999999
 30
0.0
 11
356.208362
 21
242.994315
 31
0.0
  0
LINE
  5
167
330
1E
100
AcDbEntity
  8
CSLAYER1
  6
CONTINUOUS
 62
     3
100
AcDbLine
 10
356.208362
 20
242.994315
 30
0.0
 11
363.208362
 21
242.994315
 31
0.0
  0
LINE
  5
168
330
1E
100
AcDbEntity
  8
CSLAYER1
  6
CONTINUOUS
 62
     3
100
AcDbLine
 10
363.208362
 20
242.994315
 30
0.0
 11
363.208362
 21
232.251389
 31
0.0
  0
ARC
  5
169
330
1E
100
AcDbEntity
  8
CSLAYER1
  6
CONTINUOUS
 62
     3
100
AcDbCircle
 10
377.208362
 20
232.251389
 30
0.0
 40
14.0
100
AcDbArc
 50
180.0
 51
251.250659
  0
LINE
  5
16A
330
1E
100
AcDbEntity
  8
CSLAYER1
  6
CONTINUOUS
 62
     3
100
AcDbLine
 10
372.708362
 20
218.9943149999999
 30
0.0
 11
372.708362
 21
133.994315
 31
0.0
  0
LINE
  5
16B
330
1E
100
AcDbEntity
  8
CSLAYER1
  6
CONTINUOUS
 62
     3
100
AcDbLine
 10
372.708362
 20
133.994315
 30
0.0
 11
327.708362
 21
133.994315
 31
0.0
  0
LINE
  5
16C
330
1E
100
AcDbEntity
  8
CSLAYER1
  6
CONTINUOUS
 62
     3
100
AcDbLine
 10
327.708362
 20
128.994315
 30
0.0
 11
330.208362
 21
128.994315
 31
0.0
  0
ARC
  5
16D
330
1E
100
AcDbEntity
  8
CSLAYER17
  6
CONTINUOUS
 62
     3
100
AcDbCircle
 10
330.208362
 20
126.9943149999999
 30
0.0
 40
2.0
100
AcDbArc
 50
0.0
 51
90.0
  0
LINE
  5
16E
330
1E
100
AcDbEntity
  8
CSLAYER1
  6
CONTINUOUS
 62
     3
100
AcDbLine
 10
332.208362
 20
126.9943149999999
 30
0.0
 11
332.208362
 21
113.9943149999999
 31
0.0
  0
LINE
  5
16F
330
1E
100
AcDbEntity
  8
CSLAYER1
  6
CONTINUOUS
 62
     3
100
AcDbLine
 10
332.208362
 20
113.9943149999999
 30
0.0
 11
368.208362
 21
113.9943149999999
 31
0.0
  0
LINE
  5
170
330
1E
100
AcDbEntity
  8
CSLAYER1
  6
CONTINUOUS
 62
     3
100
AcDbLine
 10
368.208362
 20
113.9943149999999
 30
0.0
 11
368.208362
 21
126.9943149999999
 31
0.0
  0
ARC
  5
171
330
1E
100
AcDbEntity
  8
CSLAYER17
  6
CONTINUOUS
 62
     3
100
AcDbCircle
 10
370.208362
 20
126.9943149999999
 30
0.0
 40
2.0
100
AcDbArc
 50
90.0
 51
180.0
  0
LINE
  5
172
330
1E
100
AcDbEntity
  8
CSLAYER1
  6
CONTINUOUS
 62
     3
100
AcDbLine
 10
370.208362
 20
128.994315
 30
0.0
 11
372.708362
 21
128.994315
 31
0.0
  0
LINE
  5
173
330
1E
100
AcDbEntity
  8
CSLAYER1
  6
CONTINUOUS
 62
     3
100
AcDbLine
 10
372.708362
 20
128.994315
 30
0.0
 11
372.708362
 21
133.6943149999999
 31
0.0
  0
LINE
  5
174
330
1E
100
AcDbEntity
  8
CSLAYER1
  6
CONTINUOUS
 62
     3
100
AcDbLine
 10
372.708362
 20
133.6943149999999
 30
0.0
 11
372.408362
 21
133.994315
 31
0.0
  0
LINE
  5
175
330
1E
100
AcDbEntity
  8
CSLAYER1
  6
CONTINUOUS
 62
     3
100
AcDbLine
 10
359.903722
 20
134.994315
 30
0.0
 11
340.513002
 21
134.994315
 31
0.0
  0
LINE
  5
176
330
1E
100
AcDbEntity
  8
CSLAYER1
  6
CONTINUOUS
 62
     3
100
AcDbLine
 10
340.513002
 20
134.994315
 30
0.0
 11
340.513002
 21
145.9943149999999
 31
0.0
  0
ARC
  5
177
330
1E
100
AcDbEntity
  8
CSLAYER1
  6
CONTINUOUS
 62
     3
100
AcDbCircle
 10
338.513002
 20
145.9943149999999
 30
0.0
 40
2.0
100
AcDbArc
 50
0.0
 51
90.0
  0
LINE
  5
178
330
1E
100
AcDbEntity
  8
CSLAYER1
  6
CONTINUOUS
 62
     3
100
AcDbLine
 10
338.513002
 20
147.9943149999999
 30
0.0
 11
327.708362
 21
147.9943149999999
 31
0.0
  0
LINE
  5
179
330
1E
100
AcDbEntity
  8
CSLAYER1
  6
CONTINUOUS
 62
     3
100
AcDbLine
 10
340.513002
 20
134.994315
 30
0.0
 11
341.513002
 21
133.994315
 31
0.0
  0
LINE
  5
17A
330
1E
100
AcDbEntity
  8
CSLAYER1
  6
CONTINUOUS
 62
     3
100
AcDbLine
 10
358.903722
 20
133.994315
 30
0.0
 11
359.903722
 21
134.994315
 31
0.0
  0
LINE
  5
17B
330
1E
100
AcDbEntity
  8
CSLAYER1
  6
CONTINUOUS
 62
     3
100
AcDbLine
 10
359.903722
 20
134.994315
 30
0.0
 11
359.903722
 21
145.9943149999999
 31
0.0
  0
ARC
  5
17C
330
1E
100
AcDbEntity
  8
CSLAYER1
  6
CONTINUOUS
 62
     3
100
AcDbCircle
 10
361.903722
 20
145.9943149999999
 30
0.0
 40
2.0
100
AcDbArc
 50
90.0
 51
180.0
  0
LINE
  5
17D
330
1E
100
AcDbEntity
  8
CSLAYER1
  6
CONTINUOUS
 62
     3
100
AcDbLine
 10
361.903722
 20
147.9943149999999
 30
0.0
 11
372.708362
 21
147.9943149999999
 31
0.0
  0
LINE
  5
17E
330
1E
100
AcDbEntity
  8
CSLAYER1
  6
CONTINUOUS
 62
     3
100
AcDbLine
 10
368.208362
 20
115.4943149999999
 30
0.0
 11
332.208362
 21
115.4943149999999
 31
0.0
  0
LINE
  5
17F
330
1E
100
AcDbEntity
  8
CSLAYER1
  6
CONTINUOUS
 62
     3
100
AcDbLine
 10
311.208362
 20
110.9943149999999
 30
0.0
 11
307.708362
 21
110.9943149999999
 31
0.0
  0
LINE
  5
180
330
1E
100
AcDbEntity
  8
CSLAYER17
  6
CONTINUOUS
 62
     3
100
AcDbLine
 10
311.208362
 20
110.9943149999999
 30
0.0
 11
311.708362
 21
111.4943149999999
 31
0.0
  0
LINE
  5
181
330
1E
100
AcDbEntity
  8
CSLAYER1
  6
CONTINUOUS
 62
     3
100
AcDbLine
 10
311.708362
 20
111.4943149999999
 30
0.0
 11
311.708362
 21
116.4943149999999
 31
0.0
  0
LINE
  5
182
330
1E
100
AcDbEntity
  8
CSLAYER17
  6
CONTINUOUS
 62
     3
100
AcDbLine
 10
311.708362
 20
116.4943149999999
 30
0.0
 11
311.208362
 21
116.9943149999999
 31
0.0
  0
LINE
  5
183
330
1E
100
AcDbEntity
  8
CSLAYER17
  6
CONTINUOUS
 62
     3
100
AcDbLine
 10
311.208362
 20
116.9943149999999
 30
0.0
 11
311.208362
 21
110.9943149999999
 31
0.0
  0
LINE
  5
184
330
1E
100
AcDbEntity
  8
CSLAYER1
  6
CONTINUOUS
 62
     3
100
AcDbLine
 10
311.708362
 20
111.9943149999999
 30
0.0
 11
312.708362
 21
111.9943149999999
 31
0.0
  0
LINE
  5
185
330
1E
100
AcDbEntity
  8
CSLAYER1
  6
CONTINUOUS
 62
     3
100
AcDbLine
 10
312.708362
 20
111.9943149999999
 30
0.0
 11
312.708362
 21
115.9943149999999
 31
0.0
  0
LINE
  5
186
330
1E
100
AcDbEntity
  8
CSLAYER1
  6
CONTINUOUS
 62
     3
100
AcDbLine
 10
312.708362
 20
115.9943149999999
 30
0.0
 11
311.708362
 21
115.9943149999999
 31
0.0
  0
LINE
  5
187
330
1E
100
AcDbEntity
  8
CSLAYER1
  6
CONTINUOUS
 62
     3
100
AcDbLine
 10
307.708362
 20
116.9943149999999
 30
0.0
 11
311.208362
 21
116.9943149999999
 31
0.0
  0
LINE
  5
188
330
1E
100
AcDbEntity
  8
CSLAYER1
  6
CONTINUOUS
 62
     3
100
AcDbLine
 10
322.708362
 20
104.9943149999999
 30
0.0
 11
372.708362
 21
104.9943149999999
 31
0.0
  0
LINE
  5
189
330
1E
100
AcDbEntity
  8
CSLAYER1
  6
CONTINUOUS
 62
     3
100
AcDbLine
 10
372.708362
 20
93.994315
 30
0.0
 11
328.708362
 21
93.994315
 31
0.0
  0
LINE
  5
18A
330
1E
100
AcDbEntity
  8
CSLAYER1
  6
CONTINUOUS
 62
     3
100
AcDbLine
 10
328.708362
 20
93.994315
 30
0.0
 11
328.708362
 21
104.9943149999999
 31
0.0
  0
LINE
  5
18B
330
1E
100
AcDbEntity
  8
CSLAYER1
  6
CONTINUOUS
 62
     3
100
AcDbLine
 10
328.708362
 20
98.994315
 30
0.0
 11
318.708362
 21
98.994315
 31
0.0
  0
LINE
  5
18C
330
1E
100
AcDbEntity
  8
CSLAYER1
  6
CONTINUOUS
 62
     3
100
AcDbLine
 10
318.708362
 20
98.994315
 30
0.0
 11
318.708362
 21
90.99431499999999
 31
0.0
  0
LINE
  5
18D
330
1E
100
AcDbEntity
  8
CSLAYER1
  6
CONTINUOUS
 62
     3
100
AcDbLine
 10
322.708362
 20
104.9943149999999
 30
0.0
 11
322.708362
 21
199.994315
 31
0.0
  0
LINE
  5
18E
330
1E
100
AcDbEntity
  8
CSLAYER1
  6
CONTINUOUS
 62
     3
100
AcDbLine
 10
322.708362
 20
199.994315
 30
0.0
 11
327.708362
 21
199.994315
 31
0.0
  0
CIRCLE
  5
18F
330
1E
100
AcDbEntity
  8
CSLAYER1
  6
CONTINUOUS
 62
     3
100
AcDbCircle
 10
332.208362
 20
197.994315
 30
0.0
 40
1.649999999999999
  0
LINE
  5
190
330
1E
100
AcDbEntity
  8
CSLAYER1
  6
CONTINUOUS
 62
     3
100
AcDbLine
 10
322.708362
 20
196.7943149999999
 30
0.0
 11
321.708362
 21
196.7943149999999
 31
0.0
  0
LINE
  5
191
330
1E
100
AcDbEntity
  8
CSLAYER1
  6
CONTINUOUS
 62
     3
100
AcDbLine
 10
321.708362
 20
196.7943149999999
 30
0.0
 11
321.708362
 21
189.1943149999999
 31
0.0
  0
LINE
  5
192
330
1E
100
AcDbEntity
  8
CSLAYER1
  6
CONTINUOUS
 62
     3
100
AcDbLine
 10
321.708362
 20
189.1943149999999
 30
0.0
 11
322.708362
 21
189.1943149999999
 31
0.0
  0
LINE
  5
193
330
1E
100
AcDbEntity
  8
CSLAYER1
  6
CONTINUOUS
 62
     3
100
AcDbLine
 10
321.708362
 20
189.4943149999999
 30
0.0
 11
318.008362
 21
189.4943149999999
 31
0.0
  0
LINE
  5
194
330
1E
100
AcDbEntity
  8
CSLAYER1
  6
CONTINUOUS
 62
     3
100
AcDbLine
 10
318.008362
 20
189.4943149999999
 30
0.0
 11
317.708362
 21
190.01393
 31
0.0
  0
LINE
  5
195
330
1E
100
AcDbEntity
  8
CSLAYER1
  6
CONTINUOUS
 62
     3
100
AcDbLine
 10
317.708362
 20
190.01393
 30
0.0
 11
317.708362
 21
195.9747
 31
0.0
  0
LINE
  5
196
330
1E
100
AcDbEntity
  8
CSLAYER1
  6
CONTINUOUS
 62
     3
100
AcDbLine
 10
317.708362
 20
195.9747
 30
0.0
 11
318.008362
 21
196.494315
 31
0.0
  0
LINE
  5
197
330
1E
100
AcDbEntity
  8
CSLAYER1
  6
CONTINUOUS
 62
     3
100
AcDbLine
 10
318.008362
 20
196.494315
 30
0.0
 11
321.708362
 21
196.494315
 31
0.0
  0
LINE
  5
198
330
1E
100
AcDbEntity
  8
CSLAYER1
  6
CONTINUOUS
 62
     3
100
AcDbLine
 10
318.008362
 20
196.494315
 30
0.0
 11
318.008362
 21
189.4943149999999
 31
0.0
  0
LINE
  5
199
330
1E
100
AcDbEntity
  8
CSLAYER1
  6
CONTINUOUS
 62
     3
100
AcDbLine
 10
327.708362
 20
187.994315
 30
0.0
 11
372.708362
 21
187.994315
 31
0.0
  0
CIRCLE
  5
19A
330
1E
100
AcDbEntity
  8
CSLAYER1
  6
CONTINUOUS
 62
     3
100
AcDbCircle
 10
368.208362
 20
197.994315
 30
0.0
 40
1.649999999999999
  0
LINE
  5
19B
330
1E
100
AcDbEntity
  8
CSLAYER1
  6
CONTINUOUS
 62
     3
100
AcDbLine
 10
372.708362
 20
218.9943149999999
 30
0.0
 11
356.208362
 21
218.9943149999999
 31
0.0
  0
LINE
  5
19C
330
1E
100
AcDbEntity
  8
CSLAYER1
  6
CONTINUOUS
 62
     3
100
AcDbLine
 10
344.208362
 20
210.7943149999999
 30
0.0
 11
344.208362
 21
242.994315
 31
0.0
  0
LINE
  5
19D
330
1E
100
AcDbEntity
  8
CSLAYER1
  6
CONTINUOUS
 62
     3
100
AcDbLine
 10
344.208362
 20
242.994315
 30
0.0
 11
337.208362
 21
242.994315
 31
0.0
  0
LINE
  5
19E
330
1E
100
AcDbEntity
  8
CSLAYER1
  6
CONTINUOUS
 62
     3
100
AcDbLine
 10
337.208362
 20
242.994315
 30
0.0
 11
337.208362
 21
232.251389
 31
0.0
  0
ARC
  5
19F
330
1E
100
AcDbEntity
  8
CSLAYER1
  6
CONTINUOUS
 62
     3
100
AcDbCircle
 10
323.208362
 20
232.251389
 30
0.0
 40
14.0
100
AcDbArc
 50
288.749341
 51
0.0
  0
LINE
  5
1A0
330
1E
100
AcDbEntity
  8
CSLAYER1
  6
CONTINUOUS
 62
     3
100
AcDbLine
 10
327.708362
 20
162.994315
 30
0.0
 11
372.708362
 21
162.994315
 31
0.0
  0
CIRCLE
  5
1A1
330
1E
100
AcDbEntity
  8
CSLAYER1
  6
CONTINUOUS
 62
     3
100
AcDbCircle
 10
368.208362
 20
157.994315
 30
0.0
 40
1.649999999999999
  0
CIRCLE
  5
1A2
330
1E
100
AcDbEntity
  8
CSLAYER1
  6
CONTINUOUS
 62
     3
100
AcDbCircle
 10
332.208362
 20
157.994315
 30
0.0
 40
1.649999999999999
  0
LINE
  5
1A3
330
1E
100
AcDbEntity
  8
CSLAYER1
  6
CONTINUOUS
 62
     3
100
AcDbLine
 10
322.708362
 20
156.7943149999999
 30
0.0
 11
321.708362
 21
156.7943149999999
 31
0.0
  0
LINE
  5
1A4
330
1E
100
AcDbEntity
  8
CSLAYER1
  6
CONTINUOUS
 62
     3
100
AcDbLine
 10
321.708362
 20
156.7943149999999
 30
0.0
 11
321.708362
 21
149.1943149999999
 31
0.0
  0
LINE
  5
1A5
330
1E
100
AcDbEntity
  8
CSLAYER1
  6
CONTINUOUS
 62
     3
100
AcDbLine
 10
321.708362
 20
149.1943149999999
 30
0.0
 11
322.708362
 21
149.1943149999999
 31
0.0
  0
LINE
  5
1A6
330
1E
100
AcDbEntity
  8
CSLAYER1
  6
CONTINUOUS
 62
     3
100
AcDbLine
 10
321.708362
 20
149.494315
 30
0.0
 11
318.008362
 21
149.494315
 31
0.0
  0
LINE
  5
1A7
330
1E
100
AcDbEntity
  8
CSLAYER1
  6
CONTINUOUS
 62
     3
100
AcDbLine
 10
318.008362
 20
149.494315
 30
0.0
 11
317.708362
 21
150.01393
 31
0.0
  0
LINE
  5
1A8
330
1E
100
AcDbEntity
  8
CSLAYER1
  6
CONTINUOUS
 62
     3
100
AcDbLine
 10
317.708362
 20
150.01393
 30
0.0
 11
317.708362
 21
155.9747
 31
0.0
  0
LINE
  5
1A9
330
1E
100
AcDbEntity
  8
CSLAYER1
  6
CONTINUOUS
 62
     3
100
AcDbLine
 10
317.708362
 20
155.9747
 30
0.0
 11
318.008362
 21
156.4943149999999
 31
0.0
  0
LINE
  5
1AA
330
1E
100
AcDbEntity
  8
CSLAYER1
  6
CONTINUOUS
 62
     3
100
AcDbLine
 10
318.008362
 20
156.4943149999999
 30
0.0
 11
321.708362
 21
156.4943149999999
 31
0.0
  0
LINE
  5
1AB
330
1E
100
AcDbEntity
  8
CSLAYER1
  6
CONTINUOUS
 62
     3
100
AcDbLine
 10
318.008362
 20
156.4943149999999
 30
0.0
 11
318.008362
 21
149.494315
 31
0.0
  0
LINE
  5
1AC
330
1E
100
AcDbEntity
  8
CSLAYER1
  6
CONTINUOUS
 62
     3
100
AcDbLine
 10
304.708362
 20
135.994315
 30
0.0
 11
302.708362
 21
135.994315
 31
0.0
  0
LINE
  5
1AD
330
1E
100
AcDbEntity
  8
CSLAYER1
  6
CONTINUOUS
 62
     3
100
AcDbLine
 10
302.708362
 20
135.994315
 30
0.0
 11
302.708362
 21
85.99431499999999
 31
0.0
  0
LINE
  5
1AE
330
1E
100
AcDbEntity
  8
CSLAYER1
  6
CONTINUOUS
 62
     3
100
AcDbLine
 10
302.708362
 20
85.99431499999999
 30
0.0
 11
372.708362
 21
85.99431499999999
 31
0.0
  0
LINE
  5
1AF
330
1E
100
AcDbEntity
  8
CSLAYER1
  6
CONTINUOUS
 62
     3
100
AcDbLine
 10
372.708362
 20
90.99431499999999
 30
0.0
 11
312.708362
 21
90.99431499999999
 31
0.0
  0
ARC
  5
1B0
330
1E
100
AcDbEntity
  8
CSLAYER17
  6
CONTINUOUS
 62
     3
100
AcDbCircle
 10
312.708362
 20
95.99431499999999
 30
0.0
 40
5.0
100
AcDbArc
 50
180.0
 51
270.0
  0
LINE
  5
1B1
330
1E
100
AcDbEntity
  8
CSLAYER1
  6
CONTINUOUS
 62
     3
100
AcDbLine
 10
307.708362
 20
95.99431499999999
 30
0.0
 11
307.708362
 21
132.994315
 31
0.0
  0
ARC
  5
1B2
330
1E
100
AcDbEntity
  8
CSLAYER17
  6
CONTINUOUS
 62
     3
100
AcDbCircle
 10
304.708362
 20
132.994315
 30
0.0
 40
3.0
100
AcDbArc
 50
0.0
 51
90.0
  0
ARC
  5
1B3
330
1E
100
AcDbEntity
  8
CSLAYER1
  6
CONTINUOUS
 62
     3
100
AcDbCircle
 10
308.008362
 20
129.6943149999999
 30
0.0
 40
0.3
100
AcDbArc
 50
17.028748
 51
180.0
  0
LINE
  5
1B4
330
1E
100
AcDbEntity
  8
CSLAYER1
  6
CONTINUOUS
 62
     3
100
AcDbLine
 10
308.3014009999999
 20
129.7699139999999
 30
0.0
 11
308.365024
 21
129.2443149999999
 31
0.0
  0
LINE
  5
1B5
330
1E
100
AcDbEntity
  8
CSLAYER1
  6
CONTINUOUS
 62
     3
100
AcDbLine
 10
308.308362
 20
129.2443149999999
 30
0.0
 11
311.0806509999999
 21
129.2443149999999
 31
0.0
  0
LINE
  5
1B6
330
1E
100
AcDbEntity
  8
CSLAYER1
  6
CONTINUOUS
 62
     3
100
AcDbLine
 10
311.190809
 20
129.757301
 30
0.0
 11
309.596987
 21
122.3351689999999
 31
0.0
  0
LINE
  5
1B7
330
1E
100
AcDbEntity
  8
CSLAYER1
  6
CONTINUOUS
 62
     3
100
AcDbLine
 10
309.6062959999999
 20
122.2582629999999
 30
0.0
 11
309.54746
 21
122.7443149999999
 31
0.0
  0
LINE
  5
1B8
330
1E
100
AcDbEntity
  8
CSLAYER1
  6
CONTINUOUS
 62
     3
100
AcDbLine
 10
309.684847
 20
122.7443149999999
 30
0.0
 11
308.308362
 21
122.7443149999999
 31
0.0
  0
LINE
  5
1B9
330
1E
100
AcDbEntity
  8
CSLAYER1
  6
CONTINUOUS
 62
     3
100
AcDbLine
 10
308.308362
 20
122.294315
 30
0.0
 11
308.308362
 21
129.739227
 31
0.0
  0
ARC
  5
1BA
330
1E
100
AcDbEntity
  8
CSLAYER1
  6
CONTINUOUS
 62
     3
100
AcDbCircle
 10
311.484122
 20
129.6943149999999
 30
0.0
 40
0.3
100
AcDbArc
 50
347.880409
 51
167.880409
  0
LINE
  5
1BB
330
1E
100
AcDbEntity
  8
CSLAYER1
  6
CONTINUOUS
 62
     3
100
AcDbLine
 10
311.786427
 20
129.6731979999999
 30
0.0
 11
310.173566
 21
122.162405
 31
0.0
  0
ARC
  5
1BC
330
1E
100
AcDbEntity
  8
CSLAYER1
  6
CONTINUOUS
 62
     3
100
AcDbCircle
 10
309.904122
 20
122.294315
 30
0.0
 40
0.3
100
AcDbArc
 50
186.901998
 51
333.9153309999999
  0
LINE
  5
1BD
330
1E
100
AcDbEntity
  8
CSLAYER1
  6
CONTINUOUS
 62
     3
100
AcDbLine
 10
310.2985249999999
 20
122.7443149999999
 30
0.0
 11
312.844847
 21
122.7443149999999
 31
0.0
  0
LINE
  5
1BE
330
1E
100
AcDbEntity
  8
CSLAYER1
  6
CONTINUOUS
 62
     3
100
AcDbLine
 10
312.6606509999999
 20
122.7443149999999
 30
0.0
 11
312.770809
 21
122.2313289999999
 31
0.0
  0
ARC
  5
1BF
330
1E
100
AcDbEntity
  8
CSLAYER1
  6
CONTINUOUS
 62
     3
100
AcDbCircle
 10
313.064122
 20
122.294315
 30
0.0
 40
0.3
100
AcDbArc
 50
192.1195909999999
 51
333.9153309999999
  0
LINE
  5
1C0
330
1E
100
AcDbEntity
  8
CSLAYER1
  6
CONTINUOUS
 62
     3
100
AcDbLine
 10
313.333566
 20
122.162405
 30
0.0
 11
314.946427
 21
129.6731979999999
 31
0.0
  0
LINE
  5
1C1
330
1E
100
AcDbEntity
  8
CSLAYER1
  6
CONTINUOUS
 62
     3
100
AcDbLine
 10
314.946427
 20
129.6731979999999
 30
0.0
 11
315.0385249999999
 21
129.2443149999999
 31
0.0
  0
LINE
  5
1C2
330
1E
100
AcDbEntity
  8
CSLAYER1
  6
CONTINUOUS
 62
     3
100
AcDbLine
 10
317.4006509999999
 20
129.2443149999999
 30
0.0
 11
314.854329
 21
129.2443149999999
 31
0.0
  0
ARC
  5
1C3
330
1E
100
AcDbEntity
  8
CSLAYER1
  6
CONTINUOUS
 62
     3
100
AcDbCircle
 10
314.644122
 20
129.6943149999999
 30
0.0
 40
0.3
100
AcDbArc
 50
347.880409
 51
167.880409
  0
LINE
  5
1C4
330
1E
100
AcDbEntity
  8
CSLAYER1
  6
CONTINUOUS
 62
     3
100
AcDbLine
 10
314.3508089999999
 20
129.757301
 30
0.0
 11
312.7527489999999
 21
122.315432
 31
0.0
  0
LINE
  5
1C5
330
1E
100
AcDbEntity
  8
CSLAYER1
  6
CONTINUOUS
 62
     3
100
AcDbLine
 10
313.458525
 20
122.7443149999999
 30
0.0
 11
316.004847
 21
122.7443149999999
 31
0.0
  0
LINE
  5
1C6
330
1E
100
AcDbEntity
  8
CSLAYER1
  6
CONTINUOUS
 62
     3
100
AcDbLine
 10
315.8206509999999
 20
122.7443149999999
 30
0.0
 11
315.930809
 21
122.2313289999999
 31
0.0
  0
ARC
  5
1C7
330
1E
100
AcDbEntity
  8
CSLAYER1
  6
CONTINUOUS
 62
     3
100
AcDbCircle
 10
316.224122
 20
122.294315
 30
0.0
 40
0.3
100
AcDbArc
 50
192.1195909999999
 51
333.9153309999999
  0
LINE
  5
1C8
330
1E
100
AcDbEntity
  8
CSLAYER1
  6
CONTINUOUS
 62
     3
100
AcDbLine
 10
316.4935659999999
 20
122.162405
 30
0.0
 11
318.106427
 21
129.6731979999999
 31
0.0
  0
LINE
  5
1C9
330
1E
100
AcDbEntity
  8
CSLAYER1
  6
CONTINUOUS
 62
     3
100
AcDbLine
 10
318.106427
 20
129.6731979999999
 30
0.0
 11
318.198525
 21
129.2443149999999
 31
0.0
  0
LINE
  5
1CA
330
1E
100
AcDbEntity
  8
CSLAYER1
  6
CONTINUOUS
 62
     3
100
AcDbLine
 10
318.014329
 20
129.2443149999999
 30
0.0
 11
320.5606509999999
 21
129.2443149999999
 31
0.0
  0
LINE
  5
1CB
330
1E
100
AcDbEntity
  8
CSLAYER1
  6
CONTINUOUS
 62
     3
100
AcDbLine
 10
320.6708089999999
 20
129.757301
 30
0.0
 11
319.072749
 21
122.315432
 31
0.0
  0
LINE
  5
1CC
330
1E
100
AcDbEntity
  8
CSLAYER1
  6
CONTINUOUS
 62
     3
100
AcDbLine
 10
319.0908089999999
 20
122.2313289999999
 30
0.0
 11
318.9806509999999
 21
122.7443149999999
 31
0.0
  0
LINE
  5
1CD
330
1E
100
AcDbEntity
  8
CSLAYER1
  6
CONTINUOUS
 62
     3
100
AcDbLine
 10
319.164847
 20
122.7443149999999
 30
0.0
 11
316.6185249999999
 21
122.7443149999999
 31
0.0
  0
LINE
  5
1CE
330
1E
100
AcDbEntity
  8
CSLAYER1
  6
CONTINUOUS
 62
     3
100
AcDbLine
 10
315.912749
 20
122.315432
 30
0.0
 11
317.510809
 21
129.757301
 31
0.0
  0
ARC
  5
1CF
330
1E
100
AcDbEntity
  8
CSLAYER1
  6
CONTINUOUS
 62
     3
100
AcDbCircle
 10
317.804122
 20
129.6943149999999
 30
0.0
 40
0.3
100
AcDbArc
 50
347.880409
 51
167.880409
  0
ARC
  5
1D0
330
1E
100
AcDbEntity
  8
CSLAYER1
  6
CONTINUOUS
 62
     3
100
AcDbCircle
 10
320.964122
 20
129.6943149999999
 30
0.0
 40
0.3
100
AcDbArc
 50
347.880409
 51
167.880409
  0
LINE
  5
1D1
330
1E
100
AcDbEntity
  8
CSLAYER1
  6
CONTINUOUS
 62
     3
100
AcDbLine
 10
321.266427
 20
129.6731979999999
 30
0.0
 11
319.653566
 21
122.162405
 31
0.0
  0
ARC
  5
1D2
330
1E
100
AcDbEntity
  8
CSLAYER1
  6
CONTINUOUS
 62
     3
100
AcDbCircle
 10
319.384122
 20
122.294315
 30
0.0
 40
0.3
100
AcDbArc
 50
192.1195909999999
 51
333.9153309999999
  0
LINE
  5
1D3
330
1E
100
AcDbEntity
  8
CSLAYER1
  6
CONTINUOUS
 62
     3
100
AcDbLine
 10
319.847299
 20
122.7443149999999
 30
0.0
 11
322.1083619999999
 21
122.7443149999999
 31
0.0
  0
LINE
  5
1D4
330
1E
100
AcDbEntity
  8
CSLAYER1
  6
CONTINUOUS
 62
     3
100
AcDbLine
 10
322.0148759999999
 20
122.7443149999999
 30
0.0
 11
322.113917
 21
122.236849
 31
0.0
  0
LINE
  5
1D5
330
1E
100
AcDbEntity
  8
CSLAYER1
  6
CONTINUOUS
 62
     3
100
AcDbLine
 10
322.1083619999999
 20
122.294315
 30
0.0
 11
322.1083619999999
 21
129.6943149999999
 31
0.0
  0
ARC
  5
1D6
330
1E
100
AcDbEntity
  8
CSLAYER1
  6
CONTINUOUS
 62
     3
100
AcDbCircle
 10
322.408362
 20
129.6943149999999
 30
0.0
 40
0.3
100
AcDbArc
 50
0.0
 51
180.0
  0
LINE
  5
1D7
330
1E
100
AcDbEntity
  8
CSLAYER1
  6
CONTINUOUS
 62
     3
100
AcDbLine
 10
322.1083619999999
 20
129.2443149999999
 30
0.0
 11
321.174329
 21
129.2443149999999
 31
0.0
  0
LINE
  5
1D8
330
1E
100
AcDbEntity
  8
CSLAYER1
  6
CONTINUOUS
 62
     3
100
AcDbLine
 10
321.357608
 20
129.2443149999999
 30
0.0
 11
321.2585669999999
 21
129.7517809999999
 31
0.0
  0
ARC
  5
1D9
330
1E
100
AcDbEntity
  8
CSLAYER1
  6
CONTINUOUS
 62
     3
100
AcDbCircle
 10
322.408362
 20
122.294315
 30
0.0
 40
0.3
100
AcDbArc
 50
180.0
 51
0.0
  0
LINE
  5
1DA
330
1E
100
AcDbEntity
  8
CSLAYER1
  6
CONTINUOUS
 62
     3
100
AcDbLine
 10
358.708362
 20
90.99431499999999
 30
0.0
 11
358.708362
 21
85.99431499999999
 31
0.0
  0
LINE
  5
1DB
330
1E
100
AcDbEntity
  8
CSLAYER1
  6
CONTINUOUS
 62
     3
100
AcDbLine
 10
291.708362
 20
116.4943149999999
 30
0.0
 11
291.997037
 21
116.9943149999999
 31
0.0
  0
LINE
  5
1DC
330
1E
100
AcDbEntity
  8
CSLAYER1
  6
CONTINUOUS
 62
     3
100
AcDbLine
 10
291.997037
 20
116.9943149999999
 30
0.0
 11
291.997037
 21
110.9943149999999
 31
0.0
  0
LINE
  5
1DD
330
1E
100
AcDbEntity
  8
CSLAYER1
  6
CONTINUOUS
 62
     3
100
AcDbLine
 10
291.997037
 20
110.9943149999999
 30
0.0
 11
297.708362
 21
110.9943149999999
 31
0.0
  0
ARC
  5
1DE
330
1E
100
AcDbEntity
  8
CSLAYER1
  6
CONTINUOUS
 62
     3
100
AcDbCircle
 10
302.7013999999999
 20
108.86495
 30
0.0
 40
5.0
100
AcDbArc
 50
153.351056
 51
176.9760179999999
  0
LINE
  5
1DF
330
1E
100
AcDbEntity
  8
CSLAYER1
  6
CONTINUOUS
 62
     3
100
AcDbLine
 10
297.708362
 20
109.12872
 30
0.0
 11
298.232543
 21
108.220812
 31
0.0
  0
LINE
  5
1E0
330
1E
100
AcDbEntity
  8
CSLAYER1
  6
CONTINUOUS
 62
     3
100
AcDbLine
 10
298.232543
 20
108.220812
 30
0.0
 11
302.708362
 21
108.220812
 31
0.0
  0
LINE
  5
1E1
330
1E
100
AcDbEntity
  8
CSLAYER1
  6
CONTINUOUS
 62
     3
100
AcDbLine
 10
302.708362
 20
111.1075639999999
 30
0.0
 11
298.232543
 21
111.1075639999999
 31
0.0
  0
ARC
  5
1E2
330
1E
100
AcDbEntity
  8
CSLAYER1
  6
CONTINUOUS
 62
     3
100
AcDbCircle
 10
305.9193669999999
 20
113.9943149999999
 30
0.0
 40
8.211005
100
AcDbArc
 50
159.416564
 51
200.583436
  0
LINE
  5
1E3
330
1E
100
AcDbEntity
  8
CSLAYER1
  6
CONTINUOUS
 62
     3
100
AcDbLine
 10
298.232543
 20
116.8810659999999
 30
0.0
 11
302.708362
 21
116.8810659999999
 31
0.0
  0
LINE
  5
1E4
330
1E
100
AcDbEntity
  8
CSLAYER1
  6
CONTINUOUS
 62
     3
100
AcDbLine
 10
302.708362
 20
119.767818
 30
0.0
 11
298.232543
 21
119.767818
 31
0.0
  0
LINE
  5
1E5
330
1E
100
AcDbEntity
  8
CSLAYER1
  6
CONTINUOUS
 62
     3
100
AcDbLine
 10
298.232543
 20
119.767818
 30
0.0
 11
297.708362
 21
118.85991
 31
0.0
  0
ARC
  5
1E6
330
1E
100
AcDbEntity
  8
CSLAYER1
  6
CONTINUOUS
 62
     3
100
AcDbCircle
 10
302.7013999999999
 20
119.12368
 30
0.0
 40
5.0
100
AcDbArc
 50
183.023982
 51
206.648944
  0
LINE
  5
1E7
330
1E
100
AcDbEntity
  8
CSLAYER1
  6
CONTINUOUS
 62
     3
100
AcDbLine
 10
297.708362
 20
116.9943149999999
 30
0.0
 11
291.997037
 21
116.9943149999999
 31
0.0
  0
LINE
  5
1E8
330
1E
100
AcDbEntity
  8
CSLAYER1
  6
CONTINUOUS
 62
     3
100
AcDbLine
 10
291.708362
 20
116.4943149999999
 30
0.0
 11
291.708362
 21
111.4943149999999
 31
0.0
  0
LINE
  5
1E9
330
1E
100
AcDbEntity
  8
CSLAYER1
  6
CONTINUOUS
 62
     3
100
AcDbLine
 10
291.708362
 20
111.4943149999999
 30
0.0
 11
291.997037
 21
110.9943149999999
 31
0.0
  0
LINE
  5
1EA
330
1E
100
AcDbEntity
  8
CSLAYER1
  6
CONTINUOUS
 62
     3
100
AcDbLine
 10
297.708362
 20
109.12872
 30
0.0
 11
297.708362
 21
118.85991
 31
0.0
  0
LINE
  5
1EB
330
1E
100
AcDbEntity
  8
CSLAYER1
  6
CONTINUOUS
 62
     3
100
AcDbLine
 10
297.708362
 20
120.9943149999999
 30
0.0
 11
297.708362
 21
130.994315
 31
0.0
  0
LINE
  5
1EC
330
1E
100
AcDbEntity
  8
CSLAYER1
  6
CONTINUOUS
 62
     3
100
AcDbLine
 10
297.708362
 20
130.994315
 30
0.0
 11
293.708362
 21
130.994315
 31
0.0
  0
ARC
  5
1ED
330
1E
100
AcDbEntity
  8
CSLAYER1
  6
CONTINUOUS
 62
     3
100
AcDbCircle
 10
293.708362
 20
130.4943149999999
 30
0.0
 40
0.5
100
AcDbArc
 50
90.0
 51
180.0
  0
LINE
  5
1EE
330
1E
100
AcDbEntity
  8
CSLAYER1
  6
CONTINUOUS
 62
     3
100
AcDbLine
 10
293.208362
 20
130.4943149999999
 30
0.0
 11
293.208362
 21
121.4943149999999
 31
0.0
  0
ARC
  5
1EF
330
1E
100
AcDbEntity
  8
CSLAYER1
  6
CONTINUOUS
 62
     3
100
AcDbCircle
 10
293.708362
 20
121.4943149999999
 30
0.0
 40
0.5
100
AcDbArc
 50
180.0
 51
270.0
  0
LINE
  5
1F0
330
1E
100
AcDbEntity
  8
CSLAYER1
  6
CONTINUOUS
 62
     3
100
AcDbLine
 10
293.708362
 20
120.9943149999999
 30
0.0
 11
297.708362
 21
120.9943149999999
 31
0.0
  0
ARC
  5
1F1
330
1E
100
AcDbEntity
  8
CSLAYER1
  6
CONTINUOUS
 62
     3
100
AcDbCircle
 10
297.958362
 20
122.7843149999999
 30
0.0
 40
0.25
100
AcDbArc
 50
90.0
 51
180.0
  0
LINE
  5
1F2
330
1E
100
AcDbEntity
  8
CSLAYER1
  6
CONTINUOUS
 62
     3
100
AcDbLine
 10
297.958362
 20
123.0343149999999
 30
0.0
 11
300.208362
 21
123.0343149999999
 31
0.0
  0
LINE
  5
1F3
330
1E
100
AcDbEntity
  8
CSLAYER1
  6
CONTINUOUS
 62
     3
100
AcDbLine
 10
300.208362
 20
123.0343149999999
 30
0.0
 11
300.4983619999999
 21
122.7443149999999
 31
0.0
  0
LINE
  5
1F4
330
1E
100
AcDbEntity
  8
CSLAYER1
  6
CONTINUOUS
 62
     3
100
AcDbLine
 10
300.4983619999999
 20
122.7443149999999
 30
0.0
 11
302.708362
 21
122.7443149999999
 31
0.0
  0
LINE
  5
1F5
330
1E
100
AcDbEntity
  8
CSLAYER17
  6
CONTINUOUS
 62
     3
100
AcDbLine
 10
302.708362
 20
121.9943149999999
 30
0.0
 11
307.708362
 21
121.9943149999999
 31
0.0
  0
ARC
  5
1F6
330
1E
100
AcDbEntity
  8
CSLAYER1
  6
CONTINUOUS
 62
     3
100
AcDbCircle
 10
308.008362
 20
122.294315
 30
0.0
 40
0.3
100
AcDbArc
 50
180.0
 51
0.0
  0
LINE
  5
1F7
330
1E
100
AcDbEntity
  8
CSLAYER1
  6
CONTINUOUS
 62
     3
100
AcDbLine
 10
311.694329
 20
129.2443149999999
 30
0.0
 11
314.2406509999999
 21
129.2443149999999
 31
0.0
  0
LINE
  5
1F8
330
1E
100
AcDbEntity
  8
CSLAYER1
  6
CONTINUOUS
 62
     3
100
AcDbLine
 10
311.878525
 20
129.2443149999999
 30
0.0
 11
311.786427
 21
129.6731979999999
 31
0.0
  0
LINE
  5
1F9
330
1E
100
AcDbEntity
  8
CSLAYER1
  6
CONTINUOUS
 62
     3
100
AcDbLine
 10
302.708362
 20
129.2443149999999
 30
0.0
 11
300.4983619999999
 21
129.2443149999999
 31
0.0
  0
LINE
  5
1FA
330
1E
100
AcDbEntity
  8
CSLAYER1
  6
CONTINUOUS
 62
     3
100
AcDbLine
 10
300.4983619999999
 20
129.2443149999999
 30
0.0
 11
300.4983619999999
 21
122.7443149999999
 31
0.0
  0
LINE
  5
1FB
330
1E
100
AcDbEntity
  8
CSLAYER1
  6
CONTINUOUS
 62
     3
100
AcDbLine
 10
300.208362
 20
123.0343149999999
 30
0.0
 11
300.208362
 21
128.9543149999999
 31
0.0
  0
LINE
  5
1FC
330
1E
100
AcDbEntity
  8
CSLAYER1
  6
CONTINUOUS
 62
     3
100
AcDbLine
 10
300.208362
 20
128.9543149999999
 30
0.0
 11
300.4983619999999
 21
129.2443149999999
 31
0.0
  0
LINE
  5
1FD
330
1E
100
AcDbEntity
  8
CSLAYER1
  6
CONTINUOUS
 62
     3
100
AcDbLine
 10
300.208362
 20
128.9543149999999
 30
0.0
 11
297.958362
 21
128.9543149999999
 31
0.0
  0
ARC
  5
1FE
330
1E
100
AcDbEntity
  8
CSLAYER1
  6
CONTINUOUS
 62
     3
100
AcDbCircle
 10
297.958362
 20
129.2043149999999
 30
0.0
 40
0.25
100
AcDbArc
 50
180.0
 51
270.0
  0
LINE
  5
1FF
330
1E
100
AcDbEntity
  8
CSLAYER17
  6
CONTINUOUS
 62
     3
100
AcDbLine
 10
254.0331339999999
 20
121.9943149999999
 30
0.0
 11
240.033134
 21
135.994315
 31
0.0
  0
LINE
  5
200
330
1E
100
AcDbEntity
  8
CSLAYER17
  6
CONTINUOUS
 62
     3
100
AcDbLine
 10
240.033134
 20
135.994315
 30
0.0
 11
195.033134
 21
135.994315
 31
0.0
  0
LINE
  5
201
330
1E
100
AcDbEntity
  8
CSLAYER17
  6
CONTINUOUS
 62
     3
100
AcDbLine
 10
195.033134
 20
135.994315
 30
0.0
 11
181.033134
 21
121.9943149999999
 31
0.0
  0
LINE
  5
202
330
1E
100
AcDbEntity
  8
CSLAYER1
  6
CONTINUOUS
 62
     3
100
AcDbLine
 10
181.033134
 20
121.9943149999999
 30
0.0
 11
181.033134
 21
85.99431499999999
 31
0.0
  0
LINE
  5
203
330
1E
100
AcDbEntity
  8
CSLAYER17
  6
CONTINUOUS
 62
     3
100
AcDbLine
 10
181.033134
 20
85.99431499999999
 30
0.0
 11
254.0331339999999
 21
85.99431499999999
 31
0.0
  0
LINE
  5
204
330
1E
100
AcDbEntity
  8
CSLAYER1
  6
CONTINUOUS
 62
     3
100
AcDbLine
 10
254.0331339999999
 20
85.99431499999999
 30
0.0
 11
254.0331339999999
 21
121.9943149999999
 31
0.0
  0
LINE
  5
205
330
1E
100
AcDbEntity
  8
CSLAYER1
  6
CONTINUOUS
 62
     3
100
AcDbLine
 10
240.033134
 20
135.994315
 30
0.0
 11
240.033134
 21
218.9943149999999
 31
0.0
  0
LINE
  5
206
330
1E
100
AcDbEntity
  8
CSLAYER1
  6
CONTINUOUS
 62
     3
100
AcDbLine
 10
240.033134
 20
218.9943149999999
 30
0.0
 11
227.533134
 21
242.994315
 31
0.0
  0
LINE
  5
207
330
1E
100
AcDbEntity
  8
CSLAYER1
  6
CONTINUOUS
 62
     3
100
AcDbLine
 10
227.533134
 20
242.994315
 30
0.0
 11
207.533134
 21
242.994315
 31
0.0
  0
LINE
  5
208
330
1E
100
AcDbEntity
  8
CSLAYER1
  6
CONTINUOUS
 62
     3
100
AcDbLine
 10
207.533134
 20
242.994315
 30
0.0
 11
195.033134
 21
218.9943149999999
 31
0.0
  0
LINE
  5
209
330
1E
100
AcDbEntity
  8
CSLAYER1
  6
CONTINUOUS
 62
     3
100
AcDbLine
 10
195.033134
 20
218.9943149999999
 30
0.0
 11
240.033134
 21
218.9943149999999
 31
0.0
  0
LINE
  5
20A
330
1E
100
AcDbEntity
  8
CSLAYER17
  6
CONTINUOUS
 62
     3
100
AcDbLine
 10
240.033134
 20
199.994315
 30
0.0
 11
195.033134
 21
199.994315
 31
0.0
  0
LINE
  5
20B
330
1E
100
AcDbEntity
  8
CSLAYER1
  6
CONTINUOUS
 62
     3
100
AcDbLine
 10
198.033134
 20
193.8603399999999
 30
0.0
 11
199.533134
 21
194.7263659999999
 31
0.0
  0
LINE
  5
20C
330
1E
100
AcDbEntity
  8
CSLAYER1
  6
CONTINUOUS
 62
     3
100
AcDbLine
 10
199.533134
 20
194.7263659999999
 30
0.0
 11
201.033134
 21
193.8603399999999
 31
0.0
  0
LINE
  5
20D
330
1E
100
AcDbEntity
  8
CSLAYER1
  6
CONTINUOUS
 62
     3
100
AcDbLine
 10
201.033134
 20
193.8603399999999
 30
0.0
 11
201.033134
 21
192.1282899999999
 31
0.0
  0
LINE
  5
20E
330
1E
100
AcDbEntity
  8
CSLAYER1
  6
CONTINUOUS
 62
     3
100
AcDbLine
 10
201.033134
 20
192.1282899999999
 30
0.0
 11
199.533134
 21
191.262264
 31
0.0
  0
LINE
  5
20F
330
1E
100
AcDbEntity
  8
CSLAYER1
  6
CONTINUOUS
 62
     3
100
AcDbLine
 10
199.533134
 20
191.262264
 30
0.0
 11
198.033134
 21
192.1282899999999
 31
0.0
  0
LINE
  5
210
330
1E
100
AcDbEntity
  8
CSLAYER1
  6
CONTINUOUS
 62
     3
100
AcDbLine
 10
198.033134
 20
192.1282899999999
 30
0.0
 11
198.033134
 21
193.8603399999999
 31
0.0
  0
CIRCLE
  5
211
330
1E
100
AcDbEntity
  8
CSLAYER1
  6
CONTINUOUS
 62
     3
100
AcDbCircle
 10
199.533134
 20
192.9943149999999
 30
0.0
 40
3.5
  0
CIRCLE
  5
212
330
1E
100
AcDbEntity
  8
CSLAYER1
  6
CONTINUOUS
 62
     3
100
AcDbCircle
 10
199.533134
 20
192.9943149999999
 30
0.0
 40
2.980385
  0
CIRCLE
  5
213
330
1E
100
AcDbEntity
  8
CSLAYER1
  6
CONTINUOUS
 62
     3
100
AcDbCircle
 10
199.533134
 20
192.9943149999999
 30
0.0
 40
3.799999999999999
  0
LINE
  5
214
330
1E
100
AcDbEntity
  8
CSLAYER1
  6
CONTINUOUS
 62
     3
100
AcDbLine
 10
195.033134
 20
218.9943149999999
 30
0.0
 11
195.033134
 21
135.994315
 31
0.0
  0
LINE
  5
215
330
1E
100
AcDbEntity
  8
CSLAYER1
  6
CONTINUOUS
 62
     3
100
AcDbLine
 10
123.754775
 20
128.4943149999999
 30
0.0
 11
123.754775
 21
129.2443149999999
 31
0.0
  0
LINE
  5
216
330
1E
100
AcDbEntity
  8
CSLAYER1
  6
CONTINUOUS
 62
     3
100
AcDbLine
 10
123.754775
 20
129.2443149999999
 30
0.0
 11
121.544775
 21
129.2443149999999
 31
0.0
  0
LINE
  5
217
330
1E
100
AcDbEntity
  8
CSLAYER1
  6
CONTINUOUS
 62
     3
100
AcDbLine
 10
123.754775
 20
129.2443149999999
 30
0.0
 11
124.0447749999999
 21
128.9543149999999
 31
0.0
  0
LINE
  5
218
330
1E
100
AcDbEntity
  8
CSLAYER1
  6
CONTINUOUS
 62
     3
100
AcDbLine
 10
124.0447749999999
 20
128.9543149999999
 30
0.0
 11
124.0447749999999
 21
128.4943149999999
 31
0.0
  0
LINE
  5
219
330
1E
100
AcDbEntity
  8
CSLAYER1
  6
CONTINUOUS
 62
     3
100
AcDbLine
 10
124.0447749999999
 20
128.9543149999999
 30
0.0
 11
126.294775
 21
128.9543149999999
 31
0.0
  0
ARC
  5
21A
330
1E
100
AcDbEntity
  8
CSLAYER1
  6
CONTINUOUS
 62
     3
100
AcDbCircle
 10
126.294775
 20
129.2043149999999
 30
0.0
 40
0.25
100
AcDbArc
 50
270.0
 51
0.0
  0
LINE
  5
21B
330
1E
100
AcDbEntity
  8
CSLAYER1
  6
CONTINUOUS
 62
     3
100
AcDbLine
 10
126.544775
 20
130.994315
 30
0.0
 11
126.544775
 21
128.4943149999999
 31
0.0
  0
LINE
  5
21C
330
1E
100
AcDbEntity
  8
CSLAYER1
  6
CONTINUOUS
 62
     3
100
AcDbLine
 10
131.0447749999999
 20
128.4943149999999
 30
0.0
 11
131.0447749999999
 21
130.4943149999999
 31
0.0
  0
ARC
  5
21D
330
1E
100
AcDbEntity
  8
CSLAYER1
  6
CONTINUOUS
 62
     3
100
AcDbCircle
 10
130.5447749999999
 20
130.4943149999999
 30
0.0
 40
0.5
100
AcDbArc
 50
0.0
 51
90.0
  0
LINE
  5
21E
330
1E
100
AcDbEntity
  8
CSLAYER1
  6
CONTINUOUS
 62
     3
100
AcDbLine
 10
130.5447749999999
 20
130.994315
 30
0.0
 11
126.544775
 21
130.994315
 31
0.0
  0
LINE
  5
21F
330
1E
100
AcDbEntity
  8
CSLAYER1
  6
CONTINUOUS
 62
     3
100
AcDbLine
 10
121.544775
 20
135.994315
 30
0.0
 11
119.544775
 21
135.994315
 31
0.0
  0
ARC
  5
220
330
1E
100
AcDbEntity
  8
CSLAYER17
  6
CONTINUOUS
 62
     3
100
AcDbCircle
 10
119.544775
 20
132.994315
 30
0.0
 40
3.0
100
AcDbArc
 50
90.0
 51
180.0
  0
LINE
  5
221
330
1E
100
AcDbEntity
  8
CSLAYER1
  6
CONTINUOUS
 62
     3
100
AcDbLine
 10
116.544775
 20
132.994315
 30
0.0
 11
116.544775
 21
95.99431499999999
 31
0.0
  0
ARC
  5
222
330
1E
100
AcDbEntity
  8
CSLAYER17
  6
CONTINUOUS
 62
     3
100
AcDbCircle
 10
111.5447749999999
 20
95.99431499999999
 30
0.0
 40
5.0
100
AcDbArc
 50
270.0
 51
0.0
  0
LINE
  5
223
330
1E
100
AcDbEntity
  8
CSLAYER1
  6
CONTINUOUS
 62
     3
100
AcDbLine
 10
111.5447749999999
 20
90.99431499999999
 30
0.0
 11
51.544775
 21
90.99431499999999
 31
0.0
  0
LINE
  5
224
330
1E
100
AcDbEntity
  8
CSLAYER1
  6
CONTINUOUS
 62
     3
100
AcDbLine
 10
51.544775
 20
93.994315
 30
0.0
 11
95.544775
 21
93.994315
 31
0.0
  0
LINE
  5
225
330
1E
100
AcDbEntity
  8
CSLAYER1
  6
CONTINUOUS
 62
     3
100
AcDbLine
 10
95.544775
 20
93.994315
 30
0.0
 11
95.544775
 21
104.9943149999999
 31
0.0
  0
LINE
  5
226
330
1E
100
AcDbEntity
  8
CSLAYER1
  6
CONTINUOUS
 62
     3
100
AcDbLine
 10
95.544775
 20
98.994315
 30
0.0
 11
105.544775
 21
98.994315
 31
0.0
  0
LINE
  5
227
330
1E
100
AcDbEntity
  8
CSLAYER1
  6
CONTINUOUS
 62
     3
100
AcDbLine
 10
105.544775
 20
98.994315
 30
0.0
 11
105.544775
 21
90.99431499999999
 31
0.0
  0
LINE
  5
228
330
1E
100
AcDbEntity
  8
CSLAYER1
  6
CONTINUOUS
 62
     3
100
AcDbLine
 10
121.544775
 20
85.99431499999999
 30
0.0
 11
51.544775
 21
85.99431499999999
 31
0.0
  0
LINE
  5
229
330
1E
100
AcDbEntity
  8
CSLAYER1
  6
CONTINUOUS
 62
     3
100
AcDbLine
 10
51.544775
 20
85.99431499999999
 30
0.0
 11
51.544775
 21
106.9943149999999
 31
0.0
  0
ARC
  5
22A
330
1E
100
AcDbEntity
  8
CSLAYER17
  6
CONTINUOUS
 62
     3
100
AcDbCircle
 10
54.544775
 20
106.9943149999999
 30
0.0
 40
3.0
100
AcDbArc
 50
90.0
 51
180.0
  0
LINE
  5
22B
330
1E
100
AcDbEntity
  8
CSLAYER1
  6
CONTINUOUS
 62
     3
100
AcDbLine
 10
54.544775
 20
109.9943149999999
 30
0.0
 11
96.544775
 21
109.9943149999999
 31
0.0
  0
LINE
  5
22C
330
1E
100
AcDbEntity
  8
CSLAYER1
  6
CONTINUOUS
 62
     3
100
AcDbLine
 10
96.544775
 20
109.9943149999999
 30
0.0
 11
96.544775
 21
218.9943149999999
 31
0.0
  0
LINE
  5
22D
330
1E
100
AcDbEntity
  8
CSLAYER1
  6
CONTINUOUS
 62
     3
100
AcDbLine
 10
96.544775
 20
218.9943149999999
 30
0.0
 11
80.044775
 21
218.9943149999999
 31
0.0
  0
LINE
  5
22E
330
1E
100
AcDbEntity
  8
CSLAYER1
  6
CONTINUOUS
 62
     3
100
AcDbLine
 10
80.044775
 20
210.7943149999999
 30
0.0
 11
68.044775
 21
210.7943149999999
 31
0.0
  0
LINE
  5
22F
330
1E
100
AcDbEntity
  8
CSLAYER1
  6
CONTINUOUS
 62
     3
100
AcDbLine
 10
68.044775
 20
210.7943149999999
 30
0.0
 11
68.044775
 21
242.994315
 31
0.0
  0
LINE
  5
230
330
1E
100
AcDbEntity
  8
CSLAYER1
  6
CONTINUOUS
 62
     3
100
AcDbLine
 10
68.044775
 20
242.994315
 30
0.0
 11
61.044775
 21
242.994315
 31
0.0
  0
LINE
  5
231
330
1E
100
AcDbEntity
  8
CSLAYER1
  6
CONTINUOUS
 62
     3
100
AcDbLine
 10
61.044775
 20
242.994315
 30
0.0
 11
61.044775
 21
232.251389
 31
0.0
  0
ARC
  5
232
330
1E
100
AcDbEntity
  8
CSLAYER1
  6
CONTINUOUS
 62
     3
100
AcDbCircle
 10
47.044775
 20
232.251389
 30
0.0
 40
14.0
100
AcDbArc
 50
288.749341
 51
0.0
  0
LINE
  5
233
330
1E
100
AcDbEntity
  8
CSLAYER1
  6
CONTINUOUS
 62
     3
100
AcDbLine
 10
51.544775
 20
218.9943149999999
 30
0.0
 11
51.544775
 21
133.994315
 31
0.0
  0
LINE
  5
234
330
1E
100
AcDbEntity
  8
CSLAYER1
  6
CONTINUOUS
 62
     3
100
AcDbLine
 10
51.544775
 20
133.994315
 30
0.0
 11
96.544775
 21
133.994315
 31
0.0
  0
LINE
  5
235
330
1E
100
AcDbEntity
  8
CSLAYER1
  6
CONTINUOUS
 62
     3
100
AcDbLine
 10
96.544775
 20
128.994315
 30
0.0
 11
94.044775
 21
128.994315
 31
0.0
  0
ARC
  5
236
330
1E
100
AcDbEntity
  8
CSLAYER17
  6
CONTINUOUS
 62
     3
100
AcDbCircle
 10
94.044775
 20
126.9943149999999
 30
0.0
 40
2.0
100
AcDbArc
 50
90.0
 51
180.0
  0
LINE
  5
237
330
1E
100
AcDbEntity
  8
CSLAYER1
  6
CONTINUOUS
 62
     3
100
AcDbLine
 10
92.04477500000001
 20
126.9943149999999
 30
0.0
 11
92.04477500000001
 21
113.9943149999999
 31
0.0
  0
LINE
  5
238
330
1E
100
AcDbEntity
  8
CSLAYER1
  6
CONTINUOUS
 62
     3
100
AcDbLine
 10
92.04477500000001
 20
113.9943149999999
 30
0.0
 11
56.044775
 21
113.9943149999999
 31
0.0
  0
LINE
  5
239
330
1E
100
AcDbEntity
  8
CSLAYER1
  6
CONTINUOUS
 62
     3
100
AcDbLine
 10
56.044775
 20
113.9943149999999
 30
0.0
 11
56.044775
 21
126.9943149999999
 31
0.0
  0
ARC
  5
23A
330
1E
100
AcDbEntity
  8
CSLAYER17
  6
CONTINUOUS
 62
     3
100
AcDbCircle
 10
54.044775
 20
126.9943149999999
 30
0.0
 40
2.0
100
AcDbArc
 50
0.0
 51
90.0
  0
LINE
  5
23B
330
1E
100
AcDbEntity
  8
CSLAYER1
  6
CONTINUOUS
 62
     3
100
AcDbLine
 10
54.044775
 20
128.994315
 30
0.0
 11
51.544775
 21
128.994315
 31
0.0
  0
LINE
  5
23C
330
1E
100
AcDbEntity
  8
CSLAYER1
  6
CONTINUOUS
 62
     3
100
AcDbLine
 10
51.544775
 20
128.994315
 30
0.0
 11
51.544775
 21
133.6943149999999
 31
0.0
  0
LINE
  5
23D
330
1E
100
AcDbEntity
  8
CSLAYER1
  6
CONTINUOUS
 62
     3
100
AcDbLine
 10
51.544775
 20
133.6943149999999
 30
0.0
 11
51.84477499999999
 21
133.994315
 31
0.0
  0
LINE
  5
23E
330
1E
100
AcDbEntity
  8
CSLAYER1
  6
CONTINUOUS
 62
     3
100
AcDbLine
 10
64.349415
 20
134.994315
 30
0.0
 11
83.740135
 21
134.994315
 31
0.0
  0
LINE
  5
23F
330
1E
100
AcDbEntity
  8
CSLAYER1
  6
CONTINUOUS
 62
     3
100
AcDbLine
 10
83.740135
 20
134.994315
 30
0.0
 11
83.740135
 21
145.9943149999999
 31
0.0
  0
ARC
  5
240
330
1E
100
AcDbEntity
  8
CSLAYER1
  6
CONTINUOUS
 62
     3
100
AcDbCircle
 10
85.74013499999999
 20
145.9943149999999
 30
0.0
 40
2.0
100
AcDbArc
 50
90.0
 51
180.0
  0
LINE
  5
241
330
1E
100
AcDbEntity
  8
CSLAYER1
  6
CONTINUOUS
 62
     3
100
AcDbLine
 10
85.74013499999999
 20
147.9943149999999
 30
0.0
 11
96.544775
 21
147.9943149999999
 31
0.0
  0
LINE
  5
242
330
1E
100
AcDbEntity
  8
CSLAYER1
  6
CONTINUOUS
 62
     3
100
AcDbLine
 10
83.740135
 20
134.994315
 30
0.0
 11
82.740135
 21
133.994315
 31
0.0
  0
CIRCLE
  5
243
330
1E
100
AcDbEntity
  8
CSLAYER17
  6
CONTINUOUS
 62
     3
100
AcDbCircle
 10
79.868204
 20
123.9943149999999
 30
0.0
 40
4.283
  0
LINE
  5
244
330
1E
100
AcDbEntity
  8
CSLAYER1
  6
CONTINUOUS
 62
     3
100
AcDbLine
 10
56.044775
 20
115.4943149999999
 30
0.0
 11
92.04477500000001
 21
115.4943149999999
 31
0.0
  0
ARC
  5
245
330
1E
100
AcDbEntity
  8
CSLAYER1
  6
CONTINUOUS
 62
     3
100
AcDbCircle
 10
104.8690149999999
 20
122.294315
 30
0.0
 40
0.3
100
AcDbArc
 50
206.0846689999999
 51
347.880409
  0
LINE
  5
246
330
1E
100
AcDbEntity
  8
CSLAYER1
  6
CONTINUOUS
 62
     3
100
AcDbLine
 10
105.162328
 20
122.2313289999999
 30
0.0
 11
105.272486
 21
122.7443149999999
 31
0.0
  0
LINE
  5
247
330
1E
100
AcDbEntity
  8
CSLAYER1
  6
CONTINUOUS
 62
     3
100
AcDbLine
 10
105.0882899999999
 20
122.7443149999999
 30
0.0
 11
107.6346119999999
 21
122.7443149999999
 31
0.0
  0
ARC
  5
248
330
1E
100
AcDbEntity
  8
CSLAYER1
  6
CONTINUOUS
 62
     3
100
AcDbCircle
 10
108.0290149999999
 20
122.294315
 30
0.0
 40
0.3
100
AcDbArc
 50
206.0846689999999
 51
347.880409
  0
LINE
  5
249
330
1E
100
AcDbEntity
  8
CSLAYER1
  6
CONTINUOUS
 62
     3
100
AcDbLine
 10
108.322328
 20
122.2313289999999
 30
0.0
 11
108.432486
 21
122.7443149999999
 31
0.0
  0
LINE
  5
24A
330
1E
100
AcDbEntity
  8
CSLAYER1
  6
CONTINUOUS
 62
     3
100
AcDbLine
 10
108.24829
 20
122.7443149999999
 30
0.0
 11
113.954612
 21
122.7443149999999
 31
0.0
  0
ARC
  5
24B
330
1E
100
AcDbEntity
  8
CSLAYER1
  6
CONTINUOUS
 62
     3
100
AcDbCircle
 10
114.3490149999999
 20
122.294315
 30
0.0
 40
0.3
100
AcDbArc
 50
206.0846689999999
 51
353.098002
  0
LINE
  5
24C
330
1E
100
AcDbEntity
  8
CSLAYER1
  6
CONTINUOUS
 62
     3
100
AcDbLine
 10
114.6468409999999
 20
122.2582629999999
 30
0.0
 11
114.705677
 21
122.7443149999999
 31
0.0
  0
LINE
  5
24D
330
1E
100
AcDbEntity
  8
CSLAYER1
  6
CONTINUOUS
 62
     3
100
AcDbLine
 10
114.5682899999999
 20
122.7443149999999
 30
0.0
 11
115.9447749999999
 21
122.7443149999999
 31
0.0
  0
LINE
  5
24E
330
1E
100
AcDbEntity
  8
CSLAYER1
  6
CONTINUOUS
 62
     3
100
AcDbLine
 10
115.9447749999999
 20
122.294315
 30
0.0
 11
115.9447749999999
 21
129.739227
 31
0.0
  0
LINE
  5
24F
330
1E
100
AcDbEntity
  8
CSLAYER1
  6
CONTINUOUS
 62
     3
100
AcDbLine
 10
115.951736
 20
129.7699139999999
 30
0.0
 11
115.8881129999999
 21
129.2443149999999
 31
0.0
  0
LINE
  5
250
330
1E
100
AcDbEntity
  8
CSLAYER1
  6
CONTINUOUS
 62
     3
100
AcDbLine
 10
115.9447749999999
 20
129.2443149999999
 30
0.0
 11
113.172486
 21
129.2443149999999
 31
0.0
  0
LINE
  5
251
330
1E
100
AcDbEntity
  8
CSLAYER1
  6
CONTINUOUS
 62
     3
100
AcDbLine
 10
113.062328
 20
129.757301
 30
0.0
 11
114.65615
 21
122.3351689999999
 31
0.0
  0
LINE
  5
252
330
1E
100
AcDbEntity
  8
CSLAYER1
  6
CONTINUOUS
 62
     3
100
AcDbLine
 10
114.079571
 20
122.162405
 30
0.0
 11
112.46671
 21
129.6731979999999
 31
0.0
  0
LINE
  5
253
330
1E
100
AcDbEntity
  8
CSLAYER1
  6
CONTINUOUS
 62
     3
100
AcDbLine
 10
112.46671
 20
129.6731979999999
 30
0.0
 11
112.374612
 21
129.2443149999999
 31
0.0
  0
LINE
  5
254
330
1E
100
AcDbEntity
  8
CSLAYER1
  6
CONTINUOUS
 62
     3
100
AcDbLine
 10
112.558808
 20
129.2443149999999
 30
0.0
 11
110.012486
 21
129.2443149999999
 31
0.0
  0
LINE
  5
255
330
1E
100
AcDbEntity
  8
CSLAYER1
  6
CONTINUOUS
 62
     3
100
AcDbLine
 10
109.9023279999999
 20
129.757301
 30
0.0
 11
111.5003879999999
 21
122.315432
 31
0.0
  0
LINE
  5
256
330
1E
100
AcDbEntity
  8
CSLAYER1
  6
CONTINUOUS
 62
     3
100
AcDbLine
 10
111.482328
 20
122.2313289999999
 30
0.0
 11
111.592486
 21
122.7443149999999
 31
0.0
  0
ARC
  5
257
330
1E
100
AcDbEntity
  8
CSLAYER1
  6
CONTINUOUS
 62
     3
100
AcDbCircle
 10
111.189015
 20
122.294315
 30
0.0
 40
0.3
100
AcDbArc
 50
206.0846689999999
 51
347.880409
  0
LINE
  5
258
330
1E
100
AcDbEntity
  8
CSLAYER1
  6
CONTINUOUS
 62
     3
100
AcDbLine
 10
110.9195709999999
 20
122.162405
 30
0.0
 11
109.30671
 21
129.6731979999999
 31
0.0
  0
LINE
  5
259
330
1E
100
AcDbEntity
  8
CSLAYER1
  6
CONTINUOUS
 62
     3
100
AcDbLine
 10
109.30671
 20
129.6731979999999
 30
0.0
 11
109.214612
 21
129.2443149999999
 31
0.0
  0
LINE
  5
25A
330
1E
100
AcDbEntity
  8
CSLAYER1
  6
CONTINUOUS
 62
     3
100
AcDbLine
 10
109.398808
 20
129.2443149999999
 30
0.0
 11
106.852486
 21
129.2443149999999
 31
0.0
  0
LINE
  5
25B
330
1E
100
AcDbEntity
  8
CSLAYER1
  6
CONTINUOUS
 62
     3
100
AcDbLine
 10
106.742328
 20
129.757301
 30
0.0
 11
108.3403879999999
 21
122.315432
 31
0.0
  0
LINE
  5
25C
330
1E
100
AcDbEntity
  8
CSLAYER1
  6
CONTINUOUS
 62
     3
100
AcDbLine
 10
107.7595709999999
 20
122.162405
 30
0.0
 11
106.14671
 21
129.6731979999999
 31
0.0
  0
LINE
  5
25D
330
1E
100
AcDbEntity
  8
CSLAYER1
  6
CONTINUOUS
 62
     3
100
AcDbLine
 10
106.14671
 20
129.6731979999999
 30
0.0
 11
106.054612
 21
129.2443149999999
 31
0.0
  0
LINE
  5
25E
330
1E
100
AcDbEntity
  8
CSLAYER1
  6
CONTINUOUS
 62
     3
100
AcDbLine
 10
106.238808
 20
129.2443149999999
 30
0.0
 11
103.692486
 21
129.2443149999999
 31
0.0
  0
LINE
  5
25F
330
1E
100
AcDbEntity
  8
CSLAYER1
  6
CONTINUOUS
 62
     3
100
AcDbLine
 10
103.582328
 20
129.757301
 30
0.0
 11
105.180388
 21
122.315432
 31
0.0
  0
ARC
  5
260
330
1E
100
AcDbEntity
  8
CSLAYER1
  6
CONTINUOUS
 62
     3
100
AcDbCircle
 10
116.244775
 20
122.294315
 30
0.0
 40
0.3
100
AcDbArc
 50
180.0
 51
0.0
  0
LINE
  5
261
330
1E
100
AcDbEntity
  8
CSLAYER17
  6
CONTINUOUS
 62
     3
100
AcDbLine
 10
116.544775
 20
121.9943149999999
 30
0.0
 11
121.544775
 21
121.9943149999999
 31
0.0
  0
ARC
  5
262
330
1E
100
AcDbEntity
  8
CSLAYER1
  6
CONTINUOUS
 62
     3
100
AcDbCircle
 10
116.244775
 20
129.6943149999999
 30
0.0
 40
0.3
100
AcDbArc
 50
0.0
 51
162.9712519999999
  0
ARC
  5
263
330
1E
100
AcDbEntity
  8
CSLAYER1
  6
CONTINUOUS
 62
     3
100
AcDbCircle
 10
112.769015
 20
129.6943149999999
 30
0.0
 40
0.3
100
AcDbArc
 50
12.119591
 51
192.1195909999999
  0
ARC
  5
264
330
1E
100
AcDbEntity
  8
CSLAYER1
  6
CONTINUOUS
 62
     3
100
AcDbCircle
 10
109.6090149999999
 20
129.6943149999999
 30
0.0
 40
0.3
100
AcDbArc
 50
12.119591
 51
192.1195909999999
  0
ARC
  5
265
330
1E
100
AcDbEntity
  8
CSLAYER1
  6
CONTINUOUS
 62
     3
100
AcDbCircle
 10
106.4490149999999
 20
129.6943149999999
 30
0.0
 40
0.3
100
AcDbArc
 50
12.119591
 51
192.1195909999999
  0
LINE
  5
266
330
1E
100
AcDbEntity
  8
CSLAYER1
  6
CONTINUOUS
 62
     3
100
AcDbLine
 10
121.544775
 20
135.994315
 30
0.0
 11
121.544775
 21
85.99431499999999
 31
0.0
  0
LINE
  5
267
330
1E
100
AcDbEntity
  8
CSLAYER1
  6
CONTINUOUS
 62
     3
100
AcDbLine
 10
101.544775
 20
104.9943149999999
 30
0.0
 11
101.544775
 21
199.994315
 31
0.0
  0
LINE
  5
268
330
1E
100
AcDbEntity
  8
CSLAYER1
  6
CONTINUOUS
 62
     3
100
AcDbLine
 10
101.544775
 20
199.994315
 30
0.0
 11
96.544775
 21
199.994315
 31
0.0
  0
CIRCLE
  5
269
330
1E
100
AcDbEntity
  8
CSLAYER1
  6
CONTINUOUS
 62
     3
100
AcDbCircle
 10
92.04477500000001
 20
197.994315
 30
0.0
 40
1.649999999999999
  0
LINE
  5
26A
330
1E
100
AcDbEntity
  8
CSLAYER1
  6
CONTINUOUS
 62
     3
100
AcDbLine
 10
101.544775
 20
196.7943149999999
 30
0.0
 11
102.544775
 21
196.7943149999999
 31
0.0
  0
LINE
  5
26B
330
1E
100
AcDbEntity
  8
CSLAYER1
  6
CONTINUOUS
 62
     3
100
AcDbLine
 10
102.544775
 20
196.7943149999999
 30
0.0
 11
102.544775
 21
189.1943149999999
 31
0.0
  0
LINE
  5
26C
330
1E
100
AcDbEntity
  8
CSLAYER1
  6
CONTINUOUS
 62
     3
100
AcDbLine
 10
102.544775
 20
189.1943149999999
 30
0.0
 11
101.544775
 21
189.1943149999999
 31
0.0
  0
LINE
  5
26D
330
1E
100
AcDbEntity
  8
CSLAYER1
  6
CONTINUOUS
 62
     3
100
AcDbLine
 10
102.544775
 20
189.4943149999999
 30
0.0
 11
106.244775
 21
189.4943149999999
 31
0.0
  0
LINE
  5
26E
330
1E
100
AcDbEntity
  8
CSLAYER1
  6
CONTINUOUS
 62
     3
100
AcDbLine
 10
106.244775
 20
189.4943149999999
 30
0.0
 11
106.544775
 21
190.01393
 31
0.0
  0
LINE
  5
26F
330
1E
100
AcDbEntity
  8
CSLAYER1
  6
CONTINUOUS
 62
     3
100
AcDbLine
 10
106.544775
 20
190.01393
 30
0.0
 11
106.544775
 21
195.9747
 31
0.0
  0
LINE
  5
270
330
1E
100
AcDbEntity
  8
CSLAYER1
  6
CONTINUOUS
 62
     3
100
AcDbLine
 10
106.544775
 20
195.9747
 30
0.0
 11
106.244775
 21
196.494315
 31
0.0
  0
LINE
  5
271
330
1E
100
AcDbEntity
  8
CSLAYER1
  6
CONTINUOUS
 62
     3
100
AcDbLine
 10
106.244775
 20
196.494315
 30
0.0
 11
102.544775
 21
196.494315
 31
0.0
  0
LINE
  5
272
330
1E
100
AcDbEntity
  8
CSLAYER1
  6
CONTINUOUS
 62
     3
100
AcDbLine
 10
96.544775
 20
187.994315
 30
0.0
 11
51.544775
 21
187.994315
 31
0.0
  0
CIRCLE
  5
273
330
1E
100
AcDbEntity
  8
CSLAYER1
  6
CONTINUOUS
 62
     3
100
AcDbCircle
 10
56.044775
 20
197.994315
 30
0.0
 40
1.649999999999999
  0
LINE
  5
274
330
1E
100
AcDbEntity
  8
CSLAYER1
  6
CONTINUOUS
 62
     3
100
AcDbLine
 10
51.544775
 20
218.9943149999999
 30
0.0
 11
68.044775
 21
218.9943149999999
 31
0.0
  0
LINE
  5
275
330
1E
100
AcDbEntity
  8
CSLAYER1
  6
CONTINUOUS
 62
     3
100
AcDbLine
 10
80.044775
 20
210.7943149999999
 30
0.0
 11
80.044775
 21
242.994315
 31
0.0
  0
LINE
  5
276
330
1E
100
AcDbEntity
  8
CSLAYER1
  6
CONTINUOUS
 62
     3
100
AcDbLine
 10
80.044775
 20
242.994315
 30
0.0
 11
87.04477500000001
 21
242.994315
 31
0.0
  0
LINE
  5
277
330
1E
100
AcDbEntity
  8
CSLAYER1
  6
CONTINUOUS
 62
     3
100
AcDbLine
 10
87.04477500000001
 20
242.994315
 30
0.0
 11
87.04477500000001
 21
232.251389
 31
0.0
  0
ARC
  5
278
330
1E
100
AcDbEntity
  8
CSLAYER1
  6
CONTINUOUS
 62
     3
100
AcDbCircle
 10
101.0447749999999
 20
232.251389
 30
0.0
 40
14.0
100
AcDbArc
 50
180.0
 51
251.250659
  0
LINE
  5
279
330
1E
100
AcDbEntity
  8
CSLAYER1
  6
CONTINUOUS
 62
     3
100
AcDbLine
 10
96.544775
 20
162.994315
 30
0.0
 11
51.544775
 21
162.994315
 31
0.0
  0
CIRCLE
  5
27A
330
1E
100
AcDbEntity
  8
CSLAYER1
  6
CONTINUOUS
 62
     3
100
AcDbCircle
 10
56.044775
 20
157.994315
 30
0.0
 40
1.649999999999999
  0
CIRCLE
  5
27B
330
1E
100
AcDbEntity
  8
CSLAYER1
  6
CONTINUOUS
 62
     3
100
AcDbCircle
 10
92.04477500000001
 20
157.994315
 30
0.0
 40
1.649999999999999
  0
LINE
  5
27C
330
1E
100
AcDbEntity
  8
CSLAYER1
  6
CONTINUOUS
 62
     3
100
AcDbLine
 10
101.544775
 20
156.7943149999999
 30
0.0
 11
102.544775
 21
156.7943149999999
 31
0.0
  0
LINE
  5
27D
330
1E
100
AcDbEntity
  8
CSLAYER1
  6
CONTINUOUS
 62
     3
100
AcDbLine
 10
102.544775
 20
156.7943149999999
 30
0.0
 11
102.544775
 21
149.1943149999999
 31
0.0
  0
LINE
  5
27E
330
1E
100
AcDbEntity
  8
CSLAYER1
  6
CONTINUOUS
 62
     3
100
AcDbLine
 10
102.544775
 20
149.1943149999999
 30
0.0
 11
101.544775
 21
149.1943149999999
 31
0.0
  0
LINE
  5
27F
330
1E
100
AcDbEntity
  8
CSLAYER1
  6
CONTINUOUS
 62
     3
100
AcDbLine
 10
102.544775
 20
149.494315
 30
0.0
 11
106.244775
 21
149.494315
 31
0.0
  0
LINE
  5
280
330
1E
100
AcDbEntity
  8
CSLAYER1
  6
CONTINUOUS
 62
     3
100
AcDbLine
 10
106.244775
 20
149.494315
 30
0.0
 11
106.544775
 21
150.01393
 31
0.0
  0
LINE
  5
281
330
1E
100
AcDbEntity
  8
CSLAYER1
  6
CONTINUOUS
 62
     3
100
AcDbLine
 10
106.544775
 20
150.01393
 30
0.0
 11
106.544775
 21
155.9747
 31
0.0
  0
LINE
  5
282
330
1E
100
AcDbEntity
  8
CSLAYER1
  6
CONTINUOUS
 62
     3
100
AcDbLine
 10
106.544775
 20
155.9747
 30
0.0
 11
106.244775
 21
156.4943149999999
 31
0.0
  0
LINE
  5
283
330
1E
100
AcDbEntity
  8
CSLAYER1
  6
CONTINUOUS
 62
     3
100
AcDbLine
 10
106.244775
 20
156.4943149999999
 30
0.0
 11
102.544775
 21
156.4943149999999
 31
0.0
  0
LINE
  5
284
330
1E
100
AcDbEntity
  8
CSLAYER1
  6
CONTINUOUS
 62
     3
100
AcDbLine
 10
106.244775
 20
156.4943149999999
 30
0.0
 11
106.244775
 21
149.494315
 31
0.0
  0
LINE
  5
285
330
1E
100
AcDbEntity
  8
CSLAYER1
  6
CONTINUOUS
 62
     3
100
AcDbLine
 10
106.244775
 20
189.4943149999999
 30
0.0
 11
106.244775
 21
196.494315
 31
0.0
  0
LINE
  5
286
330
1E
100
AcDbEntity
  8
CSLAYER1
  6
CONTINUOUS
 62
     3
100
AcDbLine
 10
198.033134
 20
153.8603399999999
 30
0.0
 11
198.033134
 21
152.1282899999999
 31
0.0
  0
LINE
  5
287
330
1E
100
AcDbEntity
  8
CSLAYER1
  6
CONTINUOUS
 62
     3
100
AcDbLine
 10
198.033134
 20
152.1282899999999
 30
0.0
 11
199.533134
 21
151.262264
 31
0.0
  0
LINE
  5
288
330
1E
100
AcDbEntity
  8
CSLAYER1
  6
CONTINUOUS
 62
     3
100
AcDbLine
 10
199.533134
 20
151.262264
 30
0.0
 11
201.033134
 21
152.1282899999999
 31
0.0
  0
LINE
  5
289
330
1E
100
AcDbEntity
  8
CSLAYER1
  6
CONTINUOUS
 62
     3
100
AcDbLine
 10
201.033134
 20
152.1282899999999
 30
0.0
 11
201.033134
 21
153.8603399999999
 31
0.0
  0
LINE
  5
28A
330
1E
100
AcDbEntity
  8
CSLAYER1
  6
CONTINUOUS
 62
     3
100
AcDbLine
 10
201.033134
 20
153.8603399999999
 30
0.0
 11
199.533134
 21
154.7263659999999
 31
0.0
  0
LINE
  5
28B
330
1E
100
AcDbEntity
  8
CSLAYER1
  6
CONTINUOUS
 62
     3
100
AcDbLine
 10
199.533134
 20
154.7263659999999
 30
0.0
 11
198.033134
 21
153.8603399999999
 31
0.0
  0
CIRCLE
  5
28C
330
1E
100
AcDbEntity
  8
CSLAYER1
  6
CONTINUOUS
 62
     3
100
AcDbCircle
 10
199.533134
 20
152.994315
 30
0.0
 40
3.5
  0
CIRCLE
  5
28D
330
1E
100
AcDbEntity
  8
CSLAYER1
  6
CONTINUOUS
 62
     3
100
AcDbCircle
 10
199.533134
 20
152.994315
 30
0.0
 40
2.980385
  0
CIRCLE
  5
28E
330
1E
100
AcDbEntity
  8
CSLAYER1
  6
CONTINUOUS
 62
     3
100
AcDbCircle
 10
199.533134
 20
152.994315
 30
0.0
 40
3.799999999999999
  0
LINE
  5
28F
330
1E
100
AcDbEntity
  8
CSLAYER1
  6
CONTINUOUS
 62
     3
100
AcDbLine
 10
224.5331339999999
 20
116.8810659999999
 30
0.0
 11
229.533134
 21
119.767818
 31
0.0
  0
LINE
  5
290
330
1E
100
AcDbEntity
  8
CSLAYER1
  6
CONTINUOUS
 62
     3
100
AcDbLine
 10
229.533134
 20
119.767818
 30
0.0
 11
234.5331339999999
 21
116.8810659999999
 31
0.0
  0
LINE
  5
291
330
1E
100
AcDbEntity
  8
CSLAYER1
  6
CONTINUOUS
 62
     3
100
AcDbLine
 10
234.5331339999999
 20
116.8810659999999
 30
0.0
 11
234.5331339999999
 21
111.1075639999999
 31
0.0
  0
LINE
  5
292
330
1E
100
AcDbEntity
  8
CSLAYER1
  6
CONTINUOUS
 62
     3
100
AcDbLine
 10
234.5331339999999
 20
111.1075639999999
 30
0.0
 11
229.533134
 21
108.220812
 31
0.0
  0
LINE
  5
293
330
1E
100
AcDbEntity
  8
CSLAYER1
  6
CONTINUOUS
 62
     3
100
AcDbLine
 10
229.533134
 20
108.220812
 30
0.0
 11
224.5331339999999
 21
111.1075639999999
 31
0.0
  0
LINE
  5
294
330
1E
100
AcDbEntity
  8
CSLAYER1
  6
CONTINUOUS
 62
     3
100
AcDbLine
 10
224.5331339999999
 20
111.1075639999999
 30
0.0
 11
224.5331339999999
 21
116.8810659999999
 31
0.0
  0
LINE
  5
295
330
1E
100
AcDbEntity
  8
CSLAYER1
  6
CONTINUOUS
 62
     3
100
AcDbLine
 10
228.033134
 20
114.86034
 30
0.0
 11
228.033134
 21
113.1282899999999
 31
0.0
  0
LINE
  5
296
330
1E
100
AcDbEntity
  8
CSLAYER1
  6
CONTINUOUS
 62
     3
100
AcDbLine
 10
228.033134
 20
113.1282899999999
 30
0.0
 11
229.533134
 21
112.2622639999999
 31
0.0
  0
LINE
  5
297
330
1E
100
AcDbEntity
  8
CSLAYER1
  6
CONTINUOUS
 62
     3
100
AcDbLine
 10
229.533134
 20
112.2622639999999
 30
0.0
 11
231.0331339999999
 21
113.1282899999999
 31
0.0
  0
LINE
  5
298
330
1E
100
AcDbEntity
  8
CSLAYER1
  6
CONTINUOUS
 62
     3
100
AcDbLine
 10
231.0331339999999
 20
113.1282899999999
 30
0.0
 11
231.0331339999999
 21
114.86034
 31
0.0
  0
LINE
  5
299
330
1E
100
AcDbEntity
  8
CSLAYER1
  6
CONTINUOUS
 62
     3
100
AcDbLine
 10
231.0331339999999
 20
114.86034
 30
0.0
 11
229.533134
 21
115.7263659999999
 31
0.0
  0
LINE
  5
29A
330
1E
100
AcDbEntity
  8
CSLAYER1
  6
CONTINUOUS
 62
     3
100
AcDbLine
 10
229.533134
 20
115.7263659999999
 30
0.0
 11
228.033134
 21
114.86034
 31
0.0
  0
CIRCLE
  5
29B
330
1E
100
AcDbEntity
  8
CSLAYER1
  6
CONTINUOUS
 62
     3
100
AcDbCircle
 10
229.533134
 20
113.9943149999999
 30
0.0
 40
3.0
  0
CIRCLE
  5
29C
330
1E
100
AcDbEntity
  8
CSLAYER1
  6
CONTINUOUS
 62
     3
100
AcDbCircle
 10
229.533134
 20
113.9943149999999
 30
0.0
 40
5.0
  0
LINE
  5
29D
330
1E
100
AcDbEntity
  8
CSLAYER1
  6
CONTINUOUS
 62
     3
100
AcDbLine
 10
230.5261759999999
 20
124.2743149999999
 30
0.0
 11
228.540091
 21
124.2743149999999
 31
0.0
  0
LINE
  5
29E
330
1E
100
AcDbEntity
  8
CSLAYER1
  6
CONTINUOUS
 62
     3
100
AcDbLine
 10
228.540091
 20
124.2743149999999
 30
0.0
 11
227.547049
 21
125.9943149999999
 31
0.0
  0
LINE
  5
29F
330
1E
100
AcDbEntity
  8
CSLAYER1
  6
CONTINUOUS
 62
     3
100
AcDbLine
 10
227.547049
 20
125.9943149999999
 30
0.0
 11
228.540091
 21
127.7143149999999
 31
0.0
  0
LINE
  5
2A0
330
1E
100
AcDbEntity
  8
CSLAYER1
  6
CONTINUOUS
 62
     3
100
AcDbLine
 10
228.540091
 20
127.7143149999999
 30
0.0
 11
230.5261759999999
 21
127.7143149999999
 31
0.0
  0
LINE
  5
2A1
330
1E
100
AcDbEntity
  8
CSLAYER1
  6
CONTINUOUS
 62
     3
100
AcDbLine
 10
230.5261759999999
 20
127.7143149999999
 30
0.0
 11
231.5192189999999
 21
125.9943149999999
 31
0.0
  0
LINE
  5
2A2
330
1E
100
AcDbEntity
  8
CSLAYER1
  6
CONTINUOUS
 62
     3
100
AcDbLine
 10
231.5192189999999
 20
125.9943149999999
 30
0.0
 11
230.5261759999999
 21
124.2743149999999
 31
0.0
  0
CIRCLE
  5
2A3
330
1E
100
AcDbEntity
  8
CSLAYER1
  6
CONTINUOUS
 62
     3
100
AcDbCircle
 10
229.533134
 20
125.9943149999999
 30
0.0
 40
4.5
  0
CIRCLE
  5
2A4
330
1E
100
AcDbEntity
  8
CSLAYER1
  6
CONTINUOUS
 62
     3
100
AcDbCircle
 10
229.533134
 20
125.9943149999999
 30
0.0
 40
5.0
  0
LINE
  5
2A5
330
1E
100
AcDbEntity
  8
CSLAYER1
  6
CONTINUOUS
 62
     3
100
AcDbLine
 10
235.5331339999999
 20
151.262264
 30
0.0
 11
234.033134
 21
152.1282899999999
 31
0.0
  0
LINE
  5
2A6
330
1E
100
AcDbEntity
  8
CSLAYER1
  6
CONTINUOUS
 62
     3
100
AcDbLine
 10
234.033134
 20
152.1282899999999
 30
0.0
 11
234.033134
 21
153.8603399999999
 31
0.0
  0
LINE
  5
2A7
330
1E
100
AcDbEntity
  8
CSLAYER1
  6
CONTINUOUS
 62
     3
100
AcDbLine
 10
234.033134
 20
153.8603399999999
 30
0.0
 11
235.5331339999999
 21
154.7263659999999
 31
0.0
  0
LINE
  5
2A8
330
1E
100
AcDbEntity
  8
CSLAYER1
  6
CONTINUOUS
 62
     3
100
AcDbLine
 10
235.5331339999999
 20
154.7263659999999
 30
0.0
 11
237.0331339999999
 21
153.8603399999999
 31
0.0
  0
LINE
  5
2A9
330
1E
100
AcDbEntity
  8
CSLAYER1
  6
CONTINUOUS
 62
     3
100
AcDbLine
 10
237.0331339999999
 20
153.8603399999999
 30
0.0
 11
237.0331339999999
 21
152.1282899999999
 31
0.0
  0
LINE
  5
2AA
330
1E
100
AcDbEntity
  8
CSLAYER1
  6
CONTINUOUS
 62
     3
100
AcDbLine
 10
237.0331339999999
 20
152.1282899999999
 30
0.0
 11
235.5331339999999
 21
151.262264
 31
0.0
  0
CIRCLE
  5
2AB
330
1E
100
AcDbEntity
  8
CSLAYER1
  6
CONTINUOUS
 62
     3
100
AcDbCircle
 10
235.5331339999999
 20
152.994315
 30
0.0
 40
3.799999999999999
  0
CIRCLE
  5
2AC
330
1E
100
AcDbEntity
  8
CSLAYER1
  6
CONTINUOUS
 62
     3
100
AcDbCircle
 10
235.5331339999999
 20
152.994315
 30
0.0
 40
3.5
  0
CIRCLE
  5
2AD
330
1E
100
AcDbEntity
  8
CSLAYER1
  6
CONTINUOUS
 62
     3
100
AcDbCircle
 10
235.5331339999999
 20
152.994315
 30
0.0
 40
2.980385
  0
LINE
  5
2AE
330
1E
100
AcDbEntity
  8
CSLAYER1
  6
CONTINUOUS
 62
     3
100
AcDbLine
 10
235.5331339999999
 20
191.262264
 30
0.0
 11
237.0331339999999
 21
192.1282899999999
 31
0.0
  0
LINE
  5
2AF
330
1E
100
AcDbEntity
  8
CSLAYER1
  6
CONTINUOUS
 62
     3
100
AcDbLine
 10
237.0331339999999
 20
192.1282899999999
 30
0.0
 11
237.0331339999999
 21
193.8603399999999
 31
0.0
  0
LINE
  5
2B0
330
1E
100
AcDbEntity
  8
CSLAYER1
  6
CONTINUOUS
 62
     3
100
AcDbLine
 10
237.0331339999999
 20
193.8603399999999
 30
0.0
 11
235.5331339999999
 21
194.7263659999999
 31
0.0
  0
LINE
  5
2B1
330
1E
100
AcDbEntity
  8
CSLAYER1
  6
CONTINUOUS
 62
     3
100
AcDbLine
 10
235.5331339999999
 20
194.7263659999999
 30
0.0
 11
234.033134
 21
193.8603399999999
 31
0.0
  0
LINE
  5
2B2
330
1E
100
AcDbEntity
  8
CSLAYER1
  6
CONTINUOUS
 62
     3
100
AcDbLine
 10
234.033134
 20
193.8603399999999
 30
0.0
 11
234.033134
 21
192.1282899999999
 31
0.0
  0
LINE
  5
2B3
330
1E
100
AcDbEntity
  8
CSLAYER1
  6
CONTINUOUS
 62
     3
100
AcDbLine
 10
234.033134
 20
192.1282899999999
 30
0.0
 11
235.5331339999999
 21
191.262264
 31
0.0
  0
CIRCLE
  5
2B4
330
1E
100
AcDbEntity
  8
CSLAYER1
  6
CONTINUOUS
 62
     3
100
AcDbCircle
 10
235.5331339999999
 20
192.9943149999999
 30
0.0
 40
3.799999999999999
  0
CIRCLE
  5
2B5
330
1E
100
AcDbEntity
  8
CSLAYER1
  6
CONTINUOUS
 62
     3
100
AcDbCircle
 10
235.5331339999999
 20
192.9943149999999
 30
0.0
 40
3.5
  0
CIRCLE
  5
2B6
330
1E
100
AcDbEntity
  8
CSLAYER1
  6
CONTINUOUS
 62
     3
100
AcDbCircle
 10
235.5331339999999
 20
192.9943149999999
 30
0.0
 40
2.980385
  0
ARC
  5
2B7
330
1E
100
AcDbEntity
  8
CSLAYER1
  6
CONTINUOUS
 62
     3
100
AcDbCircle
 10
217.533134
 20
233.9943149999999
 30
0.0
 40
5.5
100
AcDbArc
 50
211.582631
 51
330.7038009999999
  0
ARC
  5
2B8
330
1E
100
AcDbEntity
  8
CSLAYER1
  6
CONTINUOUS
 62
     3
100
AcDbCircle
 10
217.533134
 20
233.9943149999999
 30
0.0
 40
5.2
100
AcDbArc
 50
211.0931749999999
 51
330.872635
  0
ARC
  5
2B9
330
1E
100
AcDbEntity
  8
CSLAYER1
  6
CONTINUOUS
 62
     3
100
AcDbCircle
 10
220.6221629999999
 20
230.062661
 30
0.0
 40
2.0
100
AcDbArc
 50
49.69303599999999
 51
128.156077
  0
ARC
  5
2BA
330
1E
100
AcDbEntity
  8
CSLAYER1
  6
CONTINUOUS
 62
     3
100
AcDbCircle
 10
217.533134
 20
233.9943149999999
 30
0.0
 40
3.0
100
AcDbArc
 50
232.617917
 51
308.1560769999999
  0
ARC
  5
2BB
330
1E
100
AcDbEntity
  8
CSLAYER1
  6
CONTINUOUS
 62
     3
100
AcDbCircle
 10
214.577239
 20
230.1256589999999
 30
0.0
 40
1.868656
100
AcDbArc
 50
52.617917
 51
130.0
  0
LINE
  5
2BC
330
1E
100
AcDbEntity
  8
CSLAYER1
  6
CONTINUOUS
 62
     3
100
AcDbLine
 10
213.3760899999999
 20
231.557132
 30
0.0
 11
211.8759209999999
 21
230.298341
 31
0.0
  0
LINE
  5
2BD
330
1E
100
AcDbEntity
  8
CSLAYER1
  6
CONTINUOUS
 62
     3
100
AcDbLine
 10
211.8759209999999
 20
230.298341
 30
0.0
 11
211.2331339999999
 21
231.0643859999999
 31
0.0
  0
LINE
  5
2BE
330
1E
100
AcDbEntity
  8
CSLAYER1
  6
CONTINUOUS
 62
     3
100
AcDbLine
 10
211.2331339999999
 20
231.0643859999999
 30
0.0
 11
212.7333029999999
 21
232.323177
 31
0.0
  0
ARC
  5
2BF
330
1E
100
AcDbEntity
  8
CSLAYER1
  6
CONTINUOUS
 62
     3
100
AcDbCircle
 10
214.577239
 20
230.1256589999999
 30
0.0
 40
2.868656
100
AcDbArc
 50
52.617917
 51
130.0
  0
LINE
  5
2C0
330
1E
100
AcDbEntity
  8
CSLAYER1
  6
CONTINUOUS
 62
     3
100
AcDbLine
 10
215.5966419999999
 20
233.4943149999999
 30
0.0
 11
209.7331339999999
 21
233.4943149999999
 31
0.0
  0
LINE
  5
2C1
330
1E
100
AcDbEntity
  8
CSLAYER1
  6
CONTINUOUS
 62
     3
100
AcDbLine
 10
209.7331339999999
 20
233.4943149999999
 30
0.0
 11
209.7331339999999
 21
234.494315
 31
0.0
  0
LINE
  5
2C2
330
1E
100
AcDbEntity
  8
CSLAYER1
  6
CONTINUOUS
 62
     3
100
AcDbLine
 10
209.7331339999999
 20
234.494315
 30
0.0
 11
215.5966419999999
 21
234.494315
 31
0.0
  0
CIRCLE
  5
2C3
330
1E
100
AcDbEntity
  8
CSLAYER1
  6
CONTINUOUS
 62
     3
100
AcDbCircle
 10
217.533134
 20
233.9943149999999
 30
0.0
 40
1.5
  0
CIRCLE
  5
2C4
330
1E
100
AcDbEntity
  8
CSLAYER1
  6
CONTINUOUS
 62
     3
100
AcDbCircle
 10
217.533134
 20
233.9943149999999
 30
0.0
 40
2.0
  0
LINE
  5
2C5
330
1E
100
AcDbEntity
  8
CSLAYER1
  6
CONTINUOUS
 62
     3
100
AcDbLine
 10
219.469625
 20
233.4943149999999
 30
0.0
 11
221.241846
 21
233.4943149999999
 31
0.0
  0
ARC
  5
2C6
330
1E
100
AcDbEntity
  8
CSLAYER1
  6
CONTINUOUS
 62
     3
100
AcDbCircle
 10
221.241846
 20
234.494315
 30
0.0
 40
1.0
100
AcDbArc
 50
270.0
 51
336.421822
  0
ARC
  5
2C7
330
1E
100
AcDbEntity
  8
CSLAYER1
  6
CONTINUOUS
 62
     3
100
AcDbCircle
 10
223.533134
 20
233.4943149999999
 30
0.0
 40
1.5
100
AcDbArc
 50
229.693036
 51
156.4218219999999
  0
ARC
  5
2C8
330
1E
100
AcDbEntity
  8
CSLAYER1
  6
CONTINUOUS
 62
     3
100
AcDbCircle
 10
220.6221629999999
 20
230.062661
 30
0.0
 40
3.0
100
AcDbArc
 50
49.69303599999999
 51
128.156077
  0
LINE
  5
2C9
330
1E
100
AcDbEntity
  8
CSLAYER1
  6
CONTINUOUS
 62
     3
100
AcDbLine
 10
219.469625
 20
234.494315
 30
0.0
 11
220.660852
 21
234.494315
 31
0.0
  0
ARC
  5
2CA
330
1E
100
AcDbEntity
  8
CSLAYER1
  6
CONTINUOUS
 62
     3
100
AcDbCircle
 10
220.660852
 20
235.4943149999999
 30
0.0
 40
1.0
100
AcDbArc
 50
270.0
 51
325.150095
  0
ARC
  5
2CB
330
1E
100
AcDbEntity
  8
CSLAYER1
  6
CONTINUOUS
 62
     3
100
AcDbCircle
 10
223.533134
 20
233.4943149999999
 30
0.0
 40
2.5
100
AcDbArc
 50
229.693036
 51
145.1500949999999
  0
ARC
  5
2CC
330
1E
100
AcDbEntity
  8
CSLAYER1
  6
CONTINUOUS
 62
     3
100
AcDbCircle
 10
217.533134
 20
233.9943149999999
 30
0.0
 40
5.2
100
AcDbArc
 50
342.2936699999999
 51
8.119671999999999
  0
ARC
  5
2CD
330
1E
100
AcDbEntity
  8
CSLAYER1
  6
CONTINUOUS
 62
     3
100
AcDbCircle
 10
217.533134
 20
233.9943149999999
 30
0.0
 40
5.5
100
AcDbArc
 50
341.1953189999999
 51
9.277397
  0
ARC
  5
2CE
330
1E
100
AcDbEntity
  8
CSLAYER1
  6
CONTINUOUS
 62
     3
100
AcDbCircle
 10
217.533134
 20
233.9943149999999
 30
0.0
 40
5.2
100
AcDbArc
 50
19.600082
 51
174.4822659999999
  0
ARC
  5
2CF
330
1E
100
AcDbEntity
  8
CSLAYER1
  6
CONTINUOUS
 62
     3
100
AcDbCircle
 10
217.533134
 20
233.9943149999999
 30
0.0
 40
5.5
100
AcDbArc
 50
19.768915
 51
174.7840909999999
  0
ARC
  5
2D0
330
1E
100
AcDbEntity
  8
CSLAYER1
  6
CONTINUOUS
 62
     3
100
AcDbCircle
 10
217.533134
 20
233.9943149999999
 30
0.0
 40
5.2
100
AcDbArc
 50
185.517734
 51
199.687774
  0
ARC
  5
2D1
330
1E
100
AcDbEntity
  8
CSLAYER1
  6
CONTINUOUS
 62
     3
100
AcDbCircle
 10
217.533134
 20
233.9943149999999
 30
0.0
 40
5.5
100
AcDbArc
 50
185.215909
 51
200.8403749999999
  0
LINE
  5
2D2
330
1E
100
AcDbEntity
  8
CSLAYER1
  6
CONTINUOUS
 62
     3
100
AcDbLine
 10
333.708362
 20
232.494315
 30
0.0
 11
334.208362
 21
231.9943149999999
 31
0.0
  0
LINE
  5
2D3
330
1E
100
AcDbEntity
  8
CSLAYER1
  6
CONTINUOUS
 62
     3
100
AcDbLine
 10
334.208362
 20
231.9943149999999
 30
0.0
 11
335.008362
 21
231.9943149999999
 31
0.0
  0
LINE
  5
2D4
330
1E
100
AcDbEntity
  8
CSLAYER1
  6
CONTINUOUS
 62
     3
100
AcDbLine
 10
335.008362
 20
231.3943149999999
 30
0.0
 11
335.008362
 21
235.3943149999999
 31
0.0
  0
ARC
  5
2D5
330
1E
100
AcDbEntity
  8
CSLAYER1
  6
CONTINUOUS
 62
     3
100
AcDbCircle
 10
335.508362
 20
235.3943149999999
 30
0.0
 40
0.5
100
AcDbArc
 50
0.0
 51
180.0
  0
LINE
  5
2D6
330
1E
100
AcDbEntity
  8
CSLAYER1
  6
CONTINUOUS
 62
     3
100
AcDbLine
 10
336.008362
 20
235.3943149999999
 30
0.0
 11
336.008362
 21
231.3943149999999
 31
0.0
  0
ARC
  5
2D7
330
1E
100
AcDbEntity
  8
CSLAYER1
  6
CONTINUOUS
 62
     3
100
AcDbCircle
 10
335.508362
 20
231.3943149999999
 30
0.0
 40
0.5
100
AcDbArc
 50
180.0
 51
0.0
  0
LINE
  5
2D8
330
1E
100
AcDbEntity
  8
CSLAYER1
  6
CONTINUOUS
 62
     3
100
AcDbLine
 10
334.208362
 20
231.9943149999999
 30
0.0
 11
334.208362
 21
235.9943149999999
 31
0.0
  0
LINE
  5
2D9
330
1E
100
AcDbEntity
  8
CSLAYER1
  6
CONTINUOUS
 62
     3
100
AcDbLine
 10
334.208362
 20
235.9943149999999
 30
0.0
 11
333.708362
 21
235.4943149999999
 31
0.0
  0
LINE
  5
2DA
330
1E
100
AcDbEntity
  8
CSLAYER1
  6
CONTINUOUS
 62
     3
100
AcDbLine
 10
333.708362
 20
235.4943149999999
 30
0.0
 11
333.708362
 21
232.494315
 31
0.0
  0
ARC
  5
2DB
330
1E
100
AcDbEntity
  8
CSLAYER1
  6
CONTINUOUS
 62
     3
100
AcDbCircle
 10
335.508362
 20
233.9943149999999
 30
0.0
 40
0.6
100
AcDbArc
 50
146.44269
 51
213.55731
  0
ARC
  5
2DC
330
1E
100
AcDbEntity
  8
CSLAYER1
  6
CONTINUOUS
 62
     3
100
AcDbCircle
 10
335.508362
 20
233.9943149999999
 30
0.0
 40
0.6
100
AcDbArc
 50
326.44269
 51
33.55731
  0
LINE
  5
2DD
330
1E
100
AcDbEntity
  8
CSLAYER1
  6
CONTINUOUS
 62
     3
100
AcDbLine
 10
336.008362
 20
231.9943149999999
 30
0.0
 11
336.508362
 21
231.9943149999999
 31
0.0
  0
LINE
  5
2DE
330
1E
100
AcDbEntity
  8
CSLAYER1
  6
CONTINUOUS
 62
     3
100
AcDbLine
 10
336.808362
 20
228.928739
 30
0.0
 11
336.808362
 21
239.494315
 31
0.0
  0
LINE
  5
2DF
330
1E
100
AcDbEntity
  8
CSLAYER1
  6
CONTINUOUS
 62
     3
100
AcDbLine
 10
336.808362
 20
239.494315
 30
0.0
 11
336.508362
 21
239.1943149999999
 31
0.0
  0
LINE
  5
2E0
330
1E
100
AcDbEntity
  8
CSLAYER1
  6
CONTINUOUS
 62
     3
100
AcDbLine
 10
336.508362
 20
239.1943149999999
 30
0.0
 11
336.508362
 21
228.7943149999999
 31
0.0
  0
LINE
  5
2E1
330
1E
100
AcDbEntity
  8
CSLAYER1
  6
CONTINUOUS
 62
     3
100
AcDbLine
 10
336.508362
 20
228.7943149999999
 30
0.0
 11
336.7193069999999
 21
228.58337
 31
0.0
  0
LINE
  5
2E2
330
1E
100
AcDbEntity
  8
CSLAYER1
  6
CONTINUOUS
 62
     3
100
AcDbLine
 10
336.508362
 20
235.9943149999999
 30
0.0
 11
334.208362
 21
235.9943149999999
 31
0.0
  0
LINE
  5
2E3
330
1E
100
AcDbEntity
  8
CSLAYER1
  6
CONTINUOUS
 62
     3
100
AcDbLine
 10
336.808362
 20
239.494315
 30
0.0
 11
337.208362
 21
239.494315
 31
0.0
  0
LINE
  5
2E4
330
1E
100
AcDbEntity
  8
CSLAYER1
  6
CONTINUOUS
 62
     3
100
AcDbLine
 10
344.208362
 20
235.9943149999999
 30
0.0
 11
356.208362
 21
235.9943149999999
 31
0.0
  0
LINE
  5
2E5
330
1E
100
AcDbEntity
  8
CSLAYER1
  6
CONTINUOUS
 62
     3
100
AcDbLine
 10
356.208362
 20
231.9943149999999
 30
0.0
 11
344.208362
 21
231.9943149999999
 31
0.0
  0
LINE
  5
2E6
330
1E
100
AcDbEntity
  8
CSLAYER1
  6
CONTINUOUS
 62
     3
100
AcDbLine
 10
363.6083619999999
 20
228.928739
 30
0.0
 11
363.6083619999999
 21
239.494315
 31
0.0
  0
LINE
  5
2E7
330
1E
100
AcDbEntity
  8
CSLAYER1
  6
CONTINUOUS
 62
     3
100
AcDbLine
 10
363.6083619999999
 20
239.494315
 30
0.0
 11
363.908362
 21
239.1943149999999
 31
0.0
  0
LINE
  5
2E8
330
1E
100
AcDbEntity
  8
CSLAYER1
  6
CONTINUOUS
 62
     3
100
AcDbLine
 10
363.908362
 20
239.1943149999999
 30
0.0
 11
363.908362
 21
228.7943149999999
 31
0.0
  0
LINE
  5
2E9
330
1E
100
AcDbEntity
  8
CSLAYER1
  6
CONTINUOUS
 62
     3
100
AcDbLine
 10
363.908362
 20
228.7943149999999
 30
0.0
 11
363.6974169999999
 21
228.58337
 31
0.0
  0
LINE
  5
2EA
330
1E
100
AcDbEntity
  8
CSLAYER1
  6
CONTINUOUS
 62
     3
100
AcDbLine
 10
364.4083619999999
 20
230.798341
 30
0.0
 11
364.4083619999999
 21
232.494315
 31
0.0
  0
ARC
  5
2EB
330
1E
100
AcDbEntity
  8
CSLAYER1
  6
CONTINUOUS
 62
     3
100
AcDbCircle
 10
364.908362
 20
232.494315
 30
0.0
 40
0.5
100
AcDbArc
 50
0.0
 51
180.0
  0
LINE
  5
2EC
330
1E
100
AcDbEntity
  8
CSLAYER1
  6
CONTINUOUS
 62
     3
100
AcDbLine
 10
365.408362
 20
232.494315
 30
0.0
 11
365.408362
 21
230.798341
 31
0.0
  0
CIRCLE
  5
2ED
330
1E
100
AcDbEntity
  8
CSLAYER1
  6
CONTINUOUS
 62
     3
100
AcDbCircle
 10
364.908362
 20
230.798341
 30
0.0
 40
0.5
  0
LINE
  5
2EE
330
1E
100
AcDbEntity
  8
CSLAYER1
  6
CONTINUOUS
 62
     3
100
AcDbLine
 10
365.408362
 20
231.9943149999999
 30
0.0
 11
366.208362
 21
231.9943149999999
 31
0.0
  0
LINE
  5
2EF
330
1E
100
AcDbEntity
  8
CSLAYER1
  6
CONTINUOUS
 62
     3
100
AcDbLine
 10
366.208362
 20
231.9943149999999
 30
0.0
 11
366.708362
 21
232.494315
 31
0.0
  0
LINE
  5
2F0
330
1E
100
AcDbEntity
  8
CSLAYER1
  6
CONTINUOUS
 62
     3
100
AcDbLine
 10
366.708362
 20
232.494315
 30
0.0
 11
366.708362
 21
235.4943149999999
 31
0.0
  0
LINE
  5
2F1
330
1E
100
AcDbEntity
  8
CSLAYER1
  6
CONTINUOUS
 62
     3
100
AcDbLine
 10
366.708362
 20
235.4943149999999
 30
0.0
 11
366.208362
 21
235.9943149999999
 31
0.0
  0
LINE
  5
2F2
330
1E
100
AcDbEntity
  8
CSLAYER1
  6
CONTINUOUS
 62
     3
100
AcDbLine
 10
366.208362
 20
235.9943149999999
 30
0.0
 11
363.908362
 21
235.9943149999999
 31
0.0
  0
CIRCLE
  5
2F3
330
1E
100
AcDbEntity
  8
CSLAYER1
  6
CONTINUOUS
 62
     3
100
AcDbCircle
 10
364.908362
 20
233.9943149999999
 30
0.0
 40
0.6
  0
CIRCLE
  5
2F4
330
1E
100
AcDbEntity
  8
CSLAYER1
  6
CONTINUOUS
 62
     3
100
AcDbCircle
 10
364.908362
 20
233.9943149999999
 30
0.0
 40
0.5
  0
LINE
  5
2F5
330
1E
100
AcDbEntity
  8
CSLAYER1
  6
CONTINUOUS
 62
     3
100
AcDbLine
 10
364.4083619999999
 20
231.9943149999999
 30
0.0
 11
363.908362
 21
231.9943149999999
 31
0.0
  0
LINE
  5
2F6
330
1E
100
AcDbEntity
  8
CSLAYER1
  6
CONTINUOUS
 62
     3
100
AcDbLine
 10
366.208362
 20
231.9943149999999
 30
0.0
 11
366.208362
 21
235.9943149999999
 31
0.0
  0
LINE
  5
2F7
330
1E
100
AcDbEntity
  8
CSLAYER1
  6
CONTINUOUS
 62
     3
100
AcDbLine
 10
363.6083619999999
 20
239.494315
 30
0.0
 11
363.208362
 21
239.494315
 31
0.0
  0
LINE
  5
2F8
330
1E
100
AcDbEntity
  8
CSLAYER1
  6
CONTINUOUS
 62
     3
100
AcDbLine
 10
90.544775
 20
235.4943149999999
 30
0.0
 11
90.544775
 21
232.494315
 31
0.0
  0
LINE
  5
2F9
330
1E
100
AcDbEntity
  8
CSLAYER1
  6
CONTINUOUS
 62
     3
100
AcDbLine
 10
90.544775
 20
232.494315
 30
0.0
 11
90.044775
 21
231.9943149999999
 31
0.0
  0
LINE
  5
2FA
330
1E
100
AcDbEntity
  8
CSLAYER1
  6
CONTINUOUS
 62
     3
100
AcDbLine
 10
90.044775
 20
231.9943149999999
 30
0.0
 11
89.244775
 21
231.9943149999999
 31
0.0
  0
ARC
  5
2FB
330
1E
100
AcDbEntity
  8
CSLAYER1
  6
CONTINUOUS
 62
     3
100
AcDbCircle
 10
88.74477500000001
 20
232.494315
 30
0.0
 40
0.5
100
AcDbArc
 50
0.0
 51
180.0
  0
LINE
  5
2FC
330
1E
100
AcDbEntity
  8
CSLAYER1
  6
CONTINUOUS
 62
     3
100
AcDbLine
 10
88.244775
 20
232.494315
 30
0.0
 11
88.244775
 21
230.798341
 31
0.0
  0
CIRCLE
  5
2FD
330
1E
100
AcDbEntity
  8
CSLAYER1
  6
CONTINUOUS
 62
     3
100
AcDbCircle
 10
88.74477500000001
 20
230.798341
 30
0.0
 40
0.5
  0
LINE
  5
2FE
330
1E
100
AcDbEntity
  8
CSLAYER1
  6
CONTINUOUS
 62
     3
100
AcDbLine
 10
89.244775
 20
230.798341
 30
0.0
 11
89.244775
 21
232.494315
 31
0.0
  0
LINE
  5
2FF
330
1E
100
AcDbEntity
  8
CSLAYER1
  6
CONTINUOUS
 62
     3
100
AcDbLine
 10
90.044775
 20
231.9943149999999
 30
0.0
 11
90.044775
 21
235.9943149999999
 31
0.0
  0
LINE
  5
300
330
1E
100
AcDbEntity
  8
CSLAYER1
  6
CONTINUOUS
 62
     3
100
AcDbLine
 10
90.044775
 20
235.9943149999999
 30
0.0
 11
90.544775
 21
235.4943149999999
 31
0.0
  0
LINE
  5
301
330
1E
100
AcDbEntity
  8
CSLAYER1
  6
CONTINUOUS
 62
     3
100
AcDbLine
 10
90.044775
 20
235.9943149999999
 30
0.0
 11
87.74477500000001
 21
235.9943149999999
 31
0.0
  0
CIRCLE
  5
302
330
1E
100
AcDbEntity
  8
CSLAYER1
  6
CONTINUOUS
 62
     3
100
AcDbCircle
 10
88.74477500000001
 20
233.9943149999999
 30
0.0
 40
0.6
  0
CIRCLE
  5
303
330
1E
100
AcDbEntity
  8
CSLAYER1
  6
CONTINUOUS
 62
     3
100
AcDbCircle
 10
88.74477500000001
 20
233.9943149999999
 30
0.0
 40
0.5
  0
LINE
  5
304
330
1E
100
AcDbEntity
  8
CSLAYER1
  6
CONTINUOUS
 62
     3
100
AcDbLine
 10
88.244775
 20
231.9943149999999
 30
0.0
 11
87.74477500000001
 21
231.9943149999999
 31
0.0
  0
LINE
  5
305
330
1E
100
AcDbEntity
  8
CSLAYER1
  6
CONTINUOUS
 62
     3
100
AcDbLine
 10
87.444775
 20
228.928739
 30
0.0
 11
87.444775
 21
239.494315
 31
0.0
  0
LINE
  5
306
330
1E
100
AcDbEntity
  8
CSLAYER1
  6
CONTINUOUS
 62
     3
100
AcDbLine
 10
87.444775
 20
239.494315
 30
0.0
 11
87.74477500000001
 21
239.1943149999999
 31
0.0
  0
LINE
  5
307
330
1E
100
AcDbEntity
  8
CSLAYER1
  6
CONTINUOUS
 62
     3
100
AcDbLine
 10
87.74477500000001
 20
239.1943149999999
 30
0.0
 11
87.74477500000001
 21
228.7943149999999
 31
0.0
  0
LINE
  5
308
330
1E
100
AcDbEntity
  8
CSLAYER1
  6
CONTINUOUS
 62
     3
100
AcDbLine
 10
87.74477500000001
 20
228.7943149999999
 30
0.0
 11
87.53383000000001
 21
228.58337
 31
0.0
  0
LINE
  5
309
330
1E
100
AcDbEntity
  8
CSLAYER1
  6
CONTINUOUS
 62
     3
100
AcDbLine
 10
80.044775
 20
231.9943149999999
 30
0.0
 11
68.044775
 21
231.9943149999999
 31
0.0
  0
LINE
  5
30A
330
1E
100
AcDbEntity
  8
CSLAYER1
  6
CONTINUOUS
 62
     3
100
AcDbLine
 10
68.044775
 20
235.9943149999999
 30
0.0
 11
80.044775
 21
235.9943149999999
 31
0.0
  0
LINE
  5
30B
330
1E
100
AcDbEntity
  8
CSLAYER1
  6
CONTINUOUS
 62
     3
100
AcDbLine
 10
87.04477500000001
 20
239.494315
 30
0.0
 11
87.444775
 21
239.494315
 31
0.0
  0
LINE
  5
30C
330
1E
100
AcDbEntity
  8
CSLAYER1
  6
CONTINUOUS
 62
     3
100
AcDbLine
 10
61.044775
 20
239.494315
 30
0.0
 11
60.644775
 21
239.494315
 31
0.0
  0
LINE
  5
30D
330
1E
100
AcDbEntity
  8
CSLAYER1
  6
CONTINUOUS
 62
     3
100
AcDbLine
 10
60.644775
 20
239.494315
 30
0.0
 11
60.644775
 21
228.928739
 31
0.0
  0
LINE
  5
30E
330
1E
100
AcDbEntity
  8
CSLAYER1
  6
CONTINUOUS
 62
     3
100
AcDbLine
 10
60.344775
 20
228.7943149999999
 30
0.0
 11
60.344775
 21
239.1943149999999
 31
0.0
  0
LINE
  5
30F
330
1E
100
AcDbEntity
  8
CSLAYER1
  6
CONTINUOUS
 62
     3
100
AcDbLine
 10
60.344775
 20
239.1943149999999
 30
0.0
 11
60.644775
 21
239.494315
 31
0.0
  0
LINE
  5
310
330
1E
100
AcDbEntity
  8
CSLAYER1
  6
CONTINUOUS
 62
     3
100
AcDbLine
 10
60.344775
 20
235.9943149999999
 30
0.0
 11
58.044775
 21
235.9943149999999
 31
0.0
  0
LINE
  5
311
330
1E
100
AcDbEntity
  8
CSLAYER1
  6
CONTINUOUS
 62
     3
100
AcDbLine
 10
58.044775
 20
235.9943149999999
 30
0.0
 11
57.544775
 21
235.4943149999999
 31
0.0
  0
LINE
  5
312
330
1E
100
AcDbEntity
  8
CSLAYER1
  6
CONTINUOUS
 62
     3
100
AcDbLine
 10
57.544775
 20
235.4943149999999
 30
0.0
 11
57.544775
 21
232.494315
 31
0.0
  0
LINE
  5
313
330
1E
100
AcDbEntity
  8
CSLAYER1
  6
CONTINUOUS
 62
     3
100
AcDbLine
 10
57.544775
 20
232.494315
 30
0.0
 11
58.044775
 21
231.9943149999999
 31
0.0
  0
LINE
  5
314
330
1E
100
AcDbEntity
  8
CSLAYER1
  6
CONTINUOUS
 62
     3
100
AcDbLine
 10
58.044775
 20
231.9943149999999
 30
0.0
 11
58.844775
 21
231.9943149999999
 31
0.0
  0
LINE
  5
315
330
1E
100
AcDbEntity
  8
CSLAYER1
  6
CONTINUOUS
 62
     3
100
AcDbLine
 10
58.844775
 20
231.3943149999999
 30
0.0
 11
58.844775
 21
235.3943149999999
 31
0.0
  0
ARC
  5
316
330
1E
100
AcDbEntity
  8
CSLAYER1
  6
CONTINUOUS
 62
     3
100
AcDbCircle
 10
59.34477499999999
 20
235.3943149999999
 30
0.0
 40
0.5
100
AcDbArc
 50
0.0
 51
180.0
  0
LINE
  5
317
330
1E
100
AcDbEntity
  8
CSLAYER1
  6
CONTINUOUS
 62
     3
100
AcDbLine
 10
59.844775
 20
235.3943149999999
 30
0.0
 11
59.844775
 21
231.3943149999999
 31
0.0
  0
ARC
  5
318
330
1E
100
AcDbEntity
  8
CSLAYER1
  6
CONTINUOUS
 62
     3
100
AcDbCircle
 10
59.34477499999999
 20
231.3943149999999
 30
0.0
 40
0.5
100
AcDbArc
 50
180.0
 51
0.0
  0
LINE
  5
319
330
1E
100
AcDbEntity
  8
CSLAYER1
  6
CONTINUOUS
 62
     3
100
AcDbLine
 10
58.044775
 20
231.9943149999999
 30
0.0
 11
58.044775
 21
235.9943149999999
 31
0.0
  0
ARC
  5
31A
330
1E
100
AcDbEntity
  8
CSLAYER1
  6
CONTINUOUS
 62
     3
100
AcDbCircle
 10
59.34477499999999
 20
233.9943149999999
 30
0.0
 40
0.6
100
AcDbArc
 50
146.44269
 51
213.55731
  0
ARC
  5
31B
330
1E
100
AcDbEntity
  8
CSLAYER1
  6
CONTINUOUS
 62
     3
100
AcDbCircle
 10
59.34477499999999
 20
233.9943149999999
 30
0.0
 40
0.6
100
AcDbArc
 50
326.44269
 51
33.55731
  0
LINE
  5
31C
330
1E
100
AcDbEntity
  8
CSLAYER1
  6
CONTINUOUS
 62
     3
100
AcDbLine
 10
59.844775
 20
231.9943149999999
 30
0.0
 11
60.344775
 21
231.9943149999999
 31
0.0
  0
LINE
  5
31D
330
1E
100
AcDbEntity
  8
CSLAYER1
  6
CONTINUOUS
 62
     3
100
AcDbLine
 10
60.344775
 20
228.7943149999999
 30
0.0
 11
60.55571999999999
 21
228.58337
 31
0.0
  0
ARC
  5
31E
330
1E
100
AcDbEntity
  8
CSLAYER1
  6
CONTINUOUS
 62
     3
100
AcDbCircle
 10
62.349415
 20
145.9943149999999
 30
0.0
 40
2.0
100
AcDbArc
 50
0.0
 51
90.0
  0
LINE
  5
31F
330
1E
100
AcDbEntity
  8
CSLAYER1
  6
CONTINUOUS
 62
     3
100
AcDbLine
 10
64.349415
 20
145.9943149999999
 30
0.0
 11
64.349415
 21
134.994315
 31
0.0
  0
LINE
  5
320
330
1E
100
AcDbEntity
  8
CSLAYER1
  6
CONTINUOUS
 62
     3
100
AcDbLine
 10
64.349415
 20
134.994315
 30
0.0
 11
65.34941500000001
 21
133.994315
 31
0.0
  0
LINE
  5
321
330
1E
100
AcDbEntity
  8
CSLAYER1
  6
CONTINUOUS
 62
     3
100
AcDbLine
 10
62.349415
 20
147.9943149999999
 30
0.0
 11
51.544775
 21
147.9943149999999
 31
0.0
  0
LINE
  5
322
330
1E
100
AcDbEntity
  8
CSLAYER1
  6
CONTINUOUS
 62
     3
100
AcDbLine
 10
51.544775
 20
104.9943149999999
 30
0.0
 11
101.544775
 21
104.9943149999999
 31
0.0
  0
LINE
  5
323
330
1E
100
AcDbEntity
  8
CSLAYER1
  6
CONTINUOUS
 62
     3
100
AcDbLine
 10
102.1392199999999
 20
122.236849
 30
0.0
 11
102.2382609999999
 21
122.7443149999999
 31
0.0
  0
LINE
  5
324
330
1E
100
AcDbEntity
  8
CSLAYER1
  6
CONTINUOUS
 62
     3
100
AcDbLine
 10
102.1447749999999
 20
122.7443149999999
 30
0.0
 11
104.405838
 21
122.7443149999999
 31
0.0
  0
LINE
  5
325
330
1E
100
AcDbEntity
  8
CSLAYER1
  6
CONTINUOUS
 62
     3
100
AcDbLine
 10
104.5995709999999
 20
122.162405
 30
0.0
 11
102.98671
 21
129.6731979999999
 31
0.0
  0
ARC
  5
326
330
1E
100
AcDbEntity
  8
CSLAYER1
  6
CONTINUOUS
 62
     3
100
AcDbCircle
 10
103.289015
 20
129.6943149999999
 30
0.0
 40
0.3
100
AcDbArc
 50
12.119591
 51
192.1195909999999
  0
LINE
  5
327
330
1E
100
AcDbEntity
  8
CSLAYER1
  6
CONTINUOUS
 62
     3
100
AcDbLine
 10
102.99457
 20
129.7517809999999
 30
0.0
 11
102.895529
 21
129.2443149999999
 31
0.0
  0
LINE
  5
328
330
1E
100
AcDbEntity
  8
CSLAYER1
  6
CONTINUOUS
 62
     3
100
AcDbLine
 10
103.0788079999999
 20
129.2443149999999
 30
0.0
 11
102.1447749999999
 21
129.2443149999999
 31
0.0
  0
ARC
  5
329
330
1E
100
AcDbEntity
  8
CSLAYER1
  6
CONTINUOUS
 62
     3
100
AcDbCircle
 10
101.8447749999999
 20
129.6943149999999
 30
0.0
 40
0.3
100
AcDbArc
 50
0.0
 51
180.0
  0
LINE
  5
32A
330
1E
100
AcDbEntity
  8
CSLAYER1
  6
CONTINUOUS
 62
     3
100
AcDbLine
 10
102.1447749999999
 20
129.6943149999999
 30
0.0
 11
102.1447749999999
 21
122.294315
 31
0.0
  0
ARC
  5
32B
330
1E
100
AcDbEntity
  8
CSLAYER1
  6
CONTINUOUS
 62
     3
100
AcDbCircle
 10
101.8447749999999
 20
122.294315
 30
0.0
 40
0.3
100
AcDbArc
 50
180.0
 51
0.0
  0
LINE
  5
32C
330
1E
100
AcDbEntity
  8
CSLAYER17
  6
CONTINUOUS
 62
     3
100
AcDbLine
 10
65.544775
 20
90.99431499999999
 30
0.0
 11
65.544775
 21
85.99431499999999
 31
0.0
  0
POINT
  5
32D
330
1E
100
AcDbEntity
  8
CSLAYER1
 62
     3
100
AcDbPoint
 10
10.0
 20
3.0
 30
0.0
  0
POINT
  5
32E
330
1E
100
AcDbEntity
  8
CSLAYER1
 62
     3
100
AcDbPoint
 10
365.5
 20
20.5
 30
0.0
  0
TEXT
  5
32F
330
1E
100
AcDbEntity
  8
CSLAYER1
 62
     3
100
AcDbText
 10
343.1
 20
18.89999999999999
 30
0.0
 40
3.2
  1
GT-NB20LW-10TM
 41
1.024390243902437
  7
FX_FONT
 72
     5
 11
387.8999999999999
 21
18.89999999999999
 31
0.0
100
AcDbText
  0
LINE
  5
330
330
1E
100
AcDbEntity
  8
CSLAYER1
  6
DASHED
 62
     4
100
AcDbLine
 10
51.544775
 20
29.079083
 30
0.0
 11
105.544775
 21
29.079083
 31
0.0
  0
LINE
  5
331
330
1E
100
AcDbEntity
  8
CSLAYER17
  6
DASHED
 62
     4
100
AcDbLine
 10
105.544775
 20
29.079083
 30
0.0
 11
105.544775
 21
53.079083
 31
0.0
  0
LINE
  5
332
330
1E
100
AcDbEntity
  8
CSLAYER1
  6
DASHED
 62
     4
100
AcDbLine
 10
105.544775
 20
53.079083
 30
0.0
 11
51.544775
 21
53.079083
 31
0.0
  0
LINE
  5
333
330
1E
100
AcDbEntity
  8
CSLAYER17
  6
CENTER
 62
     4
100
AcDbLine
 10
58.544775
 20
46.323128
 30
0.0
 11
58.544775
 21
35.76133
 31
0.0
  0
CIRCLE
  5
334
330
1E
100
AcDbEntity
  8
CSLAYER17
  6
CONTINUOUS
 62
     4
100
AcDbCircle
 10
58.544775
 20
41.079083
 30
0.0
 40
2.0
  0
LINE
  5
335
330
1E
100
AcDbEntity
  8
CSLAYER1
  6
CENTER
 62
     4
100
AcDbLine
 10
46.61668
 20
41.079083
 30
0.0
 11
125.9081169999999
 21
41.079083
 31
0.0
  0
LINE
  5
336
330
1E
100
AcDbEntity
  8
CSLAYER1
  6
CENTER
 62
     4
100
AcDbLine
 10
95.072547
 20
12.579083
 30
0.0
 11
78.86109000000001
 21
12.579083
 31
0.0
  0
LINE
  5
337
330
1E
100
AcDbEntity
  8
CSLAYER17
  6
CENTER
 62
     4
100
AcDbLine
 10
86.544775
 20
5.914043
 30
0.0
 11
86.544775
 21
74.60249899999999
 31
0.0
  0
LINE
  5
338
330
1E
100
AcDbEntity
  8
CSLAYER1
  6
CENTER
 62
     4
100
AcDbLine
 10
98.54477500000001
 20
83.32823899999999
 30
0.0
 11
98.54477500000001
 21
100.552623
 31
0.0
  0
LINE
  5
339
330
1E
100
AcDbEntity
  8
CSLAYER1
  6
DASHED
 62
     4
100
AcDbLine
 10
95.544775
 20
98.994315
 30
0.0
 11
51.544775
 21
98.994315
 31
0.0
  0
LINE
  5
33A
330
1E
100
AcDbEntity
  8
CSLAYER1
  6
CENTER
 62
     4
100
AcDbLine
 10
58.544775
 20
101.445973
 30
0.0
 11
58.544775
 21
82.56420699999999
 31
0.0
  0
LINE
  5
33B
330
1E
100
AcDbEntity
  8
CSLAYER1
  6
CENTER
 62
     4
100
AcDbLine
 10
66.044775
 20
98.614797
 30
0.0
 11
66.044775
 21
112.024937
 31
0.0
  0
LINE
  5
33C
330
1E
100
AcDbEntity
  8
CSLAYER1
  6
CENTER
 62
     4
100
AcDbLine
 10
81.04477499999999
 20
98.614797
 30
0.0
 11
81.04477499999999
 21
112.069729
 31
0.0
  0
LINE
  5
33D
330
1E
100
AcDbEntity
  8
CSLAYER17
  6
CENTER
 62
     4
100
AcDbLine
 10
79.868204
 20
117.510011
 30
0.0
 11
79.868204
 21
132.212277
 31
0.0
  0
CIRCLE
  5
33E
330
1E
100
AcDbEntity
  8
CSLAYER17
  6
CONTINUOUS
 62
     4
100
AcDbCircle
 10
79.868204
 20
123.9943149999999
 30
0.0
 40
4.863999999999999
  0
LINE
  5
33F
330
1E
100
AcDbEntity
  8
CSLAYER1
  6
CENTER
 62
     4
100
AcDbLine
 10
87.37536099999999
 20
123.9943149999999
 30
0.0
 11
71.88371100000001
 21
123.9943149999999
 31
0.0
  0
LINE
  5
340
330
1E
100
AcDbEntity
  8
CSLAYER1
  6
CENTER
 62
     4
100
AcDbLine
 10
95.60618299999999
 20
125.9943149999999
 30
0.0
 11
135.769605
 21
125.9943149999999
 31
0.0
  0
LINE
  5
341
330
1E
100
AcDbEntity
  8
CSLAYER1
  6
CENTER
 62
     4
100
AcDbLine
 10
117.9502379999999
 20
122.315432
 30
0.0
 11
99.926408
 21
122.315432
 31
0.0
  0
LINE
  5
342
330
1E
100
AcDbEntity
  8
CSLAYER1
  6
CENTER
 62
     4
100
AcDbLine
 10
99.926408
 20
129.6731979999999
 30
0.0
 11
117.9502379999999
 21
129.6731979999999
 31
0.0
  0
LINE
  5
343
330
1E
100
AcDbEntity
  8
CSLAYER1
  6
CENTER
 62
     4
100
AcDbLine
 10
151.217576
 20
113.9943149999999
 30
0.0
 11
97.21261
 21
113.9943149999999
 31
0.0
  0
LINE
  5
344
330
1E
100
AcDbEntity
  8
CSLAYER1
  6
CENTER
 62
     4
100
AcDbLine
 10
74.044775
 20
83.654921
 30
0.0
 11
74.044775
 21
245.427997
 31
0.0
  0
LINE
  5
345
330
1E
100
AcDbEntity
  8
CSLAYER1
  6
CENTER
 62
     4
100
AcDbLine
 10
92.530114
 20
233.9943149999999
 30
0.0
 11
55.27669599999999
 21
233.9943149999999
 31
0.0
  0
LINE
  5
346
330
1E
100
AcDbEntity
  8
CSLAYER1
  6
CENTER
 62
     4
100
AcDbLine
 10
56.044775
 20
204.337595
 30
0.0
 11
56.044775
 21
151.4539649999999
 31
0.0
  0
LINE
  5
347
330
1E
100
AcDbEntity
  8
CSLAYER1
  6
CENTER
 62
     4
100
AcDbLine
 10
60.223277
 20
152.994315
 30
0.0
 11
48.515706
 21
152.994315
 31
0.0
  0
LINE
  5
348
330
1E
100
AcDbEntity
  8
CSLAYER1
  6
CENTER
 62
     4
100
AcDbLine
 10
48.515706
 20
157.994315
 30
0.0
 11
60.223277
 21
157.994315
 31
0.0
  0
CIRCLE
  5
349
330
1E
100
AcDbEntity
  8
CSLAYER1
  6
CONTINUOUS
 62
     4
100
AcDbCircle
 10
56.044775
 20
157.994315
 30
0.0
 40
2.0
  0
LINE
  5
34A
330
1E
100
AcDbEntity
  8
CSLAYER1
  6
CENTER
 62
     4
100
AcDbLine
 10
87.86627299999999
 20
157.994315
 30
0.0
 11
96.544775
 21
157.994315
 31
0.0
  0
CIRCLE
  5
34B
330
1E
100
AcDbEntity
  8
CSLAYER1
  6
CONTINUOUS
 62
     4
100
AcDbCircle
 10
92.04477500000001
 20
157.994315
 30
0.0
 40
2.0
  0
LINE
  5
34C
330
1E
100
AcDbEntity
  8
CSLAYER1
  6
CENTER
 62
     4
100
AcDbLine
 10
89.866273
 20
152.994315
 30
0.0
 11
109.9567199999999
 21
152.994315
 31
0.0
  0
LINE
  5
34D
330
1E
100
AcDbEntity
  8
CSLAYER1
  6
CENTER
 62
     4
100
AcDbLine
 10
110.12413
 20
192.9943149999999
 30
0.0
 11
87.86627299999999
 21
192.9943149999999
 31
0.0
  0
LINE
  5
34E
330
1E
100
AcDbEntity
  8
CSLAYER1
  6
CENTER
 62
     4
100
AcDbLine
 10
87.378458
 20
197.994315
 30
0.0
 11
98.242851
 21
197.994315
 31
0.0
  0
CIRCLE
  5
34F
330
1E
100
AcDbEntity
  8
CSLAYER1
  6
CONTINUOUS
 62
     4
100
AcDbCircle
 10
92.04477500000001
 20
197.994315
 30
0.0
 40
2.0
  0
LINE
  5
350
330
1E
100
AcDbEntity
  8
CSLAYER1
  6
CENTER
 62
     4
100
AcDbLine
 10
92.04477500000001
 20
204.337595
 30
0.0
 11
92.04477500000001
 21
151.4539649999999
 31
0.0
  0
LINE
  5
351
330
1E
100
AcDbEntity
  8
CSLAYER1
  6
CENTER
 62
     4
100
AcDbLine
 10
60.223277
 20
192.9943149999999
 30
0.0
 11
48.515706
 21
192.9943149999999
 31
0.0
  0
LINE
  5
352
330
1E
100
AcDbEntity
  8
CSLAYER1
  6
CENTER
 62
     4
100
AcDbLine
 10
47.540075
 20
197.994315
 30
0.0
 11
60.711092
 21
197.994315
 31
0.0
  0
CIRCLE
  5
353
330
1E
100
AcDbEntity
  8
CSLAYER1
  6
CONTINUOUS
 62
     4
100
AcDbCircle
 10
56.044775
 20
197.994315
 30
0.0
 40
2.0
  0
LINE
  5
354
330
1E
100
AcDbEntity
  8
CSLAYER1
  6
CENTER
 62
     4
100
AcDbLine
 10
193.787105
 20
192.9943149999999
 30
0.0
 11
203.9019909999999
 21
192.9943149999999
 31
0.0
  0
LINE
  5
355
330
1E
100
AcDbEntity
  8
CSLAYER1
  6
CENTER
 62
     4
100
AcDbLine
 10
199.533134
 20
200.4914579999999
 30
0.0
 11
199.533134
 21
144.2080289999999
 31
0.0
  0
LINE
  5
356
330
1E
100
AcDbEntity
  8
CSLAYER1
  6
CENTER
 62
     4
100
AcDbLine
 10
205.533134
 20
97.45675699999999
 30
0.0
 11
205.533134
 21
130.1929499999999
 31
0.0
  0
LINE
  5
357
330
1E
100
AcDbEntity
  8
CSLAYER1
  6
CENTER
 62
     4
100
AcDbLine
 10
222.328658
 20
125.9943149999999
 30
0.0
 11
236.571838
 21
125.9943149999999
 31
0.0
  0
LINE
  5
358
330
1E
100
AcDbEntity
  8
CSLAYER1
  6
CENTER
 62
     4
100
AcDbLine
 10
229.533134
 20
132.288018
 30
0.0
 11
229.533134
 21
101.365123
 31
0.0
  0
LINE
  5
359
330
1E
100
AcDbEntity
  8
CSLAYER1
  6
CENTER
 62
     4
100
AcDbLine
 10
189.033134
 20
99.48363499999999
 30
0.0
 11
189.033134
 21
78.87798199999998
 31
0.0
  0
LINE
  5
35A
330
1E
100
AcDbEntity
  8
CSLAYER1
  6
DASHED
 62
     4
100
AcDbLine
 10
181.033134
 20
90.99431499999999
 30
0.0
 11
254.0331339999999
 21
90.99431499999999
 31
0.0
  0
LINE
  5
35B
330
1E
100
AcDbEntity
  8
CSLAYER1
  6
CENTER
 62
     4
100
AcDbLine
 10
246.0331339999999
 20
99.48363499999999
 30
0.0
 11
246.0331339999999
 21
78.87798199999998
 31
0.0
  0
LINE
  5
35C
330
1E
100
AcDbEntity
  8
CSLAYER1
  6
CENTER
 62
     4
100
AcDbLine
 10
217.533134
 20
78.87798199999998
 30
0.0
 11
217.533134
 21
108.9850199999999
 31
0.0
  0
LINE
  5
35D
330
1E
100
AcDbEntity
  8
CSLAYER1
  6
CENTER
 62
     4
100
AcDbLine
 10
227.418402
 20
233.9943149999999
 30
0.0
 11
208.4558799999999
 21
233.9943149999999
 31
0.0
  0
LINE
  5
35E
330
1E
100
AcDbEntity
  8
CSLAYER1
  6
CENTER
 62
     4
100
AcDbLine
 10
235.5331339999999
 20
200.4914579999999
 30
0.0
 11
235.5331339999999
 21
144.2080289999999
 31
0.0
  0
CIRCLE
  5
35F
330
1E
100
AcDbEntity
  8
CSLAYER1
  6
CONTINUOUS
 62
     4
100
AcDbCircle
 10
229.533134
 20
113.9943149999999
 30
0.0
 40
2.5
  0
LINE
  5
360
330
1E
100
AcDbEntity
  8
CSLAYER1
  6
CENTER
 62
     4
100
AcDbLine
 10
237.5686379999999
 20
113.9943149999999
 30
0.0
 11
186.5878379999999
 21
113.9943149999999
 31
0.0
  0
LINE
  5
361
330
1E
100
AcDbEntity
  8
CSLAYER1
  6
CENTER
 62
     4
100
AcDbLine
 10
193.787105
 20
152.994315
 30
0.0
 11
203.9019909999999
 21
152.994315
 31
0.0
  0
LINE
  5
362
330
1E
100
AcDbEntity
  8
CSLAYER1
  6
CENTER
 62
     4
100
AcDbLine
 10
231.164277
 20
152.994315
 30
0.0
 11
242.741722
 21
152.994315
 31
0.0
  0
LINE
  5
363
330
1E
100
AcDbEntity
  8
CSLAYER1
  6
CENTER
 62
     4
100
AcDbLine
 10
242.741722
 20
192.9943149999999
 30
0.0
 11
231.164277
 21
192.9943149999999
 31
0.0
  0
LINE
  5
364
330
1E
100
AcDbEntity
  8
CSLAYER1
  6
CENTER
 62
     4
100
AcDbLine
 10
313.345383
 20
192.9943149999999
 30
0.0
 11
336.386864
 21
192.9943149999999
 31
0.0
  0
LINE
  5
365
330
1E
100
AcDbEntity
  8
CSLAYER1
  6
CENTER
 62
     4
100
AcDbLine
 10
336.874679
 20
197.994315
 30
0.0
 11
326.0102859999999
 21
197.994315
 31
0.0
  0
CIRCLE
  5
366
330
1E
100
AcDbEntity
  8
CSLAYER1
  6
CONTINUOUS
 62
     4
100
AcDbCircle
 10
332.208362
 20
197.994315
 30
0.0
 40
2.0
  0
LINE
  5
367
330
1E
100
AcDbEntity
  8
CSLAYER1
  6
CENTER
 62
     4
100
AcDbLine
 10
332.208362
 20
204.337595
 30
0.0
 11
332.208362
 21
151.4539649999999
 31
0.0
  0
LINE
  5
368
330
1E
100
AcDbEntity
  8
CSLAYER1
  6
CENTER
 62
     4
100
AcDbLine
 10
334.386864
 20
152.994315
 30
0.0
 11
314.296417
 21
152.994315
 31
0.0
  0
LINE
  5
369
330
1E
100
AcDbEntity
  8
CSLAYER1
  6
CENTER
 62
     4
100
AcDbLine
 10
327.708362
 20
157.994315
 30
0.0
 11
336.386864
 21
157.994315
 31
0.0
  0
CIRCLE
  5
36A
330
1E
100
AcDbEntity
  8
CSLAYER1
  6
CONTINUOUS
 62
     4
100
AcDbCircle
 10
332.208362
 20
157.994315
 30
0.0
 40
2.0
  0
LINE
  5
36B
330
1E
100
AcDbEntity
  8
CSLAYER1
  6
CENTER
 62
     4
100
AcDbLine
 10
364.0298599999999
 20
157.994315
 30
0.0
 11
375.737431
 21
157.994315
 31
0.0
  0
LINE
  5
36C
330
1E
100
AcDbEntity
  8
CSLAYER1
  6
CENTER
 62
     4
100
AcDbLine
 10
375.737431
 20
152.994315
 30
0.0
 11
364.0298599999999
 21
152.994315
 31
0.0
  0
LINE
  5
36D
330
1E
100
AcDbEntity
  8
CSLAYER1
  6
CENTER
 62
     4
100
AcDbLine
 10
368.208362
 20
151.4539649999999
 30
0.0
 11
368.208362
 21
204.337595
 31
0.0
  0
CIRCLE
  5
36E
330
1E
100
AcDbEntity
  8
CSLAYER1
  6
CONTINUOUS
 62
     4
100
AcDbCircle
 10
368.208362
 20
197.994315
 30
0.0
 40
2.0
  0
LINE
  5
36F
330
1E
100
AcDbEntity
  8
CSLAYER1
  6
CENTER
 62
     4
100
AcDbLine
 10
363.542045
 20
197.994315
 30
0.0
 11
376.713062
 21
197.994315
 31
0.0
  0
LINE
  5
370
330
1E
100
AcDbEntity
  8
CSLAYER1
  6
CENTER
 62
     4
100
AcDbLine
 10
375.737431
 20
192.9943149999999
 30
0.0
 11
364.0298599999999
 21
192.9943149999999
 31
0.0
  0
CIRCLE
  5
371
330
1E
100
AcDbEntity
  8
CSLAYER1
  6
CONTINUOUS
 62
     4
100
AcDbCircle
 10
368.208362
 20
157.994315
 30
0.0
 40
2.0
  0
LINE
  5
372
330
1E
100
AcDbEntity
  8
CSLAYER1
  6
CENTER
 62
     4
100
AcDbLine
 10
358.208362
 20
112.024937
 30
0.0
 11
358.208362
 21
98.614797
 31
0.0
  0
LINE
  5
373
330
1E
100
AcDbEntity
  8
CSLAYER1
  6
CENTER
 62
     4
100
AcDbLine
 10
365.708362
 20
101.445973
 30
0.0
 11
365.708362
 21
82.56420699999999
 31
0.0
  0
LINE
  5
374
330
1E
100
AcDbEntity
  8
CSLAYER1
  6
CENTER
 62
     4
100
AcDbLine
 10
350.208362
 20
80.87048399999998
 30
0.0
 11
350.208362
 21
247.520219
 31
0.0
  0
LINE
  5
375
330
1E
100
AcDbEntity
  8
CSLAYER1
  6
CENTER
 62
     4
100
AcDbLine
 10
368.6937009999999
 20
233.9943149999999
 30
0.0
 11
331.440283
 21
233.9943149999999
 31
0.0
  0
LINE
  5
376
330
1E
100
AcDbEntity
  8
CSLAYER1
  6
CENTER
 62
     4
100
AcDbLine
 10
324.3267289999999
 20
129.6731979999999
 30
0.0
 11
306.302899
 21
129.6731979999999
 31
0.0
  0
LINE
  5
377
330
1E
100
AcDbEntity
  8
CSLAYER1
  6
CENTER
 62
     4
100
AcDbLine
 10
306.302899
 20
122.315432
 30
0.0
 11
324.3267289999999
 21
122.315432
 31
0.0
  0
LINE
  5
378
330
1E
100
AcDbEntity
  8
CSLAYER1
  6
CENTER
 62
     4
100
AcDbLine
 10
328.646954
 20
125.9943149999999
 30
0.0
 11
288.4835319999999
 21
125.9943149999999
 31
0.0
  0
LINE
  5
379
330
1E
100
AcDbEntity
  8
CSLAYER1
  6
CONTINUOUS
 62
     4
100
AcDbLine
 10
291.708362
 20
116.4943149999999
 30
0.0
 11
297.708362
 21
116.4943149999999
 31
0.0
  0
LINE
  5
37A
330
1E
100
AcDbEntity
  8
CSLAYER1
  6
CONTINUOUS
 62
     4
100
AcDbLine
 10
297.708362
 20
111.4943149999999
 30
0.0
 11
291.708362
 21
111.4943149999999
 31
0.0
  0
LINE
  5
37B
330
1E
100
AcDbEntity
  8
CSLAYER17
  6
CONTINUOUS
 62
     4
100
AcDbLine
 10
307.708362
 20
111.4943149999999
 30
0.0
 11
311.708362
 21
111.4943149999999
 31
0.0
  0
LINE
  5
37C
330
1E
100
AcDbEntity
  8
CSLAYER17
  6
CONTINUOUS
 62
     4
100
AcDbLine
 10
311.708362
 20
116.4943149999999
 30
0.0
 11
307.708362
 21
116.4943149999999
 31
0.0
  0
LINE
  5
37D
330
1E
100
AcDbEntity
  8
CSLAYER17
  6
CENTER
 62
     4
100
AcDbLine
 10
272.4046419999999
 20
113.9943149999999
 30
0.0
 11
330.3167419999999
 21
113.9943149999999
 31
0.0
  0
LINE
  5
37E
330
1E
100
AcDbEntity
  8
CSLAYER1
  6
CENTER
 62
     4
100
AcDbLine
 10
325.708362
 20
100.552623
 30
0.0
 11
325.708362
 21
80.82357599999999
 31
0.0
  0
LINE
  5
37F
330
1E
100
AcDbEntity
  8
CSLAYER1
  6
DASHED
 62
     4
100
AcDbLine
 10
328.708362
 20
98.994315
 30
0.0
 11
372.708362
 21
98.994315
 31
0.0
  0
LINE
  5
380
330
1E
100
AcDbEntity
  8
CSLAYER1
  6
CENTER
 62
     4
100
AcDbLine
 10
343.208362
 20
98.614797
 30
0.0
 11
343.208362
 21
112.069729
 31
0.0
  0
LINE
  5
381
330
1E
100
AcDbEntity
  8
CSLAYER17
  6
CENTER
 62
     4
100
AcDbLine
 10
98.54477500000001
 20
35.76133
 30
0.0
 11
98.54477500000001
 21
46.323128
 31
0.0
  0
CIRCLE
  5
382
330
1E
100
AcDbEntity
  8
CSLAYER17
  6
CONTINUOUS
 62
     4
100
AcDbCircle
 10
98.54477500000001
 20
41.079083
 30
0.0
 40
2.0
  0
LINE
  5
383
330
1E
100
AcDbEntity
  8
CSLAYER1
  6
CENTER
 62
     4
100
AcDbLine
 10
94.98538899999999
 20
69.57908299999999
 30
0.0
 11
78.77393199999999
 21
69.57908299999999
 31
0.0
  0
INSERT
  5
384
330
1E
100
AcDbEntity
  8
CSLAYER1
100
AcDbBlockReference
  2
FXDIM0000
 10
0.0
 20
0.0
 30
0.0
  0
DIMENSION
  5
385
330
1E
100
AcDbEntity
  8
CSLAYER1
 62
     4
100
AcDbDimension
  2
*D1
 10
47.044775
 20
232.251389
 30
0.0
 11
39.97753499999999
 21
219.663422
 31
0.0
 70
     4
100
AcDbRadialDimension
 15
57.502615
 25
222.943672
 35
0.0
 40
0.0
  0
DIMENSION
  5
386
330
1E
100
AcDbEntity
  8
CSLAYER1
 62
     4
100
AcDbDimension
  2
*D2
 10
32.582384
 20
242.994315
 30
0.0
 11
32.082382
 21
238.494308
 31
0.0
100
AcDbAlignedDimension
 13
55.27669599999999
 23
233.9943149999999
 33
0.0
 14
61.044775
 24
242.994315
 34
0.0
 50
90.0
100
AcDbRotatedDimension
  0
DIMENSION
  5
387
330
1E
100
AcDbEntity
  8
CSLAYER1
 62
     4
100
AcDbDimension
  2
*D3
 10
26.582384
 20
242.994315
 30
0.0
 11
26.082384
 21
178.494308
 31
0.0
100
AcDbAlignedDimension
 13
56.044775
 23
113.9943149999999
 33
0.0
 14
61.044775
 24
242.994315
 34
0.0
 50
90.0
100
AcDbRotatedDimension
  0
DIMENSION
  5
388
330
1E
100
AcDbEntity
  8
CSLAYER1
 62
     4
100
AcDbDimension
  2
*D4
 10
20.582384
 20
242.994315
 30
0.0
 11
20.082384
 21
164.494308
 31
0.0
100
AcDbAlignedDimension
 13
51.544775
 23
85.99431499999999
 33
0.0
 14
61.044775
 24
242.994315
 34
0.0
 50
90.0
100
AcDbRotatedDimension
  0
DIMENSION
  5
389
330
1E
100
AcDbEntity
  8
CSLAYER1
 62
     4
100
AcDbDimension
  2
*D5
 10
26.582384
 20
113.9943149999999
 30
0.0
 11
16.16467499999999
 21
118.021919
 31
0.0
100
AcDbAlignedDimension
 13
54.544775
 23
109.9943149999999
 33
0.0
 14
56.044775
 24
113.9943149999999
 34
0.0
 50
90.0
100
AcDbRotatedDimension
  0
DIMENSION
  5
38A
330
1E
100
AcDbEntity
  8
CSLAYER1
 62
     4
100
AcDbDimension
  2
*D6
 10
26.582384
 20
109.9943149999999
 30
0.0
 11
35.859497
 21
98.41107199999999
 31
0.0
100
AcDbAlignedDimension
 13
51.544775
 23
104.9943149999999
 33
0.0
 14
54.544775
 24
109.9943149999999
 34
0.0
 50
90.0
100
AcDbRotatedDimension
  0
DIMENSION
  5
38B
330
1E
100
AcDbEntity
  8
CSLAYER1
 62
     4
100
AcDbDimension
  2
*D7
 10
26.582384
 20
104.9943149999999
 30
0.0
 11
26.082384
 21
97.994316
 31
0.0
 70
     1
100
AcDbAlignedDimension
 13
51.544775
 23
90.99431499999999
 33
0.0
 14
51.544775
 24
104.9943149999999
 34
0.0
  0
DIMENSION
  5
38C
330
1E
100
AcDbEntity
  8
CSLAYER1
 62
     4
100
AcDbDimension
  2
*D8
 10
26.582384
 20
90.99431499999999
 30
0.0
 11
26.082384
 21
88.494316
 31
0.0
100
AcDbAlignedDimension
 13
52.544775
 23
85.99431499999999
 33
0.0
 14
51.544775
 24
90.99431499999999
 34
0.0
 50
90.0
100
AcDbRotatedDimension
  0
DIMENSION
  5
38D
330
1E
100
AcDbEntity
  8
CSLAYER1
 62
     4
100
AcDbDimension
  2
*D9
 10
240.033134
 20
266.643613
 30
0.0
 11
217.533127
 21
267.143585
 31
0.0
 70
     1
100
AcDbAlignedDimension
 13
195.033134
 23
218.9943149999999
 33
0.0
 14
240.033134
 24
218.9943149999999
 34
0.0
  0
DIMENSION
  5
38E
330
1E
100
AcDbEntity
  8
CSLAYER1
 62
     4
100
AcDbDimension
  2
*D10
 10
227.533134
 20
260.643613
 30
0.0
 11
217.533127
 21
261.143616
 31
0.0
 70
     1
100
AcDbAlignedDimension
 13
207.533134
 23
242.994315
 33
0.0
 14
227.533134
 24
242.994315
 34
0.0
  0
INSERT
  5
38F
330
1E
100
AcDbEntity
  8
CSLAYER1
100
AcDbBlockReference
  2
FXDIM0001
 10
0.0
 20
0.0
 30
0.0
  0
DIMENSION
  5
390
330
1E
100
AcDbEntity
  8
CSLAYER17
 62
     4
100
AcDbDimension
  2
*D12
 10
96.544775
 20
260.643613
 30
0.0
 11
74.044777
 21
261.143585
 31
0.0
 70
     1
100
AcDbAlignedDimension
 13
51.544775
 23
218.9943149999999
 33
0.0
 14
96.544775
 24
218.9943149999999
 34
0.0
  0
DIMENSION
  5
391
330
1E
100
AcDbEntity
  8
CSLAYER17
 62
     4
100
AcDbDimension
  2
*D13
 10
87.04477500000001
 20
254.643613
 30
0.0
 11
74.044777
 21
255.143616
 31
0.0
 70
     1
100
AcDbAlignedDimension
 13
61.044775
 23
242.994315
 33
0.0
 14
87.04477500000001
 24
242.994315
 34
0.0
  0
DIMENSION
  5
392
330
1E
100
AcDbEntity
  8
CSLAYER17
 62
     4
100
AcDbDimension
  2
*D14
 10
80.044775
 20
248.6436129999999
 30
0.0
 11
74.044777
 21
249.143616
 31
0.0
 70
     1
100
AcDbAlignedDimension
 13
68.044775
 23
242.994315
 33
0.0
 14
80.044775
 24
242.994315
 34
0.0
  0
DIMENSION
  5
393
330
1E
100
AcDbEntity
  8
CSLAYER17
 62
     4
100
AcDbDimension
  2
*D15
 10
101.544775
 20
260.643613
 30
0.0
 11
106.836235
 21
251.3830109999999
 31
0.0
100
AcDbAlignedDimension
 13
96.544775
 23
218.9943149999999
 33
0.0
 14
101.544775
 24
199.994315
 34
0.0
100
AcDbRotatedDimension
  0
DIMENSION
  5
394
330
1E
100
AcDbEntity
  8
CSLAYER17
 62
     4
100
AcDbDimension
  2
*D16
 10
116.544775
 20
260.643613
 30
0.0
 11
109.0447769999999
 21
261.143616
 31
0.0
100
AcDbAlignedDimension
 13
101.544775
 23
199.994315
 33
0.0
 14
116.544775
 24
132.994315
 34
0.0
100
AcDbRotatedDimension
  0
DIMENSION
  5
395
330
1E
100
AcDbEntity
  8
CSLAYER17
 62
     4
100
AcDbDimension
  2
*D17
 10
121.544775
 20
260.643613
 30
0.0
 11
128.176117
 21
251.402618
 31
0.0
100
AcDbAlignedDimension
 13
116.544775
 23
132.994315
 33
0.0
 14
121.544775
 24
135.994315
 34
0.0
100
AcDbRotatedDimension
  0
DIMENSION
  5
396
330
1E
100
AcDbEntity
  8
CSLAYER17
 62
     4
100
AcDbDimension
  2
*D18
 10
150.044775
 20
260.643613
 30
0.0
 11
135.794769
 21
261.143616
 31
0.0
100
AcDbAlignedDimension
 13
121.544775
 23
135.994315
 33
0.0
 14
150.044775
 24
128.4943149999999
 34
0.0
100
AcDbRotatedDimension
  0
DIMENSION
  5
397
330
1E
100
AcDbEntity
  8
CSLAYER17
 62
     4
100
AcDbDimension
  2
*D19
 10
150.044775
 20
266.643613
 30
0.0
 11
100.7947769999999
 21
267.143616
 31
0.0
100
AcDbAlignedDimension
 13
51.544775
 23
218.9943149999999
 33
0.0
 14
150.044775
 24
128.4943149999999
 34
0.0
100
AcDbRotatedDimension
  0
DIMENSION
  5
398
330
1E
100
AcDbEntity
  8
CSLAYER17
 62
     4
100
AcDbDimension
  2
*D20
 10
20.582384
 20
77.579083
 30
0.0
 11
20.082382
 21
41.07908199999999
 31
0.0
 70
     1
100
AcDbAlignedDimension
 13
65.544775
 23
4.579082999999999
 33
0.0
 14
65.544775
 24
77.579083
 34
0.0
  0
DIMENSION
  5
399
330
1E
100
AcDbEntity
  8
CSLAYER17
 62
     4
100
AcDbDimension
  2
*D21
 10
32.582384
 20
63.579083
 30
0.0
 11
32.082382
 21
41.07908199999999
 31
0.0
 70
     1
100
AcDbAlignedDimension
 13
51.544775
 23
18.57908299999999
 33
0.0
 14
51.544775
 24
63.579083
 34
0.0
  0
DIMENSION
  5
39A
330
1E
100
AcDbEntity
  8
CSLAYER17
 62
     4
100
AcDbDimension
  2
*D22
 10
26.582384
 20
69.57908299999999
 30
0.0
 11
26.082384
 21
41.07908199999999
 31
0.0
100
AcDbAlignedDimension
 13
78.86109000000001
 23
12.579083
 33
0.0
 14
78.77393199999999
 24
69.57908299999999
 34
0.0
 50
90.0
100
AcDbRotatedDimension
  0
DIMENSION
  5
39B
330
1E
100
AcDbEntity
  8
CSLAYER17
 62
     4
100
AcDbDimension
  2
*D23
 10
91.544775
 20
58.332905
 30
0.0
 11
86.54477699999999
 21
58.83290500000001
 31
0.0
 70
     1
 52
270.0
100
AcDbAlignedDimension
 13
81.544775
 23
69.57908299999999
 33
0.0
 14
91.544775
 24
69.57908299999999
 34
0.0
  0
DIMENSION
  5
39C
330
1E
100
AcDbEntity
  8
CSLAYER17
 62
     4
100
AcDbDimension
  2
*D24
 10
121.544775
 20
58.332905
 30
0.0
 11
106.544777
 21
58.83290500000001
 31
0.0
 52
270.0
100
AcDbAlignedDimension
 13
91.544775
 23
69.57908299999999
 33
0.0
 14
121.544775
 24
77.579083
 34
0.0
100
AcDbRotatedDimension
  0
DIMENSION
  5
39D
330
1E
100
AcDbEntity
  8
CSLAYER17
 62
     4
100
AcDbDimension
  2
*D25
 10
98.985757
 20
72.82908299999999
 30
0.0
 11
104.085205
 21
69.12673999999999
 31
0.0
 70
     1
100
AcDbAlignedDimension
 13
88.29477500000001
 23
66.329083
 33
0.0
 14
88.29477500000001
 24
72.82908299999999
 34
0.0
  0
LINE
  5
39E
330
1E
100
AcDbEntity
  8
CSLAYER1
  6
CONTINUOUS
 62
     3
100
AcDbLine
 10
193.255105
 20
128.4943149999999
 30
0.0
 11
198.0238389999999
 21
128.4943149999999
 31
0.0
  0
LINE
  5
39F
330
1E
100
AcDbEntity
  8
CSLAYER1
  6
CONTINUOUS
 62
     3
100
AcDbLine
 10
198.0238389999999
 20
128.4943149999999
 30
0.0
 11
200.5238389999999
 21
125.9943149999999
 31
0.0
  0
LINE
  5
3A0
330
1E
100
AcDbEntity
  8
CSLAYER1
  6
CONTINUOUS
 62
     3
100
AcDbLine
 10
200.5238389999999
 20
125.9943149999999
 30
0.0
 11
210.542429
 21
125.9943149999999
 31
0.0
  0
LINE
  5
3A1
330
1E
100
AcDbEntity
  8
CSLAYER1
  6
CONTINUOUS
 62
     3
100
AcDbLine
 10
210.542429
 20
125.9943149999999
 30
0.0
 11
213.042429
 21
128.4943149999999
 31
0.0
  0
LINE
  5
3A2
330
1E
100
AcDbEntity
  8
CSLAYER1
  6
CONTINUOUS
 62
     3
100
AcDbLine
 10
213.042429
 20
128.4943149999999
 30
0.0
 11
217.811163
 21
128.4943149999999
 31
0.0
  0
ARC
  5
3A3
330
1E
100
AcDbEntity
  8
CSLAYER1
  6
CONTINUOUS
 62
     3
100
AcDbCircle
 10
205.533134
 20
113.9943149999999
 30
0.0
 40
19.0
100
AcDbArc
 50
40.256613
 51
49.743387
  0
LINE
  5
3A4
330
1E
100
AcDbEntity
  8
CSLAYER1
  6
CONTINUOUS
 62
     3
100
AcDbLine
 10
220.0331339999999
 20
126.272344
 30
0.0
 11
220.0331339999999
 21
121.50361
 31
0.0
  0
LINE
  5
3A5
330
1E
100
AcDbEntity
  8
CSLAYER1
  6
CONTINUOUS
 62
     3
100
AcDbLine
 10
220.0331339999999
 20
121.50361
 30
0.0
 11
217.533134
 21
119.00361
 31
0.0
  0
LINE
  5
3A6
330
1E
100
AcDbEntity
  8
CSLAYER1
  6
CONTINUOUS
 62
     3
100
AcDbLine
 10
217.533134
 20
119.00361
 30
0.0
 11
217.533134
 21
108.9850199999999
 31
0.0
  0
LINE
  5
3A7
330
1E
100
AcDbEntity
  8
CSLAYER1
  6
CONTINUOUS
 62
     3
100
AcDbLine
 10
217.533134
 20
108.9850199999999
 30
0.0
 11
220.0331339999999
 21
106.4850199999999
 31
0.0
  0
LINE
  5
3A8
330
1E
100
AcDbEntity
  8
CSLAYER1
  6
CONTINUOUS
 62
     3
100
AcDbLine
 10
220.0331339999999
 20
106.4850199999999
 30
0.0
 11
220.0331339999999
 21
101.716286
 31
0.0
  0
ARC
  5
3A9
330
1E
100
AcDbEntity
  8
CSLAYER1
  6
CONTINUOUS
 62
     3
100
AcDbCircle
 10
205.533134
 20
113.9943149999999
 30
0.0
 40
19.0
100
AcDbArc
 50
310.256613
 51
319.7433869999999
  0
LINE
  5
3AA
330
1E
100
AcDbEntity
  8
CSLAYER1
  6
CONTINUOUS
 62
     3
100
AcDbLine
 10
217.811163
 20
99.49431500000001
 30
0.0
 11
213.042429
 21
99.49431500000001
 31
0.0
  0
LINE
  5
3AB
330
1E
100
AcDbEntity
  8
CSLAYER1
  6
CONTINUOUS
 62
     3
100
AcDbLine
 10
213.042429
 20
99.49431500000001
 30
0.0
 11
210.542429
 21
101.994315
 31
0.0
  0
LINE
  5
3AC
330
1E
100
AcDbEntity
  8
CSLAYER1
  6
CONTINUOUS
 62
     3
100
AcDbLine
 10
210.542429
 20
101.994315
 30
0.0
 11
200.5238389999999
 21
101.994315
 31
0.0
  0
LINE
  5
3AD
330
1E
100
AcDbEntity
  8
CSLAYER1
  6
CONTINUOUS
 62
     3
100
AcDbLine
 10
200.5238389999999
 20
101.994315
 30
0.0
 11
198.0238389999999
 21
99.49431500000001
 31
0.0
  0
LINE
  5
3AE
330
1E
100
AcDbEntity
  8
CSLAYER1
  6
CONTINUOUS
 62
     3
100
AcDbLine
 10
198.0238389999999
 20
99.49431500000001
 30
0.0
 11
193.255105
 21
99.49431500000001
 31
0.0
  0
ARC
  5
3AF
330
1E
100
AcDbEntity
  8
CSLAYER1
  6
CONTINUOUS
 62
     3
100
AcDbCircle
 10
205.533134
 20
113.9943149999999
 30
0.0
 40
19.0
100
AcDbArc
 50
220.256613
 51
229.7433869999999
  0
LINE
  5
3B0
330
1E
100
AcDbEntity
  8
CSLAYER1
  6
CONTINUOUS
 62
     3
100
AcDbLine
 10
191.033134
 20
101.716286
 30
0.0
 11
191.033134
 21
106.4850199999999
 31
0.0
  0
LINE
  5
3B1
330
1E
100
AcDbEntity
  8
CSLAYER1
  6
CONTINUOUS
 62
     3
100
AcDbLine
 10
191.033134
 20
106.4850199999999
 30
0.0
 11
193.533134
 21
108.9850199999999
 31
0.0
  0
LINE
  5
3B2
330
1E
100
AcDbEntity
  8
CSLAYER1
  6
CONTINUOUS
 62
     3
100
AcDbLine
 10
193.533134
 20
108.9850199999999
 30
0.0
 11
191.033134
 21
108.9943149999999
 31
0.0
  0
LINE
  5
3B3
330
1E
100
AcDbEntity
  8
CSLAYER1
  6
CONTINUOUS
 62
     3
100
AcDbLine
 10
191.033134
 20
108.9943149999999
 30
0.0
 11
191.033134
 21
118.9943149999999
 31
0.0
  0
LINE
  5
3B4
330
1E
100
AcDbEntity
  8
CSLAYER1
  6
CONTINUOUS
 62
     3
100
AcDbLine
 10
191.033134
 20
118.9943149999999
 30
0.0
 11
193.533134
 21
119.00361
 31
0.0
  0
LINE
  5
3B5
330
1E
100
AcDbEntity
  8
CSLAYER1
  6
CONTINUOUS
 62
     3
100
AcDbLine
 10
193.533134
 20
119.00361
 30
0.0
 11
191.033134
 21
121.50361
 31
0.0
  0
LINE
  5
3B6
330
1E
100
AcDbEntity
  8
CSLAYER1
  6
CONTINUOUS
 62
     3
100
AcDbLine
 10
191.033134
 20
121.50361
 30
0.0
 11
191.033134
 21
126.272344
 31
0.0
  0
ARC
  5
3B7
330
1E
100
AcDbEntity
  8
CSLAYER1
  6
CONTINUOUS
 62
     3
100
AcDbCircle
 10
205.533134
 20
113.9943149999999
 30
0.0
 40
19.0
100
AcDbArc
 50
130.2566129999999
 51
139.743387
  0
LINE
  5
3B8
330
1E
100
AcDbEntity
  8
CSLAYER1
  6
CONTINUOUS
 62
     3
100
AcDbLine
 10
195.533134
 20
125.4943149999999
 30
0.0
 11
196.8321719999999
 21
124.7443149999999
 31
0.0
  0
LINE
  5
3B9
330
1E
100
AcDbEntity
  8
CSLAYER1
  6
CONTINUOUS
 62
     3
100
AcDbLine
 10
196.8321719999999
 20
124.7443149999999
 30
0.0
 11
196.8321719999999
 21
123.2443149999999
 31
0.0
  0
LINE
  5
3BA
330
1E
100
AcDbEntity
  8
CSLAYER1
  6
CONTINUOUS
 62
     3
100
AcDbLine
 10
196.8321719999999
 20
123.2443149999999
 30
0.0
 11
195.533134
 21
122.4943149999999
 31
0.0
  0
LINE
  5
3BB
330
1E
100
AcDbEntity
  8
CSLAYER1
  6
CONTINUOUS
 62
     3
100
AcDbLine
 10
195.533134
 20
122.4943149999999
 30
0.0
 11
194.2340959999999
 21
123.2443149999999
 31
0.0
  0
LINE
  5
3BC
330
1E
100
AcDbEntity
  8
CSLAYER1
  6
CONTINUOUS
 62
     3
100
AcDbLine
 10
194.2340959999999
 20
123.2443149999999
 30
0.0
 11
194.2340959999999
 21
124.7443149999999
 31
0.0
  0
LINE
  5
3BD
330
1E
100
AcDbEntity
  8
CSLAYER1
  6
CONTINUOUS
 62
     3
100
AcDbLine
 10
194.2340959999999
 20
124.7443149999999
 30
0.0
 11
195.533134
 21
125.4943149999999
 31
0.0
  0
CIRCLE
  5
3BE
330
1E
100
AcDbEntity
  8
CSLAYER1
  6
CONTINUOUS
 62
     3
100
AcDbCircle
 10
195.533134
 20
123.9943149999999
 30
0.0
 40
2.75
  0
CIRCLE
  5
3BF
330
1E
100
AcDbEntity
  8
CSLAYER1
  6
CONTINUOUS
 62
     3
100
AcDbCircle
 10
195.533134
 20
123.9943149999999
 30
0.0
 40
3.25
  0
LINE
  5
3C0
330
1E
100
AcDbEntity
  8
CSLAYER1
  6
CONTINUOUS
 62
     3
100
AcDbLine
 10
194.2340959999999
 20
104.744315
 30
0.0
 11
195.533134
 21
105.4943149999999
 31
0.0
  0
LINE
  5
3C1
330
1E
100
AcDbEntity
  8
CSLAYER1
  6
CONTINUOUS
 62
     3
100
AcDbLine
 10
195.533134
 20
105.4943149999999
 30
0.0
 11
196.8321719999999
 21
104.744315
 31
0.0
  0
LINE
  5
3C2
330
1E
100
AcDbEntity
  8
CSLAYER1
  6
CONTINUOUS
 62
     3
100
AcDbLine
 10
196.8321719999999
 20
104.744315
 30
0.0
 11
196.8321719999999
 21
103.2443149999999
 31
0.0
  0
LINE
  5
3C3
330
1E
100
AcDbEntity
  8
CSLAYER1
  6
CONTINUOUS
 62
     3
100
AcDbLine
 10
196.8321719999999
 20
103.2443149999999
 30
0.0
 11
195.533134
 21
102.4943149999999
 31
0.0
  0
LINE
  5
3C4
330
1E
100
AcDbEntity
  8
CSLAYER1
  6
CONTINUOUS
 62
     3
100
AcDbLine
 10
195.533134
 20
102.4943149999999
 30
0.0
 11
194.2340959999999
 21
103.2443149999999
 31
0.0
  0
LINE
  5
3C5
330
1E
100
AcDbEntity
  8
CSLAYER1
  6
CONTINUOUS
 62
     3
100
AcDbLine
 10
194.2340959999999
 20
103.2443149999999
 30
0.0
 11
194.2340959999999
 21
104.744315
 31
0.0
  0
CIRCLE
  5
3C6
330
1E
100
AcDbEntity
  8
CSLAYER1
  6
CONTINUOUS
 62
     3
100
AcDbCircle
 10
195.533134
 20
103.994315
 30
0.0
 40
2.75
  0
CIRCLE
  5
3C7
330
1E
100
AcDbEntity
  8
CSLAYER1
  6
CONTINUOUS
 62
     3
100
AcDbCircle
 10
195.533134
 20
103.994315
 30
0.0
 40
3.25
  0
LINE
  5
3C8
330
1E
100
AcDbEntity
  8
CSLAYER1
  6
CONTINUOUS
 62
     3
100
AcDbLine
 10
215.533134
 20
125.4943149999999
 30
0.0
 11
216.832172
 21
124.7443149999999
 31
0.0
  0
LINE
  5
3C9
330
1E
100
AcDbEntity
  8
CSLAYER1
  6
CONTINUOUS
 62
     3
100
AcDbLine
 10
216.832172
 20
124.7443149999999
 30
0.0
 11
216.832172
 21
123.2443149999999
 31
0.0
  0
LINE
  5
3CA
330
1E
100
AcDbEntity
  8
CSLAYER1
  6
CONTINUOUS
 62
     3
100
AcDbLine
 10
216.832172
 20
123.2443149999999
 30
0.0
 11
215.533134
 21
122.4943149999999
 31
0.0
  0
LINE
  5
3CB
330
1E
100
AcDbEntity
  8
CSLAYER1
  6
CONTINUOUS
 62
     3
100
AcDbLine
 10
215.533134
 20
122.4943149999999
 30
0.0
 11
214.2340959999999
 21
123.2443149999999
 31
0.0
  0
LINE
  5
3CC
330
1E
100
AcDbEntity
  8
CSLAYER1
  6
CONTINUOUS
 62
     3
100
AcDbLine
 10
214.2340959999999
 20
123.2443149999999
 30
0.0
 11
214.2340959999999
 21
124.7443149999999
 31
0.0
  0
LINE
  5
3CD
330
1E
100
AcDbEntity
  8
CSLAYER1
  6
CONTINUOUS
 62
     3
100
AcDbLine
 10
214.2340959999999
 20
124.7443149999999
 30
0.0
 11
215.533134
 21
125.4943149999999
 31
0.0
  0
CIRCLE
  5
3CE
330
1E
100
AcDbEntity
  8
CSLAYER1
  6
CONTINUOUS
 62
     3
100
AcDbCircle
 10
215.533134
 20
123.9943149999999
 30
0.0
 40
2.75
  0
CIRCLE
  5
3CF
330
1E
100
AcDbEntity
  8
CSLAYER1
  6
CONTINUOUS
 62
     3
100
AcDbCircle
 10
215.533134
 20
123.9943149999999
 30
0.0
 40
3.25
  0
LINE
  5
3D0
330
1E
100
AcDbEntity
  8
CSLAYER1
  6
CONTINUOUS
 62
     3
100
AcDbLine
 10
216.832172
 20
104.744315
 30
0.0
 11
216.832172
 21
103.2443149999999
 31
0.0
  0
LINE
  5
3D1
330
1E
100
AcDbEntity
  8
CSLAYER1
  6
CONTINUOUS
 62
     3
100
AcDbLine
 10
216.832172
 20
103.2443149999999
 30
0.0
 11
215.533134
 21
102.4943149999999
 31
0.0
  0
LINE
  5
3D2
330
1E
100
AcDbEntity
  8
CSLAYER1
  6
CONTINUOUS
 62
     3
100
AcDbLine
 10
215.533134
 20
102.4943149999999
 30
0.0
 11
214.2340959999999
 21
103.2443149999999
 31
0.0
  0
LINE
  5
3D3
330
1E
100
AcDbEntity
  8
CSLAYER1
  6
CONTINUOUS
 62
     3
100
AcDbLine
 10
214.2340959999999
 20
103.2443149999999
 30
0.0
 11
214.2340959999999
 21
104.744315
 31
0.0
  0
LINE
  5
3D4
330
1E
100
AcDbEntity
  8
CSLAYER1
  6
CONTINUOUS
 62
     3
100
AcDbLine
 10
214.2340959999999
 20
104.744315
 30
0.0
 11
215.533134
 21
105.4943149999999
 31
0.0
  0
LINE
  5
3D5
330
1E
100
AcDbEntity
  8
CSLAYER1
  6
CONTINUOUS
 62
     3
100
AcDbLine
 10
215.533134
 20
105.4943149999999
 30
0.0
 11
216.832172
 21
104.744315
 31
0.0
  0
CIRCLE
  5
3D6
330
1E
100
AcDbEntity
  8
CSLAYER1
  6
CONTINUOUS
 62
     3
100
AcDbCircle
 10
215.533134
 20
103.994315
 30
0.0
 40
2.75
  0
CIRCLE
  5
3D7
330
1E
100
AcDbEntity
  8
CSLAYER1
  6
CONTINUOUS
 62
     3
100
AcDbCircle
 10
215.533134
 20
103.994315
 30
0.0
 40
3.25
  0
POINT
  5
3D8
330
1E
100
AcDbEntity
  8
CSLAYER1
 62
     3
100
AcDbPoint
 10
205.533134
 20
113.9943149999999
 30
0.0
  0
POINT
  5
3D9
330
1E
100
AcDbEntity
  8
CSLAYER1
 62
     3
100
AcDbPoint
 10
195.533134
 20
123.9943149999999
 30
0.0
  0
POINT
  5
3DA
330
1E
100
AcDbEntity
  8
CSLAYER1
 62
     3
100
AcDbPoint
 10
215.533134
 20
123.9943149999999
 30
0.0
  0
POINT
  5
3DB
330
1E
100
AcDbEntity
  8
CSLAYER1
 62
     3
100
AcDbPoint
 10
215.533134
 20
103.994315
 30
0.0
  0
POINT
  5
3DC
330
1E
100
AcDbEntity
  8
CSLAYER1
 62
     3
100
AcDbPoint
 10
195.533134
 20
103.994315
 30
0.0
  0
LINE
  5
3DD
330
1E
100
AcDbEntity
  8
CSLAYER1
  6
CENTER
 62
     4
100
AcDbLine
 10
189.804133
 20
123.9943149999999
 30
0.0
 11
221.269346
 21
123.9943149999999
 31
0.0
  0
LINE
  5
3DE
330
1E
100
AcDbEntity
  8
CSLAYER1
  6
CENTER
 62
     4
100
AcDbLine
 10
195.533134
 20
129.799407
 30
0.0
 11
195.533134
 21
97.90789100000001
 31
0.0
  0
LINE
  5
3DF
330
1E
100
AcDbEntity
  8
CSLAYER1
  6
CENTER
 62
     4
100
AcDbLine
 10
189.39813
 20
103.994315
 30
0.0
 11
221.512947
 21
103.994315
 31
0.0
  0
LINE
  5
3E0
330
1E
100
AcDbEntity
  8
CSLAYER1
  6
CENTER
 62
     4
100
AcDbLine
 10
215.533134
 20
97.78609000000001
 30
0.0
 11
215.533134
 21
130.530212
 31
0.0
  0
LINE
  5
3E1
330
1E
100
AcDbEntity
  8
CSLAYER1
  6
CONTINUOUS
 62
     3
100
AcDbLine
 10
121.544775
 20
108.9850199999999
 30
0.0
 11
150.044775
 21
108.9850199999999
 31
0.0
  0
LINE
  5
3E2
330
1E
100
AcDbEntity
  8
CSLAYER1
  6
CONTINUOUS
 62
     3
100
AcDbLine
 10
150.044775
 20
106.4850199999999
 30
0.0
 11
121.544775
 21
106.4850199999999
 31
0.0
  0
LINE
  5
3E3
330
1E
100
AcDbEntity
  8
CSLAYER1
  6
CONTINUOUS
 62
     3
100
AcDbLine
 10
121.544775
 20
101.716286
 30
0.0
 11
150.044775
 21
101.716286
 31
0.0
  0
LINE
  5
3E4
330
1E
100
AcDbEntity
  8
CSLAYER1
  6
CONTINUOUS
 62
     3
100
AcDbLine
 10
150.044775
 20
99.49431500000001
 30
0.0
 11
150.044775
 21
128.4943149999999
 31
0.0
  0
LINE
  5
3E5
330
1E
100
AcDbEntity
  8
CSLAYER1
  6
CONTINUOUS
 62
     3
100
AcDbLine
 10
150.044775
 20
128.4943149999999
 30
0.0
 11
121.544775
 21
128.4943149999999
 31
0.0
  0
LINE
  5
3E6
330
1E
100
AcDbEntity
  8
CSLAYER1
  6
CONTINUOUS
 62
     3
100
AcDbLine
 10
121.544775
 20
126.272344
 30
0.0
 11
150.044775
 21
126.272344
 31
0.0
  0
LINE
  5
3E7
330
1E
100
AcDbEntity
  8
CSLAYER1
  6
CONTINUOUS
 62
     3
100
AcDbLine
 10
150.044775
 20
121.50361
 30
0.0
 11
121.544775
 21
121.50361
 31
0.0
  0
LINE
  5
3E8
330
1E
100
AcDbEntity
  8
CSLAYER1
  6
CONTINUOUS
 62
     3
100
AcDbLine
 10
121.544775
 20
119.00361
 30
0.0
 11
150.044775
 21
119.00361
 31
0.0
  0
LINE
  5
3E9
330
1E
100
AcDbEntity
  8
CSLAYER1
  6
CONTINUOUS
 62
     3
100
AcDbLine
 10
145.7947749999999
 20
114.7160029999999
 30
0.0
 11
145.7947749999999
 21
113.272627
 31
0.0
  0
LINE
  5
3EA
330
1E
100
AcDbEntity
  8
CSLAYER1
  6
CONTINUOUS
 62
     3
100
AcDbLine
 10
145.7947749999999
 20
113.272627
 30
0.0
 11
144.5447749999999
 21
112.5509389999999
 31
0.0
  0
LINE
  5
3EB
330
1E
100
AcDbEntity
  8
CSLAYER1
  6
CONTINUOUS
 62
     3
100
AcDbLine
 10
144.5447749999999
 20
112.5509389999999
 30
0.0
 11
143.2947749999999
 21
113.272627
 31
0.0
  0
LINE
  5
3EC
330
1E
100
AcDbEntity
  8
CSLAYER1
  6
CONTINUOUS
 62
     3
100
AcDbLine
 10
143.2947749999999
 20
113.272627
 30
0.0
 11
143.2947749999999
 21
114.7160029999999
 31
0.0
  0
LINE
  5
3ED
330
1E
100
AcDbEntity
  8
CSLAYER1
  6
CONTINUOUS
 62
     3
100
AcDbLine
 10
143.2947749999999
 20
114.7160029999999
 30
0.0
 11
144.5447749999999
 21
115.4376909999999
 31
0.0
  0
LINE
  5
3EE
330
1E
100
AcDbEntity
  8
CSLAYER1
  6
CONTINUOUS
 62
     3
100
AcDbLine
 10
144.5447749999999
 20
115.4376909999999
 30
0.0
 11
145.7947749999999
 21
114.7160029999999
 31
0.0
  0
CIRCLE
  5
3EF
330
1E
100
AcDbEntity
  8
CSLAYER1
  6
CONTINUOUS
 62
     3
100
AcDbCircle
 10
144.5447749999999
 20
113.9943149999999
 30
0.0
 40
2.5
  0
CIRCLE
  5
3F0
330
1E
100
AcDbEntity
  8
CSLAYER1
  6
CONTINUOUS
 62
     3
100
AcDbCircle
 10
129.5447749999999
 20
113.9943149999999
 30
0.0
 40
2.1
  0
LINE
  5
3F1
330
1E
100
AcDbEntity
  8
CSLAYER1
  6
CONTINUOUS
 62
     3
100
AcDbLine
 10
121.544775
 20
99.49431500000001
 30
0.0
 11
150.044775
 21
99.49431500000001
 31
0.0
  0
LINE
  5
3F2
330
1E
100
AcDbEntity
  8
CSLAYER1
  6
CENTER
 62
     4
100
AcDbLine
 10
129.5447749999999
 20
118.016756
 30
0.0
 11
129.5447749999999
 21
110.0168299999999
 31
0.0
  0
CIRCLE
  5
3F3
330
1E
100
AcDbEntity
  8
CSLAYER1
  6
CONTINUOUS
 62
     4
100
AcDbCircle
 10
129.5447749999999
 20
113.9943149999999
 30
0.0
 40
2.5
  0
CIRCLE
  5
3F4
330
1E
100
AcDbEntity
  8
CSLAYER1
  6
CONTINUOUS
 62
     4
100
AcDbCircle
 10
144.5447749999999
 20
113.9943149999999
 30
0.0
 40
2.1
  0
LINE
  5
3F5
330
1E
100
AcDbEntity
  8
CSLAYER1
  6
CENTER
 62
     4
100
AcDbLine
 10
144.5447749999999
 20
110.1103959999999
 30
0.0
 11
144.5447749999999
 21
118.0635389999999
 31
0.0
  0
INSERT
  5
3F6
330
1E
100
AcDbEntity
  8
CSLAYER1
100
AcDbBlockReference
  2
FXDIM0002
 10
0.0
 20
0.0
 30
0.0
  0
LINE
  5
3F7
330
1E
100
AcDbEntity
  8
CSLAYER1
  6
CONTINUOUS
 62
     3
100
AcDbLine
 10
101.9913569999999
 20
108.220812
 30
0.0
 11
106.298193
 21
108.220812
 31
0.0
  0
LINE
  5
3F8
330
1E
100
AcDbEntity
  8
CSLAYER1
  6
CONTINUOUS
 62
     3
100
AcDbLine
 10
106.298193
 20
108.220812
 30
0.0
 11
106.744775
 21
108.9943149999999
 31
0.0
  0
LINE
  5
3F9
330
1E
100
AcDbEntity
  8
CSLAYER1
  6
CONTINUOUS
 62
     3
100
AcDbLine
 10
106.744775
 20
108.9943149999999
 30
0.0
 11
106.744775
 21
118.9943149999999
 31
0.0
  0
LINE
  5
3FA
330
1E
100
AcDbEntity
  8
CSLAYER1
  6
CONTINUOUS
 62
     3
100
AcDbLine
 10
106.744775
 20
118.9943149999999
 30
0.0
 11
106.298193
 21
119.767818
 31
0.0
  0
LINE
  5
3FB
330
1E
100
AcDbEntity
  8
CSLAYER1
  6
CONTINUOUS
 62
     3
100
AcDbLine
 10
106.298193
 20
119.767818
 30
0.0
 11
101.9913569999999
 21
119.767818
 31
0.0
  0
LINE
  5
3FC
330
1E
100
AcDbEntity
  8
CSLAYER1
  6
CONTINUOUS
 62
     3
100
AcDbLine
 10
101.9913569999999
 20
119.767818
 30
0.0
 11
101.544775
 21
118.9943149999999
 31
0.0
  0
ARC
  5
3FD
330
1E
100
AcDbEntity
  8
CSLAYER1
  6
CONTINUOUS
 62
     3
100
AcDbCircle
 10
106.5445519999999
 20
118.947081
 30
0.0
 40
5.0
100
AcDbArc
 50
179.458729
 51
204.406196
  0
LINE
  5
3FE
330
1E
100
AcDbEntity
  8
CSLAYER1
  6
CONTINUOUS
 62
     3
100
AcDbLine
 10
101.9913569999999
 20
116.8810659999999
 30
0.0
 11
106.298193
 21
116.8810659999999
 31
0.0
  0
ARC
  5
3FF
330
1E
100
AcDbEntity
  8
CSLAYER1
  6
CONTINUOUS
 62
     3
100
AcDbCircle
 10
97.191357
 20
113.9943149999999
 30
0.0
 40
9.553417999999998
100
AcDbArc
 50
342.412046
 51
17.587954
  0
LINE
  5
400
330
1E
100
AcDbEntity
  8
CSLAYER1
  6
CONTINUOUS
 62
     3
100
AcDbLine
 10
106.298193
 20
111.1075639999999
 30
0.0
 11
101.9913569999999
 21
111.1075639999999
 31
0.0
  0
ARC
  5
401
330
1E
100
AcDbEntity
  8
CSLAYER1
  6
CONTINUOUS
 62
     3
100
AcDbCircle
 10
111.0981929999999
 20
113.9943149999999
 30
0.0
 40
9.553417999999998
100
AcDbArc
 50
162.412046
 51
197.5879539999999
  0
ARC
  5
402
330
1E
100
AcDbEntity
  8
CSLAYER1
  6
CONTINUOUS
 62
     3
100
AcDbCircle
 10
101.7449979999999
 20
118.947081
 30
0.0
 40
5.0
100
AcDbArc
 50
335.593804
 51
0.5412710000000001
  0
LINE
  5
403
330
1E
100
AcDbEntity
  8
CSLAYER1
  6
CONTINUOUS
 62
     3
100
AcDbLine
 10
106.744775
 20
116.9943149999999
 30
0.0
 11
108.044775
 21
116.9943149999999
 31
0.0
  0
LINE
  5
404
330
1E
100
AcDbEntity
  8
CSLAYER1
  6
CONTINUOUS
 62
     3
100
AcDbLine
 10
108.044775
 20
116.9943149999999
 30
0.0
 11
108.044775
 21
110.9943149999999
 31
0.0
  0
LINE
  5
405
330
1E
100
AcDbEntity
  8
CSLAYER1
  6
CONTINUOUS
 62
     3
100
AcDbLine
 10
108.044775
 20
110.9943149999999
 30
0.0
 11
109.044775
 21
109.9943149999999
 31
0.0
  0
LINE
  5
406
330
1E
100
AcDbEntity
  8
CSLAYER1
  6
CONTINUOUS
 62
     3
100
AcDbLine
 10
109.044775
 20
109.9943149999999
 30
0.0
 11
116.544775
 21
109.9943149999999
 31
0.0
  0
LINE
  5
407
330
1E
100
AcDbEntity
  8
CSLAYER1
  6
CONTINUOUS
 62
     3
100
AcDbLine
 10
116.544775
 20
117.9943149999999
 30
0.0
 11
109.044775
 21
117.9943149999999
 31
0.0
  0
LINE
  5
408
330
1E
100
AcDbEntity
  8
CSLAYER1
  6
CONTINUOUS
 62
     3
100
AcDbLine
 10
109.044775
 20
117.9943149999999
 30
0.0
 11
108.044775
 21
116.9943149999999
 31
0.0
  0
LINE
  5
409
330
1E
100
AcDbEntity
  8
CSLAYER1
  6
CONTINUOUS
 62
     3
100
AcDbLine
 10
109.044775
 20
117.9943149999999
 30
0.0
 11
109.044775
 21
109.9943149999999
 31
0.0
  0
LINE
  5
40A
330
1E
100
AcDbEntity
  8
CSLAYER1
  6
CONTINUOUS
 62
     3
100
AcDbLine
 10
108.044775
 20
110.9943149999999
 30
0.0
 11
106.744775
 21
110.9943149999999
 31
0.0
  0
ARC
  5
40B
330
1E
100
AcDbEntity
  8
CSLAYER1
  6
CONTINUOUS
 62
     3
100
AcDbCircle
 10
101.7449979999999
 20
109.041549
 30
0.0
 40
5.0
100
AcDbArc
 50
359.458729
 51
24.40619599999999
  0
LINE
  5
40C
330
1E
100
AcDbEntity
  8
CSLAYER1
  6
CONTINUOUS
 62
     3
100
AcDbLine
 10
101.9913569999999
 20
108.220812
 30
0.0
 11
101.544775
 21
108.9943149999999
 31
0.0
  0
ARC
  5
40D
330
1E
100
AcDbEntity
  8
CSLAYER1
  6
CONTINUOUS
 62
     3
100
AcDbCircle
 10
106.5445519999999
 20
109.041549
 30
0.0
 40
5.0
100
AcDbArc
 50
155.593804
 51
180.5412709999999
  0
LINE
  5
40E
330
1E
100
AcDbEntity
  8
CSLAYER1
  6
CONTINUOUS
 62
     3
100
AcDbLine
 10
274.208362
 20
106.4850199999999
 30
0.0
 11
302.708362
 21
106.4850199999999
 31
0.0
  0
LINE
  5
40F
330
1E
100
AcDbEntity
  8
CSLAYER1
  6
CONTINUOUS
 62
     3
100
AcDbLine
 10
302.708362
 20
101.716286
 30
0.0
 11
274.208362
 21
101.716286
 31
0.0
  0
LINE
  5
410
330
1E
100
AcDbEntity
  8
CSLAYER1
  6
CONTINUOUS
 62
     3
100
AcDbLine
 10
274.208362
 20
99.49431500000001
 30
0.0
 11
274.208362
 21
128.4943149999999
 31
0.0
  0
LINE
  5
411
330
1E
100
AcDbEntity
  8
CSLAYER1
  6
CONTINUOUS
 62
     3
100
AcDbLine
 10
274.208362
 20
128.4943149999999
 30
0.0
 11
293.208362
 21
128.4943149999999
 31
0.0
  0
LINE
  5
412
330
1E
100
AcDbEntity
  8
CSLAYER1
  6
CONTINUOUS
 62
     3
100
AcDbLine
 10
293.208362
 20
126.272344
 30
0.0
 11
274.208362
 21
126.272344
 31
0.0
  0
LINE
  5
413
330
1E
100
AcDbEntity
  8
CSLAYER1
  6
CONTINUOUS
 62
     3
100
AcDbLine
 10
274.208362
 20
121.50361
 30
0.0
 11
293.208362
 21
121.50361
 31
0.0
  0
LINE
  5
414
330
1E
100
AcDbEntity
  8
CSLAYER1
  6
CONTINUOUS
 62
     3
100
AcDbLine
 10
302.708362
 20
99.49431500000001
 30
0.0
 11
274.208362
 21
99.49431500000001
 31
0.0
  0
LINE
  5
415
330
1E
100
AcDbEntity
  8
CSLAYER17
  6
CONTINUOUS
 62
     3
100
AcDbLine
 10
297.708362
 20
121.50361
 30
0.0
 11
302.708362
 21
121.50361
 31
0.0
  0
LINE
  5
416
330
1E
100
AcDbEntity
  8
CSLAYER1
  6
CONTINUOUS
 62
     3
100
AcDbLine
 10
322.26178
 20
108.220812
 30
0.0
 11
317.954944
 21
108.220812
 31
0.0
  0
LINE
  5
417
330
1E
100
AcDbEntity
  8
CSLAYER1
  6
CONTINUOUS
 62
     3
100
AcDbLine
 10
317.954944
 20
108.220812
 30
0.0
 11
317.508362
 21
108.9943149999999
 31
0.0
  0
LINE
  5
418
330
1E
100
AcDbEntity
  8
CSLAYER1
  6
CONTINUOUS
 62
     3
100
AcDbLine
 10
317.508362
 20
108.9943149999999
 30
0.0
 11
317.508362
 21
118.9943149999999
 31
0.0
  0
LINE
  5
419
330
1E
100
AcDbEntity
  8
CSLAYER1
  6
CONTINUOUS
 62
     3
100
AcDbLine
 10
317.508362
 20
118.9943149999999
 30
0.0
 11
317.954944
 21
119.767818
 31
0.0
  0
LINE
  5
41A
330
1E
100
AcDbEntity
  8
CSLAYER1
  6
CONTINUOUS
 62
     3
100
AcDbLine
 10
317.954944
 20
119.767818
 30
0.0
 11
322.26178
 21
119.767818
 31
0.0
  0
LINE
  5
41B
330
1E
100
AcDbEntity
  8
CSLAYER1
  6
CONTINUOUS
 62
     3
100
AcDbLine
 10
322.26178
 20
119.767818
 30
0.0
 11
322.708362
 21
118.9943149999999
 31
0.0
  0
ARC
  5
41C
330
1E
100
AcDbEntity
  8
CSLAYER1
  6
CONTINUOUS
 62
     3
100
AcDbCircle
 10
317.708585
 20
118.947081
 30
0.0
 40
5.0
100
AcDbArc
 50
335.593804
 51
0.5412710000000001
  0
LINE
  5
41D
330
1E
100
AcDbEntity
  8
CSLAYER1
  6
CONTINUOUS
 62
     3
100
AcDbLine
 10
322.26178
 20
116.8810659999999
 30
0.0
 11
317.954944
 21
116.8810659999999
 31
0.0
  0
ARC
  5
41E
330
1E
100
AcDbEntity
  8
CSLAYER1
  6
CONTINUOUS
 62
     3
100
AcDbCircle
 10
327.06178
 20
113.9943149999999
 30
0.0
 40
9.553417999999998
100
AcDbArc
 50
162.412046
 51
197.5879539999999
  0
LINE
  5
41F
330
1E
100
AcDbEntity
  8
CSLAYER1
  6
CONTINUOUS
 62
     3
100
AcDbLine
 10
317.954944
 20
111.1075639999999
 30
0.0
 11
322.26178
 21
111.1075639999999
 31
0.0
  0
ARC
  5
420
330
1E
100
AcDbEntity
  8
CSLAYER1
  6
CONTINUOUS
 62
     3
100
AcDbCircle
 10
313.154944
 20
113.9943149999999
 30
0.0
 40
9.553417999999998
100
AcDbArc
 50
342.412046
 51
17.587954
  0
ARC
  5
421
330
1E
100
AcDbEntity
  8
CSLAYER1
  6
CONTINUOUS
 62
     3
100
AcDbCircle
 10
322.508139
 20
118.947081
 30
0.0
 40
5.0
100
AcDbArc
 50
179.458729
 51
204.406196
  0
LINE
  5
422
330
1E
100
AcDbEntity
  8
CSLAYER1
  6
CONTINUOUS
 62
     3
100
AcDbLine
 10
317.508362
 20
116.9943149999999
 30
0.0
 11
316.208362
 21
116.9943149999999
 31
0.0
  0
LINE
  5
423
330
1E
100
AcDbEntity
  8
CSLAYER1
  6
CONTINUOUS
 62
     3
100
AcDbLine
 10
316.208362
 20
116.9943149999999
 30
0.0
 11
316.208362
 21
110.9943149999999
 31
0.0
  0
LINE
  5
424
330
1E
100
AcDbEntity
  8
CSLAYER1
  6
CONTINUOUS
 62
     3
100
AcDbLine
 10
316.208362
 20
110.9943149999999
 30
0.0
 11
315.208362
 21
109.9943149999999
 31
0.0
  0
LINE
  5
425
330
1E
100
AcDbEntity
  8
CSLAYER1
  6
CONTINUOUS
 62
     3
100
AcDbLine
 10
315.208362
 20
109.9943149999999
 30
0.0
 11
307.708362
 21
109.9943149999999
 31
0.0
  0
LINE
  5
426
330
1E
100
AcDbEntity
  8
CSLAYER1
  6
CONTINUOUS
 62
     3
100
AcDbLine
 10
307.708362
 20
117.9943149999999
 30
0.0
 11
315.208362
 21
117.9943149999999
 31
0.0
  0
LINE
  5
427
330
1E
100
AcDbEntity
  8
CSLAYER1
  6
CONTINUOUS
 62
     3
100
AcDbLine
 10
315.208362
 20
117.9943149999999
 30
0.0
 11
316.208362
 21
116.9943149999999
 31
0.0
  0
LINE
  5
428
330
1E
100
AcDbEntity
  8
CSLAYER1
  6
CONTINUOUS
 62
     3
100
AcDbLine
 10
315.208362
 20
117.9943149999999
 30
0.0
 11
315.208362
 21
109.9943149999999
 31
0.0
  0
LINE
  5
429
330
1E
100
AcDbEntity
  8
CSLAYER1
  6
CONTINUOUS
 62
     3
100
AcDbLine
 10
316.208362
 20
110.9943149999999
 30
0.0
 11
317.508362
 21
110.9943149999999
 31
0.0
  0
ARC
  5
42A
330
1E
100
AcDbEntity
  8
CSLAYER1
  6
CONTINUOUS
 62
     3
100
AcDbCircle
 10
322.508139
 20
109.041549
 30
0.0
 40
5.0
100
AcDbArc
 50
155.593804
 51
180.5412709999999
  0
LINE
  5
42B
330
1E
100
AcDbEntity
  8
CSLAYER1
  6
CONTINUOUS
 62
     3
100
AcDbLine
 10
322.26178
 20
108.220812
 30
0.0
 11
322.708362
 21
108.9943149999999
 31
0.0
  0
ARC
  5
42C
330
1E
100
AcDbEntity
  8
CSLAYER1
  6
CONTINUOUS
 62
     3
100
AcDbCircle
 10
317.708585
 20
109.041549
 30
0.0
 40
5.0
100
AcDbArc
 50
359.458729
 51
24.40619599999999
  0
LINE
  5
42D
330
1E
100
AcDbEntity
  8
CSLAYER1
  6
CENTER
 62
     4
100
AcDbLine
 10
217.533134
 20
119.00361
 30
0.0
 11
217.533134
 21
246.378587
 31
0.0
  0
LINE
  5
42E
330
1E
100
AcDbEntity
  8
CSLAYER1
  6
DOT
 62
     3
100
AcDbLine
 10
10.0
 20
3.0
 30
0.0
 11
395.0
 21
3.0
 31
0.0
  0
LINE
  5
42F
330
1E
100
AcDbEntity
  8
CSLAYER1
  6
DOT
 62
     3
100
AcDbLine
 10
395.0
 20
3.0
 30
0.0
 11
395.0
 21
275.0
 31
0.0
  0
LINE
  5
430
330
1E
100
AcDbEntity
  8
CSLAYER1
  6
DOT
 62
     3
100
AcDbLine
 10
395.0
 20
275.0
 30
0.0
 11
10.0
 21
275.0
 31
0.0
  0
LINE
  5
431
330
1E
100
AcDbEntity
  8
CSLAYER1
  6
DOT
 62
     3
100
AcDbLine
 10
10.0
 20
275.0
 30
0.0
 11
10.0
 21
3.0
 31
0.0
  0
ENDSEC
  0
SECTION
  2
OBJECTS
  0
DICTIONARY
  5
C
330
0
100
AcDbDictionary
  3
ACAD_GROUP
350
D
  3
ACAD_LAYOUT
350
19
  3
ACAD_MLINESTYLE
350
16
  3
ACAD_PLOTSETTINGS
350
18
1001
ACAD
1000
TREAT_AS_HARD
1070
     0
  0
DICTIONARY
  5
43B
330
1E
100
AcDbDictionary
  3
ACAD_LAYOUTSELFREF
350
43C
  0
DICTIONARY
  5
439
330
1A
100
AcDbDictionary
  3
ACAD_LAYOUTSELFREF
350
43A
  0
DICTIONARY
  5
D
102
{ACAD_REACTORS
330
C
102
}
330
C
100
AcDbDictionary
1001
ACAD
1000
TREAT_AS_HARD
1070
     0
  0
DICTIONARY
  5
19
102
{ACAD_REACTORS
330
C
102
}
330
C
100
AcDbDictionary
1001
ACAD
1000
TREAT_AS_HARD
1070
     0
  0
DICTIONARY
  5
16
102
{ACAD_REACTORS
330
C
102
}
330
C
100
AcDbDictionary
  3
STANDARD
350
17
1001
ACAD
1000
TREAT_AS_HARD
1070
     0
  0
DICTIONARY
  5
18
102
{ACAD_REACTORS
330
C
102
}
330
C
100
AcDbDictionary
1001
ACAD
1000
TREAT_AS_HARD
1070
     0
  0
XRECORD
  5
43C
102
{ACAD_REACTORS
330
43B
102
}
330
43B
100
AcDbXrecord
340
1E
  0
XRECORD
  5
43A
102
{ACAD_REACTORS
330
439
102
}
330
439
100
AcDbXrecord
340
1A
  0
MLINESTYLE
  5
17
102
{ACAD_REACTORS
330
16
102
}
330
16
100
AcDbMlineStyle
  2
STANDARD
 70
     0
  3

 62
   256
 51
90.0
 52
90.0
 71
     2
 49
0.5
 62
   256
  6
BYLAYER
 49
-0.5
 62
   256
  6
BYLAYER
  0
ENDSEC
  0
EOF
