  0
SECTION
  2
HEADER
  9
$ACADVER
  1
AC1012
  9
$DWGCODEPAGE
  3
dos932
  9
$INSBASE
 10
0.0
 20
0.0
 30
0.0
  9
$EXTMIN
 10
10.0
 20
3.0
 30
0.0
  9
$EXTMAX
 10
395.0
 20
275.0
 30
0.0
  9
$LIMMIN
 10
0.0
 20
0.0
  9
$LIMMAX
 10
420.0
 20
297.0
  9
$ORTHOMODE
 70
     0
  9
$REGENMODE
 70
     1
  9
$FILLMODE
 70
     1
  9
$QTEXTMODE
 70
     0
  9
$MIRRTEXT
 70
     1
  9
$DRAGMODE
 70
     2
  9
$LTSCALE
 40
15.0
  9
$OSMODE
 70
    37
  9
$ATTMODE
 70
     1
  9
$TEXTSIZE
 40
0.2
  9
$TRACEWID
 40
0.05
  9
$TEXTSTYLE
  7
GOTHIC
  9
$CLAYER
  8
CSLAYER1
  9
$CELTYPE
  6
BYLAYER
  9
$CECOLOR
 62
   256
  9
$CELTSCALE
 40
1.0
  9
$DELOBJ
 70
     1
  9
$DISPSILH
 70
     0
  9
$DIMSCALE
 40
1.0
  9
$DIMASZ
 40
0.18
  9
$DIMEXO
 40
0.0625
  9
$DIMDLI
 40
0.38
  9
$DIMRND
 40
0.0
  9
$DIMDLE
 40
0.0
  9
$DIMEXE
 40
0.18
  9
$DIMTP
 40
0.0
  9
$DIMTM
 40
0.0
  9
$DIMTXT
 40
0.18
  9
$DIMCEN
 40
0.09
  9
$DIMTSZ
 40
0.0
  9
$DIMTOL
 70
     0
  9
$DIMLIM
 70
     0
  9
$DIMTIH
 70
     1
  9
$DIMTOH
 70
     1
  9
$DIMSE1
 70
     0
  9
$DIMSE2
 70
     0
  9
$DIMTAD
 70
     0
  9
$DIMZIN
 70
     0
  9
$DIMBLK
  1

  9
$DIMASO
 70
     1
  9
$DIMSHO
 70
     1
  9
$DIMPOST
  1

  9
$DIMAPOST
  1

  9
$DIMALT
 70
     0
  9
$DIMALTD
 70
     2
  9
$DIMALTF
 40
25.4
  9
$DIMLFAC
 40
1.0
  9
$DIMTOFL
 70
     0
  9
$DIMTVP
 40
0.0
  9
$DIMTIX
 70
     0
  9
$DIMSOXD
 70
     0
  9
$DIMSAH
 70
     0
  9
$DIMBLK1
  1

  9
$DIMBLK2
  1

  9
$DIMSTYLE
  2
STANDARD
  9
$DIMCLRD
 70
     0
  9
$DIMCLRE
 70
     0
  9
$DIMCLRT
 70
     0
  9
$DIMTFAC
 40
1.0
  9
$DIMGAP
 40
0.09
  9
$DIMJUST
 70
     0
  9
$DIMSD1
 70
     0
  9
$DIMSD2
 70
     0
  9
$DIMTOLJ
 70
     1
  9
$DIMTZIN
 70
     0
  9
$DIMALTZ
 70
     0
  9
$DIMALTTZ
 70
     0
  9
$DIMFIT
 70
     3
  9
$DIMUPT
 70
     0
  9
$DIMUNIT
 70
     2
  9
$DIMDEC
 70
     4
  9
$DIMTDEC
 70
     4
  9
$DIMALTU
 70
     2
  9
$DIMALTTD
 70
     2
  9
$DIMTXSTY
  7
STANDARD
  9
$DIMAUNIT
 70
     0
  9
$LUNITS
 70
     2
  9
$LUPREC
 70
     4
  9
$SKETCHINC
 40
0.1
  9
$FILLETRAD
 40
0.0
  9
$AUNITS
 70
     0
  9
$AUPREC
 70
     0
  9
$MENU
  1
ACAD
  9
$ELEVATION
 40
0.0
  9
$PELEVATION
 40
0.0
  9
$THICKNESS
 40
0.0
  9
$LIMCHECK
 70
     0
  9
$BLIPMODE
 70
     1
  9
$CHAMFERA
 40
0.0
  9
$CHAMFERB
 40
0.0
  9
$CHAMFERC
 40
0.0
  9
$CHAMFERD
 40
0.0
  9
$SKPOLY
 70
     0
  9
$TDCREATE
 40
2453483.000000000
  9
$TDUPDATE
 40
2453483.000000000
  9
$TDINDWG
 40
0.0000052199
  9
$TDUSRTIMER
 40
0.0000052199
  9
$USRTIMER
 70
     1
  9
$ANGBASE
 50
0.0
  9
$ANGDIR
 70
     0
  9
$PDMODE
 70
     0
  9
$PDSIZE
 40
0.0
  9
$PLINEWID
 40
0.0
  9
$COORDS
 70
     2
  9
$SPLFRAME
 70
     0
  9
$SPLINETYPE
 70
     6
  9
$SPLINESEGS
 70
     8
  9
$ATTDIA
 70
     0
  9
$ATTREQ
 70
     1
  9
$HANDLING
 70
 22529
  9
$HANDSEED
  5
4F1
  9
$SURFTAB1
 70
     6
  9
$SURFTAB2
 70
     6
  9
$SURFTYPE
 70
     6
  9
$SURFU
 70
     6
  9
$SURFV
 70
     6
  9
$UCSNAME
  2

  9
$UCSORG
 10
0.0
 20
0.0
 30
0.0
  9
$UCSXDIR
 10
1.0
 20
0.0
 30
0.0
  9
$UCSYDIR
 10
0.0
 20
1.0
 30
0.0
  9
$PUCSNAME
  2

  9
$PUCSORG
 10
0.0
 20
0.0
 30
0.0
  9
$PUCSXDIR
 10
1.0
 20
0.0
 30
0.0
  9
$PUCSYDIR
 10
0.0
 20
1.0
 30
0.0
  9
$USERI1
 70
     0
  9
$USERI2
 70
     0
  9
$USERI3
 70
     0
  9
$USERI4
 70
     0
  9
$USERI5
 70
     0
  9
$USERR1
 40
0.0
  9
$USERR2
 40
0.0
  9
$USERR3
 40
0.0
  9
$USERR4
 40
0.0
  9
$USERR5
 40
0.0
  9
$WORLDVIEW
 70
     1
  9
$SHADEDGE
 70
     3
  9
$SHADEDIF
 70
    70
  9
$TILEMODE
 70
     1
  9
$MAXACTVP
 70
    64
  9
$PINSBASE
 10
0.0
 20
0.0
 30
0.0
  9
$PLIMCHECK
 70
     0
  9
$PEXTMIN
 10
1.000000000000000E+20
 20
1.000000000000000E+20
 30
1.000000000000000E+20
  9
$PEXTMAX
 10
-1.000000000000000E+20
 20
-1.000000000000000E+20
 30
-1.000000000000000E+20
  9
$PLIMMIN
 10
0.0
 20
0.0
  9
$PLIMMAX
 10
12.0
 20
9.0
  9
$UNITMODE
 70
     0
  9
$VISRETAIN
 70
     1
  9
$PLINEGEN
 70
     0
  9
$PSLTSCALE
 70
     1
  9
$TREEDEPTH
 70
  3020
  9
$PICKSTYLE
 70
     3
  9
$CMLSTYLE
  2
STANDARD
  9
$CMLJUST
 70
     0
  9
$CMLSCALE
 40
1.0
  9
$SAVEIMAGES
 70
     1
  0
ENDSEC
  0
SECTION
  2
CLASSES
  0
CLASS
  1
ACDBDICTIONARYWDFLT
  2
AcDbDictionaryWithDefault
  3
AutoCAD 2000
 90
    32768
280
     0
281
     0
  0
CLASS
  1
ACDBPLACEHOLDER
  2
AcDbPlaceHolder
  3
AutoCAD 2000
 90
    32768
280
     0
281
     0
  0
CLASS
  1
LAYOUT
  2
AcDbLayout
  3
AutoCAD 2000
 90
    32768
280
     0
281
     0
  0
CLASS
  1
DICTIONARYVAR
  2
AcDbDictionaryVar
  3
AutoCAD 2000
 90
    32768
280
     0
281
     0
  0
CLASS
  1
LONG_TRANSACTION
  2
AcDbLongTransaction
  3
AutoCAD 2000
 90
    32768
280
     0
281
     0
  0
CLASS
  1
LWPOLYLINE
  2
AcDbPolyline
  3
AutoCAD 2000
 90
    32768
280
     0
281
     1
  0
CLASS
  1
HATCH
  2
AcDbHatch
  3
AutoCAD 2000
 90
    32768
280
     0
281
     1
  0
CLASS
  1
XRECORD
  2
AcDbXrecord
  3
AutoCAD 2000
 90
    32768
280
     0
281
     0
  0
ENDSEC
  0
SECTION
  2
TABLES
  0
TABLE
  2
VPORT
  5
8
330
0
100
AcDbSymbolTable
 70
     2
  0
VPORT
  5
4EC
330
8
100
AcDbSymbolTableRecord
100
AcDbViewportTableRecord
  2
*ACTIVE
 70
     0
 10
0.0
 20
0.0
 11
1.0
 21
1.0
 12
202.5018320238472
 22
138.9944235930386
 13
0.0
 23
0.0
 14
1.0
 24
1.0
 15
0.0
 25
0.0
 16
0.0
 26
0.0
 36
1.0
 17
0.0
 27
0.0
 37
0.0
 40
274.1445922558548
 41
1.637191157347204
 42
50.0
 43
0.0
 44
0.0
 50
0.0
 51
0.0
 71
     0
 72
   100
 73
     1
 74
     1
 75
     0
 76
     0
 77
     0
 78
     0
  0
ENDTAB
  0
TABLE
  2
LTYPE
  5
5
330
0
100
AcDbSymbolTable
 70
     9
  0
LTYPE
  5
13
330
5
100
AcDbSymbolTableRecord
100
AcDbLinetypeTableRecord
  2
BYBLOCK
 70
     0
  3

 72
    65
 73
     0
 40
0.0
  0
LTYPE
  5
14
330
5
100
AcDbSymbolTableRecord
100
AcDbLinetypeTableRecord
  2
BYLAYER
 70
     0
  3

 72
    65
 73
     0
 40
0.0
  0
LTYPE
  5
15
330
5
100
AcDbSymbolTableRecord
100
AcDbLinetypeTableRecord
  2
CONTINUOUS
 70
     0
  3
Solid line
 72
    65
 73
     0
 40
0.0
  0
LTYPE
  5
23
330
5
100
AcDbSymbolTableRecord
100
AcDbLinetypeTableRecord
  2
DASHED
 70
     0
  3
__ __ __ __ __ __ __ __ __ __ __ __ __ __ __
 72
    65
 73
     2
 40
0.75
 49
0.5
 74
     0
 49
-0.25
 74
     0
  0
LTYPE
  5
25
330
5
100
AcDbSymbolTableRecord
100
AcDbLinetypeTableRecord
  2
DOT
 70
     0
  3
...............................................
 72
    65
 73
     2
 40
0.25
 49
0.0
 74
     0
 49
-0.25
 74
     0
  0
LTYPE
  5
28
330
5
100
AcDbSymbolTableRecord
100
AcDbLinetypeTableRecord
  2
CENTER
 70
     0
  3
____ _ ____ _ ____ _ ____ _ ____ _ ____ _ ____ 
 72
    65
 73
     4
 40
2.0
 49
1.25
 74
     0
 49
-0.25
 74
     0
 49
0.25
 74
     0
 49
-0.25
 74
     0
  0
ENDTAB
  0
TABLE
  2
LAYER
  5
2
330
0
100
AcDbSymbolTable
 70
    17
  0
LAYER
  5
10
330
2
100
AcDbSymbolTableRecord
100
AcDbLayerTableRecord
  2
0
 70
     0
 62
     7
  6
CONTINUOUS
  0
LAYER
  5
22
330
2
100
AcDbSymbolTableRecord
100
AcDbLayerTableRecord
  2
CSLAYER1
 70
     0
 62
     7
  6
CONTINUOUS
  0
ENDTAB
  0
TABLE
  2
STYLE
  5
3
330
0
100
AcDbSymbolTable
 70
     3
  0
STYLE
  5
11
330
3
100
AcDbSymbolTableRecord
100
AcDbTextStyleTableRecord
  2
STANDARD
 70
     0
 40
0.0
 41
1.0
 50
0.0
 71
     0
 42
0.2
  3
txt
  4
extfont.shx
  0
STYLE
  5
3A
330
3
100
AcDbSymbolTableRecord
100
AcDbTextStyleTableRecord
  2
FX_FONT
 70
     0
 40
1.0
 41
1.0
 50
0.0
 71
     0
 42
1.0
  3
monotxt
  4
bigfont
  0
STYLE
  5
4E9
330
3
100
AcDbSymbolTableRecord
100
AcDbTextStyleTableRecord
  2
GOTHIC
 70
     0
 40
0.0
 41
1.0
 50
0.0
 71
     0
 42
0.2
  3
txt.shx
  4
extfont.shx
  0
ENDTAB
  0
TABLE
  2
VIEW
  5
6
330
0
100
AcDbSymbolTable
 70
     0
  0
ENDTAB
  0
TABLE
  2
UCS
  5
7
330
0
100
AcDbSymbolTable
 70
     0
  0
ENDTAB
  0
TABLE
  2
APPID
  5
9
330
0
100
AcDbSymbolTable
 70
     1
  0
APPID
  5
12
330
9
100
AcDbSymbolTableRecord
100
AcDbRegAppTableRecord
  2
ACAD
 70
     0
  0
ENDTAB
  0
TABLE
  2
DIMSTYLE
  5
A
330
0
100
AcDbSymbolTable
 70
     1
  0
DIMSTYLE
105
4E6
330
A
100
AcDbSymbolTableRecord
100
AcDbDimStyleTableRecord
  2
STANDARD
 70
     0
  3

  4

  5

  6

  7

 40
1.0
 41
0.18
 42
0.0625
 43
0.38
 44
0.18
 45
0.0
 46
0.0
 47
0.0
 48
0.0
140
0.18
141
0.09
142
0.0
143
25.4
144
1.0
145
0.0
146
1.0
147
0.09
 71
     0
 72
     0
 73
     1
 74
     1
 75
     0
 76
     0
 77
     0
 78
     0
170
     0
171
     2
172
     0
173
     0
174
     0
175
     0
176
     0
177
     0
178
     0
270
     2
271
     4
272
     4
273
     2
274
     2
340
11
275
     0
280
     0
281
     0
282
     0
283
     1
284
     0
285
     0
286
     0
287
     3
288
     0
  0
ENDTAB
  0
TABLE
  2
BLOCK_RECORD
  5
1
330
0
100
AcDbSymbolTable
 70
    29
  0
BLOCK_RECORD
  5
1E
102
{ACAD_XDICTIONARY
360
4EF
102
}
330
1
100
AcDbSymbolTableRecord
100
AcDbBlockTableRecord
  2
*MODEL_SPACE
  0
BLOCK_RECORD
  5
1A
102
{ACAD_XDICTIONARY
360
4ED
102
}
330
1
100
AcDbSymbolTableRecord
100
AcDbBlockTableRecord
  2
*PAPER_SPACE
  0
BLOCK_RECORD
  5
3F
330
1
100
AcDbSymbolTableRecord
100
AcDbBlockTableRecord
  2
*D0
  0
BLOCK_RECORD
  5
4A
330
1
100
AcDbSymbolTableRecord
100
AcDbBlockTableRecord
  2
*D1
  0
BLOCK_RECORD
  5
55
330
1
100
AcDbSymbolTableRecord
100
AcDbBlockTableRecord
  2
*D2
  0
BLOCK_RECORD
  5
60
330
1
100
AcDbSymbolTableRecord
100
AcDbBlockTableRecord
  2
*D3
  0
BLOCK_RECORD
  5
6B
330
1
100
AcDbSymbolTableRecord
100
AcDbBlockTableRecord
  2
*D4
  0
BLOCK_RECORD
  5
76
330
1
100
AcDbSymbolTableRecord
100
AcDbBlockTableRecord
  2
*D5
  0
BLOCK_RECORD
  5
7F
330
1
100
AcDbSymbolTableRecord
100
AcDbBlockTableRecord
  2
*D6
  0
BLOCK_RECORD
  5
8B
330
1
100
AcDbSymbolTableRecord
100
AcDbBlockTableRecord
  2
*D7
  0
BLOCK_RECORD
  5
95
330
1
100
AcDbSymbolTableRecord
100
AcDbBlockTableRecord
  2
*D8
  0
BLOCK_RECORD
  5
9E
330
1
100
AcDbSymbolTableRecord
100
AcDbBlockTableRecord
  2
*D9
  0
BLOCK_RECORD
  5
A8
330
1
100
AcDbSymbolTableRecord
100
AcDbBlockTableRecord
  2
*D10
  0
BLOCK_RECORD
  5
B3
330
1
100
AcDbSymbolTableRecord
100
AcDbBlockTableRecord
  2
*D11
  0
BLOCK_RECORD
  5
C0
330
1
100
AcDbSymbolTableRecord
100
AcDbBlockTableRecord
  2
*D12
  0
BLOCK_RECORD
  5
CB
330
1
100
AcDbSymbolTableRecord
100
AcDbBlockTableRecord
  2
*D13
  0
BLOCK_RECORD
  5
D7
330
1
100
AcDbSymbolTableRecord
100
AcDbBlockTableRecord
  2
*D14
  0
BLOCK_RECORD
  5
E2
330
1
100
AcDbSymbolTableRecord
100
AcDbBlockTableRecord
  2
*D15
  0
BLOCK_RECORD
  5
EF
330
1
100
AcDbSymbolTableRecord
100
AcDbBlockTableRecord
  2
FXDIM0000
  0
BLOCK_RECORD
  5
F7
330
1
100
AcDbSymbolTableRecord
100
AcDbBlockTableRecord
  2
*D17
  0
BLOCK_RECORD
  5
102
330
1
100
AcDbSymbolTableRecord
100
AcDbBlockTableRecord
  2
*D18
  0
BLOCK_RECORD
  5
10D
330
1
100
AcDbSymbolTableRecord
100
AcDbBlockTableRecord
  2
*D19
  0
BLOCK_RECORD
  5
117
330
1
100
AcDbSymbolTableRecord
100
AcDbBlockTableRecord
  2
*D20
  0
BLOCK_RECORD
  5
122
330
1
100
AcDbSymbolTableRecord
100
AcDbBlockTableRecord
  2
*D21
  0
BLOCK_RECORD
  5
12D
330
1
100
AcDbSymbolTableRecord
100
AcDbBlockTableRecord
  2
FXDIM0001
  0
BLOCK_RECORD
  5
135
330
1
100
AcDbSymbolTableRecord
100
AcDbBlockTableRecord
  2
*D23
  0
BLOCK_RECORD
  5
13F
330
1
100
AcDbSymbolTableRecord
100
AcDbBlockTableRecord
  2
FXDIM0002
  0
BLOCK_RECORD
  5
147
330
1
100
AcDbSymbolTableRecord
100
AcDbBlockTableRecord
  2
FXDIM0003
  0
BLOCK_RECORD
  5
14F
330
1
100
AcDbSymbolTableRecord
100
AcDbBlockTableRecord
  2
*D26
  0
BLOCK_RECORD
  5
15A
330
1
100
AcDbSymbolTableRecord
100
AcDbBlockTableRecord
  2
*D27
  0
BLOCK_RECORD
  5
165
330
1
100
AcDbSymbolTableRecord
100
AcDbBlockTableRecord
  2
FXDIM0004
  0
ENDTAB
  0
ENDSEC
  0
SECTION
  2
BLOCKS
  0
BLOCK
  5
1F
330
1E
100
AcDbEntity
  8
0
100
AcDbBlockBegin
  2
*MODEL_SPACE
 70
     0
 10
0.0
 20
0.0
 30
0.0
  3
*MODEL_SPACE
  1

  0
ENDBLK
  5
20
330
1E
100
AcDbEntity
  8
0
100
AcDbBlockEnd
  0
BLOCK
  5
1B
330
1A
100
AcDbEntity
 67
     1
  8
0
100
AcDbBlockBegin
  2
*PAPER_SPACE
 70
     0
 10
0.0
 20
0.0
 30
0.0
  3
*PAPER_SPACE
  1

  0
ENDBLK
  5
1C
330
1A
100
AcDbEntity
 67
     1
  8
0
100
AcDbBlockEnd
  0
BLOCK
  5
40
330
3F
100
AcDbEntity
  8
CSLAYER1
100
AcDbBlockBegin
  2
*D0
 70
     1
 10
0.0
 20
0.0
 30
0.0
  3
*D0
  1

  0
TEXT
  5
41
330
3F
100
AcDbEntity
  8
CSLAYER1
 62
     4
100
AcDbText
 10
115.687146
 20
262.131439
 30
0.0
 40
3.2
  1
45
 41
1.199999999999998
 51
15.0
  7
FX_FONT
 72
     5
 11
122.0871459999999
 21
262.131439
 31
0.0
100
AcDbText
  0
LINE
  5
42
330
3F
100
AcDbEntity
  8
CSLAYER1
  6
CONTINUOUS
 62
     4
100
AcDbLine
 10
96.38714300000001
 20
261.631429
 30
0.0
 11
141.3871429999999
 21
261.631429
 31
0.0
  0
LINE
  5
43
330
3F
100
AcDbEntity
  8
CSLAYER1
  6
CONTINUOUS
 62
     4
100
AcDbLine
 10
96.38714300000001
 20
261.631429
 30
0.0
 11
99.28492
 21
262.4078859999999
 31
0.0
  0
LINE
  5
44
330
3F
100
AcDbEntity
  8
CSLAYER1
  6
CONTINUOUS
 62
     4
100
AcDbLine
 10
96.38714300000001
 20
261.631429
 30
0.0
 11
99.28492
 21
260.8549709999999
 31
0.0
  0
LINE
  5
45
330
3F
100
AcDbEntity
  8
CSLAYER1
  6
CONTINUOUS
 62
     4
100
AcDbLine
 10
141.3871429999999
 20
261.631429
 30
0.0
 11
138.4893649999999
 21
262.4078859999999
 31
0.0
  0
LINE
  5
46
330
3F
100
AcDbEntity
  8
CSLAYER1
  6
CONTINUOUS
 62
     4
100
AcDbLine
 10
141.3871429999999
 20
261.631429
 30
0.0
 11
138.4893649999999
 21
260.8549709999999
 31
0.0
  0
LINE
  5
47
330
3F
100
AcDbEntity
  8
CSLAYER1
  6
CONTINUOUS
 62
     4
100
AcDbLine
 10
96.38714300000001
 20
219.28
 30
0.0
 11
96.38714300000001
 21
262.631429
 31
0.0
  0
LINE
  5
48
330
3F
100
AcDbEntity
  8
CSLAYER1
  6
CONTINUOUS
 62
     4
100
AcDbLine
 10
141.3871429999999
 20
219.28
 30
0.0
 11
141.3871429999999
 21
262.631429
 31
0.0
  0
ENDBLK
  5
49
330
3F
100
AcDbEntity
  8
0
100
AcDbBlockEnd
  0
BLOCK
  5
4B
330
4A
100
AcDbEntity
  8
CSLAYER1
100
AcDbBlockBegin
  2
*D1
 70
     1
 10
0.0
 20
0.0
 30
0.0
  3
*D1
  1

  0
TEXT
  5
4C
330
4A
100
AcDbEntity
  8
CSLAYER1
 62
     4
100
AcDbText
 10
131.7678469999999
 20
265.9276429999999
 30
0.0
 40
3.2
  1
10.8
 41
1.090909090909091
 51
15.0
  7
FX_FONT
 72
     5
 11
144.567847
 21
265.9276429999999
 31
0.0
100
AcDbText
  0
LINE
  5
4D
330
4A
100
AcDbEntity
  8
CSLAYER1
  6
CONTINUOUS
 62
     4
100
AcDbLine
 10
141.3871429999999
 20
261.631429
 30
0.0
 11
152.187143
 21
261.631429
 31
0.0
  0
LINE
  5
4E
330
4A
100
AcDbEntity
  8
CSLAYER1
  6
CONTINUOUS
 62
     4
100
AcDbLine
 10
152.187143
 20
219.7799999999999
 30
0.0
 11
152.187143
 21
262.631429
 31
0.0
  0
LINE
  5
4F
330
4A
100
AcDbEntity
  8
CSLAYER1
  6
CONTINUOUS
 62
     4
100
AcDbLine
 10
138.3871429999999
 20
261.631429
 30
0.0
 11
141.3871429999999
 21
261.631429
 31
0.0
  0
LINE
  5
50
330
4A
100
AcDbEntity
  8
CSLAYER1
  6
CONTINUOUS
 62
     4
100
AcDbLine
 10
141.3871429999999
 20
261.631429
 30
0.0
 11
138.4893649999999
 21
262.4078859999999
 31
0.0
  0
LINE
  5
51
330
4A
100
AcDbEntity
  8
CSLAYER1
  6
CONTINUOUS
 62
     4
100
AcDbLine
 10
141.3871429999999
 20
261.631429
 30
0.0
 11
138.4893649999999
 21
260.8549709999999
 31
0.0
  0
LINE
  5
52
330
4A
100
AcDbEntity
  8
CSLAYER1
  6
CONTINUOUS
 62
     4
100
AcDbLine
 10
146.7871429999999
 20
261.631429
 30
0.0
 11
145.5678409999999
 21
265.427649
 31
0.0
  0
LINE
  5
53
330
4A
100
AcDbEntity
  8
CSLAYER1
  6
CONTINUOUS
 62
     4
100
AcDbLine
 10
145.5678409999999
 20
265.427649
 30
0.0
 11
130.767841
 21
265.427649
 31
0.0
  0
ENDBLK
  5
54
330
4A
100
AcDbEntity
  8
0
100
AcDbBlockEnd
  0
BLOCK
  5
56
330
55
100
AcDbEntity
  8
CSLAYER1
100
AcDbBlockBegin
  2
*D2
 70
     1
 10
0.0
 20
0.0
 30
0.0
  3
*D2
  1

  0
TEXT
  5
57
330
55
100
AcDbEntity
  8
CSLAYER1
 62
     4
100
AcDbText
 10
161.282535
 20
267.9220579999999
 30
0.0
 40
3.2
  1
3.2
 41
1.125000000000002
 51
15.0
  7
FX_FONT
 72
     5
 11
170.882535
 21
267.9220579999999
 31
0.0
100
AcDbText
  0
LINE
  5
58
330
55
100
AcDbEntity
  8
CSLAYER1
  6
CONTINUOUS
 62
     4
100
AcDbLine
 10
152.187143
 20
261.631429
 30
0.0
 11
155.3871429999999
 21
261.631429
 31
0.0
  0
CIRCLE
  5
59
330
55
100
AcDbEntity
  8
CSLAYER1
  6
CONTINUOUS
 62
     4
100
AcDbCircle
 10
152.187143
 20
261.631429
 30
0.0
 40
0.3
  0
CIRCLE
  5
5A
330
55
100
AcDbEntity
  8
CSLAYER1
  6
CONTINUOUS
 62
     4
100
AcDbCircle
 10
152.187143
 20
261.631429
 30
0.0
 40
0.15
  0
LINE
  5
5B
330
55
100
AcDbEntity
  8
CSLAYER1
  6
CONTINUOUS
 62
     4
100
AcDbLine
 10
155.3871429999999
 20
219.7799999999999
 30
0.0
 11
155.3871429999999
 21
262.631429
 31
0.0
  0
LINE
  5
5C
330
55
100
AcDbEntity
  8
CSLAYER1
  6
CONTINUOUS
 62
     4
100
AcDbLine
 10
155.3871429999999
 20
261.631429
 30
0.0
 11
158.3871429999999
 21
261.631429
 31
0.0
  0
LINE
  5
5D
330
55
100
AcDbEntity
  8
CSLAYER1
  6
CONTINUOUS
 62
     4
100
AcDbLine
 10
153.7871429999999
 20
261.631429
 30
0.0
 11
160.282529
 21
267.422045
 31
0.0
  0
LINE
  5
5E
330
55
100
AcDbEntity
  8
CSLAYER1
  6
CONTINUOUS
 62
     4
100
AcDbLine
 10
160.282529
 20
267.422045
 30
0.0
 11
171.882529
 21
267.422045
 31
0.0
  0
ENDBLK
  5
5F
330
55
100
AcDbEntity
  8
0
100
AcDbBlockEnd
  0
BLOCK
  5
61
330
60
100
AcDbEntity
  8
CSLAYER1
100
AcDbBlockBegin
  2
*D3
 70
     1
 10
0.0
 20
0.0
 30
0.0
  3
*D3
  1

  0
TEXT
  5
62
330
60
100
AcDbEntity
  8
CSLAYER1
 62
     4
100
AcDbText
 10
115.687131
 20
256.1314089999999
 30
0.0
 40
3.2
  1
12
 41
1.199999999999998
 51
15.0
  7
FX_FONT
 72
     5
 11
122.0871309999999
 21
256.1314089999999
 31
0.0
100
AcDbText
  0
LINE
  5
63
330
60
100
AcDbEntity
  8
CSLAYER1
  6
CONTINUOUS
 62
     4
100
AcDbLine
 10
112.887143
 20
243.2799999999999
 30
0.0
 11
112.887143
 21
256.631429
 31
0.0
  0
LINE
  5
64
330
60
100
AcDbEntity
  8
CSLAYER1
  6
CONTINUOUS
 62
     4
100
AcDbLine
 10
124.8871429999999
 20
243.2799999999999
 30
0.0
 11
124.8871429999999
 21
256.631429
 31
0.0
  0
LINE
  5
65
330
60
100
AcDbEntity
  8
CSLAYER1
  6
CONTINUOUS
 62
     4
100
AcDbLine
 10
112.887143
 20
255.6314289999999
 30
0.0
 11
124.8871429999999
 21
255.6314289999999
 31
0.0
  0
LINE
  5
66
330
60
100
AcDbEntity
  8
CSLAYER1
  6
CONTINUOUS
 62
     4
100
AcDbLine
 10
112.887143
 20
255.6314289999999
 30
0.0
 11
115.78492
 21
256.4078859999999
 31
0.0
  0
LINE
  5
67
330
60
100
AcDbEntity
  8
CSLAYER1
  6
CONTINUOUS
 62
     4
100
AcDbLine
 10
112.887143
 20
255.6314289999999
 30
0.0
 11
115.78492
 21
254.854971
 31
0.0
  0
LINE
  5
68
330
60
100
AcDbEntity
  8
CSLAYER1
  6
CONTINUOUS
 62
     4
100
AcDbLine
 10
124.8871429999999
 20
255.6314289999999
 30
0.0
 11
121.9893649999999
 21
256.4078859999999
 31
0.0
  0
LINE
  5
69
330
60
100
AcDbEntity
  8
CSLAYER1
  6
CONTINUOUS
 62
     4
100
AcDbLine
 10
124.8871429999999
 20
255.6314289999999
 30
0.0
 11
121.9893649999999
 21
254.854971
 31
0.0
  0
ENDBLK
  5
6A
330
60
100
AcDbEntity
  8
0
100
AcDbBlockEnd
  0
BLOCK
  5
6C
330
6B
100
AcDbEntity
  8
CSLAYER1
100
AcDbBlockBegin
  2
*D4
 70
     1
 10
0.0
 20
0.0
 30
0.0
  3
*D4
  1

  0
TEXT
  5
6D
330
6B
100
AcDbEntity
  8
CSLAYER1
 62
     4
100
AcDbText
 10
64.11000099999999
 20
165.9299929999999
 30
0.0
 40
3.2
  1
136.7
 50
90.0
 41
1.071428571428571
 51
15.0
  7
FX_FONT
 72
     5
 11
64.11000099999999
 21
181.9299929999999
 31
0.0
100
AcDbText
  0
LINE
  5
6E
330
6B
100
AcDbEntity
  8
CSLAYER1
  6
CONTINUOUS
 62
     4
100
AcDbLine
 10
64.61
 20
105.58
 30
0.0
 11
64.61
 21
242.28
 31
0.0
  0
LINE
  5
6F
330
6B
100
AcDbEntity
  8
CSLAYER1
  6
CONTINUOUS
 62
     4
100
AcDbLine
 10
64.61
 20
105.58
 30
0.0
 11
63.833543
 21
108.477777
 31
0.0
  0
LINE
  5
70
330
6B
100
AcDbEntity
  8
CSLAYER1
  6
CONTINUOUS
 62
     4
100
AcDbLine
 10
64.61
 20
105.58
 30
0.0
 11
65.386457
 21
108.477777
 31
0.0
  0
LINE
  5
71
330
6B
100
AcDbEntity
  8
CSLAYER1
  6
CONTINUOUS
 62
     4
100
AcDbLine
 10
64.61
 20
242.28
 30
0.0
 11
63.833543
 21
239.382223
 31
0.0
  0
LINE
  5
72
330
6B
100
AcDbEntity
  8
CSLAYER1
  6
CONTINUOUS
 62
     4
100
AcDbLine
 10
64.61
 20
242.28
 30
0.0
 11
65.386457
 21
239.382223
 31
0.0
  0
LINE
  5
73
330
6B
100
AcDbEntity
  8
CSLAYER1
  6
CONTINUOUS
 62
     4
100
AcDbLine
 10
95.88714300000001
 20
105.58
 30
0.0
 11
63.61
 21
105.58
 31
0.0
  0
LINE
  5
74
330
6B
100
AcDbEntity
  8
CSLAYER1
  6
CONTINUOUS
 62
     4
100
AcDbLine
 10
104.8871429999999
 20
242.28
 30
0.0
 11
63.61
 21
242.28
 31
0.0
  0
ENDBLK
  5
75
330
6B
100
AcDbEntity
  8
0
100
AcDbBlockEnd
  0
BLOCK
  5
77
330
76
100
AcDbEntity
  8
CSLAYER1
100
AcDbBlockBegin
  2
*D5
 70
     1
 10
0.0
 20
0.0
 30
0.0
  3
*D5
  1

  0
TEXT
  5
78
330
76
100
AcDbEntity
  8
CSLAYER1
 62
     4
100
AcDbText
 10
69.842499
 20
93.471934
 30
0.0
 40
3.2
  1
3.2
 50
90.0
 41
1.1250001171875
 51
15.0
  7
FX_FONT
 72
     5
 11
69.842499
 21
103.071935
 31
0.0
100
AcDbText
  0
LINE
  5
79
330
76
100
AcDbEntity
  8
CSLAYER1
  6
CONTINUOUS
 62
     4
100
AcDbLine
 10
70.60999999999999
 20
105.58
 30
0.0
 11
70.60999999999999
 21
108.78
 31
0.0
  0
LINE
  5
7A
330
76
100
AcDbEntity
  8
CSLAYER1
  6
CONTINUOUS
 62
     4
100
AcDbLine
 10
95.88714300000001
 20
108.78
 30
0.0
 11
69.61
 21
108.78
 31
0.0
  0
LINE
  5
7B
330
76
100
AcDbEntity
  8
CSLAYER1
  6
CONTINUOUS
 62
     4
100
AcDbLine
 10
70.60999999999999
 20
102.58
 30
0.0
 11
70.60999999999999
 21
105.58
 31
0.0
  0
LINE
  5
7C
330
76
100
AcDbEntity
  8
CSLAYER1
  6
CONTINUOUS
 62
     4
100
AcDbLine
 10
70.60999999999999
 20
105.58
 30
0.0
 11
69.83354300000001
 21
102.682223
 31
0.0
  0
LINE
  5
7D
330
76
100
AcDbEntity
  8
CSLAYER1
  6
CONTINUOUS
 62
     4
100
AcDbLine
 10
70.60999999999999
 20
105.58
 30
0.0
 11
71.38645699999999
 21
102.682223
 31
0.0
  0
ENDBLK
  5
7E
330
76
100
AcDbEntity
  8
0
100
AcDbBlockEnd
  0
BLOCK
  5
80
330
7F
100
AcDbEntity
  8
CSLAYER1
100
AcDbBlockBegin
  2
*D6
 70
     1
 10
0.0
 20
0.0
 30
0.0
  3
*D6
  1

  0
TEXT
  5
81
330
7F
100
AcDbEntity
  8
CSLAYER1
 62
     4
100
AcDbText
 10
78.19395400000001
 20
113.495376
 30
0.0
 40
3.2
  1
(4.5)
 50
90.0
 41
1.153846225961537
 51
15.0
  7
FX_FONT
 72
     5
 11
78.19395400000001
 21
129.495377
 31
0.0
100
AcDbText
  0
LINE
  5
82
330
7F
100
AcDbEntity
  8
CSLAYER1
  6
CONTINUOUS
 62
     4
100
AcDbLine
 10
70.60999999999999
 20
108.78
 30
0.0
 11
70.60999999999999
 21
113.28
 31
0.0
  0
CIRCLE
  5
83
330
7F
100
AcDbEntity
  8
CSLAYER1
  6
CONTINUOUS
 62
     4
100
AcDbCircle
 10
70.60999999999999
 20
108.78
 30
0.0
 40
0.3
  0
CIRCLE
  5
84
330
7F
100
AcDbEntity
  8
CSLAYER1
  6
CONTINUOUS
 62
     4
100
AcDbCircle
 10
70.60999999999999
 20
108.78
 30
0.0
 40
0.15
  0
LINE
  5
85
330
7F
100
AcDbEntity
  8
CSLAYER1
  6
CONTINUOUS
 62
     4
100
AcDbLine
 10
101.387143
 20
113.28
 30
0.0
 11
69.61
 21
113.28
 31
0.0
  0
LINE
  5
86
330
7F
100
AcDbEntity
  8
CSLAYER1
  6
CONTINUOUS
 62
     4
100
AcDbLine
 10
70.60999999999999
 20
105.78
 30
0.0
 11
70.60999999999999
 21
108.78
 31
0.0
  0
LINE
  5
87
330
7F
100
AcDbEntity
  8
CSLAYER1
  6
CONTINUOUS
 62
     4
100
AcDbLine
 10
70.60999999999999
 20
113.28
 30
0.0
 11
70.60999999999999
 21
116.28
 31
0.0
  0
LINE
  5
88
330
7F
100
AcDbEntity
  8
CSLAYER1
  6
CONTINUOUS
 62
     4
100
AcDbLine
 10
70.60999999999999
 20
111.03
 30
0.0
 11
78.69395199999999
 21
115.695377
 31
0.0
  0
LINE
  5
89
330
7F
100
AcDbEntity
  8
CSLAYER1
  6
CONTINUOUS
 62
     4
100
AcDbLine
 10
78.69395199999999
 20
115.695377
 30
0.0
 11
78.69395199999999
 21
127.2953779999999
 31
0.0
  0
ENDBLK
  5
8A
330
7F
100
AcDbEntity
  8
0
100
AcDbBlockEnd
  0
BLOCK
  5
8C
330
8B
100
AcDbEntity
  8
CSLAYER1
100
AcDbBlockBegin
  2
*D7
 70
     1
 10
0.0
 20
0.0
 30
0.0
  3
*D7
  1

  0
TEXT
  5
8D
330
8B
100
AcDbEntity
  8
CSLAYER1
 62
     4
100
AcDbText
 10
70.110001
 20
120.0799989999999
 30
0.0
 40
3.2
  1
20
 50
90.0
 41
1.199999999999998
 51
15.0
  7
FX_FONT
 72
     5
 11
70.110001
 21
126.4799989999999
 31
0.0
100
AcDbText
  0
LINE
  5
8E
330
8B
100
AcDbEntity
  8
CSLAYER1
  6
CONTINUOUS
 62
     4
100
AcDbLine
 10
70.60999999999999
 20
113.28
 30
0.0
 11
70.60999999999999
 21
133.2799999999999
 31
0.0
  0
LINE
  5
8F
330
8B
100
AcDbEntity
  8
CSLAYER1
  6
CONTINUOUS
 62
     4
100
AcDbLine
 10
70.60999999999999
 20
113.28
 30
0.0
 11
69.83354300000001
 21
116.177777
 31
0.0
  0
LINE
  5
90
330
8B
100
AcDbEntity
  8
CSLAYER1
  6
CONTINUOUS
 62
     4
100
AcDbLine
 10
70.60999999999999
 20
113.28
 30
0.0
 11
71.38645699999999
 21
116.177777
 31
0.0
  0
LINE
  5
91
330
8B
100
AcDbEntity
  8
CSLAYER1
  6
CONTINUOUS
 62
     4
100
AcDbLine
 10
70.60999999999999
 20
133.2799999999999
 30
0.0
 11
69.83354300000001
 21
130.382223
 31
0.0
  0
LINE
  5
92
330
8B
100
AcDbEntity
  8
CSLAYER1
  6
CONTINUOUS
 62
     4
100
AcDbLine
 10
70.60999999999999
 20
133.2799999999999
 30
0.0
 11
71.38645699999999
 21
130.382223
 31
0.0
  0
LINE
  5
93
330
8B
100
AcDbEntity
  8
CSLAYER1
  6
CONTINUOUS
 62
     4
100
AcDbLine
 10
95.387143
 20
133.2799999999999
 30
0.0
 11
69.61
 21
133.2799999999999
 31
0.0
  0
ENDBLK
  5
94
330
8B
100
AcDbEntity
  8
0
100
AcDbBlockEnd
  0
BLOCK
  5
96
330
95
100
AcDbEntity
  8
CSLAYER1
100
AcDbBlockBegin
  2
*D8
 70
     1
 10
0.0
 20
0.0
 30
0.0
  3
*D8
  1

  0
TEXT
  5
97
330
95
100
AcDbEntity
  8
CSLAYER1
 62
     4
100
AcDbText
 10
70.109993
 20
182.9799989999999
 30
0.0
 40
3.2
  1
109
 50
90.0
 41
1.124999999999999
 51
15.0
  7
FX_FONT
 72
     5
 11
70.109993
 21
192.5799989999999
 31
0.0
100
AcDbText
  0
LINE
  5
98
330
95
100
AcDbEntity
  8
CSLAYER1
  6
CONTINUOUS
 62
     4
100
AcDbLine
 10
70.60999999999999
 20
133.2799999999999
 30
0.0
 11
70.60999999999999
 21
242.28
 31
0.0
  0
LINE
  5
99
330
95
100
AcDbEntity
  8
CSLAYER1
  6
CONTINUOUS
 62
     4
100
AcDbLine
 10
70.60999999999999
 20
133.2799999999999
 30
0.0
 11
69.83354300000001
 21
136.1777769999999
 31
0.0
  0
LINE
  5
9A
330
95
100
AcDbEntity
  8
CSLAYER1
  6
CONTINUOUS
 62
     4
100
AcDbLine
 10
70.60999999999999
 20
133.2799999999999
 30
0.0
 11
71.38645699999999
 21
136.1777769999999
 31
0.0
  0
LINE
  5
9B
330
95
100
AcDbEntity
  8
CSLAYER1
  6
CONTINUOUS
 62
     4
100
AcDbLine
 10
70.60999999999999
 20
242.28
 30
0.0
 11
69.83354300000001
 21
239.382223
 31
0.0
  0
LINE
  5
9C
330
95
100
AcDbEntity
  8
CSLAYER1
  6
CONTINUOUS
 62
     4
100
AcDbLine
 10
70.60999999999999
 20
242.28
 30
0.0
 11
71.38645699999999
 21
239.382223
 31
0.0
  0
ENDBLK
  5
9D
330
95
100
AcDbEntity
  8
0
100
AcDbBlockEnd
  0
BLOCK
  5
9F
330
9E
100
AcDbEntity
  8
CSLAYER1
100
AcDbBlockBegin
  2
*D9
 70
     1
 10
0.0
 20
0.0
 30
0.0
  3
*D9
  1

  0
TEXT
  5
A0
330
9E
100
AcDbEntity
  8
CSLAYER1
 62
     4
100
AcDbText
 10
76.109993
 20
236.179999
 30
0.0
 40
3.2
  1
9
 50
90.0
 41
1.500000000000007
 51
15.0
  7
FX_FONT
 72
     5
 11
76.109993
 21
239.379999
 31
0.0
100
AcDbText
  0
LINE
  5
A1
330
9E
100
AcDbEntity
  8
CSLAYER1
  6
CONTINUOUS
 62
     4
100
AcDbLine
 10
99.11906399999999
 20
233.28
 30
0.0
 11
75.60999999999999
 21
233.28
 31
0.0
  0
LINE
  5
A2
330
9E
100
AcDbEntity
  8
CSLAYER1
  6
CONTINUOUS
 62
     4
100
AcDbLine
 10
76.61
 20
233.28
 30
0.0
 11
76.61
 21
242.28
 31
0.0
  0
LINE
  5
A3
330
9E
100
AcDbEntity
  8
CSLAYER1
  6
CONTINUOUS
 62
     4
100
AcDbLine
 10
76.61
 20
233.28
 30
0.0
 11
75.833543
 21
236.1777769999999
 31
0.0
  0
LINE
  5
A4
330
9E
100
AcDbEntity
  8
CSLAYER1
  6
CONTINUOUS
 62
     4
100
AcDbLine
 10
76.61
 20
233.28
 30
0.0
 11
77.38645699999999
 21
236.1777769999999
 31
0.0
  0
LINE
  5
A5
330
9E
100
AcDbEntity
  8
CSLAYER1
  6
CONTINUOUS
 62
     4
100
AcDbLine
 10
76.61
 20
242.28
 30
0.0
 11
75.833543
 21
239.382223
 31
0.0
  0
LINE
  5
A6
330
9E
100
AcDbEntity
  8
CSLAYER1
  6
CONTINUOUS
 62
     4
100
AcDbLine
 10
76.61
 20
242.28
 30
0.0
 11
77.38645699999999
 21
239.382223
 31
0.0
  0
ENDBLK
  5
A7
330
9E
100
AcDbEntity
  8
0
100
AcDbBlockEnd
  0
BLOCK
  5
A9
330
A8
100
AcDbEntity
  8
CSLAYER1
100
AcDbBlockBegin
  2
*D10
 70
     1
 10
0.0
 20
0.0
 30
0.0
  3
*D10
  1

  0
TEXT
  5
AA
330
A8
100
AcDbEntity
  8
CSLAYER1
 62
     4
100
AcDbText
 10
242.551208
 20
174.5799989999999
 30
0.0
 40
3.2
  1
10
 50
90.0
 41
1.200000000000001
 51
15.0
  7
FX_FONT
 72
     5
 11
242.551208
 21
180.9799989999999
 31
0.0
100
AcDbText
  0
LINE
  5
AB
330
A8
100
AcDbEntity
  8
CSLAYER1
  6
CONTINUOUS
 62
     4
100
AcDbLine
 10
262.7660649999999
 20
172.78
 30
0.0
 11
242.0512079999999
 21
172.78
 31
0.0
  0
LINE
  5
AC
330
A8
100
AcDbEntity
  8
CSLAYER1
  6
CONTINUOUS
 62
     4
100
AcDbLine
 10
262.7660649999999
 20
182.78
 30
0.0
 11
242.0512079999999
 21
182.78
 31
0.0
  0
LINE
  5
AD
330
A8
100
AcDbEntity
  8
CSLAYER1
  6
CONTINUOUS
 62
     4
100
AcDbLine
 10
243.051208
 20
172.78
 30
0.0
 11
243.051208
 21
182.78
 31
0.0
  0
LINE
  5
AE
330
A8
100
AcDbEntity
  8
CSLAYER1
  6
CONTINUOUS
 62
     4
100
AcDbLine
 10
243.051208
 20
172.78
 30
0.0
 11
242.2747509999999
 21
175.677777
 31
0.0
  0
LINE
  5
AF
330
A8
100
AcDbEntity
  8
CSLAYER1
  6
CONTINUOUS
 62
     4
100
AcDbLine
 10
243.051208
 20
172.78
 30
0.0
 11
243.827665
 21
175.677777
 31
0.0
  0
LINE
  5
B0
330
A8
100
AcDbEntity
  8
CSLAYER1
  6
CONTINUOUS
 62
     4
100
AcDbLine
 10
243.051208
 20
182.78
 30
0.0
 11
242.2747509999999
 21
179.882223
 31
0.0
  0
LINE
  5
B1
330
A8
100
AcDbEntity
  8
CSLAYER1
  6
CONTINUOUS
 62
     4
100
AcDbLine
 10
243.051208
 20
182.78
 30
0.0
 11
243.827665
 21
179.882223
 31
0.0
  0
ENDBLK
  5
B2
330
A8
100
AcDbEntity
  8
0
100
AcDbBlockEnd
  0
BLOCK
  5
B4
330
B3
100
AcDbEntity
  8
CSLAYER1
100
AcDbBlockBegin
  2
*D11
 70
     1
 10
0.0
 20
0.0
 30
0.0
  3
*D11
  1

  0
TEXT
  5
B5
330
B3
100
AcDbEntity
  8
CSLAYER1
 62
     4
100
AcDbText
 10
258.8579279999999
 20
154.342459
 30
0.0
 40
3.2
  1
6.4
 41
1.125000117187502
 51
15.0
  7
FX_FONT
 72
     5
 11
268.4579289999999
 21
154.342459
 31
0.0
100
AcDbText
  0
LINE
  5
B6
330
B3
100
AcDbEntity
  8
CSLAYER1
  6
CONTINUOUS
 62
     4
100
AcDbLine
 10
260.5660649999999
 20
174.98
 30
0.0
 11
260.5660649999999
 21
158.90176
 31
0.0
  0
LINE
  5
B7
330
B3
100
AcDbEntity
  8
CSLAYER1
  6
CONTINUOUS
 62
     4
100
AcDbLine
 10
266.966065
 20
174.98
 30
0.0
 11
266.966065
 21
158.90176
 31
0.0
  0
LINE
  5
B8
330
B3
100
AcDbEntity
  8
CSLAYER1
  6
CONTINUOUS
 62
     4
100
AcDbLine
 10
260.5660649999999
 20
159.9017599999999
 30
0.0
 11
266.966065
 21
159.9017599999999
 31
0.0
  0
LINE
  5
B9
330
B3
100
AcDbEntity
  8
CSLAYER1
  6
CONTINUOUS
 62
     4
100
AcDbLine
 10
257.5660649999999
 20
159.9017599999999
 30
0.0
 11
260.5660649999999
 21
159.9017599999999
 31
0.0
  0
LINE
  5
BA
330
B3
100
AcDbEntity
  8
CSLAYER1
  6
CONTINUOUS
 62
     4
100
AcDbLine
 10
260.5660649999999
 20
159.9017599999999
 30
0.0
 11
257.6682879999999
 21
160.6782169999999
 31
0.0
  0
LINE
  5
BB
330
B3
100
AcDbEntity
  8
CSLAYER1
  6
CONTINUOUS
 62
     4
100
AcDbLine
 10
260.5660649999999
 20
159.9017599999999
 30
0.0
 11
257.6682879999999
 21
159.125303
 31
0.0
  0
LINE
  5
BC
330
B3
100
AcDbEntity
  8
CSLAYER1
  6
CONTINUOUS
 62
     4
100
AcDbLine
 10
266.966065
 20
159.9017599999999
 30
0.0
 11
269.966065
 21
159.9017599999999
 31
0.0
  0
LINE
  5
BD
330
B3
100
AcDbEntity
  8
CSLAYER1
  6
CONTINUOUS
 62
     4
100
AcDbLine
 10
266.966065
 20
159.9017599999999
 30
0.0
 11
269.863843
 21
160.6782169999999
 31
0.0
  0
LINE
  5
BE
330
B3
100
AcDbEntity
  8
CSLAYER1
  6
CONTINUOUS
 62
     4
100
AcDbLine
 10
266.966065
 20
159.9017599999999
 30
0.0
 11
269.863843
 21
159.125303
 31
0.0
  0
ENDBLK
  5
BF
330
B3
100
AcDbEntity
  8
0
100
AcDbBlockEnd
  0
BLOCK
  5
C1
330
C0
100
AcDbEntity
  8
CSLAYER1
100
AcDbBlockBegin
  2
*D12
 70
     1
 10
0.0
 20
0.0
 30
0.0
  3
*D12
  1

  0
TEXT
  5
C2
330
C0
100
AcDbEntity
  8
CSLAYER1
 62
     4
100
AcDbText
 10
97.187146
 20
6.794785
 30
0.0
 40
3.2
  1
40
 41
1.199999999999998
 51
15.0
  7
FX_FONT
 72
     5
 11
103.5871459999999
 21
6.794785
 31
0.0
100
AcDbText
  0
LINE
  5
C3
330
C0
100
AcDbEntity
  8
CSLAYER1
  6
CONTINUOUS
 62
     4
100
AcDbLine
 10
80.387143
 20
14.053693
 30
0.0
 11
80.387143
 21
5.294785
 31
0.0
  0
LINE
  5
C4
330
C0
100
AcDbEntity
  8
CSLAYER1
  6
CONTINUOUS
 62
     4
100
AcDbLine
 10
120.3871429999999
 20
17.682857
 30
0.0
 11
120.3871429999999
 21
5.294785
 31
0.0
  0
LINE
  5
C5
330
C0
100
AcDbEntity
  8
CSLAYER1
  6
CONTINUOUS
 62
     4
100
AcDbLine
 10
80.387143
 20
6.294785
 30
0.0
 11
120.3871429999999
 21
6.294785
 31
0.0
  0
LINE
  5
C6
330
C0
100
AcDbEntity
  8
CSLAYER1
  6
CONTINUOUS
 62
     4
100
AcDbLine
 10
80.387143
 20
6.294785
 30
0.0
 11
83.28492
 21
7.071241999999999
 31
0.0
  0
LINE
  5
C7
330
C0
100
AcDbEntity
  8
CSLAYER1
  6
CONTINUOUS
 62
     4
100
AcDbLine
 10
80.387143
 20
6.294785
 30
0.0
 11
83.28492
 21
5.518327999999999
 31
0.0
  0
LINE
  5
C8
330
C0
100
AcDbEntity
  8
CSLAYER1
  6
CONTINUOUS
 62
     4
100
AcDbLine
 10
120.3871429999999
 20
6.294785
 30
0.0
 11
117.489365
 21
7.071241999999999
 31
0.0
  0
LINE
  5
C9
330
C0
100
AcDbEntity
  8
CSLAYER1
  6
CONTINUOUS
 62
     4
100
AcDbLine
 10
120.3871429999999
 20
6.294785
 30
0.0
 11
117.489365
 21
5.518327999999999
 31
0.0
  0
ENDBLK
  5
CA
330
C0
100
AcDbEntity
  8
0
100
AcDbBlockEnd
  0
BLOCK
  5
CC
330
CB
100
AcDbEntity
  8
CSLAYER1
100
AcDbBlockBegin
  2
*D13
 70
     1
 10
0.0
 20
0.0
 30
0.0
  3
*D13
  1

  0
TEXT
  5
CD
330
CB
100
AcDbEntity
  8
CSLAYER1
 62
     4
100
AcDbText
 10
124.593997
 20
13.597714
 30
0.0
 40
3.2
  1
3.2
 41
1.124999999999999
 51
15.0
  7
FX_FONT
 72
     5
 11
134.193997
 21
13.597714
 31
0.0
100
AcDbText
  0
LINE
  5
CE
330
CB
100
AcDbEntity
  8
CSLAYER1
  6
CONTINUOUS
 62
     4
100
AcDbLine
 10
117.1871429999999
 20
17.682857
 30
0.0
 11
117.1871429999999
 21
11.294785
 31
0.0
  0
LINE
  5
CF
330
CB
100
AcDbEntity
  8
CSLAYER1
  6
CONTINUOUS
 62
     4
100
AcDbLine
 10
117.1871429999999
 20
12.294785
 30
0.0
 11
120.3871429999999
 21
12.294785
 31
0.0
  0
LINE
  5
D0
330
CB
100
AcDbEntity
  8
CSLAYER1
  6
CONTINUOUS
 62
     4
100
AcDbLine
 10
114.1871429999999
 20
12.294785
 30
0.0
 11
117.1871429999999
 21
12.294785
 31
0.0
  0
LINE
  5
D1
330
CB
100
AcDbEntity
  8
CSLAYER1
  6
CONTINUOUS
 62
     4
100
AcDbLine
 10
117.1871429999999
 20
12.294785
 30
0.0
 11
114.2893649999999
 21
13.071242
 31
0.0
  0
LINE
  5
D2
330
CB
100
AcDbEntity
  8
CSLAYER1
  6
CONTINUOUS
 62
     4
100
AcDbLine
 10
117.1871429999999
 20
12.294785
 30
0.0
 11
114.2893649999999
 21
11.51832799999999
 31
0.0
  0
LINE
  5
D3
330
CB
100
AcDbEntity
  8
CSLAYER1
  6
CONTINUOUS
 62
     4
100
AcDbLine
 10
120.3871429999999
 20
12.294785
 30
0.0
 11
123.3871429999999
 21
12.294785
 31
0.0
  0
LINE
  5
D4
330
CB
100
AcDbEntity
  8
CSLAYER1
  6
CONTINUOUS
 62
     4
100
AcDbLine
 10
120.3871429999999
 20
12.294785
 30
0.0
 11
123.2849199999999
 21
13.071242
 31
0.0
  0
LINE
  5
D5
330
CB
100
AcDbEntity
  8
CSLAYER1
  6
CONTINUOUS
 62
     4
100
AcDbLine
 10
120.3871429999999
 20
12.294785
 30
0.0
 11
123.2849199999999
 21
11.51832799999999
 31
0.0
  0
ENDBLK
  5
D6
330
CB
100
AcDbEntity
  8
0
100
AcDbBlockEnd
  0
BLOCK
  5
D8
330
D7
100
AcDbEntity
  8
CSLAYER1
100
AcDbBlockBegin
  2
*D14
 70
     1
 10
0.0
 20
0.0
 30
0.0
  3
*D14
  1

  0
TEXT
  5
D9
330
D7
100
AcDbEntity
  8
CSLAYER1
 62
     4
100
AcDbText
 10
77.187146
 20
40.634003
 30
0.0
 40
3.2
  1
10
 41
1.199999999999998
 51
15.0
  7
FX_FONT
 72
     5
 11
83.58714599999998
 21
40.634003
 31
0.0
100
AcDbText
  0
LINE
  5
DA
330
D7
100
AcDbEntity
  8
CSLAYER1
  6
CONTINUOUS
 62
     4
100
AcDbLine
 10
75.38714300000001
 20
27.682857
 30
0.0
 11
75.38714300000001
 21
41.134002
 31
0.0
  0
LINE
  5
DB
330
D7
100
AcDbEntity
  8
CSLAYER1
  6
CONTINUOUS
 62
     4
100
AcDbLine
 10
85.387143
 20
27.682857
 30
0.0
 11
85.387143
 21
41.134002
 31
0.0
  0
LINE
  5
DC
330
D7
100
AcDbEntity
  8
CSLAYER1
  6
CONTINUOUS
 62
     4
100
AcDbLine
 10
75.38714300000001
 20
40.134002
 30
0.0
 11
85.387143
 21
40.134002
 31
0.0
  0
LINE
  5
DD
330
D7
100
AcDbEntity
  8
CSLAYER1
  6
CONTINUOUS
 62
     4
100
AcDbLine
 10
75.38714300000001
 20
40.134002
 30
0.0
 11
78.28492
 21
40.910459
 31
0.0
  0
LINE
  5
DE
330
D7
100
AcDbEntity
  8
CSLAYER1
  6
CONTINUOUS
 62
     4
100
AcDbLine
 10
75.38714300000001
 20
40.134002
 30
0.0
 11
78.28492
 21
39.357544
 31
0.0
  0
LINE
  5
DF
330
D7
100
AcDbEntity
  8
CSLAYER1
  6
CONTINUOUS
 62
     4
100
AcDbLine
 10
85.387143
 20
40.134002
 30
0.0
 11
82.48936500000001
 21
40.910459
 31
0.0
  0
LINE
  5
E0
330
D7
100
AcDbEntity
  8
CSLAYER1
  6
CONTINUOUS
 62
     4
100
AcDbLine
 10
85.387143
 20
40.134002
 30
0.0
 11
82.48936500000001
 21
39.357544
 31
0.0
  0
ENDBLK
  5
E1
330
D7
100
AcDbEntity
  8
0
100
AcDbBlockEnd
  0
BLOCK
  5
E3
330
E2
100
AcDbEntity
  8
CSLAYER1
100
AcDbBlockBegin
  2
*D15
 70
     1
 10
0.0
 20
0.0
 30
0.0
  3
*D15
  1

  0
TEXT
  5
E4
330
E2
100
AcDbEntity
  8
CSLAYER1
 62
     4
100
AcDbText
 10
105.8313779999999
 20
21.762384
 30
0.0
 40
3.2
  1
6.4
 50
90.0
 41
1.125
 51
15.0
  7
FX_FONT
 72
     5
 11
105.8313779999999
 21
31.362384
 31
0.0
100
AcDbText
  0
LINE
  5
E5
330
E2
100
AcDbEntity
  8
CSLAYER1
  6
CONTINUOUS
 62
     4
100
AcDbLine
 10
83.18714300000001
 20
23.48285699999999
 30
0.0
 11
101.891429
 21
23.48285699999999
 31
0.0
  0
LINE
  5
E6
330
E2
100
AcDbEntity
  8
CSLAYER1
  6
CONTINUOUS
 62
     4
100
AcDbLine
 10
83.18714300000001
 20
29.882857
 30
0.0
 11
101.891429
 21
29.882857
 31
0.0
  0
LINE
  5
E7
330
E2
100
AcDbEntity
  8
CSLAYER1
  6
CONTINUOUS
 62
     4
100
AcDbLine
 10
100.891429
 20
23.48285699999999
 30
0.0
 11
100.891429
 21
29.882857
 31
0.0
  0
LINE
  5
E8
330
E2
100
AcDbEntity
  8
CSLAYER1
  6
CONTINUOUS
 62
     4
100
AcDbLine
 10
100.891429
 20
20.482857
 30
0.0
 11
100.891429
 21
23.48285699999999
 31
0.0
  0
LINE
  5
E9
330
E2
100
AcDbEntity
  8
CSLAYER1
  6
CONTINUOUS
 62
     4
100
AcDbLine
 10
100.891429
 20
23.48285699999999
 30
0.0
 11
100.1149709999999
 21
20.58507999999999
 31
0.0
  0
LINE
  5
EA
330
E2
100
AcDbEntity
  8
CSLAYER1
  6
CONTINUOUS
 62
     4
100
AcDbLine
 10
100.891429
 20
23.48285699999999
 30
0.0
 11
101.667886
 21
20.58507999999999
 31
0.0
  0
LINE
  5
EB
330
E2
100
AcDbEntity
  8
CSLAYER1
  6
CONTINUOUS
 62
     4
100
AcDbLine
 10
100.891429
 20
29.882857
 30
0.0
 11
100.891429
 21
32.882857
 31
0.0
  0
LINE
  5
EC
330
E2
100
AcDbEntity
  8
CSLAYER1
  6
CONTINUOUS
 62
     4
100
AcDbLine
 10
100.891429
 20
29.882857
 30
0.0
 11
100.1149709999999
 21
32.780635
 31
0.0
  0
LINE
  5
ED
330
E2
100
AcDbEntity
  8
CSLAYER1
  6
CONTINUOUS
 62
     4
100
AcDbLine
 10
100.891429
 20
29.882857
 30
0.0
 11
101.667886
 21
32.780635
 31
0.0
  0
ENDBLK
  5
EE
330
E2
100
AcDbEntity
  8
0
100
AcDbBlockEnd
  0
BLOCK
  5
F0
330
EF
100
AcDbEntity
  8
CSLAYER1
100
AcDbBlockBegin
  2
FXDIM0000
 70
     0
 10
0.0
 20
0.0
 30
0.0
  3
FXDIM0000
  1

  0
LINE
  5
F1
330
EF
100
AcDbEntity
  8
CSLAYER1
  6
CONTINUOUS
 62
     4
100
AcDbLine
 10
180.052286
 20
182.336571
 30
0.0
 11
200.856857
 21
209.230286
 31
0.0
  0
CIRCLE
  5
F2
330
EF
100
AcDbEntity
  8
CSLAYER1
  6
CONTINUOUS
 62
     4
100
AcDbCircle
 10
180.052286
 20
182.336571
 30
0.0
 40
0.3
  0
CIRCLE
  5
F3
330
EF
100
AcDbEntity
  8
CSLAYER1
  6
CONTINUOUS
 62
     4
100
AcDbCircle
 10
180.052286
 20
182.336571
 30
0.0
 40
0.15
  0
LINE
  5
F4
330
EF
100
AcDbEntity
  8
CSLAYER1
  6
CONTINUOUS
 62
     4
100
AcDbLine
 10
200.856857
 20
209.230286
 30
0.0
 11
225.256857
 21
209.230286
 31
0.0
  0
TEXT
  5
F5
330
EF
100
AcDbEntity
  8
CSLAYER1
 62
     4
100
AcDbText
 10
201.856857
 20
209.7302859999999
 30
0.0
 40
3.2
  1
薄型シリンダー
 41
0.8677686337809905
 51
15.0
  7
FX_FONT
 72
     5
 11
224.2568579999999
 21
209.7302859999999
 31
0.0
100
AcDbText
  0
ENDBLK
  5
F6
330
EF
100
AcDbEntity
  8
0
100
AcDbBlockEnd
  0
BLOCK
  5
F8
330
F7
100
AcDbEntity
  8
CSLAYER1
100
AcDbBlockBegin
  2
*D17
 70
     1
 10
0.0
 20
0.0
 30
0.0
  3
*D17
  1

  0
TEXT
  5
F9
330
F7
100
AcDbEntity
  8
CSLAYER1
 62
     4
100
AcDbText
 10
293.336926
 20
223.418289
 30
0.0
 40
3.2
  1
30
 41
1.199999999999995
 51
15.0
  7
FX_FONT
 72
     5
 11
299.7369259999999
 21
223.418289
 31
0.0
100
AcDbText
  0
LINE
  5
FA
330
F7
100
AcDbEntity
  8
CSLAYER1
  6
CONTINUOUS
 62
     4
100
AcDbLine
 10
277.2660649999999
 20
214.4510029999999
 30
0.0
 11
277.2660649999999
 21
223.918286
 31
0.0
  0
LINE
  5
FB
330
F7
100
AcDbEntity
  8
CSLAYER1
  6
CONTINUOUS
 62
     4
100
AcDbLine
 10
307.2660649999999
 20
214.4510029999999
 30
0.0
 11
307.2660649999999
 21
223.918286
 31
0.0
  0
LINE
  5
FC
330
F7
100
AcDbEntity
  8
CSLAYER1
  6
CONTINUOUS
 62
     4
100
AcDbLine
 10
277.2660649999999
 20
222.9182859999999
 30
0.0
 11
307.2660649999999
 21
222.9182859999999
 31
0.0
  0
LINE
  5
FD
330
F7
100
AcDbEntity
  8
CSLAYER1
  6
CONTINUOUS
 62
     4
100
AcDbLine
 10
277.2660649999999
 20
222.9182859999999
 30
0.0
 11
280.163843
 21
223.694743
 31
0.0
  0
LINE
  5
FE
330
F7
100
AcDbEntity
  8
CSLAYER1
  6
CONTINUOUS
 62
     4
100
AcDbLine
 10
277.2660649999999
 20
222.9182859999999
 30
0.0
 11
280.163843
 21
222.1418289999999
 31
0.0
  0
LINE
  5
FF
330
F7
100
AcDbEntity
  8
CSLAYER1
  6
CONTINUOUS
 62
     4
100
AcDbLine
 10
307.2660649999999
 20
222.9182859999999
 30
0.0
 11
304.3682879999999
 21
223.694743
 31
0.0
  0
LINE
  5
100
330
F7
100
AcDbEntity
  8
CSLAYER1
  6
CONTINUOUS
 62
     4
100
AcDbLine
 10
307.2660649999999
 20
222.9182859999999
 30
0.0
 11
304.3682879999999
 21
222.1418289999999
 31
0.0
  0
ENDBLK
  5
101
330
F7
100
AcDbEntity
  8
0
100
AcDbBlockEnd
  0
BLOCK
  5
103
330
102
100
AcDbEntity
  8
CSLAYER1
100
AcDbBlockBegin
  2
*D18
 70
     1
 10
0.0
 20
0.0
 30
0.0
  3
*D18
  1

  0
TEXT
  5
104
330
102
100
AcDbEntity
  8
CSLAYER1
 62
     4
100
AcDbText
 10
338.002655
 20
135.2799929999999
 30
0.0
 40
3.2
  1
72.2
 50
90.0
 41
1.090909090909091
 51
15.0
  7
FX_FONT
 72
     5
 11
338.002655
 21
148.079993
 31
0.0
100
AcDbText
  0
LINE
  5
105
330
102
100
AcDbEntity
  8
CSLAYER1
  6
CONTINUOUS
 62
     4
100
AcDbLine
 10
329.7660649999999
 20
105.58
 30
0.0
 11
339.502637
 21
105.58
 31
0.0
  0
LINE
  5
106
330
102
100
AcDbEntity
  8
CSLAYER1
  6
CONTINUOUS
 62
     4
100
AcDbLine
 10
332.3001939999999
 20
177.78
 30
0.0
 11
339.502637
 21
177.78
 31
0.0
  0
LINE
  5
107
330
102
100
AcDbEntity
  8
CSLAYER1
  6
CONTINUOUS
 62
     4
100
AcDbLine
 10
338.5026369999999
 20
105.58
 30
0.0
 11
338.5026369999999
 21
177.78
 31
0.0
  0
LINE
  5
108
330
102
100
AcDbEntity
  8
CSLAYER1
  6
CONTINUOUS
 62
     4
100
AcDbLine
 10
338.5026369999999
 20
105.58
 30
0.0
 11
337.7261799999999
 21
108.477777
 31
0.0
  0
LINE
  5
109
330
102
100
AcDbEntity
  8
CSLAYER1
  6
CONTINUOUS
 62
     4
100
AcDbLine
 10
338.5026369999999
 20
105.58
 30
0.0
 11
339.2790939999999
 21
108.477777
 31
0.0
  0
LINE
  5
10A
330
102
100
AcDbEntity
  8
CSLAYER1
  6
CONTINUOUS
 62
     4
100
AcDbLine
 10
338.5026369999999
 20
177.78
 30
0.0
 11
337.7261799999999
 21
174.882223
 31
0.0
  0
LINE
  5
10B
330
102
100
AcDbEntity
  8
CSLAYER1
  6
CONTINUOUS
 62
     4
100
AcDbLine
 10
338.5026369999999
 20
177.78
 30
0.0
 11
339.2790939999999
 21
174.882223
 31
0.0
  0
ENDBLK
  5
10C
330
102
100
AcDbEntity
  8
0
100
AcDbBlockEnd
  0
BLOCK
  5
10E
330
10D
100
AcDbEntity
  8
CSLAYER1
100
AcDbBlockBegin
  2
*D19
 70
     1
 10
0.0
 20
0.0
 30
0.0
  3
*D19
  1

  0
TEXT
  5
10F
330
10D
100
AcDbEntity
  8
CSLAYER1
 62
     4
100
AcDbText
 10
338.002655
 20
190.579999
 30
0.0
 40
3.2
  1
32
 50
90.0
 41
1.200000000000001
 51
15.0
  7
FX_FONT
 72
     5
 11
338.002655
 21
196.979999
 31
0.0
100
AcDbText
  0
LINE
  5
110
330
10D
100
AcDbEntity
  8
CSLAYER1
  6
CONTINUOUS
 62
     4
100
AcDbLine
 10
312.615094
 20
209.7799999999999
 30
0.0
 11
339.502637
 21
209.7799999999999
 31
0.0
  0
LINE
  5
111
330
10D
100
AcDbEntity
  8
CSLAYER1
  6
CONTINUOUS
 62
     4
100
AcDbLine
 10
338.5026369999999
 20
177.78
 30
0.0
 11
338.5026369999999
 21
209.7799999999999
 31
0.0
  0
LINE
  5
112
330
10D
100
AcDbEntity
  8
CSLAYER1
  6
CONTINUOUS
 62
     4
100
AcDbLine
 10
338.5026369999999
 20
177.78
 30
0.0
 11
337.7261799999999
 21
180.677777
 31
0.0
  0
LINE
  5
113
330
10D
100
AcDbEntity
  8
CSLAYER1
  6
CONTINUOUS
 62
     4
100
AcDbLine
 10
338.5026369999999
 20
177.78
 30
0.0
 11
339.2790939999999
 21
180.677777
 31
0.0
  0
LINE
  5
114
330
10D
100
AcDbEntity
  8
CSLAYER1
  6
CONTINUOUS
 62
     4
100
AcDbLine
 10
338.5026369999999
 20
209.7799999999999
 30
0.0
 11
337.7261799999999
 21
206.882223
 31
0.0
  0
LINE
  5
115
330
10D
100
AcDbEntity
  8
CSLAYER1
  6
CONTINUOUS
 62
     4
100
AcDbLine
 10
338.5026369999999
 20
209.7799999999999
 30
0.0
 11
339.2790939999999
 21
206.882223
 31
0.0
  0
ENDBLK
  5
116
330
10D
100
AcDbEntity
  8
0
100
AcDbBlockEnd
  0
BLOCK
  5
118
330
117
100
AcDbEntity
  8
CSLAYER1
100
AcDbBlockBegin
  2
*D20
 70
     1
 10
0.0
 20
0.0
 30
0.0
  3
*D20
  1

  0
TEXT
  5
119
330
117
100
AcDbEntity
  8
CSLAYER1
 62
     4
100
AcDbText
 10
289.0660829999999
 20
257.7742919999999
 30
0.0
 40
3.2
  1
73
 41
1.200000000000006
 51
15.0
  7
FX_FONT
 72
     5
 11
295.466083
 21
257.7742919999999
 31
0.0
100
AcDbText
  0
LINE
  5
11A
330
117
100
AcDbEntity
  8
CSLAYER1
  6
CONTINUOUS
 62
     4
100
AcDbLine
 10
255.7660649999999
 20
181.28
 30
0.0
 11
255.7660649999999
 21
258.2742859999999
 31
0.0
  0
LINE
  5
11B
330
117
100
AcDbEntity
  8
CSLAYER1
  6
CONTINUOUS
 62
     4
100
AcDbLine
 10
328.7660649999999
 20
181.28
 30
0.0
 11
328.7660649999999
 21
258.2742859999999
 31
0.0
  0
LINE
  5
11C
330
117
100
AcDbEntity
  8
CSLAYER1
  6
CONTINUOUS
 62
     4
100
AcDbLine
 10
255.7660649999999
 20
257.2742859999999
 30
0.0
 11
328.7660649999999
 21
257.2742859999999
 31
0.0
  0
LINE
  5
11D
330
117
100
AcDbEntity
  8
CSLAYER1
  6
CONTINUOUS
 62
     4
100
AcDbLine
 10
255.7660649999999
 20
257.2742859999999
 30
0.0
 11
258.663843
 21
258.050743
 31
0.0
  0
LINE
  5
11E
330
117
100
AcDbEntity
  8
CSLAYER1
  6
CONTINUOUS
 62
     4
100
AcDbLine
 10
255.7660649999999
 20
257.2742859999999
 30
0.0
 11
258.663843
 21
256.497829
 31
0.0
  0
LINE
  5
11F
330
117
100
AcDbEntity
  8
CSLAYER1
  6
CONTINUOUS
 62
     4
100
AcDbLine
 10
328.7660649999999
 20
257.2742859999999
 30
0.0
 11
325.868288
 21
258.050743
 31
0.0
  0
LINE
  5
120
330
117
100
AcDbEntity
  8
CSLAYER1
  6
CONTINUOUS
 62
     4
100
AcDbLine
 10
328.7660649999999
 20
257.2742859999999
 30
0.0
 11
325.868288
 21
256.497829
 31
0.0
  0
ENDBLK
  5
121
330
117
100
AcDbEntity
  8
0
100
AcDbBlockEnd
  0
BLOCK
  5
123
330
122
100
AcDbEntity
  8
CSLAYER1
100
AcDbBlockBegin
  2
*D21
 70
     1
 10
0.0
 20
0.0
 30
0.0
  3
*D21
  1

  0
TEXT
  5
124
330
122
100
AcDbEntity
  8
CSLAYER1
 62
     4
100
AcDbText
 10
289.0660829999999
 20
251.7742919999999
 30
0.0
 40
3.2
  1
57
 41
1.200000000000006
 51
15.0
  7
FX_FONT
 72
     5
 11
295.466083
 21
251.7742919999999
 31
0.0
100
AcDbText
  0
LINE
  5
125
330
122
100
AcDbEntity
  8
CSLAYER1
  6
CONTINUOUS
 62
     4
100
AcDbLine
 10
263.7660649999999
 20
192.06
 30
0.0
 11
263.7660649999999
 21
252.274286
 31
0.0
  0
LINE
  5
126
330
122
100
AcDbEntity
  8
CSLAYER1
  6
CONTINUOUS
 62
     4
100
AcDbLine
 10
320.7660649999999
 20
192.06
 30
0.0
 11
320.7660649999999
 21
252.274286
 31
0.0
  0
LINE
  5
127
330
122
100
AcDbEntity
  8
CSLAYER1
  6
CONTINUOUS
 62
     4
100
AcDbLine
 10
263.7660649999999
 20
251.2742859999999
 30
0.0
 11
320.7660649999999
 21
251.2742859999999
 31
0.0
  0
LINE
  5
128
330
122
100
AcDbEntity
  8
CSLAYER1
  6
CONTINUOUS
 62
     4
100
AcDbLine
 10
263.7660649999999
 20
251.2742859999999
 30
0.0
 11
266.663843
 21
252.050743
 31
0.0
  0
LINE
  5
129
330
122
100
AcDbEntity
  8
CSLAYER1
  6
CONTINUOUS
 62
     4
100
AcDbLine
 10
263.7660649999999
 20
251.2742859999999
 30
0.0
 11
266.663843
 21
250.4978289999999
 31
0.0
  0
LINE
  5
12A
330
122
100
AcDbEntity
  8
CSLAYER1
  6
CONTINUOUS
 62
     4
100
AcDbLine
 10
320.7660649999999
 20
251.2742859999999
 30
0.0
 11
317.868288
 21
252.050743
 31
0.0
  0
LINE
  5
12B
330
122
100
AcDbEntity
  8
CSLAYER1
  6
CONTINUOUS
 62
     4
100
AcDbLine
 10
320.7660649999999
 20
251.2742859999999
 30
0.0
 11
317.868288
 21
250.4978289999999
 31
0.0
  0
ENDBLK
  5
12C
330
122
100
AcDbEntity
  8
0
100
AcDbBlockEnd
  0
BLOCK
  5
12E
330
12D
100
AcDbEntity
  8
CSLAYER1
100
AcDbBlockBegin
  2
FXDIM0001
 70
     0
 10
0.0
 20
0.0
 30
0.0
  3
FXDIM0001
  1

  0
LINE
  5
12F
330
12D
100
AcDbEntity
  8
CSLAYER1
  6
CONTINUOUS
 62
     4
100
AcDbLine
 10
309.04939
 20
210.685402
 30
0.0
 11
334.5311759999999
 21
223.6226119999999
 31
0.0
  0
LINE
  5
130
330
12D
100
AcDbEntity
  8
CSLAYER1
  6
CONTINUOUS
 62
     4
100
AcDbLine
 10
309.04939
 20
210.685402
 30
0.0
 11
311.2817269999999
 21
212.689566
 31
0.0
  0
LINE
  5
131
330
12D
100
AcDbEntity
  8
CSLAYER1
  6
CONTINUOUS
 62
     4
100
AcDbLine
 10
309.04939
 20
210.685402
 30
0.0
 11
311.984732
 21
211.3048899999999
 31
0.0
  0
LINE
  5
132
330
12D
100
AcDbEntity
  8
CSLAYER1
  6
CONTINUOUS
 62
     4
100
AcDbLine
 10
334.5311759999999
 20
223.6226119999999
 30
0.0
 11
371.731176
 21
223.6226119999999
 31
0.0
  0
TEXT
  5
133
330
12D
100
AcDbEntity
  8
CSLAYER1
 62
     4
100
AcDbText
 10
335.531189
 20
224.1226039999999
 30
0.0
 40
3.2
  1
2-M4X0.7タップ
 41
0.9705882352941175
 51
15.0
  7
FX_FONT
 72
     5
 11
370.731189
 21
224.1226039999999
 31
0.0
100
AcDbText
  0
ENDBLK
  5
134
330
12D
100
AcDbEntity
  8
0
100
AcDbBlockEnd
  0
BLOCK
  5
136
330
135
100
AcDbEntity
  8
CSLAYER1
100
AcDbBlockBegin
  2
*D23
 70
     1
 10
0.0
 20
0.0
 30
0.0
  3
*D23
  1

  0
TEXT
  5
137
330
135
100
AcDbEntity
  8
CSLAYER1
 62
     4
100
AcDbText
 10
165.6871459999999
 20
262.131439
 30
0.0
 40
3.2
  1
27
 41
1.200000000000001
 51
15.0
  7
FX_FONT
 72
     5
 11
172.0871459999999
 21
262.131439
 31
0.0
100
AcDbText
  0
LINE
  5
138
330
135
100
AcDbEntity
  8
CSLAYER1
  6
CONTINUOUS
 62
     4
100
AcDbLine
 10
155.3871429999999
 20
261.631429
 30
0.0
 11
182.3871429999999
 21
261.631429
 31
0.0
  0
LINE
  5
139
330
135
100
AcDbEntity
  8
CSLAYER1
  6
CONTINUOUS
 62
     4
100
AcDbLine
 10
155.3871429999999
 20
261.631429
 30
0.0
 11
158.28492
 21
262.4078859999999
 31
0.0
  0
LINE
  5
13A
330
135
100
AcDbEntity
  8
CSLAYER1
  6
CONTINUOUS
 62
     4
100
AcDbLine
 10
155.3871429999999
 20
261.631429
 30
0.0
 11
158.28492
 21
260.8549709999999
 31
0.0
  0
LINE
  5
13B
330
135
100
AcDbEntity
  8
CSLAYER1
  6
CONTINUOUS
 62
     4
100
AcDbLine
 10
182.3871429999999
 20
261.631429
 30
0.0
 11
179.4893649999999
 21
262.4078859999999
 31
0.0
  0
LINE
  5
13C
330
135
100
AcDbEntity
  8
CSLAYER1
  6
CONTINUOUS
 62
     4
100
AcDbLine
 10
182.3871429999999
 20
261.631429
 30
0.0
 11
179.4893649999999
 21
260.8549709999999
 31
0.0
  0
LINE
  5
13D
330
135
100
AcDbEntity
  8
CSLAYER1
  6
CONTINUOUS
 62
     4
100
AcDbLine
 10
182.3871429999999
 20
191.28
 30
0.0
 11
182.3871429999999
 21
262.631429
 31
0.0
  0
ENDBLK
  5
13E
330
135
100
AcDbEntity
  8
0
100
AcDbBlockEnd
  0
BLOCK
  5
140
330
13F
100
AcDbEntity
  8
CSLAYER1
100
AcDbBlockBegin
  2
FXDIM0002
 70
     0
 10
0.0
 20
0.0
 30
0.0
  3
FXDIM0002
  1

  0
LINE
  5
141
330
13F
100
AcDbEntity
  8
CSLAYER1
  6
CONTINUOUS
 62
     4
100
AcDbLine
 10
126.873217
 20
119.050879
 30
0.0
 11
140.481937
 21
100.237086
 31
0.0
  0
LINE
  5
142
330
13F
100
AcDbEntity
  8
CSLAYER1
  6
CONTINUOUS
 62
     4
100
AcDbLine
 10
126.873217
 20
119.050879
 30
0.0
 11
129.2006839999999
 21
117.1580239999999
 31
0.0
  0
LINE
  5
143
330
13F
100
AcDbEntity
  8
CSLAYER1
  6
CONTINUOUS
 62
     4
100
AcDbLine
 10
126.873217
 20
119.050879
 30
0.0
 11
127.9424349999999
 21
116.247885
 31
0.0
  0
LINE
  5
144
330
13F
100
AcDbEntity
  8
CSLAYER1
  6
CONTINUOUS
 62
     4
100
AcDbLine
 10
140.481937
 20
100.237086
 30
0.0
 11
164.881937
 21
100.237086
 31
0.0
  0
TEXT
  5
145
330
13F
100
AcDbEntity
  8
CSLAYER1
 62
     4
100
AcDbText
 10
141.481961
 20
100.7370829999999
 30
0.0
 40
3.2
  1
Rc1/8ネジ
 41
0.9813084112149537
 51
15.0
  7
FX_FONT
 72
     5
 11
163.881961
 21
100.7370829999999
 31
0.0
100
AcDbText
  0
ENDBLK
  5
146
330
13F
100
AcDbEntity
  8
0
100
AcDbBlockEnd
  0
BLOCK
  5
148
330
147
100
AcDbEntity
  8
CSLAYER1
100
AcDbBlockBegin
  2
FXDIM0003
 70
     0
 10
0.0
 20
0.0
 30
0.0
  3
FXDIM0003
  1

  0
LINE
  5
149
330
147
100
AcDbEntity
  8
CSLAYER1
  6
CONTINUOUS
 62
     4
100
AcDbLine
 10
179.190975
 20
176.049049
 30
0.0
 11
199.427409
 21
156.630243
 31
0.0
  0
LINE
  5
14A
330
147
100
AcDbEntity
  8
CSLAYER1
  6
CONTINUOUS
 62
     4
100
AcDbLine
 10
179.190975
 20
176.049049
 30
0.0
 11
181.81942
 21
174.602925
 31
0.0
  0
LINE
  5
14B
330
147
100
AcDbEntity
  8
CSLAYER1
  6
CONTINUOUS
 62
     4
100
AcDbLine
 10
179.190975
 20
176.049049
 30
0.0
 11
180.744213
 21
173.482446
 31
0.0
  0
LINE
  5
14C
330
147
100
AcDbEntity
  8
CSLAYER1
  6
CONTINUOUS
 62
     4
100
AcDbLine
 10
199.427409
 20
156.630243
 30
0.0
 11
220.6274099999999
 21
156.630243
 31
0.0
  0
TEXT
  5
14D
330
147
100
AcDbEntity
  8
CSLAYER1
 62
     4
100
AcDbText
 10
200.4274049999999
 20
157.1302489999999
 30
0.0
 40
3.2
  1
M5X0.8
 41
1.058823529411763
 51
15.0
  7
FX_FONT
 72
     5
 11
219.6274049999999
 21
157.1302489999999
 31
0.0
100
AcDbText
  0
ENDBLK
  5
14E
330
147
100
AcDbEntity
  8
0
100
AcDbBlockEnd
  0
BLOCK
  5
150
330
14F
100
AcDbEntity
  8
CSLAYER1
100
AcDbBlockBegin
  2
*D26
 70
     1
 10
0.0
 20
0.0
 30
0.0
  3
*D26
  1

  0
TEXT
  5
151
330
14F
100
AcDbEntity
  8
CSLAYER1
 62
     4
100
AcDbText
 10
34.989544
 20
51.982857
 30
0.0
 40
3.2
  1
73
 50
90.0
 41
1.200000187499999
 51
15.0
  7
FX_FONT
 72
     5
 11
34.989544
 21
58.382858
 31
0.0
100
AcDbText
  0
LINE
  5
152
330
14F
100
AcDbEntity
  8
CSLAYER1
  6
CONTINUOUS
 62
     4
100
AcDbLine
 10
35.489544
 20
18.682857
 30
0.0
 11
35.489544
 21
91.682857
 31
0.0
  0
LINE
  5
153
330
14F
100
AcDbEntity
  8
CSLAYER1
  6
CONTINUOUS
 62
     4
100
AcDbLine
 10
35.489544
 20
18.682857
 30
0.0
 11
34.713087
 21
21.580635
 31
0.0
  0
LINE
  5
154
330
14F
100
AcDbEntity
  8
CSLAYER1
  6
CONTINUOUS
 62
     4
100
AcDbLine
 10
35.489544
 20
18.682857
 30
0.0
 11
36.266001
 21
21.580635
 31
0.0
  0
LINE
  5
155
330
14F
100
AcDbEntity
  8
CSLAYER1
  6
CONTINUOUS
 62
     4
100
AcDbLine
 10
35.489544
 20
91.682857
 30
0.0
 11
34.713087
 21
88.78508000000001
 31
0.0
  0
LINE
  5
156
330
14F
100
AcDbEntity
  8
CSLAYER1
  6
CONTINUOUS
 62
     4
100
AcDbLine
 10
35.489544
 20
91.682857
 30
0.0
 11
36.266001
 21
88.78508000000001
 31
0.0
  0
LINE
  5
157
330
14F
100
AcDbEntity
  8
CSLAYER1
  6
CONTINUOUS
 62
     4
100
AcDbLine
 10
76.887143
 20
18.682857
 30
0.0
 11
34.489544
 21
18.682857
 31
0.0
  0
LINE
  5
158
330
14F
100
AcDbEntity
  8
CSLAYER1
  6
CONTINUOUS
 62
     4
100
AcDbLine
 10
76.887143
 20
91.682857
 30
0.0
 11
34.489544
 21
91.682857
 31
0.0
  0
ENDBLK
  5
159
330
14F
100
AcDbEntity
  8
0
100
AcDbBlockEnd
  0
BLOCK
  5
15B
330
15A
100
AcDbEntity
  8
CSLAYER1
100
AcDbBlockBegin
  2
*D27
 70
     1
 10
0.0
 20
0.0
 30
0.0
  3
*D27
  1

  0
TEXT
  5
15C
330
15A
100
AcDbEntity
  8
CSLAYER1
 62
     4
100
AcDbText
 10
40.989544
 20
51.982857
 30
0.0
 40
3.2
  1
57
 50
90.0
 41
1.200000187499999
 51
15.0
  7
FX_FONT
 72
     5
 11
40.989544
 21
58.382858
 31
0.0
100
AcDbText
  0
LINE
  5
15D
330
15A
100
AcDbEntity
  8
CSLAYER1
  6
CONTINUOUS
 62
     4
100
AcDbLine
 10
41.489544
 20
26.682857
 30
0.0
 11
41.489544
 21
83.68285699999999
 31
0.0
  0
LINE
  5
15E
330
15A
100
AcDbEntity
  8
CSLAYER1
  6
CONTINUOUS
 62
     4
100
AcDbLine
 10
41.489544
 20
26.682857
 30
0.0
 11
40.713087
 21
29.58063499999999
 31
0.0
  0
LINE
  5
15F
330
15A
100
AcDbEntity
  8
CSLAYER1
  6
CONTINUOUS
 62
     4
100
AcDbLine
 10
41.489544
 20
26.682857
 30
0.0
 11
42.266001
 21
29.58063499999999
 31
0.0
  0
LINE
  5
160
330
15A
100
AcDbEntity
  8
CSLAYER1
  6
CONTINUOUS
 62
     4
100
AcDbLine
 10
41.489544
 20
83.68285699999999
 30
0.0
 11
40.713087
 21
80.78508000000001
 31
0.0
  0
LINE
  5
161
330
15A
100
AcDbEntity
  8
CSLAYER1
  6
CONTINUOUS
 62
     4
100
AcDbLine
 10
41.489544
 20
83.68285699999999
 30
0.0
 11
42.266001
 21
80.78508000000001
 31
0.0
  0
LINE
  5
162
330
15A
100
AcDbEntity
  8
CSLAYER1
  6
CONTINUOUS
 62
     4
100
AcDbLine
 10
64.68168799999999
 20
26.682857
 30
0.0
 11
40.489544
 21
26.682857
 31
0.0
  0
LINE
  5
163
330
15A
100
AcDbEntity
  8
CSLAYER1
  6
CONTINUOUS
 62
     4
100
AcDbLine
 10
64.68168799999999
 20
83.68285699999999
 30
0.0
 11
40.489544
 21
83.68285699999999
 31
0.0
  0
ENDBLK
  5
164
330
15A
100
AcDbEntity
  8
0
100
AcDbBlockEnd
  0
BLOCK
  5
166
330
165
100
AcDbEntity
  8
CSLAYER1
100
AcDbBlockBegin
  2
FXDIM0004
 70
     0
 10
0.0
 20
0.0
 30
0.0
  3
FXDIM0004
  1

  0
LINE
  5
167
330
165
100
AcDbEntity
  8
CSLAYER1
  6
CONTINUOUS
 62
     4
100
AcDbLine
 10
310.855519
 20
176.5660649999999
 30
0.0
 11
343.345343
 21
151.7521689999999
 31
0.0
  0
LINE
  5
168
330
165
100
AcDbEntity
  8
CSLAYER1
  6
CONTINUOUS
 62
     4
100
AcDbLine
 10
310.855519
 20
176.5660649999999
 30
0.0
 11
313.629744
 21
175.42428
 31
0.0
  0
LINE
  5
169
330
165
100
AcDbEntity
  8
CSLAYER1
  6
CONTINUOUS
 62
     4
100
AcDbLine
 10
310.855519
 20
176.5660649999999
 30
0.0
 11
312.6871759999999
 21
174.190137
 31
0.0
  0
LINE
  5
16A
330
165
100
AcDbEntity
  8
CSLAYER1
  6
CONTINUOUS
 62
     4
100
AcDbLine
 10
343.345343
 20
151.7521689999999
 30
0.0
 11
374.145344
 21
151.7521689999999
 31
0.0
  0
TEXT
  5
16B
330
165
100
AcDbEntity
  8
CSLAYER1
 62
     4
100
AcDbText
 10
344.3453309999999
 20
152.2521669999999
 30
0.0
 40
3.2
  1
スライド調整ボルト
 41
0.8709677419354839
 51
15.0
  7
FX_FONT
 72
     5
 11
373.145331
 21
152.2521669999999
 31
0.0
100
AcDbText
  0
ENDBLK
  5
16C
330
165
100
AcDbEntity
  8
0
100
AcDbBlockEnd
  0
ENDSEC
  0
SECTION
  2
ENTITIES
  0
LINE
  5
16D
330
1E
100
AcDbEntity
  8
CSLAYER1
  6
CONTINUOUS
 62
     3
100
AcDbLine
 10
61.387143
 20
32.68285699999999
 30
0.0
 11
61.387143
 21
77.68285699999999
 31
0.0
  0
LINE
  5
16E
330
1E
100
AcDbEntity
  8
CSLAYER1
  6
CONTINUOUS
 62
     3
100
AcDbLine
 10
61.387143
 20
77.68285699999999
 30
0.0
 11
65.88714300000001
 21
77.68285699999999
 31
0.0
  0
ARC
  5
16F
330
1E
100
AcDbEntity
  8
CSLAYER1
  6
CONTINUOUS
 62
     3
100
AcDbCircle
 10
65.88714300000001
 20
73.682857
 30
0.0
 40
4.0
100
AcDbArc
 50
90.0
 51
180.0
  0
LINE
  5
170
330
1E
100
AcDbEntity
  8
CSLAYER1
  6
CONTINUOUS
 62
     3
100
AcDbLine
 10
61.887143
 20
73.682857
 30
0.0
 11
61.887143
 21
36.682857
 31
0.0
  0
ARC
  5
171
330
1E
100
AcDbEntity
  8
CSLAYER1
  6
CONTINUOUS
 62
     3
100
AcDbCircle
 10
65.88714300000001
 20
36.682857
 30
0.0
 40
4.0
100
AcDbArc
 50
180.0
 51
270.0
  0
LINE
  5
172
330
1E
100
AcDbEntity
  8
CSLAYER1
  6
CONTINUOUS
 62
     3
100
AcDbLine
 10
65.88714300000001
 20
32.68285699999999
 30
0.0
 11
61.387143
 21
32.68285699999999
 31
0.0
  0
ARC
  5
173
330
1E
100
AcDbEntity
  8
CSLAYER1
  6
CONTINUOUS
 62
     3
100
AcDbCircle
 10
65.88714300000001
 20
28.682857
 30
0.0
 40
4.0
100
AcDbArc
 50
0.0
 51
90.0
  0
LINE
  5
174
330
1E
100
AcDbEntity
  8
CSLAYER1
  6
CONTINUOUS
 62
     3
100
AcDbLine
 10
69.88714300000001
 20
28.682857
 30
0.0
 11
69.88714300000001
 21
26.682857
 31
0.0
  0
ARC
  5
175
330
1E
100
AcDbEntity
  8
CSLAYER1
  6
CONTINUOUS
 62
     3
100
AcDbCircle
 10
77.88714300000001
 20
26.682857
 30
0.0
 40
8.0
100
AcDbArc
 50
180.0
 51
270.0
  0
LINE
  5
176
330
1E
100
AcDbEntity
  8
CSLAYER1
  6
CONTINUOUS
 62
     3
100
AcDbLine
 10
77.88714300000001
 20
18.682857
 30
0.0
 11
82.887143
 21
18.682857
 31
0.0
  0
ARC
  5
177
330
1E
100
AcDbEntity
  8
CSLAYER1
  6
CONTINUOUS
 62
     3
100
AcDbCircle
 10
82.887143
 20
26.682857
 30
0.0
 40
8.0
100
AcDbArc
 50
270.0
 51
0.0
  0
LINE
  5
178
330
1E
100
AcDbEntity
  8
CSLAYER1
  6
CONTINUOUS
 62
     3
100
AcDbLine
 10
90.88714300000001
 20
26.682857
 30
0.0
 11
90.88714300000001
 21
28.682857
 31
0.0
  0
ARC
  5
179
330
1E
100
AcDbEntity
  8
CSLAYER1
  6
CONTINUOUS
 62
     3
100
AcDbCircle
 10
94.88714300000001
 20
28.682857
 30
0.0
 40
4.0
100
AcDbArc
 50
90.0
 51
180.0
  0
LINE
  5
17A
330
1E
100
AcDbEntity
  8
CSLAYER1
  6
CONTINUOUS
 62
     3
100
AcDbLine
 10
94.88714300000001
 20
32.68285699999999
 30
0.0
 11
117.1871429999999
 21
32.68285699999999
 31
0.0
  0
LINE
  5
17B
330
1E
100
AcDbEntity
  8
CSLAYER1
  6
CONTINUOUS
 62
     3
100
AcDbLine
 10
117.1871429999999
 20
32.68285699999999
 30
0.0
 11
117.1871429999999
 21
18.682857
 31
0.0
  0
LINE
  5
17C
330
1E
100
AcDbEntity
  8
CSLAYER1
  6
CONTINUOUS
 62
     3
100
AcDbLine
 10
117.1871429999999
 20
18.682857
 30
0.0
 11
120.3871429999999
 21
18.682857
 31
0.0
  0
LINE
  5
17D
330
1E
100
AcDbEntity
  8
CSLAYER1
  6
CONTINUOUS
 62
     3
100
AcDbLine
 10
120.3871429999999
 20
18.682857
 30
0.0
 11
120.3871429999999
 21
91.682857
 31
0.0
  0
LINE
  5
17E
330
1E
100
AcDbEntity
  8
CSLAYER1
  6
CONTINUOUS
 62
     3
100
AcDbLine
 10
120.3871429999999
 20
91.682857
 30
0.0
 11
117.1871429999999
 21
91.682857
 31
0.0
  0
LINE
  5
17F
330
1E
100
AcDbEntity
  8
CSLAYER1
  6
CONTINUOUS
 62
     3
100
AcDbLine
 10
117.1871429999999
 20
91.682857
 30
0.0
 11
117.1871429999999
 21
77.68285699999999
 31
0.0
  0
LINE
  5
180
330
1E
100
AcDbEntity
  8
CSLAYER1
  6
CONTINUOUS
 62
     3
100
AcDbLine
 10
117.1871429999999
 20
77.68285699999999
 30
0.0
 11
94.88714300000001
 21
77.68285699999999
 31
0.0
  0
ARC
  5
181
330
1E
100
AcDbEntity
  8
CSLAYER1
  6
CONTINUOUS
 62
     3
100
AcDbCircle
 10
94.88714300000001
 20
81.682857
 30
0.0
 40
4.0
100
AcDbArc
 50
180.0
 51
270.0
  0
LINE
  5
182
330
1E
100
AcDbEntity
  8
CSLAYER1
  6
CONTINUOUS
 62
     3
100
AcDbLine
 10
90.88714300000001
 20
81.682857
 30
0.0
 11
90.88714300000001
 21
83.68285699999999
 31
0.0
  0
ARC
  5
183
330
1E
100
AcDbEntity
  8
CSLAYER1
  6
CONTINUOUS
 62
     3
100
AcDbCircle
 10
82.887143
 20
83.68285699999999
 30
0.0
 40
8.0
100
AcDbArc
 50
0.0
 51
90.0
  0
LINE
  5
184
330
1E
100
AcDbEntity
  8
CSLAYER1
  6
CONTINUOUS
 62
     3
100
AcDbLine
 10
82.887143
 20
91.682857
 30
0.0
 11
77.88714300000001
 21
91.682857
 31
0.0
  0
ARC
  5
185
330
1E
100
AcDbEntity
  8
CSLAYER1
  6
CONTINUOUS
 62
     3
100
AcDbCircle
 10
77.88714300000001
 20
83.68285699999999
 30
0.0
 40
8.0
100
AcDbArc
 50
90.0
 51
180.0
  0
LINE
  5
186
330
1E
100
AcDbEntity
  8
CSLAYER1
  6
CONTINUOUS
 62
     3
100
AcDbLine
 10
69.88714300000001
 20
83.68285699999999
 30
0.0
 11
69.88714300000001
 21
81.682857
 31
0.0
  0
ARC
  5
187
330
1E
100
AcDbEntity
  8
CSLAYER1
  6
CONTINUOUS
 62
     3
100
AcDbCircle
 10
65.88714300000001
 20
81.682857
 30
0.0
 40
4.0
100
AcDbArc
 50
270.0
 51
0.0
  0
LINE
  5
188
330
1E
100
AcDbEntity
  8
CSLAYER1
  6
CONTINUOUS
 62
     3
100
AcDbLine
 10
78.58714300000001
 20
80.48285699999999
 30
0.0
 11
82.187143
 21
80.48285699999999
 31
0.0
  0
ARC
  5
189
330
1E
100
AcDbEntity
  8
CSLAYER1
  6
CONTINUOUS
 62
     3
100
AcDbCircle
 10
82.187143
 20
83.68285699999999
 30
0.0
 40
3.2
100
AcDbArc
 50
270.0
 51
90.0
  0
LINE
  5
18A
330
1E
100
AcDbEntity
  8
CSLAYER1
  6
CONTINUOUS
 62
     3
100
AcDbLine
 10
82.187143
 20
86.88285699999999
 30
0.0
 11
78.58714300000001
 21
86.88285699999999
 31
0.0
  0
ARC
  5
18B
330
1E
100
AcDbEntity
  8
CSLAYER1
  6
CONTINUOUS
 62
     3
100
AcDbCircle
 10
78.58714300000001
 20
83.68285699999999
 30
0.0
 40
3.2
100
AcDbArc
 50
90.0
 51
270.0
  0
LINE
  5
18C
330
1E
100
AcDbEntity
  8
CSLAYER1
  6
CONTINUOUS
 62
     3
100
AcDbLine
 10
96.887143
 20
105.58
 30
0.0
 11
96.887143
 21
108.78
 31
0.0
  0
LINE
  5
18D
330
1E
100
AcDbEntity
  8
CSLAYER1
  6
CONTINUOUS
 62
     3
100
AcDbLine
 10
96.887143
 20
108.78
 30
0.0
 11
152.187143
 21
108.78
 31
0.0
  0
LINE
  5
18E
330
1E
100
AcDbEntity
  8
CSLAYER1
  6
CONTINUOUS
 62
     3
100
AcDbLine
 10
152.187143
 20
108.78
 30
0.0
 11
152.187143
 21
218.78
 31
0.0
  0
LINE
  5
18F
330
1E
100
AcDbEntity
  8
CSLAYER1
  6
CONTINUOUS
 62
     3
100
AcDbLine
 10
152.187143
 20
218.78
 30
0.0
 11
155.3871429999999
 21
218.78
 31
0.0
  0
LINE
  5
190
330
1E
100
AcDbEntity
  8
CSLAYER1
  6
CONTINUOUS
 62
     3
100
AcDbLine
 10
155.3871429999999
 20
218.78
 30
0.0
 11
155.3871429999999
 21
107.58
 31
0.0
  0
ARC
  5
191
330
1E
100
AcDbEntity
  8
CSLAYER1
  6
CONTINUOUS
 62
     3
100
AcDbCircle
 10
153.3871429999999
 20
107.58
 30
0.0
 40
2.0
100
AcDbArc
 50
270.0
 51
0.0
  0
LINE
  5
192
330
1E
100
AcDbEntity
  8
CSLAYER1
  6
CONTINUOUS
 62
     3
100
AcDbLine
 10
153.3871429999999
 20
105.58
 30
0.0
 11
96.887143
 21
105.58
 31
0.0
  0
LINE
  5
193
330
1E
100
AcDbEntity
  8
CSLAYER1
  6
CONTINUOUS
 62
     3
100
AcDbLine
 10
102.387143
 20
113.28
 30
0.0
 11
135.3871429999999
 21
113.28
 31
0.0
  0
LINE
  5
194
330
1E
100
AcDbEntity
  8
CSLAYER1
  6
CONTINUOUS
 62
     3
100
AcDbLine
 10
135.3871429999999
 20
113.28
 30
0.0
 11
136.8871429999999
 21
114.7799999999999
 31
0.0
  0
LINE
  5
195
330
1E
100
AcDbEntity
  8
CSLAYER1
  6
CONTINUOUS
 62
     3
100
AcDbLine
 10
136.8871429999999
 20
114.7799999999999
 30
0.0
 11
100.887143
 21
114.7799999999999
 31
0.0
  0
LINE
  5
196
330
1E
100
AcDbEntity
  8
CSLAYER1
  6
CONTINUOUS
 62
     3
100
AcDbLine
 10
100.887143
 20
114.7799999999999
 30
0.0
 11
100.887143
 21
126.28
 31
0.0
  0
ARC
  5
197
330
1E
100
AcDbEntity
  8
CSLAYER1
  6
CONTINUOUS
 62
     3
100
AcDbCircle
 10
98.88714300000001
 20
126.28
 30
0.0
 40
2.0
100
AcDbArc
 50
0.0
 51
90.0
  0
LINE
  5
198
330
1E
100
AcDbEntity
  8
CSLAYER1
  6
CONTINUOUS
 62
     3
100
AcDbLine
 10
98.88714300000001
 20
128.2799999999999
 30
0.0
 11
96.38714300000001
 21
128.2799999999999
 31
0.0
  0
LINE
  5
199
330
1E
100
AcDbEntity
  8
CSLAYER1
  6
CONTINUOUS
 62
     3
100
AcDbLine
 10
96.38714300000001
 20
128.2799999999999
 30
0.0
 11
96.38714300000001
 21
132.9799999999999
 31
0.0
  0
LINE
  5
19A
330
1E
100
AcDbEntity
  8
CSLAYER1
  6
CONTINUOUS
 62
     3
100
AcDbLine
 10
96.38714300000001
 20
132.9799999999999
 30
0.0
 11
96.68714300000001
 21
133.2799999999999
 31
0.0
  0
LINE
  5
19B
330
1E
100
AcDbEntity
  8
CSLAYER1
  6
CONTINUOUS
 62
     3
100
AcDbLine
 10
96.38714300000001
 20
133.2799999999999
 30
0.0
 11
141.3871429999999
 21
133.2799999999999
 31
0.0
  0
LINE
  5
19C
330
1E
100
AcDbEntity
  8
CSLAYER1
  6
CONTINUOUS
 62
     3
100
AcDbLine
 10
141.3871429999999
 20
133.2799999999999
 30
0.0
 11
141.3871429999999
 21
218.2799999999999
 31
0.0
  0
ARC
  5
19D
330
1E
100
AcDbEntity
  8
CSLAYER1
  6
CONTINUOUS
 62
     3
100
AcDbCircle
 10
145.8871429999999
 20
231.537074
 30
0.0
 40
14.0
100
AcDbArc
 50
180.0
 51
251.250659
  0
LINE
  5
19E
330
1E
100
AcDbEntity
  8
CSLAYER1
  6
CONTINUOUS
 62
     3
100
AcDbLine
 10
131.8871429999999
 20
231.537074
 30
0.0
 11
131.8871429999999
 21
242.28
 31
0.0
  0
LINE
  5
19F
330
1E
100
AcDbEntity
  8
CSLAYER1
  6
CONTINUOUS
 62
     3
100
AcDbLine
 10
131.8871429999999
 20
242.28
 30
0.0
 11
124.8871429999999
 21
242.28
 31
0.0
  0
LINE
  5
1A0
330
1E
100
AcDbEntity
  8
CSLAYER1
  6
CONTINUOUS
 62
     3
100
AcDbLine
 10
124.8871429999999
 20
242.28
 30
0.0
 11
124.8871429999999
 21
210.08
 31
0.0
  0
LINE
  5
1A1
330
1E
100
AcDbEntity
  8
CSLAYER1
  6
CONTINUOUS
 62
     3
100
AcDbLine
 10
124.8871429999999
 20
210.08
 30
0.0
 11
112.887143
 21
210.08
 31
0.0
  0
LINE
  5
1A2
330
1E
100
AcDbEntity
  8
CSLAYER1
  6
CONTINUOUS
 62
     3
100
AcDbLine
 10
112.887143
 20
210.08
 30
0.0
 11
112.887143
 21
242.28
 31
0.0
  0
LINE
  5
1A3
330
1E
100
AcDbEntity
  8
CSLAYER1
  6
CONTINUOUS
 62
     3
100
AcDbLine
 10
112.887143
 20
242.28
 30
0.0
 11
105.8871429999999
 21
242.28
 31
0.0
  0
LINE
  5
1A4
330
1E
100
AcDbEntity
  8
CSLAYER1
  6
CONTINUOUS
 62
     3
100
AcDbLine
 10
105.8871429999999
 20
242.28
 30
0.0
 11
105.8871429999999
 21
231.537074
 31
0.0
  0
ARC
  5
1A5
330
1E
100
AcDbEntity
  8
CSLAYER1
  6
CONTINUOUS
 62
     3
100
AcDbCircle
 10
91.887143
 20
231.537074
 30
0.0
 40
14.0
100
AcDbArc
 50
288.749341
 51
0.0
  0
LINE
  5
1A6
330
1E
100
AcDbEntity
  8
CSLAYER1
  6
CONTINUOUS
 62
     3
100
AcDbLine
 10
96.38714300000001
 20
218.2799999999999
 30
0.0
 11
96.38714300000001
 21
133.2799999999999
 31
0.0
  0
LINE
  5
1A7
330
1E
100
AcDbEntity
  8
CSLAYER1
  6
CONTINUOUS
 62
     3
100
AcDbLine
 10
96.38714300000001
 20
147.28
 30
0.0
 11
107.191783
 21
147.28
 31
0.0
  0
ARC
  5
1A8
330
1E
100
AcDbEntity
  8
CSLAYER1
  6
CONTINUOUS
 62
     3
100
AcDbCircle
 10
107.191783
 20
145.28
 30
0.0
 40
2.0
100
AcDbArc
 50
0.0
 51
90.0
  0
LINE
  5
1A9
330
1E
100
AcDbEntity
  8
CSLAYER1
  6
CONTINUOUS
 62
     3
100
AcDbLine
 10
109.191783
 20
145.28
 30
0.0
 11
109.191783
 21
134.2799999999999
 31
0.0
  0
LINE
  5
1AA
330
1E
100
AcDbEntity
  8
CSLAYER1
  6
CONTINUOUS
 62
     3
100
AcDbLine
 10
109.191783
 20
134.2799999999999
 30
0.0
 11
128.582503
 21
134.2799999999999
 31
0.0
  0
LINE
  5
1AB
330
1E
100
AcDbEntity
  8
CSLAYER1
  6
CONTINUOUS
 62
     3
100
AcDbLine
 10
128.582503
 20
134.2799999999999
 30
0.0
 11
128.582503
 21
145.28
 31
0.0
  0
ARC
  5
1AC
330
1E
100
AcDbEntity
  8
CSLAYER1
  6
CONTINUOUS
 62
     3
100
AcDbCircle
 10
130.582503
 20
145.28
 30
0.0
 40
2.0
100
AcDbArc
 50
90.0
 51
180.0
  0
LINE
  5
1AD
330
1E
100
AcDbEntity
  8
CSLAYER1
  6
CONTINUOUS
 62
     3
100
AcDbLine
 10
130.582503
 20
147.28
 30
0.0
 11
141.3871429999999
 21
147.28
 31
0.0
  0
LINE
  5
1AE
330
1E
100
AcDbEntity
  8
CSLAYER1
  6
CONTINUOUS
 62
     3
100
AcDbLine
 10
141.3871429999999
 20
147.78
 30
0.0
 11
147.3871429999999
 21
147.78
 31
0.0
  0
LINE
  5
1AF
330
1E
100
AcDbEntity
  8
CSLAYER1
  6
CONTINUOUS
 62
     3
100
AcDbLine
 10
147.3871429999999
 20
147.78
 30
0.0
 11
147.3871429999999
 21
203.2799999999999
 31
0.0
  0
LINE
  5
1B0
330
1E
100
AcDbEntity
  8
CSLAYER1
  6
CONTINUOUS
 62
     3
100
AcDbLine
 10
147.3871429999999
 20
203.2799999999999
 30
0.0
 11
141.3871429999999
 21
203.2799999999999
 31
0.0
  0
LINE
  5
1B1
330
1E
100
AcDbEntity
  8
CSLAYER1
  6
CONTINUOUS
 62
     3
100
AcDbLine
 10
147.3871429999999
 20
201.0299999999999
 30
0.0
 11
152.187143
 21
201.0299999999999
 31
0.0
  0
LINE
  5
1B2
330
1E
100
AcDbEntity
  8
CSLAYER1
  6
CONTINUOUS
 62
     3
100
AcDbLine
 10
155.3871429999999
 20
203.2799999999999
 30
0.0
 11
164.5871429999999
 21
203.2799999999999
 31
0.0
  0
LINE
  5
1B3
330
1E
100
AcDbEntity
  8
CSLAYER1
  6
CONTINUOUS
 62
     3
100
AcDbLine
 10
164.5871429999999
 20
203.2799999999999
 30
0.0
 11
164.5871429999999
 21
192.28
 31
0.0
  0
LINE
  5
1B4
330
1E
100
AcDbEntity
  8
CSLAYER1
  6
CONTINUOUS
 62
     3
100
AcDbLine
 10
164.5871429999999
 20
192.28
 30
0.0
 11
165.3871429999999
 21
193.0799999999999
 31
0.0
  0
LINE
  5
1B5
330
1E
100
AcDbEntity
  8
CSLAYER1
  6
CONTINUOUS
 62
     3
100
AcDbLine
 10
165.3871429999999
 20
193.0799999999999
 30
0.0
 11
165.3871429999999
 21
202.4799999999999
 31
0.0
  0
LINE
  5
1B6
330
1E
100
AcDbEntity
  8
CSLAYER1
  6
CONTINUOUS
 62
     3
100
AcDbLine
 10
165.3871429999999
 20
202.4799999999999
 30
0.0
 11
164.5871429999999
 21
203.2799999999999
 31
0.0
  0
ARC
  5
1B7
330
1E
100
AcDbEntity
  8
CSLAYER1
  6
CONTINUOUS
 62
     3
100
AcDbCircle
 10
165.6871429999999
 20
201.48
 30
0.0
 40
0.3
100
AcDbArc
 50
0.0
 51
180.0
  0
LINE
  5
1B8
330
1E
100
AcDbEntity
  8
CSLAYER1
  6
CONTINUOUS
 62
     3
100
AcDbLine
 10
165.987143
 20
201.48
 30
0.0
 11
165.987143
 21
194.08
 31
0.0
  0
ARC
  5
1B9
330
1E
100
AcDbEntity
  8
CSLAYER1
  6
CONTINUOUS
 62
     3
100
AcDbCircle
 10
165.6871429999999
 20
194.08
 30
0.0
 40
0.3
100
AcDbArc
 50
180.0
 51
0.0
  0
LINE
  5
1BA
330
1E
100
AcDbEntity
  8
CSLAYER1
  6
CONTINUOUS
 62
     3
100
AcDbLine
 10
165.9641699999999
 20
193.9648659999999
 30
0.0
 11
166.1990419999999
 21
194.5299999999999
 31
0.0
  0
LINE
  5
1BB
330
1E
100
AcDbEntity
  8
CSLAYER1
  6
CONTINUOUS
 62
     3
100
AcDbLine
 10
165.987143
 20
194.5299999999999
 30
0.0
 11
169.948206
 21
194.5299999999999
 31
0.0
  0
LINE
  5
1BC
330
1E
100
AcDbEntity
  8
CSLAYER1
  6
CONTINUOUS
 62
     3
100
AcDbLine
 10
170.0731649999999
 20
193.9480899999999
 30
0.0
 11
168.4692949999999
 21
201.417014
 31
0.0
  0
ARC
  5
1BD
330
1E
100
AcDbEntity
  8
CSLAYER1
  6
CONTINUOUS
 62
     3
100
AcDbCircle
 10
168.762608
 20
201.48
 30
0.0
 40
0.3
100
AcDbArc
 50
12.119591
 51
192.1195909999999
  0
LINE
  5
1BE
330
1E
100
AcDbEntity
  8
CSLAYER1
  6
CONTINUOUS
 62
     3
100
AcDbLine
 10
169.055922
 20
201.542986
 30
0.0
 11
170.653982
 21
194.1011169999999
 31
0.0
  0
LINE
  5
1BF
330
1E
100
AcDbEntity
  8
CSLAYER1
  6
CONTINUOUS
 62
     3
100
AcDbLine
 10
170.6359219999999
 20
194.017014
 30
0.0
 11
170.7460799999999
 21
194.5299999999999
 31
0.0
  0
LINE
  5
1C0
330
1E
100
AcDbEntity
  8
CSLAYER1
  6
CONTINUOUS
 62
     3
100
AcDbLine
 10
170.561884
 20
194.5299999999999
 30
0.0
 11
173.108206
 21
194.5299999999999
 31
0.0
  0
ARC
  5
1C1
330
1E
100
AcDbEntity
  8
CSLAYER1
  6
CONTINUOUS
 62
     3
100
AcDbCircle
 10
173.502608
 20
194.08
 30
0.0
 40
0.3
100
AcDbArc
 50
206.0846689999999
 51
347.880409
  0
LINE
  5
1C2
330
1E
100
AcDbEntity
  8
CSLAYER1
  6
CONTINUOUS
 62
     3
100
AcDbLine
 10
173.795922
 20
194.017014
 30
0.0
 11
173.90608
 21
194.5299999999999
 31
0.0
  0
LINE
  5
1C3
330
1E
100
AcDbEntity
  8
CSLAYER1
  6
CONTINUOUS
 62
     3
100
AcDbLine
 10
173.721884
 20
194.5299999999999
 30
0.0
 11
176.2682059999999
 21
194.5299999999999
 31
0.0
  0
ARC
  5
1C4
330
1E
100
AcDbEntity
  8
CSLAYER1
  6
CONTINUOUS
 62
     3
100
AcDbCircle
 10
176.6626079999999
 20
194.08
 30
0.0
 40
0.3
100
AcDbArc
 50
206.0846689999999
 51
347.880409
  0
LINE
  5
1C5
330
1E
100
AcDbEntity
  8
CSLAYER1
  6
CONTINUOUS
 62
     3
100
AcDbLine
 10
176.9559219999999
 20
194.017014
 30
0.0
 11
177.0660799999999
 21
194.5299999999999
 31
0.0
  0
LINE
  5
1C6
330
1E
100
AcDbEntity
  8
CSLAYER1
  6
CONTINUOUS
 62
     3
100
AcDbLine
 10
176.881884
 20
194.5299999999999
 30
0.0
 11
179.428206
 21
194.5299999999999
 31
0.0
  0
ARC
  5
1C7
330
1E
100
AcDbEntity
  8
CSLAYER1
  6
CONTINUOUS
 62
     3
100
AcDbCircle
 10
179.831677
 20
194.08
 30
0.0
 40
0.3
100
AcDbArc
 50
192.1195909999999
 51
12.119591
  0
LINE
  5
1C8
330
1E
100
AcDbEntity
  8
CSLAYER1
  6
CONTINUOUS
 62
     3
100
AcDbLine
 10
180.1249909999999
 20
194.142986
 30
0.0
 11
178.535922
 21
201.542986
 31
0.0
  0
ARC
  5
1C9
330
1E
100
AcDbEntity
  8
CSLAYER1
  6
CONTINUOUS
 62
     3
100
AcDbCircle
 10
178.242608
 20
201.48
 30
0.0
 40
0.3
100
AcDbArc
 50
12.119591
 51
192.1195909999999
  0
LINE
  5
1CA
330
1E
100
AcDbEntity
  8
CSLAYER1
  6
CONTINUOUS
 62
     3
100
AcDbLine
 10
177.949295
 20
201.417014
 30
0.0
 11
179.538364
 21
194.017014
 31
0.0
  0
LINE
  5
1CB
330
1E
100
AcDbEntity
  8
CSLAYER1
  6
CONTINUOUS
 62
     3
100
AcDbLine
 10
180.131528
 20
194.0705209999999
 30
0.0
 11
180.3610779999999
 21
194.8199999999999
 31
0.0
  0
LINE
  5
1CC
330
1E
100
AcDbEntity
  8
CSLAYER1
  6
CONTINUOUS
 62
     3
100
AcDbLine
 10
179.97961
 20
194.8199999999999
 30
0.0
 11
181.7871429999999
 21
194.8199999999999
 31
0.0
  0
LINE
  5
1CD
330
1E
100
AcDbEntity
  8
CSLAYER1
  6
CONTINUOUS
 62
     3
100
AcDbLine
 10
181.7871429999999
 20
194.08
 30
0.0
 11
181.7871429999999
 21
201.524912
 31
0.0
  0
ARC
  5
1CE
330
1E
100
AcDbEntity
  8
CSLAYER1
  6
CONTINUOUS
 62
     3
100
AcDbCircle
 10
182.087143
 20
201.48
 30
0.0
 40
0.3
100
AcDbArc
 50
0.0
 51
162.9712519999999
  0
LINE
  5
1CF
330
1E
100
AcDbEntity
  8
CSLAYER1
  6
CONTINUOUS
 62
     3
100
AcDbLine
 10
181.800295
 20
201.567855
 30
0.0
 11
181.5467399999999
 21
200.74
 31
0.0
  0
LINE
  5
1D0
330
1E
100
AcDbEntity
  8
CSLAYER1
  6
CONTINUOUS
 62
     3
100
AcDbLine
 10
181.7871429999999
 20
200.74
 30
0.0
 11
179.8871429999999
 21
200.74
 31
0.0
  0
LINE
  5
1D1
330
1E
100
AcDbEntity
  8
CSLAYER1
  6
CONTINUOUS
 62
     3
100
AcDbLine
 10
179.8871429999999
 20
200.74
 30
0.0
 11
179.5971429999999
 21
201.0299999999999
 31
0.0
  0
LINE
  5
1D2
330
1E
100
AcDbEntity
  8
CSLAYER1
  6
CONTINUOUS
 62
     3
100
AcDbLine
 10
179.5971429999999
 20
201.0299999999999
 30
0.0
 11
179.5971429999999
 21
196.6010759999999
 31
0.0
  0
LINE
  5
1D3
330
1E
100
AcDbEntity
  8
CSLAYER1
  6
CONTINUOUS
 62
     3
100
AcDbLine
 10
179.8871429999999
 20
195.2505999999999
 30
0.0
 11
179.8871429999999
 21
200.74
 31
0.0
  0
LINE
  5
1D4
330
1E
100
AcDbEntity
  8
CSLAYER1
  6
CONTINUOUS
 62
     3
100
AcDbLine
 10
179.5971429999999
 20
201.0299999999999
 30
0.0
 11
178.64608
 21
201.0299999999999
 31
0.0
  0
LINE
  5
1D5
330
1E
100
AcDbEntity
  8
CSLAYER1
  6
CONTINUOUS
 62
     3
100
AcDbLine
 10
178.0324019999999
 20
201.0299999999999
 30
0.0
 11
175.48608
 21
201.0299999999999
 31
0.0
  0
LINE
  5
1D6
330
1E
100
AcDbEntity
  8
CSLAYER1
  6
CONTINUOUS
 62
     3
100
AcDbLine
 10
175.375922
 20
201.542986
 30
0.0
 11
176.973982
 21
194.1011169999999
 31
0.0
  0
LINE
  5
1D7
330
1E
100
AcDbEntity
  8
CSLAYER1
  6
CONTINUOUS
 62
     3
100
AcDbLine
 10
176.3931649999999
 20
193.9480899999999
 30
0.0
 11
174.7803039999999
 21
201.458883
 31
0.0
  0
LINE
  5
1D8
330
1E
100
AcDbEntity
  8
CSLAYER1
  6
CONTINUOUS
 62
     3
100
AcDbLine
 10
174.7803039999999
 20
201.458883
 30
0.0
 11
174.688206
 21
201.0299999999999
 31
0.0
  0
LINE
  5
1D9
330
1E
100
AcDbEntity
  8
CSLAYER1
  6
CONTINUOUS
 62
     3
100
AcDbLine
 10
174.872402
 20
201.0299999999999
 30
0.0
 11
172.32608
 21
201.0299999999999
 31
0.0
  0
LINE
  5
1DA
330
1E
100
AcDbEntity
  8
CSLAYER1
  6
CONTINUOUS
 62
     3
100
AcDbLine
 10
172.2159219999999
 20
201.542986
 30
0.0
 11
173.813982
 21
194.1011169999999
 31
0.0
  0
LINE
  5
1DB
330
1E
100
AcDbEntity
  8
CSLAYER1
  6
CONTINUOUS
 62
     3
100
AcDbLine
 10
173.2331649999999
 20
193.9480899999999
 30
0.0
 11
171.620304
 21
201.458883
 31
0.0
  0
LINE
  5
1DC
330
1E
100
AcDbEntity
  8
CSLAYER1
  6
CONTINUOUS
 62
     3
100
AcDbLine
 10
171.620304
 20
201.458883
 30
0.0
 11
171.528206
 21
201.0299999999999
 31
0.0
  0
LINE
  5
1DD
330
1E
100
AcDbEntity
  8
CSLAYER1
  6
CONTINUOUS
 62
     3
100
AcDbLine
 10
171.7124019999999
 20
201.0299999999999
 30
0.0
 11
169.16608
 21
201.0299999999999
 31
0.0
  0
LINE
  5
1DE
330
1E
100
AcDbEntity
  8
CSLAYER1
  6
CONTINUOUS
 62
     3
100
AcDbLine
 10
168.552402
 20
201.0299999999999
 30
0.0
 11
165.987143
 21
201.0299999999999
 31
0.0
  0
LINE
  5
1DF
330
1E
100
AcDbEntity
  8
CSLAYER1
  6
CONTINUOUS
 62
     3
100
AcDbLine
 10
168.368206
 20
201.0299999999999
 30
0.0
 11
168.4627639999999
 21
201.470339
 31
0.0
  0
ARC
  5
1E0
330
1E
100
AcDbEntity
  8
CSLAYER1
  6
CONTINUOUS
 62
     3
100
AcDbCircle
 10
171.922608
 20
201.48
 30
0.0
 40
0.3
100
AcDbArc
 50
12.119591
 51
192.1195909999999
  0
ARC
  5
1E1
330
1E
100
AcDbEntity
  8
CSLAYER1
  6
CONTINUOUS
 62
     3
100
AcDbCircle
 10
175.0826079999999
 20
201.48
 30
0.0
 40
0.3
100
AcDbArc
 50
12.119591
 51
192.1195909999999
  0
LINE
  5
1E2
330
1E
100
AcDbEntity
  8
CSLAYER1
  6
CONTINUOUS
 62
     3
100
AcDbLine
 10
177.8482059999999
 20
201.0299999999999
 30
0.0
 11
177.940304
 21
201.458883
 31
0.0
  0
LINE
  5
1E3
330
1E
100
AcDbEntity
  8
CSLAYER1
  6
CONTINUOUS
 62
     3
100
AcDbLine
 10
182.3871429999999
 20
202.78
 30
0.0
 11
186.3871429999999
 21
202.78
 31
0.0
  0
ARC
  5
1E4
330
1E
100
AcDbEntity
  8
CSLAYER1
  6
CONTINUOUS
 62
     3
100
AcDbCircle
 10
186.3871429999999
 20
202.28
 30
0.0
 40
0.5
100
AcDbArc
 50
0.0
 51
90.0
  0
LINE
  5
1E5
330
1E
100
AcDbEntity
  8
CSLAYER1
  6
CONTINUOUS
 62
     3
100
AcDbLine
 10
186.8871429999999
 20
202.28
 30
0.0
 11
186.8871429999999
 21
193.28
 31
0.0
  0
ARC
  5
1E6
330
1E
100
AcDbEntity
  8
CSLAYER1
  6
CONTINUOUS
 62
     3
100
AcDbCircle
 10
186.3871429999999
 20
193.28
 30
0.0
 40
0.5
100
AcDbArc
 50
270.0
 51
0.0
  0
LINE
  5
1E7
330
1E
100
AcDbEntity
  8
CSLAYER1
  6
CONTINUOUS
 62
     3
100
AcDbLine
 10
186.3871429999999
 20
192.7799999999999
 30
0.0
 11
182.3871429999999
 21
192.7799999999999
 31
0.0
  0
LINE
  5
1E8
330
1E
100
AcDbEntity
  8
CSLAYER1
  6
CONTINUOUS
 62
     3
100
AcDbLine
 10
182.3871429999999
 20
192.7799999999999
 30
0.0
 11
182.3871429999999
 21
202.78
 31
0.0
  0
ARC
  5
1E9
330
1E
100
AcDbEntity
  8
CSLAYER1
  6
CONTINUOUS
 62
     3
100
AcDbCircle
 10
182.087143
 20
194.08
 30
0.0
 40
0.3
100
AcDbArc
 50
180.0
 51
0.0
  0
LINE
  5
1EA
330
1E
100
AcDbEntity
  8
CSLAYER1
  6
CONTINUOUS
 62
     3
100
AcDbLine
 10
182.3871429999999
 20
190.28
 30
0.0
 11
182.3871429999999
 21
165.28
 31
0.0
  0
LINE
  5
1EB
330
1E
100
AcDbEntity
  8
CSLAYER1
  6
CONTINUOUS
 62
     3
100
AcDbLine
 10
182.3871429999999
 20
165.28
 30
0.0
 11
155.3871429999999
 21
165.28
 31
0.0
  0
LINE
  5
1EC
330
1E
100
AcDbEntity
  8
CSLAYER1
  6
CONTINUOUS
 62
     3
100
AcDbLine
 10
155.3871429999999
 20
167.28
 30
0.0
 11
152.187143
 21
167.28
 31
0.0
  0
LINE
  5
1ED
330
1E
100
AcDbEntity
  8
CSLAYER1
  6
CONTINUOUS
 62
     3
100
AcDbLine
 10
155.3871429999999
 20
167.7799999999999
 30
0.0
 11
182.3871429999999
 21
167.7799999999999
 31
0.0
  0
LINE
  5
1EE
330
1E
100
AcDbEntity
  8
CSLAYER1
  6
CONTINUOUS
 62
     3
100
AcDbLine
 10
182.3871429999999
 20
162.78
 30
0.0
 11
186.3871429999999
 21
162.78
 31
0.0
  0
ARC
  5
1EF
330
1E
100
AcDbEntity
  8
CSLAYER1
  6
CONTINUOUS
 62
     3
100
AcDbCircle
 10
186.3871429999999
 20
162.2799999999999
 30
0.0
 40
0.5
100
AcDbArc
 50
0.0
 51
90.0
  0
LINE
  5
1F0
330
1E
100
AcDbEntity
  8
CSLAYER1
  6
CONTINUOUS
 62
     3
100
AcDbLine
 10
186.8871429999999
 20
162.2799999999999
 30
0.0
 11
186.8871429999999
 21
153.2799999999999
 31
0.0
  0
ARC
  5
1F1
330
1E
100
AcDbEntity
  8
CSLAYER1
  6
CONTINUOUS
 62
     3
100
AcDbCircle
 10
186.3871429999999
 20
153.2799999999999
 30
0.0
 40
0.5
100
AcDbArc
 50
270.0
 51
0.0
  0
LINE
  5
1F2
330
1E
100
AcDbEntity
  8
CSLAYER1
  6
CONTINUOUS
 62
     3
100
AcDbLine
 10
186.3871429999999
 20
152.78
 30
0.0
 11
182.3871429999999
 21
152.78
 31
0.0
  0
LINE
  5
1F3
330
1E
100
AcDbEntity
  8
CSLAYER1
  6
CONTINUOUS
 62
     3
100
AcDbLine
 10
182.3871429999999
 20
152.78
 30
0.0
 11
182.3871429999999
 21
162.78
 31
0.0
  0
ARC
  5
1F4
330
1E
100
AcDbEntity
  8
CSLAYER1
  6
CONTINUOUS
 62
     3
100
AcDbCircle
 10
182.087143
 20
161.4799999999999
 30
0.0
 40
0.3
100
AcDbArc
 50
0.0
 51
162.9712519999999
  0
LINE
  5
1F5
330
1E
100
AcDbEntity
  8
CSLAYER1
  6
CONTINUOUS
 62
     3
100
AcDbLine
 10
181.800295
 20
161.567855
 30
0.0
 11
181.5467399999999
 21
160.74
 31
0.0
  0
LINE
  5
1F6
330
1E
100
AcDbEntity
  8
CSLAYER1
  6
CONTINUOUS
 62
     3
100
AcDbLine
 10
181.7871429999999
 20
160.74
 30
0.0
 11
179.8871429999999
 21
160.74
 31
0.0
  0
LINE
  5
1F7
330
1E
100
AcDbEntity
  8
CSLAYER1
  6
CONTINUOUS
 62
     3
100
AcDbLine
 10
179.8871429999999
 20
160.74
 30
0.0
 11
179.5971429999999
 21
161.03
 31
0.0
  0
LINE
  5
1F8
330
1E
100
AcDbEntity
  8
CSLAYER1
  6
CONTINUOUS
 62
     3
100
AcDbLine
 10
179.5971429999999
 20
161.03
 30
0.0
 11
179.5971429999999
 21
156.601076
 31
0.0
  0
LINE
  5
1F9
330
1E
100
AcDbEntity
  8
CSLAYER1
  6
CONTINUOUS
 62
     3
100
AcDbLine
 10
179.8871429999999
 20
155.2505999999999
 30
0.0
 11
179.8871429999999
 21
160.74
 31
0.0
  0
LINE
  5
1FA
330
1E
100
AcDbEntity
  8
CSLAYER1
  6
CONTINUOUS
 62
     3
100
AcDbLine
 10
179.5971429999999
 20
161.03
 30
0.0
 11
178.64608
 21
161.03
 31
0.0
  0
LINE
  5
1FB
330
1E
100
AcDbEntity
  8
CSLAYER1
  6
CONTINUOUS
 62
     3
100
AcDbLine
 10
178.535922
 20
161.542986
 30
0.0
 11
180.1249909999999
 21
154.142986
 31
0.0
  0
ARC
  5
1FC
330
1E
100
AcDbEntity
  8
CSLAYER1
  6
CONTINUOUS
 62
     3
100
AcDbCircle
 10
179.831677
 20
154.08
 30
0.0
 40
0.3
100
AcDbArc
 50
192.1195909999999
 51
12.119591
  0
LINE
  5
1FD
330
1E
100
AcDbEntity
  8
CSLAYER1
  6
CONTINUOUS
 62
     3
100
AcDbLine
 10
179.538364
 20
154.0170139999999
 30
0.0
 11
177.949295
 21
161.4170139999999
 31
0.0
  0
ARC
  5
1FE
330
1E
100
AcDbEntity
  8
CSLAYER1
  6
CONTINUOUS
 62
     3
100
AcDbCircle
 10
178.242608
 20
161.4799999999999
 30
0.0
 40
0.3
100
AcDbArc
 50
12.119591
 51
192.1195909999999
  0
LINE
  5
1FF
330
1E
100
AcDbEntity
  8
CSLAYER1
  6
CONTINUOUS
 62
     3
100
AcDbLine
 10
177.940304
 20
161.458883
 30
0.0
 11
177.8482059999999
 21
161.03
 31
0.0
  0
LINE
  5
200
330
1E
100
AcDbEntity
  8
CSLAYER1
  6
CONTINUOUS
 62
     3
100
AcDbLine
 10
178.0324019999999
 20
161.03
 30
0.0
 11
175.48608
 21
161.03
 31
0.0
  0
LINE
  5
201
330
1E
100
AcDbEntity
  8
CSLAYER1
  6
CONTINUOUS
 62
     3
100
AcDbLine
 10
175.375922
 20
161.542986
 30
0.0
 11
176.973982
 21
154.1011169999999
 31
0.0
  0
LINE
  5
202
330
1E
100
AcDbEntity
  8
CSLAYER1
  6
CONTINUOUS
 62
     3
100
AcDbLine
 10
176.9559219999999
 20
154.0170139999999
 30
0.0
 11
177.0660799999999
 21
154.53
 31
0.0
  0
LINE
  5
203
330
1E
100
AcDbEntity
  8
CSLAYER1
  6
CONTINUOUS
 62
     3
100
AcDbLine
 10
176.881884
 20
154.53
 30
0.0
 11
179.428206
 21
154.53
 31
0.0
  0
LINE
  5
204
330
1E
100
AcDbEntity
  8
CSLAYER1
  6
CONTINUOUS
 62
     3
100
AcDbLine
 10
179.97961
 20
154.82
 30
0.0
 11
181.7871429999999
 21
154.82
 31
0.0
  0
LINE
  5
205
330
1E
100
AcDbEntity
  8
CSLAYER1
  6
CONTINUOUS
 62
     3
100
AcDbLine
 10
181.7871429999999
 20
154.08
 30
0.0
 11
181.7871429999999
 21
161.524912
 31
0.0
  0
ARC
  5
206
330
1E
100
AcDbEntity
  8
CSLAYER1
  6
CONTINUOUS
 62
     3
100
AcDbCircle
 10
175.0826079999999
 20
161.4799999999999
 30
0.0
 40
0.3
100
AcDbArc
 50
12.119591
 51
192.1195909999999
  0
LINE
  5
207
330
1E
100
AcDbEntity
  8
CSLAYER1
  6
CONTINUOUS
 62
     3
100
AcDbLine
 10
174.7803039999999
 20
161.458883
 30
0.0
 11
176.3931649999999
 21
153.9480899999999
 31
0.0
  0
ARC
  5
208
330
1E
100
AcDbEntity
  8
CSLAYER1
  6
CONTINUOUS
 62
     3
100
AcDbCircle
 10
176.6626079999999
 20
154.08
 30
0.0
 40
0.3
100
AcDbArc
 50
206.0846689999999
 51
347.880409
  0
LINE
  5
209
330
1E
100
AcDbEntity
  8
CSLAYER1
  6
CONTINUOUS
 62
     3
100
AcDbLine
 10
176.2682059999999
 20
154.53
 30
0.0
 11
173.721884
 21
154.53
 31
0.0
  0
LINE
  5
20A
330
1E
100
AcDbEntity
  8
CSLAYER1
  6
CONTINUOUS
 62
     3
100
AcDbLine
 10
173.90608
 20
154.53
 30
0.0
 11
173.795922
 21
154.0170139999999
 31
0.0
  0
ARC
  5
20B
330
1E
100
AcDbEntity
  8
CSLAYER1
  6
CONTINUOUS
 62
     3
100
AcDbCircle
 10
173.502608
 20
154.08
 30
0.0
 40
0.3
100
AcDbArc
 50
206.0846689999999
 51
347.880409
  0
LINE
  5
20C
330
1E
100
AcDbEntity
  8
CSLAYER1
  6
CONTINUOUS
 62
     3
100
AcDbLine
 10
173.2331649999999
 20
153.9480899999999
 30
0.0
 11
171.620304
 21
161.458883
 31
0.0
  0
LINE
  5
20D
330
1E
100
AcDbEntity
  8
CSLAYER1
  6
CONTINUOUS
 62
     3
100
AcDbLine
 10
171.620304
 20
161.458883
 30
0.0
 11
171.528206
 21
161.03
 31
0.0
  0
LINE
  5
20E
330
1E
100
AcDbEntity
  8
CSLAYER1
  6
CONTINUOUS
 62
     3
100
AcDbLine
 10
171.7124019999999
 20
161.03
 30
0.0
 11
169.16608
 21
161.03
 31
0.0
  0
LINE
  5
20F
330
1E
100
AcDbEntity
  8
CSLAYER1
  6
CONTINUOUS
 62
     3
100
AcDbLine
 10
169.055922
 20
161.542986
 30
0.0
 11
170.653982
 21
154.1011169999999
 31
0.0
  0
LINE
  5
210
330
1E
100
AcDbEntity
  8
CSLAYER1
  6
CONTINUOUS
 62
     3
100
AcDbLine
 10
170.6359219999999
 20
154.0170139999999
 30
0.0
 11
170.7460799999999
 21
154.53
 31
0.0
  0
LINE
  5
211
330
1E
100
AcDbEntity
  8
CSLAYER1
  6
CONTINUOUS
 62
     3
100
AcDbLine
 10
170.561884
 20
154.53
 30
0.0
 11
173.108206
 21
154.53
 31
0.0
  0
LINE
  5
212
330
1E
100
AcDbEntity
  8
CSLAYER1
  6
CONTINUOUS
 62
     3
100
AcDbLine
 10
173.813982
 20
154.1011169999999
 30
0.0
 11
172.2159219999999
 21
161.542986
 31
0.0
  0
ARC
  5
213
330
1E
100
AcDbEntity
  8
CSLAYER1
  6
CONTINUOUS
 62
     3
100
AcDbCircle
 10
171.922608
 20
161.4799999999999
 30
0.0
 40
0.3
100
AcDbArc
 50
12.119591
 51
192.1195909999999
  0
LINE
  5
214
330
1E
100
AcDbEntity
  8
CSLAYER1
  6
CONTINUOUS
 62
     3
100
AcDbLine
 10
172.32608
 20
161.03
 30
0.0
 11
174.872402
 21
161.03
 31
0.0
  0
LINE
  5
215
330
1E
100
AcDbEntity
  8
CSLAYER1
  6
CONTINUOUS
 62
     3
100
AcDbLine
 10
174.688206
 20
161.03
 30
0.0
 11
174.7803039999999
 21
161.458883
 31
0.0
  0
ARC
  5
216
330
1E
100
AcDbEntity
  8
CSLAYER1
  6
CONTINUOUS
 62
     3
100
AcDbCircle
 10
168.762608
 20
161.4799999999999
 30
0.0
 40
0.3
100
AcDbArc
 50
12.119591
 51
192.1195909999999
  0
LINE
  5
217
330
1E
100
AcDbEntity
  8
CSLAYER1
  6
CONTINUOUS
 62
     3
100
AcDbLine
 10
168.4692949999999
 20
161.4170139999999
 30
0.0
 11
170.0731649999999
 21
153.9480899999999
 31
0.0
  0
ARC
  5
218
330
1E
100
AcDbEntity
  8
CSLAYER1
  6
CONTINUOUS
 62
     3
100
AcDbCircle
 10
170.342608
 20
154.08
 30
0.0
 40
0.3
100
AcDbArc
 50
206.0846689999999
 51
347.880409
  0
LINE
  5
219
330
1E
100
AcDbEntity
  8
CSLAYER1
  6
CONTINUOUS
 62
     3
100
AcDbLine
 10
169.948206
 20
154.53
 30
0.0
 11
165.987143
 21
154.53
 31
0.0
  0
LINE
  5
21A
330
1E
100
AcDbEntity
  8
CSLAYER1
  6
CONTINUOUS
 62
     3
100
AcDbLine
 10
166.1990419999999
 20
154.53
 30
0.0
 11
165.9641699999999
 21
153.964866
 31
0.0
  0
LINE
  5
21B
330
1E
100
AcDbEntity
  8
CSLAYER1
  6
CONTINUOUS
 62
     3
100
AcDbLine
 10
165.987143
 20
154.08
 30
0.0
 11
165.987143
 21
161.4799999999999
 31
0.0
  0
ARC
  5
21C
330
1E
100
AcDbEntity
  8
CSLAYER1
  6
CONTINUOUS
 62
     3
100
AcDbCircle
 10
165.6871429999999
 20
161.4799999999999
 30
0.0
 40
0.3
100
AcDbArc
 50
0.0
 51
180.0
  0
LINE
  5
21D
330
1E
100
AcDbEntity
  8
CSLAYER1
  6
CONTINUOUS
 62
     3
100
AcDbLine
 10
165.987143
 20
161.03
 30
0.0
 11
168.552402
 21
161.03
 31
0.0
  0
LINE
  5
21E
330
1E
100
AcDbEntity
  8
CSLAYER1
  6
CONTINUOUS
 62
     3
100
AcDbLine
 10
168.368206
 20
161.03
 30
0.0
 11
168.4627639999999
 21
161.470339
 31
0.0
  0
LINE
  5
21F
330
1E
100
AcDbEntity
  8
CSLAYER1
  6
CONTINUOUS
 62
     3
100
AcDbLine
 10
165.3871429999999
 20
162.48
 30
0.0
 11
164.5871429999999
 21
163.28
 31
0.0
  0
LINE
  5
220
330
1E
100
AcDbEntity
  8
CSLAYER1
  6
CONTINUOUS
 62
     3
100
AcDbLine
 10
164.5871429999999
 20
163.28
 30
0.0
 11
164.5871429999999
 21
152.28
 31
0.0
  0
LINE
  5
221
330
1E
100
AcDbEntity
  8
CSLAYER1
  6
CONTINUOUS
 62
     3
100
AcDbLine
 10
164.5871429999999
 20
152.28
 30
0.0
 11
165.3871429999999
 21
153.08
 31
0.0
  0
LINE
  5
222
330
1E
100
AcDbEntity
  8
CSLAYER1
  6
CONTINUOUS
 62
     3
100
AcDbLine
 10
165.3871429999999
 20
153.08
 30
0.0
 11
165.3871429999999
 21
162.48
 31
0.0
  0
LINE
  5
223
330
1E
100
AcDbEntity
  8
CSLAYER1
  6
CONTINUOUS
 62
     3
100
AcDbLine
 10
164.5871429999999
 20
163.28
 30
0.0
 11
155.3871429999999
 21
163.28
 31
0.0
  0
LINE
  5
224
330
1E
100
AcDbEntity
  8
CSLAYER1
  6
CONTINUOUS
 62
     3
100
AcDbLine
 10
151.0871429999999
 20
155.78
 30
0.0
 11
151.0871429999999
 21
148.78
 31
0.0
  0
LINE
  5
225
330
1E
100
AcDbEntity
  8
CSLAYER1
  6
CONTINUOUS
 62
     3
100
AcDbLine
 10
151.0871429999999
 20
148.78
 30
0.0
 11
147.3871429999999
 21
148.78
 31
0.0
  0
LINE
  5
226
330
1E
100
AcDbEntity
  8
CSLAYER1
  6
CONTINUOUS
 62
     3
100
AcDbLine
 10
151.0871429999999
 20
148.78
 30
0.0
 11
151.3871429999999
 21
149.2996149999999
 31
0.0
  0
LINE
  5
227
330
1E
100
AcDbEntity
  8
CSLAYER1
  6
CONTINUOUS
 62
     3
100
AcDbLine
 10
151.3871429999999
 20
149.2996149999999
 30
0.0
 11
151.3871429999999
 21
155.260385
 31
0.0
  0
LINE
  5
228
330
1E
100
AcDbEntity
  8
CSLAYER1
  6
CONTINUOUS
 62
     3
100
AcDbLine
 10
151.3871429999999
 20
155.260385
 30
0.0
 11
151.0871429999999
 21
155.78
 31
0.0
  0
LINE
  5
229
330
1E
100
AcDbEntity
  8
CSLAYER1
  6
CONTINUOUS
 62
     3
100
AcDbLine
 10
151.0871429999999
 20
155.78
 30
0.0
 11
147.3871429999999
 21
155.78
 31
0.0
  0
LINE
  5
22A
330
1E
100
AcDbEntity
  8
CSLAYER1
  6
CONTINUOUS
 62
     3
100
AcDbLine
 10
155.3871429999999
 20
152.28
 30
0.0
 11
164.5871429999999
 21
152.28
 31
0.0
  0
ARC
  5
22B
330
1E
100
AcDbEntity
  8
CSLAYER1
  6
CONTINUOUS
 62
     3
100
AcDbCircle
 10
165.6871429999999
 20
154.08
 30
0.0
 40
0.3
100
AcDbArc
 50
180.0
 51
0.0
  0
LINE
  5
22C
330
1E
100
AcDbEntity
  8
CSLAYER1
  6
CONTINUOUS
 62
     3
100
AcDbLine
 10
180.131528
 20
154.0705209999999
 30
0.0
 11
180.3610779999999
 21
154.82
 31
0.0
  0
ARC
  5
22D
330
1E
100
AcDbEntity
  8
CSLAYER1
  6
CONTINUOUS
 62
     3
100
AcDbCircle
 10
182.087143
 20
154.08
 30
0.0
 40
0.3
100
AcDbArc
 50
180.0
 51
0.0
  0
CIRCLE
  5
22E
330
1E
100
AcDbEntity
  8
CSLAYER1
  6
CONTINUOUS
 62
     3
100
AcDbCircle
 10
177.3871429999999
 20
177.78
 30
0.0
 40
2.1
  0
LINE
  5
22F
330
1E
100
AcDbEntity
  8
CSLAYER1
  6
CONTINUOUS
 62
     3
100
AcDbLine
 10
182.3871429999999
 20
187.78
 30
0.0
 11
155.3871429999999
 21
187.78
 31
0.0
  0
LINE
  5
230
330
1E
100
AcDbEntity
  8
CSLAYER1
  6
CONTINUOUS
 62
     3
100
AcDbLine
 10
155.3871429999999
 20
188.2799999999999
 30
0.0
 11
152.187143
 21
188.2799999999999
 31
0.0
  0
LINE
  5
231
330
1E
100
AcDbEntity
  8
CSLAYER1
  6
CONTINUOUS
 62
     3
100
AcDbLine
 10
151.0871429999999
 20
188.78
 30
0.0
 11
147.3871429999999
 21
188.78
 31
0.0
  0
LINE
  5
232
330
1E
100
AcDbEntity
  8
CSLAYER1
  6
CONTINUOUS
 62
     3
100
AcDbLine
 10
151.0871429999999
 20
188.78
 30
0.0
 11
151.0871429999999
 21
195.7799999999999
 31
0.0
  0
LINE
  5
233
330
1E
100
AcDbEntity
  8
CSLAYER1
  6
CONTINUOUS
 62
     3
100
AcDbLine
 10
151.0871429999999
 20
195.7799999999999
 30
0.0
 11
147.3871429999999
 21
195.7799999999999
 31
0.0
  0
LINE
  5
234
330
1E
100
AcDbEntity
  8
CSLAYER1
  6
CONTINUOUS
 62
     3
100
AcDbLine
 10
151.0871429999999
 20
195.7799999999999
 30
0.0
 11
151.3871429999999
 21
195.260385
 31
0.0
  0
LINE
  5
235
330
1E
100
AcDbEntity
  8
CSLAYER1
  6
CONTINUOUS
 62
     3
100
AcDbLine
 10
151.3871429999999
 20
195.260385
 30
0.0
 11
151.3871429999999
 21
189.2996149999999
 31
0.0
  0
LINE
  5
236
330
1E
100
AcDbEntity
  8
CSLAYER1
  6
CONTINUOUS
 62
     3
100
AcDbLine
 10
151.3871429999999
 20
189.2996149999999
 30
0.0
 11
151.0871429999999
 21
188.78
 31
0.0
  0
LINE
  5
237
330
1E
100
AcDbEntity
  8
CSLAYER1
  6
CONTINUOUS
 62
     3
100
AcDbLine
 10
155.3871429999999
 20
190.28
 30
0.0
 11
182.3871429999999
 21
190.28
 31
0.0
  0
ARC
  5
238
330
1E
100
AcDbEntity
  8
CSLAYER1
  6
CONTINUOUS
 62
     3
100
AcDbCircle
 10
170.342608
 20
194.08
 30
0.0
 40
0.3
100
AcDbArc
 50
206.0846689999999
 51
347.880409
  0
LINE
  5
239
330
1E
100
AcDbEntity
  8
CSLAYER1
  6
CONTINUOUS
 62
     3
100
AcDbLine
 10
164.5871429999999
 20
192.28
 30
0.0
 11
155.3871429999999
 21
192.28
 31
0.0
  0
LINE
  5
23A
330
1E
100
AcDbEntity
  8
CSLAYER1
  6
CONTINUOUS
 62
     3
100
AcDbLine
 10
152.187143
 20
194.5299999999999
 30
0.0
 11
151.3871429999999
 21
194.5299999999999
 31
0.0
  0
LINE
  5
23B
330
1E
100
AcDbEntity
  8
CSLAYER1
  6
CONTINUOUS
 62
     3
100
AcDbLine
 10
149.729877
 20
182.3988019999999
 30
0.0
 11
147.744408
 21
182.3988019999999
 31
0.0
  0
LINE
  5
23C
330
1E
100
AcDbEntity
  8
CSLAYER1
  6
CONTINUOUS
 62
     3
100
AcDbLine
 10
147.744408
 20
182.3988019999999
 30
0.0
 11
147.3871429999999
 21
181.78
 31
0.0
  0
ARC
  5
23D
330
1E
100
AcDbEntity
  8
CSLAYER1
  6
CONTINUOUS
 62
     3
100
AcDbCircle
 10
152.384151
 20
181.952943
 30
0.0
 40
5.0
100
AcDbArc
 50
181.982177
 51
201.882748
  0
ARC
  5
23E
330
1E
100
AcDbEntity
  8
CSLAYER1
  6
CONTINUOUS
 62
     3
100
AcDbCircle
 10
155.0298769999999
 20
177.78
 30
0.0
 40
7.642733999999999
100
AcDbArc
 50
162.412046
 51
197.5879539999999
  0
LINE
  5
23F
330
1E
100
AcDbEntity
  8
CSLAYER1
  6
CONTINUOUS
 62
     3
100
AcDbLine
 10
147.744408
 20
175.4705989999999
 30
0.0
 11
149.729877
 21
175.4705989999999
 31
0.0
  0
ARC
  5
240
330
1E
100
AcDbEntity
  8
CSLAYER1
  6
CONTINUOUS
 62
     3
100
AcDbCircle
 10
142.444408
 20
177.78
 30
0.0
 40
7.642733999999999
100
AcDbArc
 50
342.412046
 51
17.587954
  0
ARC
  5
241
330
1E
100
AcDbEntity
  8
CSLAYER1
  6
CONTINUOUS
 62
     3
100
AcDbCircle
 10
145.090135
 20
181.952943
 30
0.0
 40
5.0
100
AcDbArc
 50
338.117252
 51
358.017823
  0
LINE
  5
242
330
1E
100
AcDbEntity
  8
CSLAYER1
  6
CONTINUOUS
 62
     3
100
AcDbLine
 10
150.087143
 20
181.78
 30
0.0
 11
150.087143
 21
173.78
 31
0.0
  0
LINE
  5
243
330
1E
100
AcDbEntity
  8
CSLAYER1
  6
CONTINUOUS
 62
     3
100
AcDbLine
 10
150.087143
 20
173.78
 30
0.0
 11
149.729877
 21
173.1611979999999
 31
0.0
  0
LINE
  5
244
330
1E
100
AcDbEntity
  8
CSLAYER1
  6
CONTINUOUS
 62
     3
100
AcDbLine
 10
149.729877
 20
173.1611979999999
 30
0.0
 11
147.744408
 21
173.1611979999999
 31
0.0
  0
LINE
  5
245
330
1E
100
AcDbEntity
  8
CSLAYER1
  6
CONTINUOUS
 62
     3
100
AcDbLine
 10
147.744408
 20
173.1611979999999
 30
0.0
 11
147.3871429999999
 21
173.78
 31
0.0
  0
ARC
  5
246
330
1E
100
AcDbEntity
  8
CSLAYER1
  6
CONTINUOUS
 62
     3
100
AcDbCircle
 10
152.384151
 20
173.607057
 30
0.0
 40
5.0
100
AcDbArc
 50
158.117252
 51
178.0178229999999
  0
ARC
  5
247
330
1E
100
AcDbEntity
  8
CSLAYER1
  6
CONTINUOUS
 62
     3
100
AcDbCircle
 10
145.090135
 20
173.607057
 30
0.0
 40
5.0
100
AcDbArc
 50
1.982177
 51
21.88274799999999
  0
LINE
  5
248
330
1E
100
AcDbEntity
  8
CSLAYER1
  6
CONTINUOUS
 62
     3
100
AcDbLine
 10
150.087143
 20
175.28
 30
0.0
 11
152.0871429999999
 21
175.28
 31
0.0
  0
LINE
  5
249
330
1E
100
AcDbEntity
  8
CSLAYER1
  6
CONTINUOUS
 62
     3
100
AcDbLine
 10
152.0871429999999
 20
175.28
 30
0.0
 11
152.187143
 21
175.222265
 31
0.0
  0
LINE
  5
24A
330
1E
100
AcDbEntity
  8
CSLAYER1
  6
CONTINUOUS
 62
     3
100
AcDbLine
 10
152.0871429999999
 20
175.28
 30
0.0
 11
152.0871429999999
 21
180.2799999999999
 31
0.0
  0
LINE
  5
24B
330
1E
100
AcDbEntity
  8
CSLAYER1
  6
CONTINUOUS
 62
     3
100
AcDbLine
 10
152.0871429999999
 20
180.2799999999999
 30
0.0
 11
150.087143
 21
180.2799999999999
 31
0.0
  0
LINE
  5
24C
330
1E
100
AcDbEntity
  8
CSLAYER1
  6
CONTINUOUS
 62
     3
100
AcDbLine
 10
149.729877
 20
180.089401
 30
0.0
 11
147.744408
 21
180.089401
 31
0.0
  0
LINE
  5
24D
330
1E
100
AcDbEntity
  8
CSLAYER1
  6
CONTINUOUS
 62
     3
100
AcDbLine
 10
150.087143
 20
181.78
 30
0.0
 11
149.729877
 21
182.3988019999999
 31
0.0
  0
LINE
  5
24E
330
1E
100
AcDbEntity
  8
CSLAYER1
  6
CONTINUOUS
 62
     3
100
AcDbLine
 10
151.0871429999999
 20
180.2799999999999
 30
0.0
 11
151.0871429999999
 21
175.28
 31
0.0
  0
LINE
  5
24F
330
1E
100
AcDbEntity
  8
CSLAYER1
  6
CONTINUOUS
 62
     3
100
AcDbLine
 10
152.0871429999999
 20
180.2799999999999
 30
0.0
 11
152.187143
 21
180.337735
 31
0.0
  0
LINE
  5
250
330
1E
100
AcDbEntity
  8
CSLAYER1
  6
CONTINUOUS
 62
     3
100
AcDbLine
 10
161.1371429999999
 20
178.501688
 30
0.0
 11
162.3871429999999
 21
179.223376
 31
0.0
  0
LINE
  5
251
330
1E
100
AcDbEntity
  8
CSLAYER1
  6
CONTINUOUS
 62
     3
100
AcDbLine
 10
162.3871429999999
 20
179.223376
 30
0.0
 11
163.6371429999999
 21
178.501688
 31
0.0
  0
LINE
  5
252
330
1E
100
AcDbEntity
  8
CSLAYER1
  6
CONTINUOUS
 62
     3
100
AcDbLine
 10
163.6371429999999
 20
178.501688
 30
0.0
 11
163.6371429999999
 21
177.0583119999999
 31
0.0
  0
LINE
  5
253
330
1E
100
AcDbEntity
  8
CSLAYER1
  6
CONTINUOUS
 62
     3
100
AcDbLine
 10
163.6371429999999
 20
177.0583119999999
 30
0.0
 11
162.3871429999999
 21
176.336624
 31
0.0
  0
LINE
  5
254
330
1E
100
AcDbEntity
  8
CSLAYER1
  6
CONTINUOUS
 62
     3
100
AcDbLine
 10
162.3871429999999
 20
176.336624
 30
0.0
 11
161.1371429999999
 21
177.0583119999999
 31
0.0
  0
LINE
  5
255
330
1E
100
AcDbEntity
  8
CSLAYER1
  6
CONTINUOUS
 62
     3
100
AcDbLine
 10
161.1371429999999
 20
177.0583119999999
 30
0.0
 11
161.1371429999999
 21
178.501688
 31
0.0
  0
CIRCLE
  5
256
330
1E
100
AcDbEntity
  8
CSLAYER1
  6
CONTINUOUS
 62
     3
100
AcDbCircle
 10
162.3871429999999
 20
177.78
 30
0.0
 40
2.5
  0
LINE
  5
257
330
1E
100
AcDbEntity
  8
CSLAYER1
  6
CONTINUOUS
 62
     3
100
AcDbLine
 10
141.3871429999999
 20
187.2799999999999
 30
0.0
 11
96.38714300000001
 21
187.2799999999999
 31
0.0
  0
CIRCLE
  5
258
330
1E
100
AcDbEntity
  8
CSLAYER1
  6
CONTINUOUS
 62
     3
100
AcDbCircle
 10
100.887143
 20
197.28
 30
0.0
 40
1.649999999999999
  0
LINE
  5
259
330
1E
100
AcDbEntity
  8
CSLAYER1
  6
CONTINUOUS
 62
     3
100
AcDbLine
 10
96.38714300000001
 20
218.2799999999999
 30
0.0
 11
112.887143
 21
218.2799999999999
 31
0.0
  0
LINE
  5
25A
330
1E
100
AcDbEntity
  8
CSLAYER1
  6
CONTINUOUS
 62
     3
100
AcDbLine
 10
124.8871429999999
 20
218.2799999999999
 30
0.0
 11
141.3871429999999
 21
218.2799999999999
 31
0.0
  0
CIRCLE
  5
25B
330
1E
100
AcDbEntity
  8
CSLAYER1
  6
CONTINUOUS
 62
     3
100
AcDbCircle
 10
136.8871429999999
 20
197.28
 30
0.0
 40
1.649999999999999
  0
LINE
  5
25C
330
1E
100
AcDbEntity
  8
CSLAYER1
  6
CONTINUOUS
 62
     3
100
AcDbLine
 10
141.3871429999999
 20
162.2799999999999
 30
0.0
 11
96.38714300000001
 21
162.2799999999999
 31
0.0
  0
CIRCLE
  5
25D
330
1E
100
AcDbEntity
  8
CSLAYER1
  6
CONTINUOUS
 62
     3
100
AcDbCircle
 10
100.887143
 20
157.2799999999999
 30
0.0
 40
1.649999999999999
  0
LINE
  5
25E
330
1E
100
AcDbEntity
  8
CSLAYER1
  6
CONTINUOUS
 62
     3
100
AcDbLine
 10
109.191783
 20
134.2799999999999
 30
0.0
 11
110.191783
 21
133.2799999999999
 31
0.0
  0
LINE
  5
25F
330
1E
100
AcDbEntity
  8
CSLAYER1
  6
CONTINUOUS
 62
     3
100
AcDbLine
 10
127.582503
 20
133.2799999999999
 30
0.0
 11
128.582503
 21
134.2799999999999
 31
0.0
  0
ARC
  5
260
330
1E
100
AcDbEntity
  8
CSLAYER1
  6
CONTINUOUS
 62
     3
100
AcDbCircle
 10
138.8871429999999
 20
126.28
 30
0.0
 40
2.0
100
AcDbArc
 50
90.0
 51
180.0
  0
LINE
  5
261
330
1E
100
AcDbEntity
  8
CSLAYER1
  6
CONTINUOUS
 62
     3
100
AcDbLine
 10
138.8871429999999
 20
128.2799999999999
 30
0.0
 11
141.3871429999999
 21
128.2799999999999
 31
0.0
  0
LINE
  5
262
330
1E
100
AcDbEntity
  8
CSLAYER1
  6
CONTINUOUS
 62
     3
100
AcDbLine
 10
141.3871429999999
 20
128.2799999999999
 30
0.0
 11
141.3871429999999
 21
132.9799999999999
 31
0.0
  0
LINE
  5
263
330
1E
100
AcDbEntity
  8
CSLAYER1
  6
CONTINUOUS
 62
     3
100
AcDbLine
 10
141.3871429999999
 20
132.9799999999999
 30
0.0
 11
141.087143
 21
133.2799999999999
 31
0.0
  0
LINE
  5
264
330
1E
100
AcDbEntity
  8
CSLAYER1
  6
CONTINUOUS
 62
     3
100
AcDbLine
 10
136.8871429999999
 20
126.28
 30
0.0
 11
136.8871429999999
 21
114.7799999999999
 31
0.0
  0
LINE
  5
265
330
1E
100
AcDbEntity
  8
CSLAYER1
  6
CONTINUOUS
 62
     3
100
AcDbLine
 10
146.268083
 20
108.78
 30
0.0
 11
152.187143
 21
114.69906
 31
0.0
  0
LINE
  5
266
330
1E
100
AcDbEntity
  8
CSLAYER1
  6
CONTINUOUS
 62
     3
100
AcDbLine
 10
123.3871429999999
 20
108.78
 30
0.0
 11
123.3871429999999
 21
105.58
 31
0.0
  0
LINE
  5
267
330
1E
100
AcDbEntity
  8
CSLAYER1
  6
CONTINUOUS
 62
     3
100
AcDbLine
 10
107.387143
 20
105.58
 30
0.0
 11
107.387143
 21
108.78
 31
0.0
  0
LINE
  5
268
330
1E
100
AcDbEntity
  8
CSLAYER1
  6
CONTINUOUS
 62
     3
100
AcDbLine
 10
102.387143
 20
113.28
 30
0.0
 11
100.887143
 21
114.7799999999999
 31
0.0
  0
LINE
  5
269
330
1E
100
AcDbEntity
  8
CSLAYER1
  6
CONTINUOUS
 62
     3
100
AcDbLine
 10
113.978908
 20
66.45528099999999
 30
0.0
 11
120.3871429999999
 21
68.182857
 31
0.0
  0
LINE
  5
26A
330
1E
100
AcDbEntity
  8
CSLAYER1
  6
CONTINUOUS
 62
     3
100
AcDbLine
 10
120.3871429999999
 20
67.68285699999999
 30
0.0
 11
147.3871429999999
 21
67.68285699999999
 31
0.0
  0
LINE
  5
26B
330
1E
100
AcDbEntity
  8
CSLAYER1
  6
CONTINUOUS
 62
     3
100
AcDbLine
 10
147.3871429999999
 20
67.68285699999999
 30
0.0
 11
147.3871429999999
 21
42.68285699999999
 31
0.0
  0
LINE
  5
26C
330
1E
100
AcDbEntity
  8
CSLAYER1
  6
CONTINUOUS
 62
     3
100
AcDbLine
 10
147.3871429999999
 20
42.68285699999999
 30
0.0
 11
120.3871429999999
 21
42.68285699999999
 31
0.0
  0
LINE
  5
26D
330
1E
100
AcDbEntity
  8
CSLAYER1
  6
CONTINUOUS
 62
     3
100
AcDbLine
 10
120.3871429999999
 20
42.182857
 30
0.0
 11
113.978908
 21
43.910434
 31
0.0
  0
ARC
  5
26E
330
1E
100
AcDbEntity
  8
CSLAYER1
  6
CONTINUOUS
 62
     3
100
AcDbCircle
 10
114.1871429999999
 20
44.682857
 30
0.0
 40
0.8
100
AcDbArc
 50
105.0875139999999
 51
254.9124859999999
  0
LINE
  5
26F
330
1E
100
AcDbEntity
  8
CSLAYER1
  6
CONTINUOUS
 62
     3
100
AcDbLine
 10
113.978908
 20
45.455281
 30
0.0
 11
120.3871429999999
 21
47.182857
 31
0.0
  0
LINE
  5
270
330
1E
100
AcDbEntity
  8
CSLAYER1
  6
CONTINUOUS
 62
     3
100
AcDbLine
 10
120.3871429999999
 20
49.182857
 30
0.0
 11
147.3871429999999
 21
49.182857
 31
0.0
  0
LINE
  5
271
330
1E
100
AcDbEntity
  8
CSLAYER1
  6
CONTINUOUS
 62
     3
100
AcDbLine
 10
147.3871429999999
 20
50.18285699999999
 30
0.0
 11
151.3871429999999
 21
50.18285699999999
 31
0.0
  0
ARC
  5
272
330
1E
100
AcDbEntity
  8
CSLAYER1
  6
CONTINUOUS
 62
     3
100
AcDbCircle
 10
151.3871429999999
 20
50.682857
 30
0.0
 40
0.5
100
AcDbArc
 50
270.0
 51
0.0
  0
LINE
  5
273
330
1E
100
AcDbEntity
  8
CSLAYER1
  6
CONTINUOUS
 62
     3
100
AcDbLine
 10
151.8871429999999
 20
50.682857
 30
0.0
 11
151.8871429999999
 21
59.68285699999999
 31
0.0
  0
ARC
  5
274
330
1E
100
AcDbEntity
  8
CSLAYER1
  6
CONTINUOUS
 62
     3
100
AcDbCircle
 10
151.3871429999999
 20
59.68285699999999
 30
0.0
 40
0.5
100
AcDbArc
 50
0.0
 51
90.0
  0
LINE
  5
275
330
1E
100
AcDbEntity
  8
CSLAYER1
  6
CONTINUOUS
 62
     3
100
AcDbLine
 10
151.3871429999999
 20
60.18285699999999
 30
0.0
 11
147.3871429999999
 21
60.18285699999999
 31
0.0
  0
LINE
  5
276
330
1E
100
AcDbEntity
  8
CSLAYER1
  6
CONTINUOUS
 62
     3
100
AcDbLine
 10
147.3871429999999
 20
61.18285699999999
 30
0.0
 11
120.3871429999999
 21
61.18285699999999
 31
0.0
  0
LINE
  5
277
330
1E
100
AcDbEntity
  8
CSLAYER1
  6
CONTINUOUS
 62
     3
100
AcDbLine
 10
120.3871429999999
 20
60.68285699999999
 30
0.0
 11
129.587143
 21
60.68285699999999
 31
0.0
  0
LINE
  5
278
330
1E
100
AcDbEntity
  8
CSLAYER1
  6
CONTINUOUS
 62
     3
100
AcDbLine
 10
129.587143
 20
60.68285699999999
 30
0.0
 11
129.587143
 21
49.682857
 31
0.0
  0
LINE
  5
279
330
1E
100
AcDbEntity
  8
CSLAYER1
  6
CONTINUOUS
 62
     3
100
AcDbLine
 10
129.587143
 20
49.682857
 30
0.0
 11
130.3871429999999
 21
50.482857
 31
0.0
  0
LINE
  5
27A
330
1E
100
AcDbEntity
  8
CSLAYER1
  6
CONTINUOUS
 62
     3
100
AcDbLine
 10
130.3871429999999
 20
50.482857
 30
0.0
 11
130.3871429999999
 21
59.88285699999999
 31
0.0
  0
LINE
  5
27B
330
1E
100
AcDbEntity
  8
CSLAYER1
  6
CONTINUOUS
 62
     3
100
AcDbLine
 10
130.3871429999999
 20
59.88285699999999
 30
0.0
 11
129.587143
 21
60.68285699999999
 31
0.0
  0
ARC
  5
27C
330
1E
100
AcDbEntity
  8
CSLAYER1
  6
CONTINUOUS
 62
     3
100
AcDbCircle
 10
130.6871429999999
 20
58.88285699999999
 30
0.0
 40
0.3
100
AcDbArc
 50
0.0
 51
180.0
  0
LINE
  5
27D
330
1E
100
AcDbEntity
  8
CSLAYER1
  6
CONTINUOUS
 62
     3
100
AcDbLine
 10
130.987143
 20
58.88285699999999
 30
0.0
 11
130.987143
 21
51.482857
 31
0.0
  0
ARC
  5
27E
330
1E
100
AcDbEntity
  8
CSLAYER1
  6
CONTINUOUS
 62
     3
100
AcDbCircle
 10
130.6871429999999
 20
51.482857
 30
0.0
 40
0.3
100
AcDbArc
 50
180.0
 51
0.0
  0
LINE
  5
27F
330
1E
100
AcDbEntity
  8
CSLAYER1
  6
CONTINUOUS
 62
     3
100
AcDbLine
 10
130.96417
 20
51.367724
 30
0.0
 11
131.1990419999999
 21
51.932857
 31
0.0
  0
LINE
  5
280
330
1E
100
AcDbEntity
  8
CSLAYER1
  6
CONTINUOUS
 62
     3
100
AcDbLine
 10
130.987143
 20
51.932857
 30
0.0
 11
134.9482059999999
 21
51.932857
 31
0.0
  0
LINE
  5
281
330
1E
100
AcDbEntity
  8
CSLAYER1
  6
CONTINUOUS
 62
     3
100
AcDbLine
 10
135.0018909999999
 20
51.682857
 30
0.0
 11
131.0951409999999
 21
51.682857
 31
0.0
  0
LINE
  5
282
330
1E
100
AcDbEntity
  8
CSLAYER1
  6
CONTINUOUS
 62
     3
100
AcDbLine
 10
129.587143
 20
49.682857
 30
0.0
 11
120.3871429999999
 21
49.682857
 31
0.0
  0
LINE
  5
283
330
1E
100
AcDbEntity
  8
CSLAYER1
  6
CONTINUOUS
 62
     3
100
AcDbLine
 10
120.3871429999999
 20
45.18285699999999
 30
0.0
 11
147.3871429999999
 21
45.18285699999999
 31
0.0
  0
ARC
  5
284
330
1E
100
AcDbEntity
  8
CSLAYER1
  6
CONTINUOUS
 62
     3
100
AcDbCircle
 10
147.087143
 20
51.482857
 30
0.0
 40
0.3
100
AcDbArc
 50
180.0
 51
0.0
  0
LINE
  5
285
330
1E
100
AcDbEntity
  8
CSLAYER1
  6
CONTINUOUS
 62
     3
100
AcDbLine
 10
146.7871429999999
 20
51.482857
 30
0.0
 11
146.7871429999999
 21
58.927769
 31
0.0
  0
ARC
  5
286
330
1E
100
AcDbEntity
  8
CSLAYER1
  6
CONTINUOUS
 62
     3
100
AcDbCircle
 10
147.087143
 20
58.88285699999999
 30
0.0
 40
0.3
100
AcDbArc
 50
0.0
 51
162.9712519999999
  0
LINE
  5
287
330
1E
100
AcDbEntity
  8
CSLAYER1
  6
CONTINUOUS
 62
     3
100
AcDbLine
 10
146.8002949999999
 20
58.970713
 30
0.0
 11
146.54674
 21
58.14285699999999
 31
0.0
  0
LINE
  5
288
330
1E
100
AcDbEntity
  8
CSLAYER1
  6
CONTINUOUS
 62
     3
100
AcDbLine
 10
146.7871429999999
 20
58.14285699999999
 30
0.0
 11
144.8871429999999
 21
58.14285699999999
 31
0.0
  0
LINE
  5
289
330
1E
100
AcDbEntity
  8
CSLAYER1
  6
CONTINUOUS
 62
     3
100
AcDbLine
 10
144.8871429999999
 20
58.14285699999999
 30
0.0
 11
144.5971429999999
 21
58.43285699999999
 31
0.0
  0
LINE
  5
28A
330
1E
100
AcDbEntity
  8
CSLAYER1
  6
CONTINUOUS
 62
     3
100
AcDbLine
 10
144.5971429999999
 20
58.43285699999999
 30
0.0
 11
144.5971429999999
 21
54.003933
 31
0.0
  0
LINE
  5
28B
330
1E
100
AcDbEntity
  8
CSLAYER1
  6
CONTINUOUS
 62
     3
100
AcDbLine
 10
144.8871429999999
 20
52.653457
 30
0.0
 11
144.8871429999999
 21
58.14285699999999
 31
0.0
  0
LINE
  5
28C
330
1E
100
AcDbEntity
  8
CSLAYER1
  6
CONTINUOUS
 62
     3
100
AcDbLine
 10
144.5971429999999
 20
58.43285699999999
 30
0.0
 11
143.64608
 21
58.43285699999999
 31
0.0
  0
LINE
  5
28D
330
1E
100
AcDbEntity
  8
CSLAYER1
  6
CONTINUOUS
 62
     3
100
AcDbLine
 10
143.5923949999999
 20
58.68285699999999
 30
0.0
 11
146.712131
 21
58.68285699999999
 31
0.0
  0
LINE
  5
28E
330
1E
100
AcDbEntity
  8
CSLAYER1
  6
CONTINUOUS
 62
     3
100
AcDbLine
 10
143.535922
 20
58.945843
 30
0.0
 11
145.124991
 21
51.54584299999999
 31
0.0
  0
ARC
  5
28F
330
1E
100
AcDbEntity
  8
CSLAYER1
  6
CONTINUOUS
 62
     3
100
AcDbCircle
 10
144.831677
 20
51.482857
 30
0.0
 40
0.3
100
AcDbArc
 50
192.1195909999999
 51
12.119591
  0
LINE
  5
290
330
1E
100
AcDbEntity
  8
CSLAYER1
  6
CONTINUOUS
 62
     3
100
AcDbLine
 10
144.538364
 20
51.419871
 30
0.0
 11
142.949295
 21
58.81987099999999
 31
0.0
  0
ARC
  5
291
330
1E
100
AcDbEntity
  8
CSLAYER1
  6
CONTINUOUS
 62
     3
100
AcDbCircle
 10
143.242608
 20
58.88285699999999
 30
0.0
 40
0.3
100
AcDbArc
 50
12.119591
 51
192.1195909999999
  0
LINE
  5
292
330
1E
100
AcDbEntity
  8
CSLAYER1
  6
CONTINUOUS
 62
     3
100
AcDbLine
 10
142.9403039999999
 20
58.86174
 30
0.0
 11
142.848206
 21
58.43285699999999
 31
0.0
  0
LINE
  5
293
330
1E
100
AcDbEntity
  8
CSLAYER1
  6
CONTINUOUS
 62
     3
100
AcDbLine
 10
143.032402
 20
58.43285699999999
 30
0.0
 11
140.48608
 21
58.43285699999999
 31
0.0
  0
LINE
  5
294
330
1E
100
AcDbEntity
  8
CSLAYER1
  6
CONTINUOUS
 62
     3
100
AcDbLine
 10
140.432395
 20
58.68285699999999
 30
0.0
 11
142.9018909999999
 21
58.68285699999999
 31
0.0
  0
LINE
  5
295
330
1E
100
AcDbEntity
  8
CSLAYER1
  6
CONTINUOUS
 62
     3
100
AcDbLine
 10
140.3759219999999
 20
58.945843
 30
0.0
 11
141.973982
 21
51.503974
 31
0.0
  0
LINE
  5
296
330
1E
100
AcDbEntity
  8
CSLAYER1
  6
CONTINUOUS
 62
     3
100
AcDbLine
 10
141.9559219999999
 20
51.419871
 30
0.0
 11
142.06608
 21
51.932857
 31
0.0
  0
LINE
  5
297
330
1E
100
AcDbEntity
  8
CSLAYER1
  6
CONTINUOUS
 62
     3
100
AcDbLine
 10
141.881884
 20
51.932857
 30
0.0
 11
144.428206
 21
51.932857
 31
0.0
  0
LINE
  5
298
330
1E
100
AcDbEntity
  8
CSLAYER1
  6
CONTINUOUS
 62
     3
100
AcDbLine
 10
144.4818909999999
 20
51.682857
 30
0.0
 11
142.0123949999999
 21
51.682857
 31
0.0
  0
ARC
  5
299
330
1E
100
AcDbEntity
  8
CSLAYER1
  6
CONTINUOUS
 62
     3
100
AcDbCircle
 10
141.662608
 20
51.482857
 30
0.0
 40
0.3
100
AcDbArc
 50
206.0846689999999
 51
347.880409
  0
LINE
  5
29A
330
1E
100
AcDbEntity
  8
CSLAYER1
  6
CONTINUOUS
 62
     3
100
AcDbLine
 10
141.3931649999999
 20
51.35094699999999
 30
0.0
 11
139.780304
 21
58.86174
 31
0.0
  0
LINE
  5
29B
330
1E
100
AcDbEntity
  8
CSLAYER1
  6
CONTINUOUS
 62
     3
100
AcDbLine
 10
139.780304
 20
58.86174
 30
0.0
 11
139.688206
 21
58.43285699999999
 31
0.0
  0
LINE
  5
29C
330
1E
100
AcDbEntity
  8
CSLAYER1
  6
CONTINUOUS
 62
     3
100
AcDbLine
 10
139.8724019999999
 20
58.43285699999999
 30
0.0
 11
137.32608
 21
58.43285699999999
 31
0.0
  0
LINE
  5
29D
330
1E
100
AcDbEntity
  8
CSLAYER1
  6
CONTINUOUS
 62
     3
100
AcDbLine
 10
137.2723949999999
 20
58.68285699999999
 30
0.0
 11
139.7418909999999
 21
58.68285699999999
 31
0.0
  0
ARC
  5
29E
330
1E
100
AcDbEntity
  8
CSLAYER1
  6
CONTINUOUS
 62
     3
100
AcDbCircle
 10
140.0826079999999
 20
58.88285699999999
 30
0.0
 40
0.3
100
AcDbArc
 50
12.119591
 51
192.1195909999999
  0
LINE
  5
29F
330
1E
100
AcDbEntity
  8
CSLAYER1
  6
CONTINUOUS
 62
     3
100
AcDbLine
 10
137.215922
 20
58.945843
 30
0.0
 11
138.813982
 21
51.503974
 31
0.0
  0
LINE
  5
2A0
330
1E
100
AcDbEntity
  8
CSLAYER1
  6
CONTINUOUS
 62
     3
100
AcDbLine
 10
138.7959219999999
 20
51.419871
 30
0.0
 11
138.9060799999999
 21
51.932857
 31
0.0
  0
LINE
  5
2A1
330
1E
100
AcDbEntity
  8
CSLAYER1
  6
CONTINUOUS
 62
     3
100
AcDbLine
 10
138.721884
 20
51.932857
 30
0.0
 11
141.2682059999999
 21
51.932857
 31
0.0
  0
LINE
  5
2A2
330
1E
100
AcDbEntity
  8
CSLAYER1
  6
CONTINUOUS
 62
     3
100
AcDbLine
 10
141.3218909999999
 20
51.682857
 30
0.0
 11
138.8523949999999
 21
51.682857
 31
0.0
  0
ARC
  5
2A3
330
1E
100
AcDbEntity
  8
CSLAYER1
  6
CONTINUOUS
 62
     3
100
AcDbCircle
 10
138.502608
 20
51.482857
 30
0.0
 40
0.3
100
AcDbArc
 50
206.0846689999999
 51
347.880409
  0
LINE
  5
2A4
330
1E
100
AcDbEntity
  8
CSLAYER1
  6
CONTINUOUS
 62
     3
100
AcDbLine
 10
138.2331649999999
 20
51.35094699999999
 30
0.0
 11
136.620304
 21
58.86174
 31
0.0
  0
LINE
  5
2A5
330
1E
100
AcDbEntity
  8
CSLAYER1
  6
CONTINUOUS
 62
     3
100
AcDbLine
 10
136.620304
 20
58.86174
 30
0.0
 11
136.528206
 21
58.43285699999999
 31
0.0
  0
LINE
  5
2A6
330
1E
100
AcDbEntity
  8
CSLAYER1
  6
CONTINUOUS
 62
     3
100
AcDbLine
 10
136.712402
 20
58.43285699999999
 30
0.0
 11
134.1660799999999
 21
58.43285699999999
 31
0.0
  0
LINE
  5
2A7
330
1E
100
AcDbEntity
  8
CSLAYER1
  6
CONTINUOUS
 62
     3
100
AcDbLine
 10
134.1123949999999
 20
58.68285699999999
 30
0.0
 11
136.5818909999999
 21
58.68285699999999
 31
0.0
  0
ARC
  5
2A8
330
1E
100
AcDbEntity
  8
CSLAYER1
  6
CONTINUOUS
 62
     3
100
AcDbCircle
 10
136.922608
 20
58.88285699999999
 30
0.0
 40
0.3
100
AcDbArc
 50
12.119591
 51
192.1195909999999
  0
LINE
  5
2A9
330
1E
100
AcDbEntity
  8
CSLAYER1
  6
CONTINUOUS
 62
     3
100
AcDbLine
 10
134.055922
 20
58.945843
 30
0.0
 11
135.653982
 21
51.503974
 31
0.0
  0
LINE
  5
2AA
330
1E
100
AcDbEntity
  8
CSLAYER1
  6
CONTINUOUS
 62
     3
100
AcDbLine
 10
135.6359219999999
 20
51.419871
 30
0.0
 11
135.74608
 21
51.932857
 31
0.0
  0
LINE
  5
2AB
330
1E
100
AcDbEntity
  8
CSLAYER1
  6
CONTINUOUS
 62
     3
100
AcDbLine
 10
135.561884
 20
51.932857
 30
0.0
 11
138.1082059999999
 21
51.932857
 31
0.0
  0
LINE
  5
2AC
330
1E
100
AcDbEntity
  8
CSLAYER1
  6
CONTINUOUS
 62
     3
100
AcDbLine
 10
138.161891
 20
51.682857
 30
0.0
 11
135.692395
 21
51.682857
 31
0.0
  0
ARC
  5
2AD
330
1E
100
AcDbEntity
  8
CSLAYER1
  6
CONTINUOUS
 62
     3
100
AcDbCircle
 10
135.342608
 20
51.482857
 30
0.0
 40
0.3
100
AcDbArc
 50
206.0846689999999
 51
347.880409
  0
LINE
  5
2AE
330
1E
100
AcDbEntity
  8
CSLAYER1
  6
CONTINUOUS
 62
     3
100
AcDbLine
 10
135.0731649999999
 20
51.35094699999999
 30
0.0
 11
133.4692949999999
 21
58.81987099999999
 31
0.0
  0
ARC
  5
2AF
330
1E
100
AcDbEntity
  8
CSLAYER1
  6
CONTINUOUS
 62
     3
100
AcDbCircle
 10
133.7626079999999
 20
58.88285699999999
 30
0.0
 40
0.3
100
AcDbArc
 50
12.119591
 51
192.1195909999999
  0
LINE
  5
2B0
330
1E
100
AcDbEntity
  8
CSLAYER1
  6
CONTINUOUS
 62
     3
100
AcDbLine
 10
133.4627639999999
 20
58.87319599999999
 30
0.0
 11
133.368206
 21
58.43285699999999
 31
0.0
  0
LINE
  5
2B1
330
1E
100
AcDbEntity
  8
CSLAYER1
  6
CONTINUOUS
 62
     3
100
AcDbLine
 10
133.552402
 20
58.43285699999999
 30
0.0
 11
130.987143
 21
58.43285699999999
 31
0.0
  0
LINE
  5
2B2
330
1E
100
AcDbEntity
  8
CSLAYER1
  6
CONTINUOUS
 62
     3
100
AcDbLine
 10
130.987143
 20
58.68285699999999
 30
0.0
 11
133.4218909999999
 21
58.68285699999999
 31
0.0
  0
LINE
  5
2B3
330
1E
100
AcDbEntity
  8
CSLAYER1
  6
CONTINUOUS
 62
     3
100
AcDbLine
 10
144.97961
 20
52.222857
 30
0.0
 11
146.7871429999999
 21
52.222857
 31
0.0
  0
LINE
  5
2B4
330
1E
100
AcDbEntity
  8
CSLAYER1
  6
CONTINUOUS
 62
     3
100
AcDbLine
 10
146.7871429999999
 20
51.682857
 30
0.0
 11
145.195687
 21
51.682857
 31
0.0
  0
LINE
  5
2B5
330
1E
100
AcDbEntity
  8
CSLAYER1
  6
CONTINUOUS
 62
     3
100
AcDbLine
 10
145.131528
 20
51.473378
 30
0.0
 11
145.3610779999999
 21
52.222857
 31
0.0
  0
LINE
  5
2B6
330
1E
100
AcDbEntity
  8
CSLAYER1
  6
CONTINUOUS
 62
     3
100
AcDbLine
 10
140.8871429999999
 20
36.18285699999999
 30
0.0
 11
141.3871429999999
 21
36.682857
 31
0.0
  0
LINE
  5
2B7
330
1E
100
AcDbEntity
  8
CSLAYER1
  6
CONTINUOUS
 62
     3
100
AcDbLine
 10
141.3871429999999
 20
36.682857
 30
0.0
 11
141.3871429999999
 21
39.682857
 31
0.0
  0
LINE
  5
2B8
330
1E
100
AcDbEntity
  8
CSLAYER1
  6
CONTINUOUS
 62
     3
100
AcDbLine
 10
141.3871429999999
 20
39.682857
 30
0.0
 11
140.8871429999999
 21
40.18285699999999
 31
0.0
  0
LINE
  5
2B9
330
1E
100
AcDbEntity
  8
CSLAYER1
  6
CONTINUOUS
 62
     3
100
AcDbLine
 10
140.8871429999999
 20
40.18285699999999
 30
0.0
 11
136.7871429999999
 21
40.18285699999999
 31
0.0
  0
LINE
  5
2BA
330
1E
100
AcDbEntity
  8
CSLAYER1
  6
CONTINUOUS
 62
     3
100
AcDbLine
 10
136.7871429999999
 20
41.682857
 30
0.0
 11
136.7871429999999
 21
34.682857
 31
0.0
  0
LINE
  5
2BB
330
1E
100
AcDbEntity
  8
CSLAYER1
  6
CONTINUOUS
 62
     3
100
AcDbLine
 10
136.7871429999999
 20
34.682857
 30
0.0
 11
130.3871429999999
 21
34.682857
 31
0.0
  0
LINE
  5
2BC
330
1E
100
AcDbEntity
  8
CSLAYER1
  6
CONTINUOUS
 62
     3
100
AcDbLine
 10
130.3871429999999
 20
34.682857
 30
0.0
 11
130.3871429999999
 21
41.682857
 31
0.0
  0
LINE
  5
2BD
330
1E
100
AcDbEntity
  8
CSLAYER1
  6
CONTINUOUS
 62
     3
100
AcDbLine
 10
130.3871429999999
 20
41.682857
 30
0.0
 11
136.7871429999999
 21
41.682857
 31
0.0
  0
ARC
  5
2BE
330
1E
100
AcDbEntity
  8
CSLAYER1
  6
CONTINUOUS
 62
     3
100
AcDbCircle
 10
131.7325219999999
 20
39.93285699999999
 30
0.0
 40
5.054619999999999
100
AcDbArc
 50
339.743842
 51
20.256158
  0
LINE
  5
2BF
330
1E
100
AcDbEntity
  8
CSLAYER1
  6
CONTINUOUS
 62
     3
100
AcDbLine
 10
136.4745349999999
 20
38.182857
 30
0.0
 11
133.587143
 21
38.182857
 31
0.0
  0
LINE
  5
2C0
330
1E
100
AcDbEntity
  8
CSLAYER1
  6
CONTINUOUS
 62
     3
100
AcDbLine
 10
133.274535
 20
38.182857
 30
0.0
 11
130.3871429999999
 21
38.182857
 31
0.0
  0
LINE
  5
2C1
330
1E
100
AcDbEntity
  8
CSLAYER1
  6
CONTINUOUS
 62
     3
100
AcDbLine
 10
130.3871429999999
 20
40.18285699999999
 30
0.0
 11
120.3871429999999
 21
40.18285699999999
 31
0.0
  0
LINE
  5
2C2
330
1E
100
AcDbEntity
  8
CSLAYER1
  6
CONTINUOUS
 62
     3
100
AcDbLine
 10
120.3871429999999
 20
36.18285699999999
 30
0.0
 11
130.3871429999999
 21
36.18285699999999
 31
0.0
  0
ARC
  5
2C3
330
1E
100
AcDbEntity
  8
CSLAYER1
  6
CONTINUOUS
 62
     3
100
AcDbCircle
 10
128.532522
 20
36.43285699999999
 30
0.0
 40
5.054619999999999
100
AcDbArc
 50
339.743842
 51
20.256158
  0
ARC
  5
2C4
330
1E
100
AcDbEntity
  8
CSLAYER1
  6
CONTINUOUS
 62
     3
100
AcDbCircle
 10
128.532522
 20
39.93285699999999
 30
0.0
 40
5.054619999999999
100
AcDbArc
 50
339.743842
 51
20.256158
  0
LINE
  5
2C5
330
1E
100
AcDbEntity
  8
CSLAYER1
  6
CONTINUOUS
 62
     3
100
AcDbLine
 10
133.587143
 20
41.682857
 30
0.0
 11
133.587143
 21
34.682857
 31
0.0
  0
ARC
  5
2C6
330
1E
100
AcDbEntity
  8
CSLAYER1
  6
CONTINUOUS
 62
     3
100
AcDbCircle
 10
131.7325219999999
 20
36.43285699999999
 30
0.0
 40
5.054619999999999
100
AcDbArc
 50
339.743842
 51
20.256158
  0
LINE
  5
2C7
330
1E
100
AcDbEntity
  8
CSLAYER1
  6
CONTINUOUS
 62
     3
100
AcDbLine
 10
136.7871429999999
 20
36.18285699999999
 30
0.0
 11
140.8871429999999
 21
36.18285699999999
 31
0.0
  0
LINE
  5
2C8
330
1E
100
AcDbEntity
  8
CSLAYER1
  6
CONTINUOUS
 62
     3
100
AcDbLine
 10
328.7660649999999
 20
105.58
 30
0.0
 11
255.7660649999999
 21
105.58
 31
0.0
  0
LINE
  5
2C9
330
1E
100
AcDbEntity
  8
CSLAYER1
  6
CONTINUOUS
 62
     3
100
AcDbLine
 10
255.7660649999999
 20
105.58
 30
0.0
 11
255.7660649999999
 21
108.78
 31
0.0
  0
LINE
  5
2CA
330
1E
100
AcDbEntity
  8
CSLAYER1
  6
CONTINUOUS
 62
     3
100
AcDbLine
 10
255.7660649999999
 20
108.78
 30
0.0
 11
269.7660649999999
 21
108.78
 31
0.0
  0
LINE
  5
2CB
330
1E
100
AcDbEntity
  8
CSLAYER1
  6
CONTINUOUS
 62
     3
100
AcDbLine
 10
269.7660649999999
 20
105.58
 30
0.0
 11
269.7660649999999
 21
163.28
 31
0.0
  0
ARC
  5
2CC
330
1E
100
AcDbEntity
  8
CSLAYER1
  6
CONTINUOUS
 62
     3
100
AcDbCircle
 10
265.7660649999999
 20
163.28
 30
0.0
 40
4.0
100
AcDbArc
 50
0.0
 51
90.0
  0
LINE
  5
2CD
330
1E
100
AcDbEntity
  8
CSLAYER1
  6
CONTINUOUS
 62
     3
100
AcDbLine
 10
265.7660649999999
 20
167.28
 30
0.0
 11
263.7660649999999
 21
167.28
 31
0.0
  0
ARC
  5
2CE
330
1E
100
AcDbEntity
  8
CSLAYER1
  6
CONTINUOUS
 62
     3
100
AcDbCircle
 10
263.7660649999999
 20
175.28
 30
0.0
 40
8.0
100
AcDbArc
 50
180.0
 51
270.0
  0
LINE
  5
2CF
330
1E
100
AcDbEntity
  8
CSLAYER1
  6
CONTINUOUS
 62
     3
100
AcDbLine
 10
255.7660649999999
 20
175.28
 30
0.0
 11
255.7660649999999
 21
180.2799999999999
 31
0.0
  0
ARC
  5
2D0
330
1E
100
AcDbEntity
  8
CSLAYER1
  6
CONTINUOUS
 62
     3
100
AcDbCircle
 10
263.7660649999999
 20
180.2799999999999
 30
0.0
 40
8.0
100
AcDbArc
 50
90.0
 51
180.0
  0
LINE
  5
2D1
330
1E
100
AcDbEntity
  8
CSLAYER1
  6
CONTINUOUS
 62
     3
100
AcDbLine
 10
263.7660649999999
 20
188.2799999999999
 30
0.0
 11
274.2660649999999
 21
188.2799999999999
 31
0.0
  0
ARC
  5
2D2
330
1E
100
AcDbEntity
  8
CSLAYER1
  6
CONTINUOUS
 62
     3
100
AcDbCircle
 10
274.2660649999999
 20
192.28
 30
0.0
 40
4.0
100
AcDbArc
 50
270.0
 51
90.0
  0
LINE
  5
2D3
330
1E
100
AcDbEntity
  8
CSLAYER1
  6
CONTINUOUS
 62
     3
100
AcDbLine
 10
274.2660649999999
 20
196.28
 30
0.0
 11
272.7660649999999
 21
196.28
 31
0.0
  0
ARC
  5
2D4
330
1E
100
AcDbEntity
  8
CSLAYER1
  6
CONTINUOUS
 62
     3
100
AcDbCircle
 10
272.7660649999999
 20
199.28
 30
0.0
 40
3.0
100
AcDbArc
 50
180.0
 51
270.0
  0
LINE
  5
2D5
330
1E
100
AcDbEntity
  8
CSLAYER1
  6
CONTINUOUS
 62
     3
100
AcDbLine
 10
272.7660649999999
 20
193.146025
 30
0.0
 11
272.7660649999999
 21
191.413975
 31
0.0
  0
LINE
  5
2D6
330
1E
100
AcDbEntity
  8
CSLAYER1
  6
CONTINUOUS
 62
     3
100
AcDbLine
 10
272.7660649999999
 20
191.413975
 30
0.0
 11
274.2660649999999
 21
190.5479489999999
 31
0.0
  0
LINE
  5
2D7
330
1E
100
AcDbEntity
  8
CSLAYER1
  6
CONTINUOUS
 62
     3
100
AcDbLine
 10
274.2660649999999
 20
190.5479489999999
 30
0.0
 11
275.7660649999999
 21
191.413975
 31
0.0
  0
LINE
  5
2D8
330
1E
100
AcDbEntity
  8
CSLAYER1
  6
CONTINUOUS
 62
     3
100
AcDbLine
 10
275.7660649999999
 20
191.413975
 30
0.0
 11
275.7660649999999
 21
193.146025
 31
0.0
  0
LINE
  5
2D9
330
1E
100
AcDbEntity
  8
CSLAYER1
  6
CONTINUOUS
 62
     3
100
AcDbLine
 10
275.7660649999999
 20
193.146025
 30
0.0
 11
274.2660649999999
 21
194.012051
 31
0.0
  0
LINE
  5
2DA
330
1E
100
AcDbEntity
  8
CSLAYER1
  6
CONTINUOUS
 62
     3
100
AcDbLine
 10
274.2660649999999
 20
194.012051
 30
0.0
 11
272.7660649999999
 21
193.146025
 31
0.0
  0
CIRCLE
  5
2DB
330
1E
100
AcDbEntity
  8
CSLAYER1
  6
CONTINUOUS
 62
     3
100
AcDbCircle
 10
274.2660649999999
 20
192.28
 30
0.0
 40
2.980385
  0
CIRCLE
  5
2DC
330
1E
100
AcDbEntity
  8
CSLAYER1
  6
CONTINUOUS
 62
     3
100
AcDbCircle
 10
274.2660649999999
 20
192.28
 30
0.0
 40
3.5
  0
LINE
  5
2DD
330
1E
100
AcDbEntity
  8
CSLAYER1
  6
CONTINUOUS
 62
     3
100
AcDbLine
 10
269.7660649999999
 20
188.2799999999999
 30
0.0
 11
269.7660649999999
 21
218.2799999999999
 31
0.0
  0
LINE
  5
2DE
330
1E
100
AcDbEntity
  8
CSLAYER1
  6
CONTINUOUS
 62
     3
100
AcDbLine
 10
269.7660649999999
 20
218.2799999999999
 30
0.0
 11
272.5866159999999
 21
218.2799999999999
 31
0.0
  0
LINE
  5
2DF
330
1E
100
AcDbEntity
  8
CSLAYER1
  6
CONTINUOUS
 62
     3
100
AcDbLine
 10
274.7660649999999
 20
218.78
 30
0.0
 11
309.7660649999999
 21
218.78
 31
0.0
  0
ARC
  5
2E0
330
1E
100
AcDbEntity
  8
CSLAYER1
  6
CONTINUOUS
 62
     3
100
AcDbCircle
 10
309.7660649999999
 20
213.7799999999999
 30
0.0
 40
5.0
100
AcDbArc
 50
0.0
 51
90.0
  0
LINE
  5
2E1
330
1E
100
AcDbEntity
  8
CSLAYER1
  6
CONTINUOUS
 62
     3
100
AcDbLine
 10
314.7660649999999
 20
218.2799999999999
 30
0.0
 11
314.7660649999999
 21
188.2799999999999
 31
0.0
  0
LINE
  5
2E2
330
1E
100
AcDbEntity
  8
CSLAYER1
  6
CONTINUOUS
 62
     3
100
AcDbLine
 10
311.7660649999999
 20
191.413975
 30
0.0
 11
311.7660649999999
 21
193.146025
 31
0.0
  0
LINE
  5
2E3
330
1E
100
AcDbEntity
  8
CSLAYER1
  6
CONTINUOUS
 62
     3
100
AcDbLine
 10
311.7660649999999
 20
193.146025
 30
0.0
 11
310.2660649999999
 21
194.012051
 31
0.0
  0
LINE
  5
2E4
330
1E
100
AcDbEntity
  8
CSLAYER1
  6
CONTINUOUS
 62
     3
100
AcDbLine
 10
310.2660649999999
 20
194.012051
 30
0.0
 11
308.7660649999999
 21
193.146025
 31
0.0
  0
LINE
  5
2E5
330
1E
100
AcDbEntity
  8
CSLAYER1
  6
CONTINUOUS
 62
     3
100
AcDbLine
 10
308.7660649999999
 20
193.146025
 30
0.0
 11
308.7660649999999
 21
191.413975
 31
0.0
  0
LINE
  5
2E6
330
1E
100
AcDbEntity
  8
CSLAYER1
  6
CONTINUOUS
 62
     3
100
AcDbLine
 10
308.7660649999999
 20
191.413975
 30
0.0
 11
310.2660649999999
 21
190.5479489999999
 31
0.0
  0
LINE
  5
2E7
330
1E
100
AcDbEntity
  8
CSLAYER1
  6
CONTINUOUS
 62
     3
100
AcDbLine
 10
310.2660649999999
 20
190.5479489999999
 30
0.0
 11
311.7660649999999
 21
191.413975
 31
0.0
  0
CIRCLE
  5
2E8
330
1E
100
AcDbEntity
  8
CSLAYER1
  6
CONTINUOUS
 62
     3
100
AcDbCircle
 10
310.2660649999999
 20
192.28
 30
0.0
 40
3.5
  0
CIRCLE
  5
2E9
330
1E
100
AcDbEntity
  8
CSLAYER1
  6
CONTINUOUS
 62
     3
100
AcDbCircle
 10
310.2660649999999
 20
192.28
 30
0.0
 40
2.980385
  0
LINE
  5
2EA
330
1E
100
AcDbEntity
  8
CSLAYER1
  6
CONTINUOUS
 62
     3
100
AcDbLine
 10
310.2660649999999
 20
196.28
 30
0.0
 11
311.7660649999999
 21
196.28
 31
0.0
  0
ARC
  5
2EB
330
1E
100
AcDbEntity
  8
CSLAYER1
  6
CONTINUOUS
 62
     3
100
AcDbCircle
 10
311.7660649999999
 20
199.28
 30
0.0
 40
3.0
100
AcDbArc
 50
270.0
 51
0.0
  0
ARC
  5
2EC
330
1E
100
AcDbEntity
  8
CSLAYER1
  6
CONTINUOUS
 62
     3
100
AcDbCircle
 10
310.2660649999999
 20
192.28
 30
0.0
 40
4.0
100
AcDbArc
 50
90.0
 51
270.0
  0
LINE
  5
2ED
330
1E
100
AcDbEntity
  8
CSLAYER1
  6
CONTINUOUS
 62
     3
100
AcDbLine
 10
310.2660649999999
 20
188.2799999999999
 30
0.0
 11
320.7660649999999
 21
188.2799999999999
 31
0.0
  0
ARC
  5
2EE
330
1E
100
AcDbEntity
  8
CSLAYER1
  6
CONTINUOUS
 62
     3
100
AcDbCircle
 10
320.7660649999999
 20
180.2799999999999
 30
0.0
 40
8.0
100
AcDbArc
 50
0.0
 51
90.0
  0
LINE
  5
2EF
330
1E
100
AcDbEntity
  8
CSLAYER1
  6
CONTINUOUS
 62
     3
100
AcDbLine
 10
328.7660649999999
 20
180.2799999999999
 30
0.0
 11
328.7660649999999
 21
175.28
 31
0.0
  0
ARC
  5
2F0
330
1E
100
AcDbEntity
  8
CSLAYER1
  6
CONTINUOUS
 62
     3
100
AcDbCircle
 10
320.7660649999999
 20
175.28
 30
0.0
 40
8.0
100
AcDbArc
 50
270.0
 51
0.0
  0
LINE
  5
2F1
330
1E
100
AcDbEntity
  8
CSLAYER1
  6
CONTINUOUS
 62
     3
100
AcDbLine
 10
320.7660649999999
 20
167.28
 30
0.0
 11
318.7660649999999
 21
167.28
 31
0.0
  0
ARC
  5
2F2
330
1E
100
AcDbEntity
  8
CSLAYER1
  6
CONTINUOUS
 62
     3
100
AcDbCircle
 10
318.7660649999999
 20
163.28
 30
0.0
 40
4.0
100
AcDbArc
 50
90.0
 51
180.0
  0
LINE
  5
2F3
330
1E
100
AcDbEntity
  8
CSLAYER1
  6
CONTINUOUS
 62
     3
100
AcDbLine
 10
314.7660649999999
 20
163.28
 30
0.0
 11
314.7660649999999
 21
105.58
 31
0.0
  0
LINE
  5
2F4
330
1E
100
AcDbEntity
  8
CSLAYER1
  6
CONTINUOUS
 62
     3
100
AcDbLine
 10
314.7660649999999
 20
108.78
 30
0.0
 11
328.7660649999999
 21
108.78
 31
0.0
  0
LINE
  5
2F5
330
1E
100
AcDbEntity
  8
CSLAYER1
  6
CONTINUOUS
 62
     3
100
AcDbLine
 10
328.7660649999999
 20
108.78
 30
0.0
 11
328.7660649999999
 21
105.58
 31
0.0
  0
LINE
  5
2F6
330
1E
100
AcDbEntity
  8
CSLAYER1
  6
CONTINUOUS
 62
     3
100
AcDbLine
 10
305.2660649999999
 20
105.58
 30
0.0
 11
303.538489
 21
111.988235
 31
0.0
  0
ARC
  5
2F7
330
1E
100
AcDbEntity
  8
CSLAYER1
  6
CONTINUOUS
 62
     3
100
AcDbCircle
 10
302.7660649999999
 20
111.78
 30
0.0
 40
0.8
100
AcDbArc
 50
15.087514
 51
164.912486
  0
LINE
  5
2F8
330
1E
100
AcDbEntity
  8
CSLAYER1
  6
CONTINUOUS
 62
     3
100
AcDbLine
 10
301.9936419999999
 20
111.988235
 30
0.0
 11
300.2660649999999
 21
105.58
 31
0.0
  0
LINE
  5
2F9
330
1E
100
AcDbEntity
  8
CSLAYER1
  6
CONTINUOUS
 62
     3
100
AcDbLine
 10
284.2660649999999
 20
105.58
 30
0.0
 11
282.538489
 21
111.988235
 31
0.0
  0
ARC
  5
2FA
330
1E
100
AcDbEntity
  8
CSLAYER1
  6
CONTINUOUS
 62
     3
100
AcDbCircle
 10
281.7660649999999
 20
111.78
 30
0.0
 40
0.8
100
AcDbArc
 50
15.087514
 51
164.912486
  0
LINE
  5
2FB
330
1E
100
AcDbEntity
  8
CSLAYER1
  6
CONTINUOUS
 62
     3
100
AcDbLine
 10
280.9936419999999
 20
111.988235
 30
0.0
 11
279.2660649999999
 21
105.58
 31
0.0
  0
ARC
  5
2FC
330
1E
100
AcDbEntity
  8
CSLAYER1
  6
CONTINUOUS
 62
     3
100
AcDbCircle
 10
272.7660649999999
 20
145.28
 30
0.0
 40
3.0
100
AcDbArc
 50
90.0
 51
180.0
  0
LINE
  5
2FD
330
1E
100
AcDbEntity
  8
CSLAYER1
  6
CONTINUOUS
 62
     3
100
AcDbLine
 10
272.7660649999999
 20
148.28
 30
0.0
 11
274.2660649999999
 21
148.28
 31
0.0
  0
ARC
  5
2FE
330
1E
100
AcDbEntity
  8
CSLAYER1
  6
CONTINUOUS
 62
     3
100
AcDbCircle
 10
274.2660649999999
 20
152.28
 30
0.0
 40
4.0
100
AcDbArc
 50
270.0
 51
90.0
  0
LINE
  5
2FF
330
1E
100
AcDbEntity
  8
CSLAYER1
  6
CONTINUOUS
 62
     3
100
AcDbLine
 10
274.2660649999999
 20
156.28
 30
0.0
 11
272.7660649999999
 21
156.28
 31
0.0
  0
ARC
  5
300
330
1E
100
AcDbEntity
  8
CSLAYER1
  6
CONTINUOUS
 62
     3
100
AcDbCircle
 10
272.7660649999999
 20
159.2799999999999
 30
0.0
 40
3.0
100
AcDbArc
 50
180.0
 51
270.0
  0
LINE
  5
301
330
1E
100
AcDbEntity
  8
CSLAYER1
  6
CONTINUOUS
 62
     3
100
AcDbLine
 10
272.7660649999999
 20
153.146025
 30
0.0
 11
274.2660649999999
 21
154.012051
 31
0.0
  0
LINE
  5
302
330
1E
100
AcDbEntity
  8
CSLAYER1
  6
CONTINUOUS
 62
     3
100
AcDbLine
 10
274.2660649999999
 20
154.012051
 30
0.0
 11
275.7660649999999
 21
153.146025
 31
0.0
  0
LINE
  5
303
330
1E
100
AcDbEntity
  8
CSLAYER1
  6
CONTINUOUS
 62
     3
100
AcDbLine
 10
275.7660649999999
 20
153.146025
 30
0.0
 11
275.7660649999999
 21
151.413975
 31
0.0
  0
LINE
  5
304
330
1E
100
AcDbEntity
  8
CSLAYER1
  6
CONTINUOUS
 62
     3
100
AcDbLine
 10
275.7660649999999
 20
151.413975
 30
0.0
 11
274.2660649999999
 21
150.5479489999999
 31
0.0
  0
LINE
  5
305
330
1E
100
AcDbEntity
  8
CSLAYER1
  6
CONTINUOUS
 62
     3
100
AcDbLine
 10
274.2660649999999
 20
150.5479489999999
 30
0.0
 11
272.7660649999999
 21
151.413975
 31
0.0
  0
LINE
  5
306
330
1E
100
AcDbEntity
  8
CSLAYER1
  6
CONTINUOUS
 62
     3
100
AcDbLine
 10
272.7660649999999
 20
151.413975
 30
0.0
 11
272.7660649999999
 21
153.146025
 31
0.0
  0
CIRCLE
  5
307
330
1E
100
AcDbEntity
  8
CSLAYER1
  6
CONTINUOUS
 62
     3
100
AcDbCircle
 10
274.2660649999999
 20
152.28
 30
0.0
 40
2.980385
  0
CIRCLE
  5
308
330
1E
100
AcDbEntity
  8
CSLAYER1
  6
CONTINUOUS
 62
     3
100
AcDbCircle
 10
274.2660649999999
 20
152.28
 30
0.0
 40
3.5
  0
LINE
  5
309
330
1E
100
AcDbEntity
  8
CSLAYER1
  6
CONTINUOUS
 62
     3
100
AcDbLine
 10
282.2660649999999
 20
165.28
 30
0.0
 11
279.7660649999999
 21
167.7799999999999
 31
0.0
  0
LINE
  5
30A
330
1E
100
AcDbEntity
  8
CSLAYER1
  6
CONTINUOUS
 62
     3
100
AcDbLine
 10
279.7660649999999
 20
167.7799999999999
 30
0.0
 11
279.7660649999999
 21
187.78
 31
0.0
  0
LINE
  5
30B
330
1E
100
AcDbEntity
  8
CSLAYER1
  6
CONTINUOUS
 62
     3
100
AcDbLine
 10
279.7660649999999
 20
187.78
 30
0.0
 11
282.2660649999999
 21
190.28
 31
0.0
  0
LINE
  5
30C
330
1E
100
AcDbEntity
  8
CSLAYER1
  6
CONTINUOUS
 62
     3
100
AcDbLine
 10
282.2660649999999
 20
190.28
 30
0.0
 11
286.2660649999999
 21
190.28
 31
0.0
  0
LINE
  5
30D
330
1E
100
AcDbEntity
  8
CSLAYER1
  6
CONTINUOUS
 62
     3
100
AcDbLine
 10
286.2660649999999
 20
190.28
 30
0.0
 11
288.7660649999999
 21
187.78
 31
0.0
  0
LINE
  5
30E
330
1E
100
AcDbEntity
  8
CSLAYER1
  6
CONTINUOUS
 62
     3
100
AcDbLine
 10
288.7660649999999
 20
187.78
 30
0.0
 11
295.7660649999999
 21
187.78
 31
0.0
  0
LINE
  5
30F
330
1E
100
AcDbEntity
  8
CSLAYER1
  6
CONTINUOUS
 62
     3
100
AcDbLine
 10
295.7660649999999
 20
187.78
 30
0.0
 11
298.2660649999999
 21
190.28
 31
0.0
  0
LINE
  5
310
330
1E
100
AcDbEntity
  8
CSLAYER1
  6
CONTINUOUS
 62
     3
100
AcDbLine
 10
298.2660649999999
 20
190.28
 30
0.0
 11
302.2660649999999
 21
190.28
 31
0.0
  0
LINE
  5
311
330
1E
100
AcDbEntity
  8
CSLAYER1
  6
CONTINUOUS
 62
     3
100
AcDbLine
 10
302.2660649999999
 20
190.28
 30
0.0
 11
304.7660649999999
 21
187.78
 31
0.0
  0
LINE
  5
312
330
1E
100
AcDbEntity
  8
CSLAYER1
  6
CONTINUOUS
 62
     3
100
AcDbLine
 10
304.7660649999999
 20
187.78
 30
0.0
 11
304.7660649999999
 21
183.78
 31
0.0
  0
LINE
  5
313
330
1E
100
AcDbEntity
  8
CSLAYER1
  6
CONTINUOUS
 62
     3
100
AcDbLine
 10
304.7660649999999
 20
183.78
 30
0.0
 11
302.2660649999999
 21
181.28
 31
0.0
  0
LINE
  5
314
330
1E
100
AcDbEntity
  8
CSLAYER1
  6
CONTINUOUS
 62
     3
100
AcDbLine
 10
302.2660649999999
 20
181.28
 30
0.0
 11
302.2660649999999
 21
174.28
 31
0.0
  0
LINE
  5
315
330
1E
100
AcDbEntity
  8
CSLAYER1
  6
CONTINUOUS
 62
     3
100
AcDbLine
 10
302.2660649999999
 20
174.28
 30
0.0
 11
304.7660649999999
 21
171.7799999999999
 31
0.0
  0
LINE
  5
316
330
1E
100
AcDbEntity
  8
CSLAYER1
  6
CONTINUOUS
 62
     3
100
AcDbLine
 10
304.7660649999999
 20
171.7799999999999
 30
0.0
 11
304.7660649999999
 21
167.7799999999999
 31
0.0
  0
LINE
  5
317
330
1E
100
AcDbEntity
  8
CSLAYER1
  6
CONTINUOUS
 62
     3
100
AcDbLine
 10
304.7660649999999
 20
167.7799999999999
 30
0.0
 11
302.2660649999999
 21
165.28
 31
0.0
  0
LINE
  5
318
330
1E
100
AcDbEntity
  8
CSLAYER1
  6
CONTINUOUS
 62
     3
100
AcDbLine
 10
302.2660649999999
 20
165.28
 30
0.0
 11
298.2660649999999
 21
165.28
 31
0.0
  0
LINE
  5
319
330
1E
100
AcDbEntity
  8
CSLAYER1
  6
CONTINUOUS
 62
     3
100
AcDbLine
 10
298.2660649999999
 20
165.28
 30
0.0
 11
295.7660649999999
 21
167.7799999999999
 31
0.0
  0
LINE
  5
31A
330
1E
100
AcDbEntity
  8
CSLAYER1
  6
CONTINUOUS
 62
     3
100
AcDbLine
 10
295.7660649999999
 20
167.7799999999999
 30
0.0
 11
288.7660649999999
 21
167.7799999999999
 31
0.0
  0
LINE
  5
31B
330
1E
100
AcDbEntity
  8
CSLAYER1
  6
CONTINUOUS
 62
     3
100
AcDbLine
 10
288.7660649999999
 20
167.7799999999999
 30
0.0
 11
286.2660649999999
 21
165.28
 31
0.0
  0
LINE
  5
31C
330
1E
100
AcDbEntity
  8
CSLAYER1
  6
CONTINUOUS
 62
     3
100
AcDbLine
 10
286.2660649999999
 20
165.28
 30
0.0
 11
282.2660649999999
 21
165.28
 31
0.0
  0
LINE
  5
31D
330
1E
100
AcDbEntity
  8
CSLAYER1
  6
CONTINUOUS
 62
     3
100
AcDbLine
 10
283.7660649999999
 20
168.730962
 30
0.0
 11
283.0160649999999
 21
170.03
 31
0.0
  0
LINE
  5
31E
330
1E
100
AcDbEntity
  8
CSLAYER1
  6
CONTINUOUS
 62
     3
100
AcDbLine
 10
283.0160649999999
 20
170.03
 30
0.0
 11
283.7660649999999
 21
171.329038
 31
0.0
  0
LINE
  5
31F
330
1E
100
AcDbEntity
  8
CSLAYER1
  6
CONTINUOUS
 62
     3
100
AcDbLine
 10
283.7660649999999
 20
171.329038
 30
0.0
 11
285.2660649999999
 21
171.329038
 31
0.0
  0
LINE
  5
320
330
1E
100
AcDbEntity
  8
CSLAYER1
  6
CONTINUOUS
 62
     3
100
AcDbLine
 10
285.2660649999999
 20
171.329038
 30
0.0
 11
286.0160649999999
 21
170.03
 31
0.0
  0
LINE
  5
321
330
1E
100
AcDbEntity
  8
CSLAYER1
  6
CONTINUOUS
 62
     3
100
AcDbLine
 10
286.0160649999999
 20
170.03
 30
0.0
 11
285.2660649999999
 21
168.730962
 31
0.0
  0
LINE
  5
322
330
1E
100
AcDbEntity
  8
CSLAYER1
  6
CONTINUOUS
 62
     3
100
AcDbLine
 10
285.2660649999999
 20
168.730962
 30
0.0
 11
283.7660649999999
 21
168.730962
 31
0.0
  0
CIRCLE
  5
323
330
1E
100
AcDbEntity
  8
CSLAYER1
  6
CONTINUOUS
 62
     3
100
AcDbCircle
 10
284.516065
 20
170.03
 30
0.0
 40
2.75
  0
CIRCLE
  5
324
330
1E
100
AcDbEntity
  8
CSLAYER1
  6
CONTINUOUS
 62
     3
100
AcDbCircle
 10
284.516065
 20
170.03
 30
0.0
 40
3.25
  0
CIRCLE
  5
325
330
1E
100
AcDbEntity
  8
CSLAYER1
  6
CONTINUOUS
 62
     3
100
AcDbCircle
 10
275.2660649999999
 20
177.78
 30
0.0
 40
3.0
  0
LINE
  5
326
330
1E
100
AcDbEntity
  8
CSLAYER1
  6
CONTINUOUS
 62
     3
100
AcDbLine
 10
266.966065
 20
179.58
 30
0.0
 11
266.966065
 21
175.98
 31
0.0
  0
ARC
  5
327
330
1E
100
AcDbEntity
  8
CSLAYER1
  6
CONTINUOUS
 62
     3
100
AcDbCircle
 10
263.7660649999999
 20
175.98
 30
0.0
 40
3.2
100
AcDbArc
 50
180.0
 51
0.0
  0
LINE
  5
328
330
1E
100
AcDbEntity
  8
CSLAYER1
  6
CONTINUOUS
 62
     3
100
AcDbLine
 10
260.5660649999999
 20
175.98
 30
0.0
 11
260.5660649999999
 21
179.58
 31
0.0
  0
ARC
  5
329
330
1E
100
AcDbEntity
  8
CSLAYER1
  6
CONTINUOUS
 62
     3
100
AcDbCircle
 10
263.7660649999999
 20
179.58
 30
0.0
 40
3.2
100
AcDbArc
 50
0.0
 51
180.0
  0
LINE
  5
32A
330
1E
100
AcDbEntity
  8
CSLAYER1
  6
CONTINUOUS
 62
     3
100
AcDbLine
 10
283.217027
 20
184.78
 30
0.0
 11
284.516065
 21
184.03
 31
0.0
  0
LINE
  5
32B
330
1E
100
AcDbEntity
  8
CSLAYER1
  6
CONTINUOUS
 62
     3
100
AcDbLine
 10
284.516065
 20
184.03
 30
0.0
 11
285.8151029999999
 21
184.78
 31
0.0
  0
LINE
  5
32C
330
1E
100
AcDbEntity
  8
CSLAYER1
  6
CONTINUOUS
 62
     3
100
AcDbLine
 10
285.8151029999999
 20
184.78
 30
0.0
 11
285.8151029999999
 21
186.28
 31
0.0
  0
LINE
  5
32D
330
1E
100
AcDbEntity
  8
CSLAYER1
  6
CONTINUOUS
 62
     3
100
AcDbLine
 10
285.8151029999999
 20
186.28
 30
0.0
 11
284.516065
 21
187.03
 31
0.0
  0
LINE
  5
32E
330
1E
100
AcDbEntity
  8
CSLAYER1
  6
CONTINUOUS
 62
     3
100
AcDbLine
 10
284.516065
 20
187.03
 30
0.0
 11
283.217027
 21
186.28
 31
0.0
  0
LINE
  5
32F
330
1E
100
AcDbEntity
  8
CSLAYER1
  6
CONTINUOUS
 62
     3
100
AcDbLine
 10
283.217027
 20
186.28
 30
0.0
 11
283.217027
 21
184.78
 31
0.0
  0
CIRCLE
  5
330
330
1E
100
AcDbEntity
  8
CSLAYER1
  6
CONTINUOUS
 62
     3
100
AcDbCircle
 10
284.516065
 20
185.5299999999999
 30
0.0
 40
2.75
  0
CIRCLE
  5
331
330
1E
100
AcDbEntity
  8
CSLAYER1
  6
CONTINUOUS
 62
     3
100
AcDbCircle
 10
284.516065
 20
185.5299999999999
 30
0.0
 40
3.25
  0
LINE
  5
332
330
1E
100
AcDbEntity
  8
CSLAYER1
  6
CONTINUOUS
 62
     3
100
AcDbLine
 10
291.273023
 20
196.06
 30
0.0
 11
293.259108
 21
196.06
 31
0.0
  0
LINE
  5
333
330
1E
100
AcDbEntity
  8
CSLAYER1
  6
CONTINUOUS
 62
     3
100
AcDbLine
 10
293.259108
 20
196.06
 30
0.0
 11
294.2521499999999
 21
197.78
 31
0.0
  0
LINE
  5
334
330
1E
100
AcDbEntity
  8
CSLAYER1
  6
CONTINUOUS
 62
     3
100
AcDbLine
 10
294.2521499999999
 20
197.78
 30
0.0
 11
293.259108
 21
199.5
 31
0.0
  0
LINE
  5
335
330
1E
100
AcDbEntity
  8
CSLAYER1
  6
CONTINUOUS
 62
     3
100
AcDbLine
 10
293.259108
 20
199.5
 30
0.0
 11
291.273023
 21
199.5
 31
0.0
  0
LINE
  5
336
330
1E
100
AcDbEntity
  8
CSLAYER1
  6
CONTINUOUS
 62
     3
100
AcDbLine
 10
291.273023
 20
199.5
 30
0.0
 11
290.27998
 21
197.78
 31
0.0
  0
LINE
  5
337
330
1E
100
AcDbEntity
  8
CSLAYER1
  6
CONTINUOUS
 62
     3
100
AcDbLine
 10
290.27998
 20
197.78
 30
0.0
 11
291.273023
 21
196.06
 31
0.0
  0
CIRCLE
  5
338
330
1E
100
AcDbEntity
  8
CSLAYER1
  6
CONTINUOUS
 62
     3
100
AcDbCircle
 10
292.2660649999999
 20
197.78
 30
0.0
 40
4.5
  0
CIRCLE
  5
339
330
1E
100
AcDbEntity
  8
CSLAYER1
  6
CONTINUOUS
 62
     3
100
AcDbCircle
 10
292.2660649999999
 20
197.78
 30
0.0
 40
5.0
  0
CIRCLE
  5
33A
330
1E
100
AcDbEntity
  8
CSLAYER1
  6
CONTINUOUS
 62
     3
100
AcDbCircle
 10
292.2660649999999
 20
197.78
 30
0.0
 40
5.5
  0
LINE
  5
33B
330
1E
100
AcDbEntity
  8
CSLAYER1
  6
CONTINUOUS
 62
     3
100
AcDbLine
 10
299.2660649999999
 20
186.8290379999999
 30
0.0
 11
300.7660649999999
 21
186.8290379999999
 31
0.0
  0
LINE
  5
33C
330
1E
100
AcDbEntity
  8
CSLAYER1
  6
CONTINUOUS
 62
     3
100
AcDbLine
 10
300.7660649999999
 20
186.8290379999999
 30
0.0
 11
301.5160649999999
 21
185.5299999999999
 31
0.0
  0
LINE
  5
33D
330
1E
100
AcDbEntity
  8
CSLAYER1
  6
CONTINUOUS
 62
     3
100
AcDbLine
 10
301.5160649999999
 20
185.5299999999999
 30
0.0
 11
300.7660649999999
 21
184.2309619999999
 31
0.0
  0
LINE
  5
33E
330
1E
100
AcDbEntity
  8
CSLAYER1
  6
CONTINUOUS
 62
     3
100
AcDbLine
 10
300.7660649999999
 20
184.2309619999999
 30
0.0
 11
299.2660649999999
 21
184.2309619999999
 31
0.0
  0
LINE
  5
33F
330
1E
100
AcDbEntity
  8
CSLAYER1
  6
CONTINUOUS
 62
     3
100
AcDbLine
 10
299.2660649999999
 20
184.2309619999999
 30
0.0
 11
298.5160649999999
 21
185.5299999999999
 31
0.0
  0
LINE
  5
340
330
1E
100
AcDbEntity
  8
CSLAYER1
  6
CONTINUOUS
 62
     3
100
AcDbLine
 10
298.5160649999999
 20
185.5299999999999
 30
0.0
 11
299.2660649999999
 21
186.8290379999999
 31
0.0
  0
CIRCLE
  5
341
330
1E
100
AcDbEntity
  8
CSLAYER1
  6
CONTINUOUS
 62
     3
100
AcDbCircle
 10
300.0160649999999
 20
185.5299999999999
 30
0.0
 40
2.75
  0
CIRCLE
  5
342
330
1E
100
AcDbEntity
  8
CSLAYER1
  6
CONTINUOUS
 62
     3
100
AcDbCircle
 10
300.0160649999999
 20
185.5299999999999
 30
0.0
 40
3.25
  0
LINE
  5
343
330
1E
100
AcDbEntity
  8
CSLAYER1
  6
CONTINUOUS
 62
     3
100
AcDbLine
 10
305.7660649999999
 20
179.800726
 30
0.0
 11
305.7660649999999
 21
175.7592739999999
 31
0.0
  0
LINE
  5
344
330
1E
100
AcDbEntity
  8
CSLAYER1
  6
CONTINUOUS
 62
     3
100
AcDbLine
 10
305.7660649999999
 20
175.7592739999999
 30
0.0
 11
309.2660649999999
 21
173.738548
 31
0.0
  0
LINE
  5
345
330
1E
100
AcDbEntity
  8
CSLAYER1
  6
CONTINUOUS
 62
     3
100
AcDbLine
 10
309.2660649999999
 20
173.738548
 30
0.0
 11
312.7660649999999
 21
175.7592739999999
 31
0.0
  0
LINE
  5
346
330
1E
100
AcDbEntity
  8
CSLAYER1
  6
CONTINUOUS
 62
     3
100
AcDbLine
 10
312.7660649999999
 20
175.7592739999999
 30
0.0
 11
312.7660649999999
 21
179.800726
 31
0.0
  0
LINE
  5
347
330
1E
100
AcDbEntity
  8
CSLAYER1
  6
CONTINUOUS
 62
     3
100
AcDbLine
 10
312.7660649999999
 20
179.800726
 30
0.0
 11
309.2660649999999
 21
181.8214519999999
 31
0.0
  0
LINE
  5
348
330
1E
100
AcDbEntity
  8
CSLAYER1
  6
CONTINUOUS
 62
     3
100
AcDbLine
 10
309.2660649999999
 20
181.8214519999999
 30
0.0
 11
305.7660649999999
 21
179.800726
 31
0.0
  0
CIRCLE
  5
349
330
1E
100
AcDbEntity
  8
CSLAYER1
  6
CONTINUOUS
 62
     3
100
AcDbCircle
 10
309.2660649999999
 20
177.78
 30
0.0
 40
2.0
  0
CIRCLE
  5
34A
330
1E
100
AcDbEntity
  8
CSLAYER1
  6
CONTINUOUS
 62
     3
100
AcDbCircle
 10
309.2660649999999
 20
177.78
 30
0.0
 40
3.5
  0
LINE
  5
34B
330
1E
100
AcDbEntity
  8
CSLAYER1
  6
CONTINUOUS
 62
     3
100
AcDbLine
 10
301.3151029999999
 20
170.7799999999999
 30
0.0
 11
300.0160649999999
 21
171.53
 31
0.0
  0
LINE
  5
34C
330
1E
100
AcDbEntity
  8
CSLAYER1
  6
CONTINUOUS
 62
     3
100
AcDbLine
 10
300.0160649999999
 20
171.53
 30
0.0
 11
298.717027
 21
170.7799999999999
 31
0.0
  0
LINE
  5
34D
330
1E
100
AcDbEntity
  8
CSLAYER1
  6
CONTINUOUS
 62
     3
100
AcDbLine
 10
298.717027
 20
170.7799999999999
 30
0.0
 11
298.717027
 21
169.28
 31
0.0
  0
LINE
  5
34E
330
1E
100
AcDbEntity
  8
CSLAYER1
  6
CONTINUOUS
 62
     3
100
AcDbLine
 10
298.717027
 20
169.28
 30
0.0
 11
300.0160649999999
 21
168.5299999999999
 31
0.0
  0
LINE
  5
34F
330
1E
100
AcDbEntity
  8
CSLAYER1
  6
CONTINUOUS
 62
     3
100
AcDbLine
 10
300.0160649999999
 20
168.5299999999999
 30
0.0
 11
301.3151029999999
 21
169.28
 31
0.0
  0
LINE
  5
350
330
1E
100
AcDbEntity
  8
CSLAYER1
  6
CONTINUOUS
 62
     3
100
AcDbLine
 10
301.3151029999999
 20
169.28
 30
0.0
 11
301.3151029999999
 21
170.7799999999999
 31
0.0
  0
CIRCLE
  5
351
330
1E
100
AcDbEntity
  8
CSLAYER1
  6
CONTINUOUS
 62
     3
100
AcDbCircle
 10
300.0160649999999
 20
170.03
 30
0.0
 40
2.75
  0
CIRCLE
  5
352
330
1E
100
AcDbEntity
  8
CSLAYER1
  6
CONTINUOUS
 62
     3
100
AcDbCircle
 10
300.0160649999999
 20
170.03
 30
0.0
 40
3.25
  0
LINE
  5
353
330
1E
100
AcDbEntity
  8
CSLAYER1
  6
CONTINUOUS
 62
     3
100
AcDbLine
 10
293.259108
 20
159.4999999999999
 30
0.0
 11
294.2521499999999
 21
157.78
 31
0.0
  0
LINE
  5
354
330
1E
100
AcDbEntity
  8
CSLAYER1
  6
CONTINUOUS
 62
     3
100
AcDbLine
 10
294.2521499999999
 20
157.78
 30
0.0
 11
293.259108
 21
156.0599999999999
 31
0.0
  0
LINE
  5
355
330
1E
100
AcDbEntity
  8
CSLAYER1
  6
CONTINUOUS
 62
     3
100
AcDbLine
 10
293.259108
 20
156.0599999999999
 30
0.0
 11
291.273023
 21
156.0599999999999
 31
0.0
  0
LINE
  5
356
330
1E
100
AcDbEntity
  8
CSLAYER1
  6
CONTINUOUS
 62
     3
100
AcDbLine
 10
291.273023
 20
156.0599999999999
 30
0.0
 11
290.27998
 21
157.78
 31
0.0
  0
LINE
  5
357
330
1E
100
AcDbEntity
  8
CSLAYER1
  6
CONTINUOUS
 62
     3
100
AcDbLine
 10
290.27998
 20
157.78
 30
0.0
 11
291.273023
 21
159.4999999999999
 31
0.0
  0
LINE
  5
358
330
1E
100
AcDbEntity
  8
CSLAYER1
  6
CONTINUOUS
 62
     3
100
AcDbLine
 10
291.273023
 20
159.4999999999999
 30
0.0
 11
293.259108
 21
159.4999999999999
 31
0.0
  0
CIRCLE
  5
359
330
1E
100
AcDbEntity
  8
CSLAYER1
  6
CONTINUOUS
 62
     3
100
AcDbCircle
 10
292.2660649999999
 20
157.78
 30
0.0
 40
4.5
  0
CIRCLE
  5
35A
330
1E
100
AcDbEntity
  8
CSLAYER1
  6
CONTINUOUS
 62
     3
100
AcDbCircle
 10
292.2660649999999
 20
157.78
 30
0.0
 40
5.0
  0
CIRCLE
  5
35B
330
1E
100
AcDbEntity
  8
CSLAYER1
  6
CONTINUOUS
 62
     3
100
AcDbCircle
 10
292.2660649999999
 20
157.78
 30
0.0
 40
5.5
  0
LINE
  5
35C
330
1E
100
AcDbEntity
  8
CSLAYER1
  6
CONTINUOUS
 62
     3
100
AcDbLine
 10
308.7660649999999
 20
153.146025
 30
0.0
 11
310.2660649999999
 21
154.012051
 31
0.0
  0
LINE
  5
35D
330
1E
100
AcDbEntity
  8
CSLAYER1
  6
CONTINUOUS
 62
     3
100
AcDbLine
 10
310.2660649999999
 20
154.012051
 30
0.0
 11
311.7660649999999
 21
153.146025
 31
0.0
  0
LINE
  5
35E
330
1E
100
AcDbEntity
  8
CSLAYER1
  6
CONTINUOUS
 62
     3
100
AcDbLine
 10
311.7660649999999
 20
153.146025
 30
0.0
 11
311.7660649999999
 21
151.413975
 31
0.0
  0
LINE
  5
35F
330
1E
100
AcDbEntity
  8
CSLAYER1
  6
CONTINUOUS
 62
     3
100
AcDbLine
 10
311.7660649999999
 20
151.413975
 30
0.0
 11
310.2660649999999
 21
150.5479489999999
 31
0.0
  0
LINE
  5
360
330
1E
100
AcDbEntity
  8
CSLAYER1
  6
CONTINUOUS
 62
     3
100
AcDbLine
 10
310.2660649999999
 20
150.5479489999999
 30
0.0
 11
308.7660649999999
 21
151.413975
 31
0.0
  0
LINE
  5
361
330
1E
100
AcDbEntity
  8
CSLAYER1
  6
CONTINUOUS
 62
     3
100
AcDbLine
 10
308.7660649999999
 20
151.413975
 30
0.0
 11
308.7660649999999
 21
153.146025
 31
0.0
  0
CIRCLE
  5
362
330
1E
100
AcDbEntity
  8
CSLAYER1
  6
CONTINUOUS
 62
     3
100
AcDbCircle
 10
310.2660649999999
 20
152.28
 30
0.0
 40
2.980385
  0
CIRCLE
  5
363
330
1E
100
AcDbEntity
  8
CSLAYER1
  6
CONTINUOUS
 62
     3
100
AcDbCircle
 10
310.2660649999999
 20
152.28
 30
0.0
 40
3.5
  0
ARC
  5
364
330
1E
100
AcDbEntity
  8
CSLAYER1
  6
CONTINUOUS
 62
     3
100
AcDbCircle
 10
310.2660649999999
 20
152.28
 30
0.0
 40
4.0
100
AcDbArc
 50
90.0
 51
270.0
  0
LINE
  5
365
330
1E
100
AcDbEntity
  8
CSLAYER1
  6
CONTINUOUS
 62
     3
100
AcDbLine
 10
310.2660649999999
 20
148.28
 30
0.0
 11
311.7660649999999
 21
148.28
 31
0.0
  0
ARC
  5
366
330
1E
100
AcDbEntity
  8
CSLAYER1
  6
CONTINUOUS
 62
     3
100
AcDbCircle
 10
311.7660649999999
 20
145.28
 30
0.0
 40
3.0
100
AcDbArc
 50
0.0
 51
90.0
  0
ARC
  5
367
330
1E
100
AcDbEntity
  8
CSLAYER1
  6
CONTINUOUS
 62
     3
100
AcDbCircle
 10
311.7660649999999
 20
159.2799999999999
 30
0.0
 40
3.0
100
AcDbArc
 50
270.0
 51
0.0
  0
LINE
  5
368
330
1E
100
AcDbEntity
  8
CSLAYER1
  6
CONTINUOUS
 62
     3
100
AcDbLine
 10
311.7660649999999
 20
156.28
 30
0.0
 11
310.2660649999999
 21
156.28
 31
0.0
  0
CIRCLE
  5
369
330
1E
100
AcDbEntity
  8
CSLAYER1
  6
CONTINUOUS
 62
     3
100
AcDbCircle
 10
307.2660649999999
 20
209.7799999999999
 30
0.0
 40
1.649999999999999
  0
LINE
  5
36A
330
1E
100
AcDbEntity
  8
CSLAYER1
  6
CONTINUOUS
 62
     3
100
AcDbLine
 10
311.945515
 20
218.2799999999999
 30
0.0
 11
314.7660649999999
 21
218.2799999999999
 31
0.0
  0
LINE
  5
36B
330
1E
100
AcDbEntity
  8
CSLAYER1
  6
CONTINUOUS
 62
     3
100
AcDbLine
 10
314.7660649999999
 20
218.2799999999999
 30
0.0
 11
302.2660649999999
 21
242.28
 31
0.0
  0
LINE
  5
36C
330
1E
100
AcDbEntity
  8
CSLAYER1
  6
CONTINUOUS
 62
     3
100
AcDbLine
 10
302.2660649999999
 20
242.28
 30
0.0
 11
282.2660649999999
 21
242.28
 31
0.0
  0
LINE
  5
36D
330
1E
100
AcDbEntity
  8
CSLAYER1
  6
CONTINUOUS
 62
     3
100
AcDbLine
 10
282.2660649999999
 20
242.28
 30
0.0
 11
269.7660649999999
 21
218.2799999999999
 31
0.0
  0
ARC
  5
36E
330
1E
100
AcDbEntity
  8
CSLAYER1
  6
CONTINUOUS
 62
     3
100
AcDbCircle
 10
274.7660649999999
 20
213.7799999999999
 30
0.0
 40
5.0
100
AcDbArc
 50
90.0
 51
180.0
  0
CIRCLE
  5
36F
330
1E
100
AcDbEntity
  8
CSLAYER1
  6
CONTINUOUS
 62
     3
100
AcDbCircle
 10
277.2660649999999
 20
209.7799999999999
 30
0.0
 40
1.649999999999999
  0
LINE
  5
370
330
1E
100
AcDbEntity
  8
CSLAYER1
  6
CONTINUOUS
 62
     3
100
AcDbLine
 10
317.5660649999999
 20
179.58
 30
0.0
 11
317.5660649999999
 21
175.98
 31
0.0
  0
ARC
  5
371
330
1E
100
AcDbEntity
  8
CSLAYER1
  6
CONTINUOUS
 62
     3
100
AcDbCircle
 10
320.7660649999999
 20
175.98
 30
0.0
 40
3.2
100
AcDbArc
 50
180.0
 51
0.0
  0
LINE
  5
372
330
1E
100
AcDbEntity
  8
CSLAYER1
  6
CONTINUOUS
 62
     3
100
AcDbLine
 10
323.966065
 20
175.98
 30
0.0
 11
323.966065
 21
179.58
 31
0.0
  0
ARC
  5
373
330
1E
100
AcDbEntity
  8
CSLAYER1
  6
CONTINUOUS
 62
     3
100
AcDbCircle
 10
320.7660649999999
 20
179.58
 30
0.0
 40
3.2
100
AcDbArc
 50
0.0
 51
180.0
  0
CIRCLE
  5
374
330
1E
100
AcDbEntity
  8
CSLAYER1
  6
CONTINUOUS
 62
     3
100
AcDbCircle
 10
136.8871429999999
 20
157.2799999999999
 30
0.0
 40
1.649999999999999
  0
LINE
  5
375
330
1E
100
AcDbEntity
  8
CSLAYER1
  6
CONTINUOUS
 62
     3
100
AcDbLine
 10
124.8871429999999
 20
235.28
 30
0.0
 11
112.887143
 21
235.28
 31
0.0
  0
LINE
  5
376
330
1E
100
AcDbEntity
  8
CSLAYER1
  6
CONTINUOUS
 62
     3
100
AcDbLine
 10
112.887143
 20
231.28
 30
0.0
 11
124.8871429999999
 21
231.28
 31
0.0
  0
LINE
  5
377
330
1E
100
AcDbEntity
  8
CSLAYER1
  6
CONTINUOUS
 62
     3
100
AcDbLine
 10
105.4871429999999
 20
228.214424
 30
0.0
 11
105.4871429999999
 21
238.7799999999999
 31
0.0
  0
LINE
  5
378
330
1E
100
AcDbEntity
  8
CSLAYER1
  6
CONTINUOUS
 62
     3
100
AcDbLine
 10
105.4871429999999
 20
238.7799999999999
 30
0.0
 11
105.1871429999999
 21
238.4799999999999
 31
0.0
  0
LINE
  5
379
330
1E
100
AcDbEntity
  8
CSLAYER1
  6
CONTINUOUS
 62
     3
100
AcDbLine
 10
105.1871429999999
 20
238.4799999999999
 30
0.0
 11
105.1871429999999
 21
228.08
 31
0.0
  0
LINE
  5
37A
330
1E
100
AcDbEntity
  8
CSLAYER1
  6
CONTINUOUS
 62
     3
100
AcDbLine
 10
105.1871429999999
 20
228.08
 30
0.0
 11
105.3980879999999
 21
227.8690549999999
 31
0.0
  0
LINE
  5
37B
330
1E
100
AcDbEntity
  8
CSLAYER1
  6
CONTINUOUS
 62
     3
100
AcDbLine
 10
105.1871429999999
 20
231.28
 30
0.0
 11
104.487143
 21
231.28
 31
0.0
  0
ARC
  5
37C
330
1E
100
AcDbEntity
  8
CSLAYER1
  6
CONTINUOUS
 62
     3
100
AcDbCircle
 10
103.987143
 20
230.6799999999999
 30
0.0
 40
0.5
100
AcDbArc
 50
180.0
 51
0.0
  0
LINE
  5
37D
330
1E
100
AcDbEntity
  8
CSLAYER1
  6
CONTINUOUS
 62
     3
100
AcDbLine
 10
103.487143
 20
230.6799999999999
 30
0.0
 11
103.487143
 21
234.6799999999999
 31
0.0
  0
ARC
  5
37E
330
1E
100
AcDbEntity
  8
CSLAYER1
  6
CONTINUOUS
 62
     3
100
AcDbCircle
 10
103.987143
 20
234.6799999999999
 30
0.0
 40
0.5
100
AcDbArc
 50
0.0
 51
180.0
  0
LINE
  5
37F
330
1E
100
AcDbEntity
  8
CSLAYER1
  6
CONTINUOUS
 62
     3
100
AcDbLine
 10
104.487143
 20
234.6799999999999
 30
0.0
 11
104.487143
 21
230.6799999999999
 31
0.0
  0
LINE
  5
380
330
1E
100
AcDbEntity
  8
CSLAYER1
  6
CONTINUOUS
 62
     3
100
AcDbLine
 10
103.487143
 20
231.28
 30
0.0
 11
102.387143
 21
231.28
 31
0.0
  0
LINE
  5
381
330
1E
100
AcDbEntity
  8
CSLAYER1
  6
CONTINUOUS
 62
     3
100
AcDbLine
 10
102.387143
 20
231.28
 30
0.0
 11
101.887143
 21
231.78
 31
0.0
  0
LINE
  5
382
330
1E
100
AcDbEntity
  8
CSLAYER1
  6
CONTINUOUS
 62
     3
100
AcDbLine
 10
101.887143
 20
231.78
 30
0.0
 11
101.887143
 21
234.7799999999999
 31
0.0
  0
LINE
  5
383
330
1E
100
AcDbEntity
  8
CSLAYER1
  6
CONTINUOUS
 62
     3
100
AcDbLine
 10
101.887143
 20
234.7799999999999
 30
0.0
 11
102.387143
 21
235.28
 31
0.0
  0
LINE
  5
384
330
1E
100
AcDbEntity
  8
CSLAYER1
  6
CONTINUOUS
 62
     3
100
AcDbLine
 10
102.387143
 20
235.28
 30
0.0
 11
105.1871429999999
 21
235.28
 31
0.0
  0
LINE
  5
385
330
1E
100
AcDbEntity
  8
CSLAYER1
  6
CONTINUOUS
 62
     3
100
AcDbLine
 10
105.4871429999999
 20
238.7799999999999
 30
0.0
 11
105.8871429999999
 21
238.7799999999999
 31
0.0
  0
LINE
  5
386
330
1E
100
AcDbEntity
  8
CSLAYER1
  6
CONTINUOUS
 62
     3
100
AcDbLine
 10
102.387143
 20
235.28
 30
0.0
 11
102.387143
 21
231.28
 31
0.0
  0
ARC
  5
387
330
1E
100
AcDbEntity
  8
CSLAYER1
  6
CONTINUOUS
 62
     3
100
AcDbCircle
 10
103.987143
 20
233.28
 30
0.0
 40
0.6
100
AcDbArc
 50
146.44269
 51
213.55731
  0
ARC
  5
388
330
1E
100
AcDbEntity
  8
CSLAYER1
  6
CONTINUOUS
 62
     3
100
AcDbCircle
 10
103.987143
 20
233.28
 30
0.0
 40
0.6
100
AcDbArc
 50
326.44269
 51
33.55731
  0
ARC
  5
389
330
1E
100
AcDbEntity
  8
CSLAYER1
  6
CONTINUOUS
 62
     3
100
AcDbCircle
 10
114.1871429999999
 20
65.682857
 30
0.0
 40
0.8
100
AcDbArc
 50
105.0875139999999
 51
254.9124859999999
  0
LINE
  5
38A
330
1E
100
AcDbEntity
  8
CSLAYER1
  6
CONTINUOUS
 62
     3
100
AcDbLine
 10
113.978908
 20
64.91043399999999
 30
0.0
 11
120.3871429999999
 21
63.18285699999999
 31
0.0
  0
LINE
  5
38B
330
1E
100
AcDbEntity
  8
CSLAYER1
  6
CONTINUOUS
 62
     3
100
AcDbLine
 10
120.3871429999999
 20
65.18285699999999
 30
0.0
 11
147.3871429999999
 21
65.18285699999999
 31
0.0
  0
LINE
  5
38C
330
1E
100
AcDbEntity
  8
CSLAYER1
  6
CONTINUOUS
 62
     3
100
AcDbLine
 10
82.187143
 20
29.882857
 30
0.0
 11
78.58714300000001
 21
29.882857
 31
0.0
  0
ARC
  5
38D
330
1E
100
AcDbEntity
  8
CSLAYER1
  6
CONTINUOUS
 62
     3
100
AcDbCircle
 10
78.58714300000001
 20
26.682857
 30
0.0
 40
3.2
100
AcDbArc
 50
90.0
 51
270.0
  0
LINE
  5
38E
330
1E
100
AcDbEntity
  8
CSLAYER1
  6
CONTINUOUS
 62
     3
100
AcDbLine
 10
78.58714300000001
 20
23.48285699999999
 30
0.0
 11
82.187143
 21
23.48285699999999
 31
0.0
  0
ARC
  5
38F
330
1E
100
AcDbEntity
  8
CSLAYER1
  6
CONTINUOUS
 62
     3
100
AcDbCircle
 10
82.187143
 20
26.682857
 30
0.0
 40
3.2
100
AcDbArc
 50
270.0
 51
90.0
  0
ARC
  5
390
330
1E
100
AcDbEntity
  8
CSLAYER1
  6
CONTINUOUS
 62
     3
100
AcDbCircle
 10
83.88714300000001
 20
55.18285699999999
 30
0.0
 40
22.5
100
AcDbArc
 50
167.898508
 51
192.101492
  0
POINT
  5
391
330
1E
100
AcDbEntity
  8
CSLAYER1
 62
     3
100
AcDbPoint
 10
10.0
 20
3.0
 30
0.0
  0
POINT
  5
392
330
1E
100
AcDbEntity
  8
CSLAYER1
 62
     3
100
AcDbPoint
 10
284.516065
 20
170.03
 30
0.0
  0
POINT
  5
393
330
1E
100
AcDbEntity
  8
CSLAYER1
 62
     3
100
AcDbPoint
 10
300.0160649999999
 20
170.03
 30
0.0
  0
POINT
  5
394
330
1E
100
AcDbEntity
  8
CSLAYER1
 62
     3
100
AcDbPoint
 10
284.516065
 20
185.5299999999999
 30
0.0
  0
POINT
  5
395
330
1E
100
AcDbEntity
  8
CSLAYER1
 62
     3
100
AcDbPoint
 10
300.0160649999999
 20
185.5299999999999
 30
0.0
  0
POINT
  5
396
330
1E
100
AcDbEntity
  8
CSLAYER1
 62
     3
100
AcDbPoint
 10
292.2660649999999
 20
105.58
 30
0.0
  0
POINT
  5
397
330
1E
100
AcDbEntity
  8
CSLAYER1
 62
     3
100
AcDbPoint
 10
292.2660649999999
 20
177.78
 30
0.0
  0
POLYLINE
  5
398
330
1E
100
AcDbEntity
  8
CSLAYER1
  6
CONTINUOUS
 62
     3
100
AcDb2dPolyline
 66
     1
 10
0.0
 20
0.0
 30
0.0
  0
VERTEX
  5
399
330
398
100
AcDbEntity
  8
CSLAYER1
  6
CONTINUOUS
 62
     3
100
AcDbVertex
100
AcDb2dVertex
 10
128.9605709999999
 20
123.28
 30
0.0
  0
VERTEX
  5
39A
330
398
100
AcDbEntity
  8
CSLAYER1
  6
CONTINUOUS
 62
     3
100
AcDbVertex
100
AcDb2dVertex
 10
128.944399
 20
123.637774
 30
0.0
  0
VERTEX
  5
39B
330
398
100
AcDbEntity
  8
CSLAYER1
  6
CONTINUOUS
 62
     3
100
AcDbVertex
100
AcDb2dVertex
 10
128.896004
 20
123.992826
 30
0.0
  0
VERTEX
  5
39C
330
398
100
AcDbEntity
  8
CSLAYER1
  6
CONTINUOUS
 62
     3
100
AcDbVertex
100
AcDb2dVertex
 10
128.8157559999999
 20
124.342452
 30
0.0
  0
VERTEX
  5
39D
330
398
100
AcDbEntity
  8
CSLAYER1
  6
CONTINUOUS
 62
     3
100
AcDbVertex
100
AcDb2dVertex
 10
128.7042649999999
 20
124.6839929999999
 30
0.0
  0
VERTEX
  5
39E
330
398
100
AcDbEntity
  8
CSLAYER1
  6
CONTINUOUS
 62
     3
100
AcDbVertex
100
AcDb2dVertex
 10
128.562379
 20
125.014848
 30
0.0
  0
VERTEX
  5
39F
330
398
100
AcDbEntity
  8
CSLAYER1
  6
CONTINUOUS
 62
     3
100
AcDbVertex
100
AcDb2dVertex
 10
128.3911789999999
 20
125.3325
 30
0.0
  0
VERTEX
  5
3A0
330
398
100
AcDbEntity
  8
CSLAYER1
  6
CONTINUOUS
 62
     3
100
AcDbVertex
100
AcDb2dVertex
 10
128.191968
 20
125.634531
 30
0.0
  0
VERTEX
  5
3A1
330
398
100
AcDbEntity
  8
CSLAYER1
  6
CONTINUOUS
 62
     3
100
AcDbVertex
100
AcDb2dVertex
 10
127.9662599999999
 20
125.9186429999999
 30
0.0
  0
VERTEX
  5
3A2
330
398
100
AcDbEntity
  8
CSLAYER1
  6
CONTINUOUS
 62
     3
100
AcDbVertex
100
AcDb2dVertex
 10
127.7157749999999
 20
126.1826729999999
 30
0.0
  0
VERTEX
  5
3A3
330
398
100
AcDbEntity
  8
CSLAYER1
  6
CONTINUOUS
 62
     3
100
AcDbVertex
100
AcDb2dVertex
 10
127.4424189999999
 20
126.424612
 30
0.0
  0
VERTEX
  5
3A4
330
398
100
AcDbEntity
  8
CSLAYER1
  6
CONTINUOUS
 62
     3
100
AcDbVertex
100
AcDb2dVertex
 10
127.1482709999999
 20
126.642619
 30
0.0
  0
VERTEX
  5
3A5
330
398
100
AcDbEntity
  8
CSLAYER1
  6
CONTINUOUS
 62
     3
100
AcDbVertex
100
AcDb2dVertex
 10
126.835571
 20
126.835034
 30
0.0
  0
VERTEX
  5
3A6
330
398
100
AcDbEntity
  8
CSLAYER1
  6
CONTINUOUS
 62
     3
100
AcDbVertex
100
AcDb2dVertex
 10
126.506699
 20
127.0003929999999
 30
0.0
  0
VERTEX
  5
3A7
330
398
100
AcDbEntity
  8
CSLAYER1
  6
CONTINUOUS
 62
     3
100
AcDbVertex
100
AcDb2dVertex
 10
126.164157
 20
127.1374379999999
 30
0.0
  0
VERTEX
  5
3A8
330
398
100
AcDbEntity
  8
CSLAYER1
  6
CONTINUOUS
 62
     3
100
AcDbVertex
100
AcDb2dVertex
 10
125.8105519999999
 20
127.2451259999999
 30
0.0
  0
VERTEX
  5
3A9
330
398
100
AcDbEntity
  8
CSLAYER1
  6
CONTINUOUS
 62
     3
100
AcDbVertex
100
AcDb2dVertex
 10
125.448576
 20
127.322636
 30
0.0
  0
VERTEX
  5
3AA
330
398
100
AcDbEntity
  8
CSLAYER1
  6
CONTINUOUS
 62
     3
100
AcDbVertex
100
AcDb2dVertex
 10
125.080983
 20
127.369379
 30
0.0
  0
VERTEX
  5
3AB
330
398
100
AcDbEntity
  8
CSLAYER1
  6
CONTINUOUS
 62
     3
100
AcDbVertex
100
AcDb2dVertex
 10
124.710571
 20
127.385
 30
0.0
  0
VERTEX
  5
3AC
330
398
100
AcDbEntity
  8
CSLAYER1
  6
CONTINUOUS
 62
     3
100
AcDbVertex
100
AcDb2dVertex
 10
124.340159
 20
127.369379
 30
0.0
  0
VERTEX
  5
3AD
330
398
100
AcDbEntity
  8
CSLAYER1
  6
CONTINUOUS
 62
     3
100
AcDbVertex
100
AcDb2dVertex
 10
123.972567
 20
127.322636
 30
0.0
  0
VERTEX
  5
3AE
330
398
100
AcDbEntity
  8
CSLAYER1
  6
CONTINUOUS
 62
     3
100
AcDbVertex
100
AcDb2dVertex
 10
123.6105899999999
 20
127.2451259999999
 30
0.0
  0
VERTEX
  5
3AF
330
398
100
AcDbEntity
  8
CSLAYER1
  6
CONTINUOUS
 62
     3
100
AcDbVertex
100
AcDb2dVertex
 10
123.256986
 20
127.1374379999999
 30
0.0
  0
VERTEX
  5
3B0
330
398
100
AcDbEntity
  8
CSLAYER1
  6
CONTINUOUS
 62
     3
100
AcDbVertex
100
AcDb2dVertex
 10
122.914444
 20
127.0003929999999
 30
0.0
  0
VERTEX
  5
3B1
330
398
100
AcDbEntity
  8
CSLAYER1
  6
CONTINUOUS
 62
     3
100
AcDbVertex
100
AcDb2dVertex
 10
122.585571
 20
126.835034
 30
0.0
  0
VERTEX
  5
3B2
330
398
100
AcDbEntity
  8
CSLAYER1
  6
CONTINUOUS
 62
     3
100
AcDbVertex
100
AcDb2dVertex
 10
122.2728719999999
 20
126.642619
 30
0.0
  0
VERTEX
  5
3B3
330
398
100
AcDbEntity
  8
CSLAYER1
  6
CONTINUOUS
 62
     3
100
AcDbVertex
100
AcDb2dVertex
 10
121.978724
 20
126.424612
 30
0.0
  0
VERTEX
  5
3B4
330
398
100
AcDbEntity
  8
CSLAYER1
  6
CONTINUOUS
 62
     3
100
AcDbVertex
100
AcDb2dVertex
 10
121.705368
 20
126.1826729999999
 30
0.0
  0
VERTEX
  5
3B5
330
398
100
AcDbEntity
  8
CSLAYER1
  6
CONTINUOUS
 62
     3
100
AcDbVertex
100
AcDb2dVertex
 10
121.454882
 20
125.9186429999999
 30
0.0
  0
VERTEX
  5
3B6
330
398
100
AcDbEntity
  8
CSLAYER1
  6
CONTINUOUS
 62
     3
100
AcDbVertex
100
AcDb2dVertex
 10
121.229175
 20
125.634531
 30
0.0
  0
VERTEX
  5
3B7
330
398
100
AcDbEntity
  8
CSLAYER1
  6
CONTINUOUS
 62
     3
100
AcDbVertex
100
AcDb2dVertex
 10
121.0299629999999
 20
125.3325
 30
0.0
  0
VERTEX
  5
3B8
330
398
100
AcDbEntity
  8
CSLAYER1
  6
CONTINUOUS
 62
     3
100
AcDbVertex
100
AcDb2dVertex
 10
120.8587629999999
 20
125.014848
 30
0.0
  0
VERTEX
  5
3B9
330
398
100
AcDbEntity
  8
CSLAYER1
  6
CONTINUOUS
 62
     3
100
AcDbVertex
100
AcDb2dVertex
 10
120.716878
 20
124.6839929999999
 30
0.0
  0
VERTEX
  5
3BA
330
398
100
AcDbEntity
  8
CSLAYER1
  6
CONTINUOUS
 62
     3
100
AcDbVertex
100
AcDb2dVertex
 10
120.605387
 20
124.342452
 30
0.0
  0
VERTEX
  5
3BB
330
398
100
AcDbEntity
  8
CSLAYER1
  6
CONTINUOUS
 62
     3
100
AcDbVertex
100
AcDb2dVertex
 10
120.5251379999999
 20
123.992826
 30
0.0
  0
VERTEX
  5
3BC
330
398
100
AcDbEntity
  8
CSLAYER1
  6
CONTINUOUS
 62
     3
100
AcDbVertex
100
AcDb2dVertex
 10
120.4767439999999
 20
123.637774
 30
0.0
  0
VERTEX
  5
3BD
330
398
100
AcDbEntity
  8
CSLAYER1
  6
CONTINUOUS
 62
     3
100
AcDbVertex
100
AcDb2dVertex
 10
120.460571
 20
123.28
 30
0.0
  0
VERTEX
  5
3BE
330
398
100
AcDbEntity
  8
CSLAYER1
  6
CONTINUOUS
 62
     3
100
AcDbVertex
100
AcDb2dVertex
 10
120.4767439999999
 20
122.922226
 30
0.0
  0
VERTEX
  5
3BF
330
398
100
AcDbEntity
  8
CSLAYER1
  6
CONTINUOUS
 62
     3
100
AcDbVertex
100
AcDb2dVertex
 10
120.5251379999999
 20
122.5671739999999
 30
0.0
  0
VERTEX
  5
3C0
330
398
100
AcDbEntity
  8
CSLAYER1
  6
CONTINUOUS
 62
     3
100
AcDbVertex
100
AcDb2dVertex
 10
120.605387
 20
122.2175479999999
 30
0.0
  0
VERTEX
  5
3C1
330
398
100
AcDbEntity
  8
CSLAYER1
  6
CONTINUOUS
 62
     3
100
AcDbVertex
100
AcDb2dVertex
 10
120.716878
 20
121.876007
 30
0.0
  0
VERTEX
  5
3C2
330
398
100
AcDbEntity
  8
CSLAYER1
  6
CONTINUOUS
 62
     3
100
AcDbVertex
100
AcDb2dVertex
 10
120.8587629999999
 20
121.545152
 30
0.0
  0
VERTEX
  5
3C3
330
398
100
AcDbEntity
  8
CSLAYER1
  6
CONTINUOUS
 62
     3
100
AcDbVertex
100
AcDb2dVertex
 10
121.0299629999999
 20
121.2274999999999
 30
0.0
  0
VERTEX
  5
3C4
330
398
100
AcDbEntity
  8
CSLAYER1
  6
CONTINUOUS
 62
     3
100
AcDbVertex
100
AcDb2dVertex
 10
121.229175
 20
120.9254689999999
 30
0.0
  0
VERTEX
  5
3C5
330
398
100
AcDbEntity
  8
CSLAYER1
  6
CONTINUOUS
 62
     3
100
AcDbVertex
100
AcDb2dVertex
 10
121.454882
 20
120.641357
 30
0.0
  0
VERTEX
  5
3C6
330
398
100
AcDbEntity
  8
CSLAYER1
  6
CONTINUOUS
 62
     3
100
AcDbVertex
100
AcDb2dVertex
 10
121.705368
 20
120.377327
 30
0.0
  0
VERTEX
  5
3C7
330
398
100
AcDbEntity
  8
CSLAYER1
  6
CONTINUOUS
 62
     3
100
AcDbVertex
100
AcDb2dVertex
 10
121.978724
 20
120.1353879999999
 30
0.0
  0
VERTEX
  5
3C8
330
398
100
AcDbEntity
  8
CSLAYER1
  6
CONTINUOUS
 62
     3
100
AcDbVertex
100
AcDb2dVertex
 10
122.2728719999999
 20
119.917381
 30
0.0
  0
VERTEX
  5
3C9
330
398
100
AcDbEntity
  8
CSLAYER1
  6
CONTINUOUS
 62
     3
100
AcDbVertex
100
AcDb2dVertex
 10
122.585571
 20
119.7249659999999
 30
0.0
  0
VERTEX
  5
3CA
330
398
100
AcDbEntity
  8
CSLAYER1
  6
CONTINUOUS
 62
     3
100
AcDbVertex
100
AcDb2dVertex
 10
122.914444
 20
119.559607
 30
0.0
  0
VERTEX
  5
3CB
330
398
100
AcDbEntity
  8
CSLAYER1
  6
CONTINUOUS
 62
     3
100
AcDbVertex
100
AcDb2dVertex
 10
123.256986
 20
119.422562
 30
0.0
  0
VERTEX
  5
3CC
330
398
100
AcDbEntity
  8
CSLAYER1
  6
CONTINUOUS
 62
     3
100
AcDbVertex
100
AcDb2dVertex
 10
123.6105899999999
 20
119.314874
 30
0.0
  0
VERTEX
  5
3CD
330
398
100
AcDbEntity
  8
CSLAYER1
  6
CONTINUOUS
 62
     3
100
AcDbVertex
100
AcDb2dVertex
 10
123.972567
 20
119.2373639999999
 30
0.0
  0
VERTEX
  5
3CE
330
398
100
AcDbEntity
  8
CSLAYER1
  6
CONTINUOUS
 62
     3
100
AcDbVertex
100
AcDb2dVertex
 10
124.340159
 20
119.1906209999999
 30
0.0
  0
VERTEX
  5
3CF
330
398
100
AcDbEntity
  8
CSLAYER1
  6
CONTINUOUS
 62
     3
100
AcDbVertex
100
AcDb2dVertex
 10
124.710571
 20
119.175
 30
0.0
  0
VERTEX
  5
3D0
330
398
100
AcDbEntity
  8
CSLAYER1
  6
CONTINUOUS
 62
     3
100
AcDbVertex
100
AcDb2dVertex
 10
125.080983
 20
119.1906209999999
 30
0.0
  0
VERTEX
  5
3D1
330
398
100
AcDbEntity
  8
CSLAYER1
  6
CONTINUOUS
 62
     3
100
AcDbVertex
100
AcDb2dVertex
 10
125.448576
 20
119.2373639999999
 30
0.0
  0
VERTEX
  5
3D2
330
398
100
AcDbEntity
  8
CSLAYER1
  6
CONTINUOUS
 62
     3
100
AcDbVertex
100
AcDb2dVertex
 10
125.8105519999999
 20
119.314874
 30
0.0
  0
VERTEX
  5
3D3
330
398
100
AcDbEntity
  8
CSLAYER1
  6
CONTINUOUS
 62
     3
100
AcDbVertex
100
AcDb2dVertex
 10
126.164157
 20
119.422562
 30
0.0
  0
VERTEX
  5
3D4
330
398
100
AcDbEntity
  8
CSLAYER1
  6
CONTINUOUS
 62
     3
100
AcDbVertex
100
AcDb2dVertex
 10
126.506699
 20
119.559607
 30
0.0
  0
VERTEX
  5
3D5
330
398
100
AcDbEntity
  8
CSLAYER1
  6
CONTINUOUS
 62
     3
100
AcDbVertex
100
AcDb2dVertex
 10
126.835571
 20
119.7249659999999
 30
0.0
  0
VERTEX
  5
3D6
330
398
100
AcDbEntity
  8
CSLAYER1
  6
CONTINUOUS
 62
     3
100
AcDbVertex
100
AcDb2dVertex
 10
127.1482709999999
 20
119.917381
 30
0.0
  0
VERTEX
  5
3D7
330
398
100
AcDbEntity
  8
CSLAYER1
  6
CONTINUOUS
 62
     3
100
AcDbVertex
100
AcDb2dVertex
 10
127.4424189999999
 20
120.1353879999999
 30
0.0
  0
VERTEX
  5
3D8
330
398
100
AcDbEntity
  8
CSLAYER1
  6
CONTINUOUS
 62
     3
100
AcDbVertex
100
AcDb2dVertex
 10
127.7157749999999
 20
120.377327
 30
0.0
  0
VERTEX
  5
3D9
330
398
100
AcDbEntity
  8
CSLAYER1
  6
CONTINUOUS
 62
     3
100
AcDbVertex
100
AcDb2dVertex
 10
127.9662599999999
 20
120.641357
 30
0.0
  0
VERTEX
  5
3DA
330
398
100
AcDbEntity
  8
CSLAYER1
  6
CONTINUOUS
 62
     3
100
AcDbVertex
100
AcDb2dVertex
 10
128.191968
 20
120.9254689999999
 30
0.0
  0
VERTEX
  5
3DB
330
398
100
AcDbEntity
  8
CSLAYER1
  6
CONTINUOUS
 62
     3
100
AcDbVertex
100
AcDb2dVertex
 10
128.3911789999999
 20
121.2274999999999
 30
0.0
  0
VERTEX
  5
3DC
330
398
100
AcDbEntity
  8
CSLAYER1
  6
CONTINUOUS
 62
     3
100
AcDbVertex
100
AcDb2dVertex
 10
128.562379
 20
121.545152
 30
0.0
  0
VERTEX
  5
3DD
330
398
100
AcDbEntity
  8
CSLAYER1
  6
CONTINUOUS
 62
     3
100
AcDbVertex
100
AcDb2dVertex
 10
128.7042649999999
 20
121.876007
 30
0.0
  0
VERTEX
  5
3DE
330
398
100
AcDbEntity
  8
CSLAYER1
  6
CONTINUOUS
 62
     3
100
AcDbVertex
100
AcDb2dVertex
 10
128.8157559999999
 20
122.2175479999999
 30
0.0
  0
VERTEX
  5
3DF
330
398
100
AcDbEntity
  8
CSLAYER1
  6
CONTINUOUS
 62
     3
100
AcDbVertex
100
AcDb2dVertex
 10
128.896004
 20
122.5671739999999
 30
0.0
  0
VERTEX
  5
3E0
330
398
100
AcDbEntity
  8
CSLAYER1
  6
CONTINUOUS
 62
     3
100
AcDbVertex
100
AcDb2dVertex
 10
128.944399
 20
122.922226
 30
0.0
  0
VERTEX
  5
3E1
330
398
100
AcDbEntity
  8
CSLAYER1
  6
CONTINUOUS
 62
     3
100
AcDbVertex
100
AcDb2dVertex
 10
128.9605709999999
 20
123.28
 30
0.0
  0
SEQEND
  5
3E2
330
398
100
AcDbEntity
  8
CSLAYER1
 62
     3
  0
LINE
  5
3E3
330
1E
100
AcDbEntity
  8
CSLAYER1
  6
CONTINUOUS
 62
     4
100
AcDbLine
 10
41.943818
 20
6.845890999999999
 30
0.0
 11
58.74805699999999
 21
6.845890999999999
 31
0.0
  0
LINE
  5
3E4
330
1E
100
AcDbEntity
  8
CSLAYER1
  6
CENTER
 62
     4
100
AcDbLine
 10
65.68168799999999
 20
26.682857
 30
0.0
 11
93.66714300000001
 21
26.682857
 31
0.0
  0
LINE
  5
3E5
330
1E
100
AcDbEntity
  8
CSLAYER1
  6
CENTER
 62
     4
100
AcDbLine
 10
82.887143
 20
31.123463
 30
0.0
 11
82.887143
 21
21.55578599999999
 31
0.0
  0
LINE
  5
3E6
330
1E
100
AcDbEntity
  8
CSLAYER1
  6
CENTER
 62
     4
100
AcDbLine
 10
77.88714300000001
 20
21.55578599999999
 30
0.0
 11
77.88714300000001
 21
31.314817
 31
0.0
  0
LINE
  5
3E7
330
1E
100
AcDbEntity
  8
CSLAYER1
  6
CENTER
 62
     4
100
AcDbLine
 10
80.387143
 20
15.05369299999999
 30
0.0
 11
80.387143
 21
96.846025
 31
0.0
  0
LINE
  5
3E8
330
1E
100
AcDbEntity
  8
CSLAYER1
  6
CENTER
 62
     4
100
AcDbLine
 10
82.887143
 20
88.80992799999999
 30
0.0
 11
82.887143
 21
79.242251
 31
0.0
  0
LINE
  5
3E9
330
1E
100
AcDbEntity
  8
CSLAYER1
  6
CENTER
 62
     4
100
AcDbLine
 10
77.88714300000001
 20
79.050898
 30
0.0
 11
77.88714300000001
 21
88.80992799999999
 31
0.0
  0
LINE
  5
3EA
330
1E
100
AcDbEntity
  8
CSLAYER1
  6
CENTER
 62
     4
100
AcDbLine
 10
65.68168799999999
 20
83.68285699999999
 30
0.0
 11
93.66714300000001
 21
83.68285699999999
 31
0.0
  0
LINE
  5
3EB
330
1E
100
AcDbEntity
  8
CSLAYER1
  6
CENTER
 62
     4
100
AcDbLine
 10
114.137711
 20
83.68285699999999
 30
0.0
 11
122.201711
 21
83.68285699999999
 31
0.0
  0
LINE
  5
3EC
330
1E
100
AcDbEntity
  8
CSLAYER1
  6
DASHED
 62
     4
100
AcDbLine
 10
117.1871429999999
 20
77.68285699999999
 30
0.0
 11
117.1871429999999
 21
32.68285699999999
 31
0.0
  0
LINE
  5
3ED
330
1E
100
AcDbEntity
  8
CSLAYER1
  6
CONTINUOUS
 62
     4
100
AcDbLine
 10
120.3871429999999
 20
36.532857
 30
0.0
 11
130.3871429999999
 21
36.532857
 31
0.0
  0
LINE
  5
3EE
330
1E
100
AcDbEntity
  8
CSLAYER1
  6
CENTER
 62
     4
100
AcDbLine
 10
130.3871429999999
 20
38.182857
 30
0.0
 11
109.9763009999999
 21
38.182857
 31
0.0
  0
LINE
  5
3EF
330
1E
100
AcDbEntity
  8
CSLAYER1
  6
CENTER
 62
     4
100
AcDbLine
 10
111.2098189999999
 20
44.682857
 30
0.0
 11
122.602322
 21
44.682857
 31
0.0
  0
LINE
  5
3F0
330
1E
100
AcDbEntity
  8
CSLAYER1
  6
CONTINUOUS
 62
     4
100
AcDbLine
 10
120.3871429999999
 20
39.832857
 30
0.0
 11
130.3871429999999
 21
39.832857
 31
0.0
  0
LINE
  5
3F1
330
1E
100
AcDbEntity
  8
CSLAYER1
  6
CENTER
 62
     4
100
AcDbLine
 10
133.274535
 20
38.182857
 30
0.0
 11
133.587143
 21
38.182857
 31
0.0
  0
LINE
  5
3F2
330
1E
100
AcDbEntity
  8
CSLAYER1
  6
CENTER
 62
     4
100
AcDbLine
 10
136.4745349999999
 20
38.182857
 30
0.0
 11
142.9164829999999
 21
38.182857
 31
0.0
  0
LINE
  5
3F3
330
1E
100
AcDbEntity
  8
CSLAYER1
  6
CONTINUOUS
 62
     4
100
AcDbLine
 10
141.237143
 20
39.832857
 30
0.0
 11
136.7871429999999
 21
39.832857
 31
0.0
  0
LINE
  5
3F4
330
1E
100
AcDbEntity
  8
CSLAYER1
  6
CONTINUOUS
 62
     4
100
AcDbLine
 10
136.7871429999999
 20
36.532857
 30
0.0
 11
141.237143
 21
36.532857
 31
0.0
  0
LINE
  5
3F5
330
1E
100
AcDbEntity
  8
CSLAYER1
  6
CENTER
 62
     4
100
AcDbLine
 10
148.292606
 20
51.503974
 30
0.0
 11
128.6064179999999
 21
51.503974
 31
0.0
  0
LINE
  5
3F6
330
1E
100
AcDbEntity
  8
CSLAYER1
  6
CENTER
 62
     4
100
AcDbLine
 10
128.9288449999999
 20
58.86174
 30
0.0
 11
148.292606
 21
58.86174
 31
0.0
  0
LINE
  5
3F7
330
1E
100
AcDbEntity
  8
CSLAYER1
  6
CENTER
 62
     4
100
AcDbLine
 10
153.5008239999999
 20
55.18285699999999
 30
0.0
 11
48.419188
 21
55.18285699999999
 31
0.0
  0
LINE
  5
3F8
330
1E
100
AcDbEntity
  8
CSLAYER1
  6
CENTER
 62
     4
100
AcDbLine
 10
111.2098189999999
 20
65.682857
 30
0.0
 11
122.602322
 21
65.682857
 31
0.0
  0
LINE
  5
3F9
330
1E
100
AcDbEntity
  8
CSLAYER1
  6
CENTER
 62
     4
100
AcDbLine
 10
123.5144299999999
 20
72.182857
 30
0.0
 11
112.9847739999999
 21
72.182857
 31
0.0
  0
LINE
  5
3FA
330
1E
100
AcDbEntity
  8
CSLAYER1
  6
CENTER
 62
     4
100
AcDbLine
 10
115.289711
 20
26.682857
 30
0.0
 11
122.777711
 21
26.682857
 31
0.0
  0
LINE
  5
3FB
330
1E
100
AcDbEntity
  8
CSLAYER1
  6
CONTINUOUS
 62
     4
100
AcDbLine
 10
134.901429
 20
87.40285699999999
 30
0.0
 11
134.901429
 21
97.672114
 31
0.0
  0
LINE
  5
3FC
330
1E
100
AcDbEntity
  8
CSLAYER1
  6
CONTINUOUS
 62
     4
100
AcDbLine
 10
134.901429
 20
97.672114
 30
0.0
 11
134.1249709999999
 21
94.774337
 31
0.0
  0
LINE
  5
3FD
330
1E
100
AcDbEntity
  8
CSLAYER1
  6
CONTINUOUS
 62
     4
100
AcDbLine
 10
134.901429
 20
97.672114
 30
0.0
 11
135.677886
 21
94.774337
 31
0.0
  0
LINE
  5
3FE
330
1E
100
AcDbEntity
  8
CSLAYER1
  6
DASHED
 62
     4
100
AcDbLine
 10
147.5935659999999
 20
105.58
 30
0.0
 11
155.3871429999999
 21
113.3735769999999
 31
0.0
  0
LINE
  5
3FF
330
1E
100
AcDbEntity
  8
CSLAYER1
  6
CENTER
 62
     4
100
AcDbLine
 10
131.686316
 20
123.28
 30
0.0
 11
117.601936
 21
123.28
 31
0.0
  0
LINE
  5
400
330
1E
100
AcDbEntity
  8
CSLAYER1
  6
CENTER
 62
     4
100
AcDbLine
 10
124.710571
 20
116.0117889999999
 30
0.0
 11
124.710571
 21
130.6032059999999
 31
0.0
  0
LINE
  5
401
330
1E
100
AcDbEntity
  8
CSLAYER1
  6
CENTER
 62
     4
100
AcDbLine
 10
117.887143
 20
111.18
 30
0.0
 11
117.887143
 21
103.485788
 31
0.0
  0
LINE
  5
402
330
1E
100
AcDbEntity
  8
CSLAYER1
  6
CENTER
 62
     4
100
AcDbLine
 10
115.3871429999999
 20
103.485788
 30
0.0
 11
115.3871429999999
 21
111.18
 31
0.0
  0
LINE
  5
403
330
1E
100
AcDbEntity
  8
CSLAYER1
  6
CENTER
 62
     4
100
AcDbLine
 10
112.887143
 20
111.18
 30
0.0
 11
112.887143
 21
103.485788
 31
0.0
  0
LINE
  5
404
330
1E
100
AcDbEntity
  8
CSLAYER1
  6
CENTER
 62
     4
100
AcDbLine
 10
118.887143
 20
101.1752509999999
 30
0.0
 11
118.887143
 21
245.9540509999999
 31
0.0
  0
LINE
  5
405
330
1E
100
AcDbEntity
  8
CSLAYER1
  6
CENTER
 62
     4
100
AcDbLine
 10
137.372482
 20
233.28
 30
0.0
 11
100.1190639999999
 21
233.28
 31
0.0
  0
LINE
  5
406
330
1E
100
AcDbEntity
  8
CSLAYER1
  6
CENTER
 62
     4
100
AcDbLine
 10
100.887143
 20
203.62328
 30
0.0
 11
100.887143
 21
150.73965
 31
0.0
  0
CIRCLE
  5
407
330
1E
100
AcDbEntity
  8
CSLAYER1
  6
CONTINUOUS
 62
     4
100
AcDbCircle
 10
100.887143
 20
157.2799999999999
 30
0.0
 40
2.0
  0
LINE
  5
408
330
1E
100
AcDbEntity
  8
CSLAYER1
  6
CENTER
 62
     4
100
AcDbLine
 10
93.358074
 20
157.2799999999999
 30
0.0
 11
105.0656449999999
 21
157.2799999999999
 31
0.0
  0
LINE
  5
409
330
1E
100
AcDbEntity
  8
CSLAYER1
  6
CENTER
 62
     4
100
AcDbLine
 10
132.7086409999999
 20
157.2799999999999
 30
0.0
 11
144.416212
 21
157.2799999999999
 31
0.0
  0
CIRCLE
  5
40A
330
1E
100
AcDbEntity
  8
CSLAYER1
  6
CONTINUOUS
 62
     4
100
AcDbCircle
 10
136.8871429999999
 20
157.2799999999999
 30
0.0
 40
2.0
  0
LINE
  5
40B
330
1E
100
AcDbEntity
  8
CSLAYER1
  6
CENTER
 62
     4
100
AcDbLine
 10
135.334191
 20
157.78
 30
0.0
 11
189.0784309999999
 21
157.78
 31
0.0
  0
LINE
  5
40C
330
1E
100
AcDbEntity
  8
CSLAYER1
  6
CENTER
 62
     4
100
AcDbLine
 10
183.292606
 20
154.1011169999999
 30
0.0
 11
163.6064179999999
 21
154.1011169999999
 31
0.0
  0
LINE
  5
40D
330
1E
100
AcDbEntity
  8
CSLAYER1
  6
CENTER
 62
     4
100
AcDbLine
 10
163.928845
 20
161.458883
 30
0.0
 11
183.292606
 21
161.458883
 31
0.0
  0
LINE
  5
40E
330
1E
100
AcDbEntity
  8
CSLAYER1
  6
CENTER
 62
     4
100
AcDbLine
 10
177.3871429999999
 20
172.8151159999999
 30
0.0
 11
177.3871429999999
 21
181.939147
 31
0.0
  0
LINE
  5
40F
330
1E
100
AcDbEntity
  8
CSLAYER1
  6
CENTER
 62
     4
100
AcDbLine
 10
176.3871429999999
 20
178.860602
 30
0.0
 11
176.3871429999999
 21
185.4816689999999
 31
0.0
  0
CIRCLE
  5
410
330
1E
100
AcDbEntity
  8
CSLAYER1
  6
CONTINUOUS
 62
     4
100
AcDbCircle
 10
177.3871429999999
 20
177.78
 30
0.0
 40
2.5
  0
LINE
  5
411
330
1E
100
AcDbEntity
  8
CSLAYER1
  6
CENTER
 62
     4
100
AcDbLine
 10
184.3705709999999
 20
177.78
 30
0.0
 11
139.110912
 21
177.78
 31
0.0
  0
LINE
  5
412
330
1E
100
AcDbEntity
  8
CSLAYER1
  6
CENTER
 62
     4
100
AcDbLine
 10
134.98649
 20
192.28
 30
0.0
 11
153.7884079999999
 21
192.28
 31
0.0
  0
LINE
  5
413
330
1E
100
AcDbEntity
  8
CSLAYER1
  6
CENTER
 62
     4
100
AcDbLine
 10
145.3918429999999
 20
197.28
 30
0.0
 11
132.2208259999999
 21
197.28
 31
0.0
  0
LINE
  5
414
330
1E
100
AcDbEntity
  8
CSLAYER1
  6
CENTER
 62
     4
100
AcDbLine
 10
135.334191
 20
197.78
 30
0.0
 11
189.2116399999999
 21
197.78
 31
0.0
  0
LINE
  5
415
330
1E
100
AcDbEntity
  8
CSLAYER1
  6
CENTER
 62
     4
100
AcDbLine
 10
183.292606
 20
194.1011169999999
 30
0.0
 11
163.6064179999999
 21
194.1011169999999
 31
0.0
  0
LINE
  5
416
330
1E
100
AcDbEntity
  8
CSLAYER1
  6
CENTER
 62
     4
100
AcDbLine
 10
163.928845
 20
201.458883
 30
0.0
 11
183.292606
 21
201.458883
 31
0.0
  0
LINE
  5
417
330
1E
100
AcDbEntity
  8
CSLAYER1
  6
CENTER
 62
     4
100
AcDbLine
 10
162.3871429999999
 20
181.939147
 30
0.0
 11
162.3871429999999
 21
173.07093
 31
0.0
  0
CIRCLE
  5
418
330
1E
100
AcDbEntity
  8
CSLAYER1
  6
CONTINUOUS
 62
     4
100
AcDbCircle
 10
162.3871429999999
 20
177.78
 30
0.0
 40
2.1
  0
LINE
  5
419
330
1E
100
AcDbEntity
  8
CSLAYER1
  6
CONTINUOUS
 62
     4
100
AcDbLine
 10
151.487143
 20
175.28
 30
0.0
 11
151.0871429999999
 21
175.68
 31
0.0
  0
LINE
  5
41A
330
1E
100
AcDbEntity
  8
CSLAYER1
  6
CONTINUOUS
 62
     4
100
AcDbLine
 10
151.0871429999999
 20
175.68
 30
0.0
 11
150.087143
 21
175.68
 31
0.0
  0
LINE
  5
41B
330
1E
100
AcDbEntity
  8
CSLAYER1
  6
CONTINUOUS
 62
     4
100
AcDbLine
 10
150.087143
 20
179.8799999999999
 30
0.0
 11
151.0871429999999
 21
179.8799999999999
 31
0.0
  0
LINE
  5
41C
330
1E
100
AcDbEntity
  8
CSLAYER1
  6
CONTINUOUS
 62
     4
100
AcDbLine
 10
151.0871429999999
 20
179.8799999999999
 30
0.0
 11
151.487143
 21
180.2799999999999
 31
0.0
  0
CIRCLE
  5
41D
330
1E
100
AcDbEntity
  8
CSLAYER1
  6
CONTINUOUS
 62
     4
100
AcDbCircle
 10
136.8871429999999
 20
197.28
 30
0.0
 40
2.0
  0
LINE
  5
41E
330
1E
100
AcDbEntity
  8
CSLAYER1
  6
CENTER
 62
     4
100
AcDbLine
 10
136.8871429999999
 20
203.62328
 30
0.0
 11
136.8871429999999
 21
150.73965
 31
0.0
  0
LINE
  5
41F
330
1E
100
AcDbEntity
  8
CSLAYER1
  6
CENTER
 62
     4
100
AcDbLine
 10
134.98649
 20
152.28
 30
0.0
 11
153.7884079999999
 21
152.28
 31
0.0
  0
LINE
  5
420
330
1E
100
AcDbEntity
  8
CSLAYER1
  6
CENTER
 62
     4
100
AcDbLine
 10
105.55346
 20
197.28
 30
0.0
 11
92.38244300000001
 21
197.28
 31
0.0
  0
CIRCLE
  5
421
330
1E
100
AcDbEntity
  8
CSLAYER1
  6
CONTINUOUS
 62
     4
100
AcDbCircle
 10
100.887143
 20
197.28
 30
0.0
 40
2.0
  0
LINE
  5
422
330
1E
100
AcDbEntity
  8
CSLAYER1
  6
CENTER
 62
     4
100
AcDbLine
 10
251.9976899999999
 20
177.78
 30
0.0
 11
331.3001939999999
 21
177.78
 31
0.0
  0
LINE
  5
423
330
1E
100
AcDbEntity
  8
CSLAYER1
  6
CENTER
 62
     4
100
AcDbLine
 10
325.8931359999999
 20
175.28
 30
0.0
 11
316.134106
 21
175.28
 31
0.0
  0
LINE
  5
424
330
1E
100
AcDbEntity
  8
CSLAYER1
  6
CENTER
 62
     4
100
AcDbLine
 10
315.718977
 20
180.2799999999999
 30
0.0
 11
325.310136
 21
180.2799999999999
 31
0.0
  0
LINE
  5
425
330
1E
100
AcDbEntity
  8
CSLAYER1
  6
CENTER
 62
     4
100
AcDbLine
 10
320.7660649999999
 20
191.06
 30
0.0
 11
320.7660649999999
 21
163.074545
 31
0.0
  0
LINE
  5
426
330
1E
100
AcDbEntity
  8
CSLAYER1
  6
CENTER
 62
     4
100
AcDbLine
 10
315.546229
 20
152.28
 30
0.0
 11
304.73474
 21
152.28
 31
0.0
  0
LINE
  5
427
330
1E
100
AcDbEntity
  8
CSLAYER1
  6
CENTER
 62
     4
100
AcDbLine
 10
300.744895
 20
157.78
 30
0.0
 11
283.0518569999999
 21
157.78
 31
0.0
  0
LINE
  5
428
330
1E
100
AcDbEntity
  8
CSLAYER1
  6
CENTER
 62
     4
100
AcDbLine
 10
284.516065
 20
162.62201
 30
0.0
 11
284.516065
 21
193.145644
 31
0.0
  0
LINE
  5
429
330
1E
100
AcDbEntity
  8
CSLAYER1
  6
CENTER
 62
     4
100
AcDbLine
 10
284.026452
 20
197.78
 30
0.0
 11
300.744895
 21
197.78
 31
0.0
  0
LINE
  5
42A
330
1E
100
AcDbEntity
  8
CSLAYER1
  6
CENTER
 62
     4
100
AcDbLine
 10
300.0160649999999
 20
193.145644
 30
0.0
 11
300.0160649999999
 21
162.62201
 31
0.0
  0
LINE
  5
42B
330
1E
100
AcDbEntity
  8
CSLAYER1
  6
CENTER
 62
     4
100
AcDbLine
 10
310.2660649999999
 20
157.724429
 30
0.0
 11
310.2660649999999
 21
146.9282109999999
 31
0.0
  0
LINE
  5
42C
330
1E
100
AcDbEntity
  8
CSLAYER1
  6
CENTER
 62
     4
100
AcDbLine
 10
302.7660649999999
 20
114.757324
 30
0.0
 11
302.7660649999999
 21
103.36482
 31
0.0
  0
LINE
  5
42D
330
1E
100
AcDbEntity
  8
CSLAYER1
  6
CENTER
 62
     4
100
AcDbLine
 10
292.2660649999999
 20
99.95088299999999
 30
0.0
 11
292.2660649999999
 21
244.907102
 31
0.0
  0
LINE
  5
42E
330
1E
100
AcDbEntity
  8
CSLAYER1
  6
CENTER
 62
     4
100
AcDbLine
 10
307.2660649999999
 20
213.4510029999999
 30
0.0
 11
307.2660649999999
 21
206.4013609999999
 31
0.0
  0
CIRCLE
  5
42F
330
1E
100
AcDbEntity
  8
CSLAYER1
  6
CONTINUOUS
 62
     4
100
AcDbCircle
 10
307.2660649999999
 20
209.7799999999999
 30
0.0
 40
2.0
  0
LINE
  5
430
330
1E
100
AcDbEntity
  8
CSLAYER1
  6
CENTER
 62
     4
100
AcDbLine
 10
311.615094
 20
209.7799999999999
 30
0.0
 11
273.4604549999999
 21
209.7799999999999
 31
0.0
  0
CIRCLE
  5
431
330
1E
100
AcDbEntity
  8
CSLAYER1
  6
CONTINUOUS
 62
     4
100
AcDbCircle
 10
277.2660649999999
 20
209.7799999999999
 30
0.0
 40
2.0
  0
LINE
  5
432
330
1E
100
AcDbEntity
  8
CSLAYER1
  6
CENTER
 62
     4
100
AcDbLine
 10
277.2660649999999
 20
206.4013609999999
 30
0.0
 11
277.2660649999999
 21
213.4510029999999
 31
0.0
  0
LINE
  5
433
330
1E
100
AcDbEntity
  8
CSLAYER1
  6
CENTER
 62
     4
100
AcDbLine
 10
274.2660649999999
 20
197.628096
 30
0.0
 11
274.2660649999999
 21
187.085907
 31
0.0
  0
LINE
  5
434
330
1E
100
AcDbEntity
  8
CSLAYER1
  6
CENTER
 62
     4
100
AcDbLine
 10
277.643257
 20
185.5299999999999
 30
0.0
 11
306.0430149999999
 21
185.5299999999999
 31
0.0
  0
LINE
  5
435
330
1E
100
AcDbEntity
  8
CSLAYER1
  6
CENTER
 62
     4
100
AcDbLine
 10
279.797594
 20
192.28
 30
0.0
 11
268.408643
 21
192.28
 31
0.0
  0
LINE
  5
436
330
1E
100
AcDbEntity
  8
CSLAYER1
  6
CENTER
 62
     4
100
AcDbLine
 10
263.7660649999999
 20
191.06
 30
0.0
 11
263.7660649999999
 21
163.074545
 31
0.0
  0
LINE
  5
437
330
1E
100
AcDbEntity
  8
CSLAYER1
  6
CENTER
 62
     4
100
AcDbLine
 10
267.942924
 20
152.28
 30
0.0
 11
279.5435649999999
 21
152.28
 31
0.0
  0
LINE
  5
438
330
1E
100
AcDbEntity
  8
CSLAYER1
  6
CENTER
 62
     4
100
AcDbLine
 10
274.2660649999999
 20
157.4704
 30
0.0
 11
274.2660649999999
 21
146.801197
 31
0.0
  0
LINE
  5
439
330
1E
100
AcDbEntity
  8
CSLAYER1
  6
CENTER
 62
     4
100
AcDbLine
 10
281.7660649999999
 20
114.757324
 30
0.0
 11
281.7660649999999
 21
103.36482
 31
0.0
  0
LINE
  5
43A
330
1E
100
AcDbEntity
  8
CSLAYER1
  6
DASHED
 62
     4
100
AcDbLine
 10
269.7660649999999
 20
108.78
 30
0.0
 11
314.7660649999999
 21
108.78
 31
0.0
  0
LINE
  5
43B
330
1E
100
AcDbEntity
  8
CSLAYER1
  6
CENTER
 62
     4
100
AcDbLine
 10
263.7660649999999
 20
112.932
 30
0.0
 11
263.7660649999999
 21
102.5639999999999
 31
0.0
  0
LINE
  5
43C
330
1E
100
AcDbEntity
  8
CSLAYER1
  6
CENTER
 62
     4
100
AcDbLine
 10
320.7660649999999
 20
102.5639999999999
 30
0.0
 11
320.7660649999999
 21
112.932
 31
0.0
  0
LINE
  5
43D
330
1E
100
AcDbEntity
  8
CSLAYER1
  6
CENTER
 62
     4
100
AcDbLine
 10
309.2660649999999
 20
171.873316
 30
0.0
 11
309.2660649999999
 21
183.1699689999999
 31
0.0
  0
LINE
  5
43E
330
1E
100
AcDbEntity
  8
CSLAYER1
  6
CENTER
 62
     4
100
AcDbLine
 10
310.2660649999999
 20
187.0435689999999
 30
0.0
 11
310.2660649999999
 21
197.458744
 31
0.0
  0
LINE
  5
43F
330
1E
100
AcDbEntity
  8
CSLAYER1
  6
CENTER
 62
     4
100
AcDbLine
 10
304.5653879999999
 20
192.28
 30
0.0
 11
316.0522209999999
 21
192.28
 31
0.0
  0
CIRCLE
  5
440
330
1E
100
AcDbEntity
  8
CSLAYER1
  6
CONTINUOUS
 62
     4
100
AcDbCircle
 10
309.2660649999999
 20
177.78
 30
0.0
 40
1.649999999999999
  0
LINE
  5
441
330
1E
100
AcDbEntity
  8
CSLAYER1
  6
CENTER
 62
     4
100
AcDbLine
 10
307.0603009999999
 20
170.03
 30
0.0
 11
277.643257
 21
170.03
 31
0.0
  0
LINE
  5
442
330
1E
100
AcDbEntity
  8
CSLAYER1
  6
CENTER
 62
     4
100
AcDbLine
 10
275.2660649999999
 20
173.152129
 30
0.0
 11
275.2660649999999
 21
183.1699689999999
 31
0.0
  0
LINE
  5
443
330
1E
100
AcDbEntity
  8
CSLAYER1
  6
CENTER
 62
     4
100
AcDbLine
 10
268.2066709999999
 20
180.2799999999999
 30
0.0
 11
258.638995
 21
180.2799999999999
 31
0.0
  0
LINE
  5
444
330
1E
100
AcDbEntity
  8
CSLAYER1
  6
CENTER
 62
     4
100
AcDbLine
 10
259.2443279999999
 20
175.28
 30
0.0
 11
268.398025
 21
175.28
 31
0.0
  0
TEXT
  5
445
330
1E
100
AcDbEntity
  8
CSLAYER1
 62
     4
100
AcDbText
 10
201.8717189999999
 20
205.1708529999999
 30
0.0
 40
3.2
  1
10OSHI
 41
1.090909147727275
 51
15.0
  7
FX_FONT
 72
     5
 11
221.07172
 21
205.1708529999999
 31
0.0
100
AcDbText
  0
TEXT
  5
446
330
1E
100
AcDbEntity
  8
CSLAYER1
 62
     4
100
AcDbText
 10
134.401428
 20
90.159514
 30
0.0
 40
3.2
  1
A
 50
90.0
 41
1.500000000000001
  7
FX_FONT
 72
     5
 11
134.401428
 21
93.359514
 31
0.0
100
AcDbText
  0
TEXT
  5
447
330
1E
100
AcDbEntity
  8
CSLAYER1
 62
     4
100
AcDbText
 10
44.257127
 20
7.345890999999999
 30
0.0
 40
3.2
  1
A矢視図
 41
0.9374999999999996
  7
FX_FONT
 72
     5
 11
57.057127
 21
7.345890999999999
 31
0.0
100
AcDbText
  0
TEXT
  5
448
330
1E
100
AcDbEntity
  8
CSLAYER1
 62
     4
100
AcDbText
 10
162.783716
 20
256.608002
 30
0.0
 40
3.2
  1
(22)
 41
1.199999999999998
 51
15.0
  7
FX_FONT
 72
     5
 11
175.5837159999999
 21
256.608002
 31
0.0
100
AcDbText
  0
POLYLINE
  5
449
330
1E
100
AcDbEntity
  8
CSLAYER1
  6
CONTINUOUS
 62
     4
100
AcDb2dPolyline
 66
     1
 10
0.0
 20
0.0
 30
0.0
  0
VERTEX
  5
44A
330
449
100
AcDbEntity
  8
CSLAYER1
  6
CONTINUOUS
 62
     4
100
AcDbVertex
100
AcDb2dVertex
 10
129.4605709999999
 20
123.28
 30
0.0
  0
VERTEX
  5
44B
330
449
100
AcDbEntity
  8
CSLAYER1
  6
CONTINUOUS
 62
     4
100
AcDbVertex
100
AcDb2dVertex
 10
129.442496
 20
123.679609
 30
0.0
  0
VERTEX
  5
44C
330
449
100
AcDbEntity
  8
CSLAYER1
  6
CONTINUOUS
 62
     4
100
AcDbVertex
100
AcDb2dVertex
 10
129.3884079999999
 20
124.0761769999999
 30
0.0
  0
VERTEX
  5
44D
330
449
100
AcDbEntity
  8
CSLAYER1
  6
CONTINUOUS
 62
     4
100
AcDbVertex
100
AcDb2dVertex
 10
129.298719
 20
124.466685
 30
0.0
  0
VERTEX
  5
44E
330
449
100
AcDbEntity
  8
CSLAYER1
  6
CONTINUOUS
 62
     4
100
AcDbVertex
100
AcDb2dVertex
 10
129.174111
 20
124.848162
 30
0.0
  0
VERTEX
  5
44F
330
449
100
AcDbEntity
  8
CSLAYER1
  6
CONTINUOUS
 62
     4
100
AcDbVertex
100
AcDb2dVertex
 10
129.015533
 20
125.217705
 30
0.0
  0
VERTEX
  5
450
330
449
100
AcDbEntity
  8
CSLAYER1
  6
CONTINUOUS
 62
     4
100
AcDbVertex
100
AcDb2dVertex
 10
128.8241919999999
 20
125.5724999999999
 30
0.0
  0
VERTEX
  5
451
330
449
100
AcDbEntity
  8
CSLAYER1
  6
CONTINUOUS
 62
     4
100
AcDbVertex
100
AcDb2dVertex
 10
128.6015439999999
 20
125.909848
 30
0.0
  0
VERTEX
  5
452
330
449
100
AcDbEntity
  8
CSLAYER1
  6
CONTINUOUS
 62
     4
100
AcDbVertex
100
AcDb2dVertex
 10
128.349282
 20
126.227181
 30
0.0
  0
VERTEX
  5
453
330
449
100
AcDbEntity
  8
CSLAYER1
  6
CONTINUOUS
 62
     4
100
AcDbVertex
100
AcDb2dVertex
 10
128.069329
 20
126.522085
 30
0.0
  0
VERTEX
  5
454
330
449
100
AcDbEntity
  8
CSLAYER1
  6
CONTINUOUS
 62
     4
100
AcDbVertex
100
AcDb2dVertex
 10
127.7638129999999
 20
126.7923139999999
 30
0.0
  0
VERTEX
  5
455
330
449
100
AcDbEntity
  8
CSLAYER1
  6
CONTINUOUS
 62
     4
100
AcDbVertex
100
AcDb2dVertex
 10
127.435059
 20
127.035812
 30
0.0
  0
VERTEX
  5
456
330
449
100
AcDbEntity
  8
CSLAYER1
  6
CONTINUOUS
 62
     4
100
AcDbVertex
100
AcDb2dVertex
 10
127.0855709999999
 20
127.250726
 30
0.0
  0
VERTEX
  5
457
330
449
100
AcDbEntity
  8
CSLAYER1
  6
CONTINUOUS
 62
     4
100
AcDbVertex
100
AcDb2dVertex
 10
126.718008
 20
127.435421
 30
0.0
  0
VERTEX
  5
458
330
449
100
AcDbEntity
  8
CSLAYER1
  6
CONTINUOUS
 62
     4
100
AcDbVertex
100
AcDb2dVertex
 10
126.335167
 20
127.588491
 30
0.0
  0
VERTEX
  5
459
330
449
100
AcDbEntity
  8
CSLAYER1
  6
CONTINUOUS
 62
     4
100
AcDbVertex
100
AcDb2dVertex
 10
125.939962
 20
127.70877
 30
0.0
  0
VERTEX
  5
45A
330
449
100
AcDbEntity
  8
CSLAYER1
  6
CONTINUOUS
 62
     4
100
AcDbVertex
100
AcDb2dVertex
 10
125.5354
 20
127.795344
 30
0.0
  0
VERTEX
  5
45B
330
449
100
AcDbEntity
  8
CSLAYER1
  6
CONTINUOUS
 62
     4
100
AcDbVertex
100
AcDb2dVertex
 10
125.124561
 20
127.847553
 30
0.0
  0
VERTEX
  5
45C
330
449
100
AcDbEntity
  8
CSLAYER1
  6
CONTINUOUS
 62
     4
100
AcDbVertex
100
AcDb2dVertex
 10
124.710571
 20
127.865
 30
0.0
  0
VERTEX
  5
45D
330
449
100
AcDbEntity
  8
CSLAYER1
  6
CONTINUOUS
 62
     4
100
AcDbVertex
100
AcDb2dVertex
 10
124.2965819999999
 20
127.847553
 30
0.0
  0
VERTEX
  5
45E
330
449
100
AcDbEntity
  8
CSLAYER1
  6
CONTINUOUS
 62
     4
100
AcDbVertex
100
AcDb2dVertex
 10
123.8857429999999
 20
127.795344
 30
0.0
  0
VERTEX
  5
45F
330
449
100
AcDbEntity
  8
CSLAYER1
  6
CONTINUOUS
 62
     4
100
AcDbVertex
100
AcDb2dVertex
 10
123.481181
 20
127.70877
 30
0.0
  0
VERTEX
  5
460
330
449
100
AcDbEntity
  8
CSLAYER1
  6
CONTINUOUS
 62
     4
100
AcDbVertex
100
AcDb2dVertex
 10
123.0859759999999
 20
127.588491
 30
0.0
  0
VERTEX
  5
461
330
449
100
AcDbEntity
  8
CSLAYER1
  6
CONTINUOUS
 62
     4
100
AcDbVertex
100
AcDb2dVertex
 10
122.703135
 20
127.435421
 30
0.0
  0
VERTEX
  5
462
330
449
100
AcDbEntity
  8
CSLAYER1
  6
CONTINUOUS
 62
     4
100
AcDbVertex
100
AcDb2dVertex
 10
122.335571
 20
127.250726
 30
0.0
  0
VERTEX
  5
463
330
449
100
AcDbEntity
  8
CSLAYER1
  6
CONTINUOUS
 62
     4
100
AcDbVertex
100
AcDb2dVertex
 10
121.986083
 20
127.035812
 30
0.0
  0
VERTEX
  5
464
330
449
100
AcDbEntity
  8
CSLAYER1
  6
CONTINUOUS
 62
     4
100
AcDbVertex
100
AcDb2dVertex
 10
121.65733
 20
126.7923139999999
 30
0.0
  0
VERTEX
  5
465
330
449
100
AcDbEntity
  8
CSLAYER1
  6
CONTINUOUS
 62
     4
100
AcDbVertex
100
AcDb2dVertex
 10
121.3518139999999
 20
126.522085
 30
0.0
  0
VERTEX
  5
466
330
449
100
AcDbEntity
  8
CSLAYER1
  6
CONTINUOUS
 62
     4
100
AcDbVertex
100
AcDb2dVertex
 10
121.07186
 20
126.227181
 30
0.0
  0
VERTEX
  5
467
330
449
100
AcDbEntity
  8
CSLAYER1
  6
CONTINUOUS
 62
     4
100
AcDbVertex
100
AcDb2dVertex
 10
120.8195989999999
 20
125.909848
 30
0.0
  0
VERTEX
  5
468
330
449
100
AcDbEntity
  8
CSLAYER1
  6
CONTINUOUS
 62
     4
100
AcDbVertex
100
AcDb2dVertex
 10
120.596951
 20
125.5724999999999
 30
0.0
  0
VERTEX
  5
469
330
449
100
AcDbEntity
  8
CSLAYER1
  6
CONTINUOUS
 62
     4
100
AcDbVertex
100
AcDb2dVertex
 10
120.405609
 20
125.217705
 30
0.0
  0
VERTEX
  5
46A
330
449
100
AcDbEntity
  8
CSLAYER1
  6
CONTINUOUS
 62
     4
100
AcDbVertex
100
AcDb2dVertex
 10
120.247031
 20
124.848162
 30
0.0
  0
VERTEX
  5
46B
330
449
100
AcDbEntity
  8
CSLAYER1
  6
CONTINUOUS
 62
     4
100
AcDbVertex
100
AcDb2dVertex
 10
120.1224239999999
 20
124.466685
 30
0.0
  0
VERTEX
  5
46C
330
449
100
AcDbEntity
  8
CSLAYER1
  6
CONTINUOUS
 62
     4
100
AcDbVertex
100
AcDb2dVertex
 10
120.032735
 20
124.0761769999999
 30
0.0
  0
VERTEX
  5
46D
330
449
100
AcDbEntity
  8
CSLAYER1
  6
CONTINUOUS
 62
     4
100
AcDbVertex
100
AcDb2dVertex
 10
119.978647
 20
123.679609
 30
0.0
  0
VERTEX
  5
46E
330
449
100
AcDbEntity
  8
CSLAYER1
  6
CONTINUOUS
 62
     4
100
AcDbVertex
100
AcDb2dVertex
 10
119.9605709999999
 20
123.28
 30
0.0
  0
VERTEX
  5
46F
330
449
100
AcDbEntity
  8
CSLAYER1
  6
CONTINUOUS
 62
     4
100
AcDbVertex
100
AcDb2dVertex
 10
119.978647
 20
122.8803909999999
 30
0.0
  0
VERTEX
  5
470
330
449
100
AcDbEntity
  8
CSLAYER1
  6
CONTINUOUS
 62
     4
100
AcDbVertex
100
AcDb2dVertex
 10
120.032735
 20
122.483823
 30
0.0
  0
VERTEX
  5
471
330
449
100
AcDbEntity
  8
CSLAYER1
  6
CONTINUOUS
 62
     4
100
AcDbVertex
100
AcDb2dVertex
 10
120.1224239999999
 20
122.093315
 30
0.0
  0
VERTEX
  5
472
330
449
100
AcDbEntity
  8
CSLAYER1
  6
CONTINUOUS
 62
     4
100
AcDbVertex
100
AcDb2dVertex
 10
120.247031
 20
121.7118379999999
 30
0.0
  0
VERTEX
  5
473
330
449
100
AcDbEntity
  8
CSLAYER1
  6
CONTINUOUS
 62
     4
100
AcDbVertex
100
AcDb2dVertex
 10
120.405609
 20
121.342295
 30
0.0
  0
VERTEX
  5
474
330
449
100
AcDbEntity
  8
CSLAYER1
  6
CONTINUOUS
 62
     4
100
AcDbVertex
100
AcDb2dVertex
 10
120.596951
 20
120.9875
 30
0.0
  0
VERTEX
  5
475
330
449
100
AcDbEntity
  8
CSLAYER1
  6
CONTINUOUS
 62
     4
100
AcDbVertex
100
AcDb2dVertex
 10
120.8195989999999
 20
120.6501519999999
 30
0.0
  0
VERTEX
  5
476
330
449
100
AcDbEntity
  8
CSLAYER1
  6
CONTINUOUS
 62
     4
100
AcDbVertex
100
AcDb2dVertex
 10
121.07186
 20
120.332819
 30
0.0
  0
VERTEX
  5
477
330
449
100
AcDbEntity
  8
CSLAYER1
  6
CONTINUOUS
 62
     4
100
AcDbVertex
100
AcDb2dVertex
 10
121.3518139999999
 20
120.0379149999999
 30
0.0
  0
VERTEX
  5
478
330
449
100
AcDbEntity
  8
CSLAYER1
  6
CONTINUOUS
 62
     4
100
AcDbVertex
100
AcDb2dVertex
 10
121.65733
 20
119.767686
 30
0.0
  0
VERTEX
  5
479
330
449
100
AcDbEntity
  8
CSLAYER1
  6
CONTINUOUS
 62
     4
100
AcDbVertex
100
AcDb2dVertex
 10
121.986083
 20
119.5241879999999
 30
0.0
  0
VERTEX
  5
47A
330
449
100
AcDbEntity
  8
CSLAYER1
  6
CONTINUOUS
 62
     4
100
AcDbVertex
100
AcDb2dVertex
 10
122.335571
 20
119.3092739999999
 30
0.0
  0
VERTEX
  5
47B
330
449
100
AcDbEntity
  8
CSLAYER1
  6
CONTINUOUS
 62
     4
100
AcDbVertex
100
AcDb2dVertex
 10
122.703135
 20
119.1245789999999
 30
0.0
  0
VERTEX
  5
47C
330
449
100
AcDbEntity
  8
CSLAYER1
  6
CONTINUOUS
 62
     4
100
AcDbVertex
100
AcDb2dVertex
 10
123.0859759999999
 20
118.971509
 30
0.0
  0
VERTEX
  5
47D
330
449
100
AcDbEntity
  8
CSLAYER1
  6
CONTINUOUS
 62
     4
100
AcDbVertex
100
AcDb2dVertex
 10
123.481181
 20
118.8512299999999
 30
0.0
  0
VERTEX
  5
47E
330
449
100
AcDbEntity
  8
CSLAYER1
  6
CONTINUOUS
 62
     4
100
AcDbVertex
100
AcDb2dVertex
 10
123.8857429999999
 20
118.764656
 30
0.0
  0
VERTEX
  5
47F
330
449
100
AcDbEntity
  8
CSLAYER1
  6
CONTINUOUS
 62
     4
100
AcDbVertex
100
AcDb2dVertex
 10
124.2965819999999
 20
118.712447
 30
0.0
  0
VERTEX
  5
480
330
449
100
AcDbEntity
  8
CSLAYER1
  6
CONTINUOUS
 62
     4
100
AcDbVertex
100
AcDb2dVertex
 10
124.710571
 20
118.6949999999999
 30
0.0
  0
VERTEX
  5
481
330
449
100
AcDbEntity
  8
CSLAYER1
  6
CONTINUOUS
 62
     4
100
AcDbVertex
100
AcDb2dVertex
 10
125.124561
 20
118.712447
 30
0.0
  0
VERTEX
  5
482
330
449
100
AcDbEntity
  8
CSLAYER1
  6
CONTINUOUS
 62
     4
100
AcDbVertex
100
AcDb2dVertex
 10
125.5354
 20
118.764656
 30
0.0
  0
VERTEX
  5
483
330
449
100
AcDbEntity
  8
CSLAYER1
  6
CONTINUOUS
 62
     4
100
AcDbVertex
100
AcDb2dVertex
 10
125.939962
 20
118.8512299999999
 30
0.0
  0
VERTEX
  5
484
330
449
100
AcDbEntity
  8
CSLAYER1
  6
CONTINUOUS
 62
     4
100
AcDbVertex
100
AcDb2dVertex
 10
126.335167
 20
118.971509
 30
0.0
  0
VERTEX
  5
485
330
449
100
AcDbEntity
  8
CSLAYER1
  6
CONTINUOUS
 62
     4
100
AcDbVertex
100
AcDb2dVertex
 10
126.718008
 20
119.1245789999999
 30
0.0
  0
VERTEX
  5
486
330
449
100
AcDbEntity
  8
CSLAYER1
  6
CONTINUOUS
 62
     4
100
AcDbVertex
100
AcDb2dVertex
 10
127.0855709999999
 20
119.3092739999999
 30
0.0
  0
VERTEX
  5
487
330
449
100
AcDbEntity
  8
CSLAYER1
  6
CONTINUOUS
 62
     4
100
AcDbVertex
100
AcDb2dVertex
 10
127.435059
 20
119.5241879999999
 30
0.0
  0
VERTEX
  5
488
330
449
100
AcDbEntity
  8
CSLAYER1
  6
CONTINUOUS
 62
     4
100
AcDbVertex
100
AcDb2dVertex
 10
127.7638129999999
 20
119.767686
 30
0.0
  0
VERTEX
  5
489
330
449
100
AcDbEntity
  8
CSLAYER1
  6
CONTINUOUS
 62
     4
100
AcDbVertex
100
AcDb2dVertex
 10
128.069329
 20
120.0379149999999
 30
0.0
  0
VERTEX
  5
48A
330
449
100
AcDbEntity
  8
CSLAYER1
  6
CONTINUOUS
 62
     4
100
AcDbVertex
100
AcDb2dVertex
 10
128.349282
 20
120.332819
 30
0.0
  0
VERTEX
  5
48B
330
449
100
AcDbEntity
  8
CSLAYER1
  6
CONTINUOUS
 62
     4
100
AcDbVertex
100
AcDb2dVertex
 10
128.6015439999999
 20
120.6501519999999
 30
0.0
  0
VERTEX
  5
48C
330
449
100
AcDbEntity
  8
CSLAYER1
  6
CONTINUOUS
 62
     4
100
AcDbVertex
100
AcDb2dVertex
 10
128.8241919999999
 20
120.9875
 30
0.0
  0
VERTEX
  5
48D
330
449
100
AcDbEntity
  8
CSLAYER1
  6
CONTINUOUS
 62
     4
100
AcDbVertex
100
AcDb2dVertex
 10
129.015533
 20
121.342295
 30
0.0
  0
VERTEX
  5
48E
330
449
100
AcDbEntity
  8
CSLAYER1
  6
CONTINUOUS
 62
     4
100
AcDbVertex
100
AcDb2dVertex
 10
129.174111
 20
121.7118379999999
 30
0.0
  0
VERTEX
  5
48F
330
449
100
AcDbEntity
  8
CSLAYER1
  6
CONTINUOUS
 62
     4
100
AcDbVertex
100
AcDb2dVertex
 10
129.298719
 20
122.093315
 30
0.0
  0
VERTEX
  5
490
330
449
100
AcDbEntity
  8
CSLAYER1
  6
CONTINUOUS
 62
     4
100
AcDbVertex
100
AcDb2dVertex
 10
129.3884079999999
 20
122.483823
 30
0.0
  0
VERTEX
  5
491
330
449
100
AcDbEntity
  8
CSLAYER1
  6
CONTINUOUS
 62
     4
100
AcDbVertex
100
AcDb2dVertex
 10
129.442496
 20
122.8803909999999
 30
0.0
  0
VERTEX
  5
492
330
449
100
AcDbEntity
  8
CSLAYER1
  6
CONTINUOUS
 62
     4
100
AcDbVertex
100
AcDb2dVertex
 10
129.4605709999999
 20
123.28
 30
0.0
  0
SEQEND
  5
493
330
449
100
AcDbEntity
  8
CSLAYER1
 62
     4
  0
TEXT
  5
494
330
1E
100
AcDbEntity
  8
CSLAYER1
 62
     4
100
AcDbText
 10
200.93515
 20
201.056229
 30
0.0
 40
3.2
  1
(5OSHI)
 41
1.105263157894736
 51
15.0
  7
FX_FONT
 72
     5
 11
223.3351499999999
 21
201.056229
 31
0.0
100
AcDbText
  0
DIMENSION
  5
495
330
1E
100
AcDbEntity
  8
CSLAYER1
 62
     4
100
AcDbDimension
  2
*D0
 10
141.3871429999999
 20
261.631429
 30
0.0
 11
118.887146
 21
262.131439
 31
0.0
 70
     1
100
AcDbAlignedDimension
 13
96.38714300000001
 23
218.2799999999999
 33
0.0
 14
141.3871429999999
 24
218.2799999999999
 34
0.0
  0
DIMENSION
  5
496
330
1E
100
AcDbEntity
  8
CSLAYER1
 62
     4
100
AcDbDimension
  2
*D1
 10
152.187143
 20
261.631429
 30
0.0
 11
138.1678469999999
 21
265.9276429999999
 31
0.0
 52
270.0
100
AcDbAlignedDimension
 13
141.3871429999999
 23
262.631429
 33
0.0
 14
152.187143
 24
218.78
 34
0.0
100
AcDbRotatedDimension
  0
DIMENSION
  5
497
330
1E
100
AcDbEntity
  8
CSLAYER1
 62
     4
100
AcDbDimension
  2
*D2
 10
155.3871429999999
 20
261.631429
 30
0.0
 11
166.082535
 21
267.9220579999999
 31
0.0
 70
     1
100
AcDbAlignedDimension
 13
152.187143
 23
218.78
 33
0.0
 14
155.3871429999999
 24
218.78
 34
0.0
  0
DIMENSION
  5
498
330
1E
100
AcDbEntity
  8
CSLAYER1
 62
     4
100
AcDbDimension
  2
*D3
 10
124.8871429999999
 20
255.6314289999999
 30
0.0
 11
118.887131
 21
256.1314089999999
 31
0.0
 70
     1
100
AcDbAlignedDimension
 13
112.887143
 23
242.28
 33
0.0
 14
124.8871429999999
 24
242.28
 34
0.0
  0
DIMENSION
  5
499
330
1E
100
AcDbEntity
  8
CSLAYER1
 62
     4
100
AcDbDimension
  2
*D4
 10
64.61
 20
242.28
 30
0.0
 11
64.11000099999999
 21
173.929993
 31
0.0
100
AcDbAlignedDimension
 13
96.887143
 23
105.58
 33
0.0
 14
105.8871429999999
 24
242.28
 34
0.0
 50
90.0
100
AcDbRotatedDimension
  0
DIMENSION
  5
49A
330
1E
100
AcDbEntity
  8
CSLAYER1
 62
     4
100
AcDbDimension
  2
*D5
 10
70.60999999999999
 20
108.78
 30
0.0
 11
69.842499
 21
98.27193499999999
 31
0.0
100
AcDbAlignedDimension
 13
103.087143
 23
105.58
 33
0.0
 14
96.887143
 24
108.78
 34
0.0
 50
90.0
100
AcDbRotatedDimension
  0
DIMENSION
  5
49B
330
1E
100
AcDbEntity
  8
CSLAYER1
 62
     4
100
AcDbDimension
  2
*D6
 10
70.60999999999999
 20
113.28
 30
0.0
 11
78.19395400000001
 21
121.495377
 31
0.0
100
AcDbAlignedDimension
 13
96.887143
 23
108.78
 33
0.0
 14
102.387143
 24
113.28
 34
0.0
 50
90.0
100
AcDbRotatedDimension
  0
DIMENSION
  5
49C
330
1E
100
AcDbEntity
  8
CSLAYER1
 62
     4
100
AcDbDimension
  2
*D7
 10
70.60999999999999
 20
133.2799999999999
 30
0.0
 11
70.110001
 21
123.2799989999999
 31
0.0
100
AcDbAlignedDimension
 13
102.387143
 23
113.28
 33
0.0
 14
96.38714300000001
 24
133.2799999999999
 34
0.0
 50
90.0
100
AcDbRotatedDimension
  0
DIMENSION
  5
49D
330
1E
100
AcDbEntity
  8
CSLAYER1
 62
     4
100
AcDbDimension
  2
*D8
 10
70.60999999999999
 20
133.2799999999999
 30
0.0
 11
70.109993
 21
187.7799989999999
 31
0.0
 70
     1
100
AcDbAlignedDimension
 13
70.60999999999999
 23
242.28
 33
0.0
 14
70.60999999999999
 24
133.2799999999999
 34
0.0
  0
DIMENSION
  5
49E
330
1E
100
AcDbEntity
  8
CSLAYER1
 62
     4
100
AcDbDimension
  2
*D9
 10
76.61
 20
242.28
 30
0.0
 11
76.109993
 21
237.779999
 31
0.0
 70
     1
100
AcDbAlignedDimension
 13
100.1190639999999
 23
233.28
 33
0.0
 14
100.1190639999999
 24
242.28
 34
0.0
  0
DIMENSION
  5
49F
330
1E
100
AcDbEntity
  8
CSLAYER1
 62
     4
100
AcDbDimension
  2
*D10
 10
243.051208
 20
182.78
 30
0.0
 11
242.551208
 21
177.779999
 31
0.0
 70
     1
100
AcDbAlignedDimension
 13
263.7660649999999
 23
172.78
 33
0.0
 14
263.7660649999999
 24
182.78
 34
0.0
  0
DIMENSION
  5
4A0
330
1E
100
AcDbEntity
  8
CSLAYER1
 62
     4
100
AcDbDimension
  2
*D11
 10
266.966065
 20
159.9017599999999
 30
0.0
 11
263.6579279999999
 21
155.942459
 31
0.0
 70
     1
 52
270.0
100
AcDbAlignedDimension
 13
260.5660649999999
 23
175.98
 33
0.0
 14
266.966065
 24
175.98
 34
0.0
  0
DIMENSION
  5
4A1
330
1E
100
AcDbEntity
  8
CSLAYER1
 62
     4
100
AcDbDimension
  2
*D12
 10
120.3871429999999
 20
6.294785
 30
0.0
 11
100.387146
 21
6.794785
 31
0.0
 52
270.0
100
AcDbAlignedDimension
 13
80.387143
 23
15.05369299999999
 33
0.0
 14
120.3871429999999
 24
18.682857
 34
0.0
100
AcDbRotatedDimension
  0
DIMENSION
  5
4A2
330
1E
100
AcDbEntity
  8
CSLAYER1
 62
     4
100
AcDbDimension
  2
*D13
 10
120.3871429999999
 20
12.294785
 30
0.0
 11
129.3939969999999
 21
16.797714
 31
0.0
 70
     1
 52
270.0
100
AcDbAlignedDimension
 13
117.1871429999999
 23
18.682857
 33
0.0
 14
120.3871429999999
 24
18.682857
 34
0.0
  0
DIMENSION
  5
4A3
330
1E
100
AcDbEntity
  8
CSLAYER1
 62
     4
100
AcDbDimension
  2
*D14
 10
85.387143
 20
40.134002
 30
0.0
 11
80.387146
 21
40.634003
 31
0.0
 70
     1
100
AcDbAlignedDimension
 13
75.38714300000001
 23
26.682857
 33
0.0
 14
85.387143
 24
26.682857
 34
0.0
  0
DIMENSION
  5
4A4
330
1E
100
AcDbEntity
  8
CSLAYER1
 62
     4
100
AcDbDimension
  2
*D15
 10
100.891429
 20
29.882857
 30
0.0
 11
102.6313779999999
 21
26.562384
 31
0.0
 70
     1
100
AcDbAlignedDimension
 13
82.187143
 23
23.48285699999999
 33
0.0
 14
82.187143
 24
29.882857
 34
0.0
  0
INSERT
  5
4A5
330
1E
100
AcDbEntity
  8
CSLAYER1
100
AcDbBlockReference
  2
FXDIM0000
 10
0.0
 20
0.0
 30
0.0
  0
DIMENSION
  5
4A6
330
1E
100
AcDbEntity
  8
CSLAYER1
 62
     4
100
AcDbDimension
  2
*D17
 10
307.2660649999999
 20
222.9182859999999
 30
0.0
 11
296.536926
 21
223.418289
 31
0.0
 70
     1
100
AcDbAlignedDimension
 13
277.2660649999999
 23
213.4510029999999
 33
0.0
 14
307.2660649999999
 24
213.4510029999999
 34
0.0
  0
DIMENSION
  5
4A7
330
1E
100
AcDbEntity
  8
CSLAYER1
 62
     4
100
AcDbDimension
  2
*D18
 10
338.5026369999999
 20
177.78
 30
0.0
 11
338.002655
 21
141.6799929999999
 31
0.0
100
AcDbAlignedDimension
 13
328.7660649999999
 23
105.58
 33
0.0
 14
331.3001939999999
 24
177.78
 34
0.0
 50
90.0
100
AcDbRotatedDimension
  0
DIMENSION
  5
4A8
330
1E
100
AcDbEntity
  8
CSLAYER1
 62
     4
100
AcDbDimension
  2
*D19
 10
338.5026369999999
 20
209.7799999999999
 30
0.0
 11
338.002655
 21
193.779999
 31
0.0
 70
     1
100
AcDbAlignedDimension
 13
311.615094
 23
177.78
 33
0.0
 14
311.615094
 24
209.7799999999999
 34
0.0
  0
DIMENSION
  5
4A9
330
1E
100
AcDbEntity
  8
CSLAYER1
 62
     4
100
AcDbDimension
  2
*D20
 10
328.7660649999999
 20
257.2742859999999
 30
0.0
 11
292.2660829999999
 21
257.7742919999999
 31
0.0
 70
     1
100
AcDbAlignedDimension
 13
255.7660649999999
 23
180.2799999999999
 33
0.0
 14
328.7660649999999
 24
180.2799999999999
 34
0.0
  0
DIMENSION
  5
4AA
330
1E
100
AcDbEntity
  8
CSLAYER1
 62
     4
100
AcDbDimension
  2
*D21
 10
320.7660649999999
 20
251.2742859999999
 30
0.0
 11
292.2660829999999
 21
251.7742919999999
 31
0.0
 70
     1
100
AcDbAlignedDimension
 13
263.7660649999999
 23
191.06
 33
0.0
 14
320.7660649999999
 24
191.06
 34
0.0
  0
INSERT
  5
4AB
330
1E
100
AcDbEntity
  8
CSLAYER1
100
AcDbBlockReference
  2
FXDIM0001
 10
0.0
 20
0.0
 30
0.0
  0
DIMENSION
  5
4AC
330
1E
100
AcDbEntity
  8
CSLAYER1
 62
     4
100
AcDbDimension
  2
*D23
 10
182.3871429999999
 20
261.631429
 30
0.0
 11
168.887146
 21
262.131439
 31
0.0
 70
     1
100
AcDbAlignedDimension
 13
155.3871429999999
 23
190.28
 33
0.0
 14
182.3871429999999
 24
190.28
 34
0.0
  0
INSERT
  5
4AD
330
1E
100
AcDbEntity
  8
CSLAYER1
100
AcDbBlockReference
  2
FXDIM0002
 10
0.0
 20
0.0
 30
0.0
  0
INSERT
  5
4AE
330
1E
100
AcDbEntity
  8
CSLAYER1
100
AcDbBlockReference
  2
FXDIM0003
 10
0.0
 20
0.0
 30
0.0
  0
DIMENSION
  5
4AF
330
1E
100
AcDbEntity
  8
CSLAYER1
 62
     4
100
AcDbDimension
  2
*D26
 10
35.489544
 20
91.682857
 30
0.0
 11
34.989544
 21
55.182858
 31
0.0
 70
     1
100
AcDbAlignedDimension
 13
77.88714300000001
 23
18.682857
 33
0.0
 14
77.88714300000001
 24
91.682857
 34
0.0
  0
DIMENSION
  5
4B0
330
1E
100
AcDbEntity
  8
CSLAYER1
 62
     4
100
AcDbDimension
  2
*D27
 10
41.489544
 20
83.68285699999999
 30
0.0
 11
40.989544
 21
55.182858
 31
0.0
 70
     1
100
AcDbAlignedDimension
 13
65.68168799999999
 23
26.682857
 33
0.0
 14
65.68168799999999
 24
83.68285699999999
 34
0.0
  0
INSERT
  5
4B1
330
1E
100
AcDbEntity
  8
CSLAYER1
100
AcDbBlockReference
  2
FXDIM0004
 10
0.0
 20
0.0
 30
0.0
  0
POINT
  5
4B2
330
1E
100
AcDbEntity
  8
CSLAYER1
 62
     3
100
AcDbPoint
 10
370.5
 20
21.0
 30
0.0
  0
TEXT
  5
4B3
330
1E
100
AcDbEntity
  8
CSLAYER1
 62
     3
100
AcDbText
 10
347.459352
 20
19.330898
 30
0.0
 40
3.338205
  1
GT-NB20-10OSHI(5OSHI)
 41
0.678895767606135
  7
FX_FONT
 72
     5
 11
393.5406479999999
 21
19.330898
 31
0.0
100
AcDbText
  0
LINE
  5
4B4
330
1E
100
AcDbEntity
  8
CSLAYER1
  6
CONTINUOUS
 62
     3
100
AcDbLine
 10
135.3871429999999
 20
234.7799999999999
 30
0.0
 11
135.3871429999999
 21
231.78
 31
0.0
  0
LINE
  5
4B5
330
1E
100
AcDbEntity
  8
CSLAYER1
  6
CONTINUOUS
 62
     3
100
AcDbLine
 10
135.3871429999999
 20
231.78
 30
0.0
 11
134.8871429999999
 21
231.28
 31
0.0
  0
LINE
  5
4B6
330
1E
100
AcDbEntity
  8
CSLAYER1
  6
CONTINUOUS
 62
     3
100
AcDbLine
 10
134.8871429999999
 20
231.28
 30
0.0
 11
134.0871429999999
 21
231.28
 31
0.0
  0
ARC
  5
4B7
330
1E
100
AcDbEntity
  8
CSLAYER1
  6
CONTINUOUS
 62
     3
100
AcDbCircle
 10
133.587143
 20
231.78
 30
0.0
 40
0.5
100
AcDbArc
 50
0.0
 51
180.0
  0
LINE
  5
4B8
330
1E
100
AcDbEntity
  8
CSLAYER1
  6
CONTINUOUS
 62
     3
100
AcDbLine
 10
133.0871429999999
 20
231.78
 30
0.0
 11
133.0871429999999
 21
230.0840259999999
 31
0.0
  0
CIRCLE
  5
4B9
330
1E
100
AcDbEntity
  8
CSLAYER1
  6
CONTINUOUS
 62
     3
100
AcDbCircle
 10
133.587143
 20
230.0840259999999
 30
0.0
 40
0.5
  0
LINE
  5
4BA
330
1E
100
AcDbEntity
  8
CSLAYER1
  6
CONTINUOUS
 62
     3
100
AcDbLine
 10
134.0871429999999
 20
230.0840259999999
 30
0.0
 11
134.0871429999999
 21
231.78
 31
0.0
  0
LINE
  5
4BB
330
1E
100
AcDbEntity
  8
CSLAYER1
  6
CONTINUOUS
 62
     3
100
AcDbLine
 10
134.8871429999999
 20
231.28
 30
0.0
 11
134.8871429999999
 21
235.28
 31
0.0
  0
LINE
  5
4BC
330
1E
100
AcDbEntity
  8
CSLAYER1
  6
CONTINUOUS
 62
     3
100
AcDbLine
 10
134.8871429999999
 20
235.28
 30
0.0
 11
135.3871429999999
 21
234.7799999999999
 31
0.0
  0
LINE
  5
4BD
330
1E
100
AcDbEntity
  8
CSLAYER1
  6
CONTINUOUS
 62
     3
100
AcDbLine
 10
134.8871429999999
 20
235.28
 30
0.0
 11
132.587143
 21
235.28
 31
0.0
  0
CIRCLE
  5
4BE
330
1E
100
AcDbEntity
  8
CSLAYER1
  6
CONTINUOUS
 62
     3
100
AcDbCircle
 10
133.587143
 20
233.28
 30
0.0
 40
0.6
  0
CIRCLE
  5
4BF
330
1E
100
AcDbEntity
  8
CSLAYER1
  6
CONTINUOUS
 62
     3
100
AcDbCircle
 10
133.587143
 20
233.28
 30
0.0
 40
0.5
  0
LINE
  5
4C0
330
1E
100
AcDbEntity
  8
CSLAYER1
  6
CONTINUOUS
 62
     3
100
AcDbLine
 10
133.0871429999999
 20
231.28
 30
0.0
 11
132.587143
 21
231.28
 31
0.0
  0
LINE
  5
4C1
330
1E
100
AcDbEntity
  8
CSLAYER1
  6
CONTINUOUS
 62
     3
100
AcDbLine
 10
132.2871429999999
 20
228.214424
 30
0.0
 11
132.2871429999999
 21
238.7799999999999
 31
0.0
  0
LINE
  5
4C2
330
1E
100
AcDbEntity
  8
CSLAYER1
  6
CONTINUOUS
 62
     3
100
AcDbLine
 10
132.2871429999999
 20
238.7799999999999
 30
0.0
 11
132.587143
 21
238.4799999999999
 31
0.0
  0
LINE
  5
4C3
330
1E
100
AcDbEntity
  8
CSLAYER1
  6
CONTINUOUS
 62
     3
100
AcDbLine
 10
132.587143
 20
238.4799999999999
 30
0.0
 11
132.587143
 21
228.08
 31
0.0
  0
LINE
  5
4C4
330
1E
100
AcDbEntity
  8
CSLAYER1
  6
CONTINUOUS
 62
     3
100
AcDbLine
 10
132.587143
 20
228.08
 30
0.0
 11
132.376198
 21
227.8690549999999
 31
0.0
  0
LINE
  5
4C5
330
1E
100
AcDbEntity
  8
CSLAYER1
  6
CONTINUOUS
 62
     3
100
AcDbLine
 10
131.8871429999999
 20
238.7799999999999
 30
0.0
 11
132.2871429999999
 21
238.7799999999999
 31
0.0
  0
ARC
  5
4C6
330
1E
100
AcDbEntity
  8
CSLAYER1
  6
CONTINUOUS
 62
     3
100
AcDbCircle
 10
292.2660649999999
 20
233.28
 30
0.0
 40
5.5
100
AcDbArc
 50
211.582631
 51
330.7038009999999
  0
ARC
  5
4C7
330
1E
100
AcDbEntity
  8
CSLAYER1
  6
CONTINUOUS
 62
     3
100
AcDbCircle
 10
292.2660649999999
 20
233.28
 30
0.0
 40
5.2
100
AcDbArc
 50
211.0931749999999
 51
330.872635
  0
ARC
  5
4C8
330
1E
100
AcDbEntity
  8
CSLAYER1
  6
CONTINUOUS
 62
     3
100
AcDbCircle
 10
295.3550939999999
 20
229.348346
 30
0.0
 40
2.0
100
AcDbArc
 50
49.69303599999999
 51
128.156077
  0
ARC
  5
4C9
330
1E
100
AcDbEntity
  8
CSLAYER1
  6
CONTINUOUS
 62
     3
100
AcDbCircle
 10
292.2660649999999
 20
233.28
 30
0.0
 40
3.0
100
AcDbArc
 50
232.617917
 51
308.1560769999999
  0
ARC
  5
4CA
330
1E
100
AcDbEntity
  8
CSLAYER1
  6
CONTINUOUS
 62
     3
100
AcDbCircle
 10
289.3101709999999
 20
229.4113439999999
 30
0.0
 40
1.868656
100
AcDbArc
 50
52.617917
 51
130.0
  0
LINE
  5
4CB
330
1E
100
AcDbEntity
  8
CSLAYER1
  6
CONTINUOUS
 62
     3
100
AcDbLine
 10
288.109022
 20
230.842817
 30
0.0
 11
286.6088529999999
 21
229.5840259999999
 31
0.0
  0
LINE
  5
4CC
330
1E
100
AcDbEntity
  8
CSLAYER1
  6
CONTINUOUS
 62
     3
100
AcDbLine
 10
286.6088529999999
 20
229.5840259999999
 30
0.0
 11
285.966065
 21
230.3500709999999
 31
0.0
  0
LINE
  5
4CD
330
1E
100
AcDbEntity
  8
CSLAYER1
  6
CONTINUOUS
 62
     3
100
AcDbLine
 10
285.966065
 20
230.3500709999999
 30
0.0
 11
287.466234
 21
231.608862
 31
0.0
  0
ARC
  5
4CE
330
1E
100
AcDbEntity
  8
CSLAYER1
  6
CONTINUOUS
 62
     3
100
AcDbCircle
 10
289.3101709999999
 20
229.4113439999999
 30
0.0
 40
2.868656
100
AcDbArc
 50
52.617917
 51
130.0
  0
LINE
  5
4CF
330
1E
100
AcDbEntity
  8
CSLAYER1
  6
CONTINUOUS
 62
     3
100
AcDbLine
 10
290.329574
 20
232.7799999999999
 30
0.0
 11
284.466065
 21
232.7799999999999
 31
0.0
  0
LINE
  5
4D0
330
1E
100
AcDbEntity
  8
CSLAYER1
  6
CONTINUOUS
 62
     3
100
AcDbLine
 10
284.466065
 20
232.7799999999999
 30
0.0
 11
284.466065
 21
233.78
 31
0.0
  0
LINE
  5
4D1
330
1E
100
AcDbEntity
  8
CSLAYER1
  6
CONTINUOUS
 62
     3
100
AcDbLine
 10
284.466065
 20
233.78
 30
0.0
 11
290.329574
 21
233.78
 31
0.0
  0
CIRCLE
  5
4D2
330
1E
100
AcDbEntity
  8
CSLAYER1
  6
CONTINUOUS
 62
     3
100
AcDbCircle
 10
292.2660649999999
 20
233.28
 30
0.0
 40
1.5
  0
CIRCLE
  5
4D3
330
1E
100
AcDbEntity
  8
CSLAYER1
  6
CONTINUOUS
 62
     3
100
AcDbCircle
 10
292.2660649999999
 20
233.28
 30
0.0
 40
2.0
  0
LINE
  5
4D4
330
1E
100
AcDbEntity
  8
CSLAYER1
  6
CONTINUOUS
 62
     3
100
AcDbLine
 10
294.2025569999999
 20
232.7799999999999
 30
0.0
 11
295.974777
 21
232.7799999999999
 31
0.0
  0
ARC
  5
4D5
330
1E
100
AcDbEntity
  8
CSLAYER1
  6
CONTINUOUS
 62
     3
100
AcDbCircle
 10
295.974777
 20
233.78
 30
0.0
 40
1.0
100
AcDbArc
 50
270.0
 51
336.421822
  0
ARC
  5
4D6
330
1E
100
AcDbEntity
  8
CSLAYER1
  6
CONTINUOUS
 62
     3
100
AcDbCircle
 10
298.2660649999999
 20
232.7799999999999
 30
0.0
 40
1.5
100
AcDbArc
 50
229.693036
 51
156.4218219999999
  0
ARC
  5
4D7
330
1E
100
AcDbEntity
  8
CSLAYER1
  6
CONTINUOUS
 62
     3
100
AcDbCircle
 10
295.3550939999999
 20
229.348346
 30
0.0
 40
3.0
100
AcDbArc
 50
49.69303599999999
 51
128.156077
  0
LINE
  5
4D8
330
1E
100
AcDbEntity
  8
CSLAYER1
  6
CONTINUOUS
 62
     3
100
AcDbLine
 10
294.2025569999999
 20
233.78
 30
0.0
 11
295.393784
 21
233.78
 31
0.0
  0
ARC
  5
4D9
330
1E
100
AcDbEntity
  8
CSLAYER1
  6
CONTINUOUS
 62
     3
100
AcDbCircle
 10
295.393784
 20
234.7799999999999
 30
0.0
 40
1.0
100
AcDbArc
 50
270.0
 51
325.150095
  0
ARC
  5
4DA
330
1E
100
AcDbEntity
  8
CSLAYER1
  6
CONTINUOUS
 62
     3
100
AcDbCircle
 10
298.2660649999999
 20
232.7799999999999
 30
0.0
 40
2.5
100
AcDbArc
 50
229.693036
 51
145.1500949999999
  0
ARC
  5
4DB
330
1E
100
AcDbEntity
  8
CSLAYER1
  6
CONTINUOUS
 62
     3
100
AcDbCircle
 10
292.2660649999999
 20
233.28
 30
0.0
 40
5.2
100
AcDbArc
 50
342.2936699999999
 51
8.119671999999999
  0
ARC
  5
4DC
330
1E
100
AcDbEntity
  8
CSLAYER1
  6
CONTINUOUS
 62
     3
100
AcDbCircle
 10
292.2660649999999
 20
233.28
 30
0.0
 40
5.5
100
AcDbArc
 50
341.1953189999999
 51
9.277397
  0
ARC
  5
4DD
330
1E
100
AcDbEntity
  8
CSLAYER1
  6
CONTINUOUS
 62
     3
100
AcDbCircle
 10
292.2660649999999
 20
233.28
 30
0.0
 40
5.2
100
AcDbArc
 50
19.600082
 51
174.4822659999999
  0
ARC
  5
4DE
330
1E
100
AcDbEntity
  8
CSLAYER1
  6
CONTINUOUS
 62
     3
100
AcDbCircle
 10
292.2660649999999
 20
233.28
 30
0.0
 40
5.5
100
AcDbArc
 50
19.768915
 51
174.7840909999999
  0
ARC
  5
4DF
330
1E
100
AcDbEntity
  8
CSLAYER1
  6
CONTINUOUS
 62
     3
100
AcDbCircle
 10
292.2660649999999
 20
233.28
 30
0.0
 40
5.2
100
AcDbArc
 50
185.517734
 51
199.687774
  0
ARC
  5
4E0
330
1E
100
AcDbEntity
  8
CSLAYER1
  6
CONTINUOUS
 62
     3
100
AcDbCircle
 10
292.2660649999999
 20
233.28
 30
0.0
 40
5.5
100
AcDbArc
 50
185.215909
 51
200.8403749999999
  0
LINE
  5
4E1
330
1E
100
AcDbEntity
  8
CSLAYER1
  6
CENTER
 62
     4
100
AcDbLine
 10
302.1513339999999
 20
233.28
 30
0.0
 11
283.1888109999999
 21
233.28
 31
0.0
  0
LINE
  5
4E2
330
1E
100
AcDbEntity
  8
CSLAYER1
  6
DOT
 62
     3
100
AcDbLine
 10
10.0
 20
3.0
 30
0.0
 11
395.0
 21
3.0
 31
0.0
  0
LINE
  5
4E3
330
1E
100
AcDbEntity
  8
CSLAYER1
  6
DOT
 62
     3
100
AcDbLine
 10
395.0
 20
3.0
 30
0.0
 11
395.0
 21
275.0
 31
0.0
  0
LINE
  5
4E4
330
1E
100
AcDbEntity
  8
CSLAYER1
  6
DOT
 62
     3
100
AcDbLine
 10
395.0
 20
275.0
 30
0.0
 11
10.0
 21
275.0
 31
0.0
  0
LINE
  5
4E5
330
1E
100
AcDbEntity
  8
CSLAYER1
  6
DOT
 62
     3
100
AcDbLine
 10
10.0
 20
275.0
 30
0.0
 11
10.0
 21
3.0
 31
0.0
  0
ENDSEC
  0
SECTION
  2
OBJECTS
  0
DICTIONARY
  5
C
330
0
100
AcDbDictionary
  3
ACAD_GROUP
350
D
  3
ACAD_LAYOUT
350
19
  3
ACAD_MLINESTYLE
350
16
  3
ACAD_PLOTSETTINGS
350
18
1001
ACAD
1000
TREAT_AS_HARD
1070
     0
  0
DICTIONARY
  5
4EF
330
1E
100
AcDbDictionary
  3
ACAD_LAYOUTSELFREF
350
4F0
  0
DICTIONARY
  5
4ED
330
1A
100
AcDbDictionary
  3
ACAD_LAYOUTSELFREF
350
4EE
  0
DICTIONARY
  5
D
102
{ACAD_REACTORS
330
C
102
}
330
C
100
AcDbDictionary
1001
ACAD
1000
TREAT_AS_HARD
1070
     0
  0
DICTIONARY
  5
19
102
{ACAD_REACTORS
330
C
102
}
330
C
100
AcDbDictionary
1001
ACAD
1000
TREAT_AS_HARD
1070
     0
  0
DICTIONARY
  5
16
102
{ACAD_REACTORS
330
C
102
}
330
C
100
AcDbDictionary
  3
STANDARD
350
17
1001
ACAD
1000
TREAT_AS_HARD
1070
     0
  0
DICTIONARY
  5
18
102
{ACAD_REACTORS
330
C
102
}
330
C
100
AcDbDictionary
1001
ACAD
1000
TREAT_AS_HARD
1070
     0
  0
XRECORD
  5
4F0
102
{ACAD_REACTORS
330
4EF
102
}
330
4EF
100
AcDbXrecord
340
1E
  0
XRECORD
  5
4EE
102
{ACAD_REACTORS
330
4ED
102
}
330
4ED
100
AcDbXrecord
340
1A
  0
MLINESTYLE
  5
17
102
{ACAD_REACTORS
330
16
102
}
330
16
100
AcDbMlineStyle
  2
STANDARD
 70
     0
  3

 62
   256
 51
90.0
 52
90.0
 71
     2
 49
0.5
 62
   256
  6
BYLAYER
 49
-0.5
 62
   256
  6
BYLAYER
  0
ENDSEC
  0
EOF
