  0
SECTION
  2
HEADER
  9
$ACADVER
  1
AC1006
  9
$INSBASE
 10
0.000000
 20
0.000000
 30
0.0
  9
$EXTMIN
 10
0.000000
 20
0.000000
  9
$EXTMAX
 10
420.000000
 20
297.000000
  9
$LIMMIN
 10
0.000000
 20
0.000000
  9
$LIMMAX
 10
420.000000
 20
297.000000
  9
$VIEWCTR
 10
210.000000
 20
148.500000
  9
$VIEWSIZE
 40
297.000000
  9
$SNAPMODE
 70
     0
  9
$SNAPUNIT
 10
1.0
 20
1.0
  9
$SNAPBASE
 10
0.0
 20
0.0
  9
$SNAPANG
 50
0.0
  9
$SNAPSTYLE
 70
     0
  9
$SNAPISOPAIR
 70
     0
  9
$GRIDMODE
 70
     0
  9
$GRIDUNIT
 10
0.0
 20
0.0
  9
$ORTHOMODE
 70
     0
  9
$REGENMODE
 70
     1
  9
$FILLMODE
 70
     1
  9
$QTEXTMODE
 70
     0
  9
$DRAGMODE
 70
     2
  9
$LTSCALE
 40
15.000000
  9
$OSMODE
 70
     0
  9
$ATTMODE
 70
     1
  9
$TEXTSIZE
 40
0.2
  9
$TRACEWID
 40
0.05
  9
$TEXTSTYLE
  7
STANDARD
  9
$CLAYER
  8
CSLAYER1
  9
$CELTYPE
  6
BYLAYER
  9
$CECOLOR
 62
   256
  9
$DIMSCALE
 40
1.0
  9
$DIMASZ
 40
0.18
  9
$DIMEXO
 40
0.0625
  9
$DIMDLI
 40
0.38
  9
$DIMRND
 40
0.0
  9
$DIMDLE
 40
0.0
  9
$DIMEXE
 40
0.18
  9
$DIMTP
 40
0.0
  9
$DIMTM
 40
0.0
  9
$DIMTXT
 40
0.18
  9
$DIMCEN
 40
0.09
  9
$DIMTSZ
 40
0.0
  9
$DIMTOL
 70
     0
  9
$DIMLIM
 70
     0
  9
$DIMTIH
 70
     1
  9
$DIMTOH
 70
     1
  9
$DIMSE1
 70
     0
  9
$DIMSE2
 70
     0
  9
$DIMTAD
 70
     0
  9
$DIMZIN
 70
     0
  9
$DIMBLK
  1

  9
$LUNITS
 70
     2
  9
$LUPREC
 70
     4
  9
$AXISMODE
 70
     0
  9
$AXISUNIT
 10
0.0
 20
0.0
  9
$SKETCHINC
 40
0.1
  9
$FILLETRAD
 40
0.0
  9
$AUNITS
 70
     0
  9
$AUPREC
 70
     0
  9
$MENU
  1
ACAD
  9
$ELEVATION
 40
0.0
  9
$THICKNESS
 40
0.0
  9
$VIEWDIR
 10
0.0
 20
0.0
 30
1.0
  9
$LIMCHECK
 70
     0
  9
$BLIPMODE
 70
     1
  9
$CHAMFERA
 40
0.0
  9
$CHAMFERB
 40
0.0
  9
$FASTZOOM
 70
     1
  9
$SKPOLY
 70
     0
  9
$TDCREATE
 40
2452062.000000
  9
$TDUPDATE
 40
2452438.000000
  9
$TDINDWG
 40
0.0
  9
$TDUSRTIMER
 40
0.0
  9
$USRTIMER
 70
     1
  9
$ANGBASE
 50
0.0
  9
$ANGDIR
 70
     0
  9
$PDMODE
 70
     0
  9
$PDSIZE
 40
0.0
  9
$PLINEWID
 40
0.0
  9
$COORDS
 70
     0
  9
$USERI1
 70
     0
  9
$USERI2
 70
     0
  9
$USERI3
 70
     0
  9
$USERI4
 70
     0
  9
$USERI5
 70
     0
  9
$USERR1
 40
0.0
  9
$USERR2
 40
0.0
  9
$USERR3
 40
0.0
  9
$USERR4
 40
0.0
  9
$USERR5
 40
0.0
  0
ENDSEC
  0
SECTION
  2
TABLES
  0
TABLE
  2
LTYPE
 70
     9
  0
LTYPE
  2
CONTINUOUS
 70
    64
  3
Solid line
 72
    65
 73
     0
 40
0.0
  0
LTYPE
  2
DASHED
 70
    64
  3
__ __ __ __ __ __ __ __ __ __ __ __ __ __ __
 72
    65
 73
     2
 40
0.75
 49
0.5
 49
-0.25
  0
LTYPE
  2
HIDDEN
 70
    64
  3
_ _ _ _ _ _ _ _ _ _ _ _ _ _ _ _ _ _ _ _ _ _ _
 72
    65
 73
     2
 40
0.375
 49
0.25
 49
-0.125
  0
LTYPE
  2
DOT
 70
    64
  3
...............................................
 72
    65
 73
     2
 40
0.25
 49
0.0
 49
-0.25
  0
LTYPE
  2
DASHDOT
 70
    64
  3
__ . __ . __ . __ . __ . __ . __ . __ . __ . __
 72
    65
 73
     4
 40
1.0
 49
0.5
 49
-0.25
 49
0.0
 49
-0.25
  0
LTYPE
  2
DIVIDE
 70
    64
  3
__ . . __ . . __ . . __ . . __ . . __ . . __
 72
    65
 73
     6
 40
1.25
 49
0.5
 49
-0.25
 49
0.0
 49
-0.25
 49
0.0
 49
-0.25
  0
LTYPE
  2
CENTER
 70
    64
  3
____ _ ____ _ ____ _ ____ _ ____ _ ____ _ ____ 
 72
    65
 73
     4
 40
2.0
 49
1.25
 49
-0.25
 49
0.25
 49
-0.25
  0
LTYPE
  2
PHANTOM
 70
    64
  3
______  __  __  ______  __  __  ______  __  __ 
 72
    65
 73
     6
 40
2.5
 49
1.25
 49
-0.25
 49
0.25
 49
-0.25
 49
0.25
 49
-0.25
  0
LTYPE
  2
BORDER
 70
    64
  3
__ __ . __ __ . __ __ . __ __ . __ __ . __ __ .
 72
    65
 73
     6
 40
1.75
 49
0.5
 49
-0.25
 49
0.5
 49
-0.25
 49
0.0
 49
-0.25
  0
ENDTAB
  0
TABLE
  2
LAYER
 70
    16
  0
LAYER
  2
CSLAYER1
 70
    64
 62
     7
  6
CONTINUOUS
  0
LAYER
  2
CSLAYER2
 70
    64
 62
     7
  6
CONTINUOUS
  0
LAYER
  2
CSLAYER3
 70
    64
 62
     7
  6
CONTINUOUS
  0
LAYER
  2
CSLAYER4
 70
    64
 62
     7
  6
CONTINUOUS
  0
LAYER
  2
CSLAYER5
 70
    64
 62
     7
  6
CONTINUOUS
  0
LAYER
  2
CSLAYER6
 70
    64
 62
     7
  6
CONTINUOUS
  0
LAYER
  2
CSLAYER7
 70
    64
 62
     7
  6
CONTINUOUS
  0
LAYER
  2
CSLAYER8
 70
    64
 62
     7
  6
CONTINUOUS
  0
LAYER
  2
CSLAYER9
 70
    64
 62
     7
  6
CONTINUOUS
  0
LAYER
  2
CSLAYER10
 70
    64
 62
     7
  6
CONTINUOUS
  0
LAYER
  2
CSLAYER11
 70
    64
 62
     7
  6
CONTINUOUS
  0
LAYER
  2
CSLAYER12
 70
    64
 62
     7
  6
CONTINUOUS
  0
LAYER
  2
CSLAYER13
 70
    64
 62
     7
  6
CONTINUOUS
  0
LAYER
  2
CSLAYER14
 70
    64
 62
     7
  6
CONTINUOUS
  0
LAYER
  2
CSLAYER15
 70
    64
 62
     7
  6
CONTINUOUS
  0
LAYER
  2
CSLAYER16
 70
    64
 62
     7
  6
CONTINUOUS
  0
ENDTAB
  0
TABLE
  2
STYLE
 70
     1
  0
STYLE
  2
FX_FONT
 70
     0
 40
1.0
 41
1.0
 50
0.0
 71
     0
 42
1.0
  3
monotxt
  4
bigfont
  0
ENDTAB
  0
TABLE
  2
VIEW
 70
     0
  0
ENDTAB
  0
ENDSEC
  0
SECTION
  2
BLOCKS
  0
BLOCK
  8
CSLAYER1
  2
*D0000
 70
    65
 10
0.0
 20
0.0
 30
0.0
  0
TEXT
  8
CSLAYER1
 62
     4
 10
167.950961
 20
260.020599
 40
3.200000
 41
1.125000
  1
200
 50
0.000000
 51
15.000000
  7
FX_FONT
 72
     5
 11
177.550961
 21
260.020599
  0
LINE
  8
CSLAYER1
  6
CONTINUOUS
 62
     4
 10
72.750967
 20
259.520581
 11
272.750967
 21
259.520581
  0
LINE
  8
CSLAYER1
  6
CONTINUOUS
 62
     4
 10
72.750967
 20
259.520581
 11
75.648745
 21
260.297038
  0
LINE
  8
CSLAYER1
  6
CONTINUOUS
 62
     4
 10
72.750967
 20
259.520581
 11
75.648745
 21
258.744124
  0
LINE
  8
CSLAYER1
  6
CONTINUOUS
 62
     4
 10
272.750967
 20
259.520581
 11
269.853190
 21
260.297038
  0
LINE
  8
CSLAYER1
  6
CONTINUOUS
 62
     4
 10
272.750967
 20
259.520581
 11
269.853190
 21
258.744124
  0
LINE
  8
CSLAYER1
  6
CONTINUOUS
 62
     4
 10
72.750967
 20
219.709386
 11
72.750967
 21
260.520581
  0
LINE
  8
CSLAYER1
  6
CONTINUOUS
 62
     4
 10
272.750967
 20
239.709386
 11
272.750967
 21
260.520581
  0
ENDBLK
  8
0
  0
BLOCK
  8
CSLAYER1
  2
*D0001
 70
    65
 10
0.0
 20
0.0
 30
0.0
  0
TEXT
  8
CSLAYER1
 62
     4
 10
288.050977
 20
260.020599
 40
3.200000
 41
1.200000
  1
37
 50
0.000000
 51
15.000000
  7
FX_FONT
 72
     5
 11
294.450977
 21
260.020599
  0
LINE
  8
CSLAYER1
  6
CONTINUOUS
 62
     4
 10
272.750967
 20
259.520581
 11
309.750967
 21
259.520581
  0
LINE
  8
CSLAYER1
  6
CONTINUOUS
 62
     4
 10
272.750967
 20
259.520581
 11
275.648745
 21
260.297038
  0
LINE
  8
CSLAYER1
  6
CONTINUOUS
 62
     4
 10
272.750967
 20
259.520581
 11
275.648745
 21
258.744124
  0
LINE
  8
CSLAYER1
  6
CONTINUOUS
 62
     4
 10
309.750967
 20
259.520581
 11
306.853190
 21
260.297038
  0
LINE
  8
CSLAYER1
  6
CONTINUOUS
 62
     4
 10
309.750967
 20
259.520581
 11
306.853190
 21
258.744124
  0
LINE
  8
CSLAYER1
  6
CONTINUOUS
 62
     4
 10
309.750967
 20
213.209386
 11
309.750967
 21
260.520581
  0
ENDBLK
  8
0
  0
BLOCK
  8
CSLAYER1
  2
*D0002
 70
    65
 10
0.0
 20
0.0
 30
0.0
  0
TEXT
  8
CSLAYER1
 62
     4
 10
77.050969
 20
254.020584
 40
3.200000
 41
1.200000
  1
15
 50
0.000000
 51
15.000000
  7
FX_FONT
 72
     5
 11
83.450969
 21
254.020584
  0
LINE
  8
CSLAYER1
  6
CONTINUOUS
 62
     4
 10
72.750967
 20
253.520581
 11
87.750967
 21
253.520581
  0
LINE
  8
CSLAYER1
  6
CONTINUOUS
 62
     4
 10
72.750967
 20
253.520581
 11
75.648745
 21
254.297038
  0
LINE
  8
CSLAYER1
  6
CONTINUOUS
 62
     4
 10
72.750967
 20
253.520581
 11
75.648745
 21
252.744124
  0
LINE
  8
CSLAYER1
  6
CONTINUOUS
 62
     4
 10
87.750967
 20
253.520581
 11
84.853190
 21
254.297038
  0
LINE
  8
CSLAYER1
  6
CONTINUOUS
 62
     4
 10
87.750967
 20
253.520581
 11
84.853190
 21
252.744124
  0
LINE
  8
CSLAYER1
  6
CONTINUOUS
 62
     4
 10
87.750967
 20
232.782114
 11
87.750967
 21
254.520581
  0
ENDBLK
  8
0
  0
BLOCK
  8
CSLAYER1
  2
*D0003
 70
    65
 10
0.0
 20
0.0
 30
0.0
  0
TEXT
  8
CSLAYER1
 62
     4
 10
202.950961
 20
254.020584
 40
3.200000
 41
1.125000
  1
130
 50
0.000000
 51
15.000000
  7
FX_FONT
 72
     5
 11
212.550961
 21
254.020584
  0
LINE
  8
CSLAYER1
  6
CONTINUOUS
 62
     4
 10
142.750967
 20
253.520581
 11
272.750967
 21
253.520581
  0
LINE
  8
CSLAYER1
  6
CONTINUOUS
 62
     4
 10
142.750967
 20
253.520581
 11
145.648745
 21
254.297038
  0
LINE
  8
CSLAYER1
  6
CONTINUOUS
 62
     4
 10
142.750967
 20
253.520581
 11
145.648745
 21
252.744124
  0
LINE
  8
CSLAYER1
  6
CONTINUOUS
 62
     4
 10
272.750967
 20
253.520581
 11
269.853190
 21
254.297038
  0
LINE
  8
CSLAYER1
  6
CONTINUOUS
 62
     4
 10
272.750967
 20
253.520581
 11
269.853190
 21
252.744124
  0
LINE
  8
CSLAYER1
  6
CONTINUOUS
 62
     4
 10
142.750967
 20
239.709386
 11
142.750967
 21
254.520581
  0
ENDBLK
  8
0
  0
BLOCK
  8
CSLAYER1
  2
*D0004
 70
    65
 10
0.0
 20
0.0
 30
0.0
  0
TEXT
  8
CSLAYER1
 62
     4
 10
50.578300
 20
198.009381
 40
3.200000
 41
1.200000
  1
43
 50
90.000000
 51
15.000000
  7
FX_FONT
 72
     5
 11
50.578300
 21
204.409381
  0
LINE
  8
CSLAYER1
  6
CONTINUOUS
 62
     4
 10
51.078301
 20
179.709386
 11
51.078301
 21
222.709386
  0
LINE
  8
CSLAYER1
  6
CONTINUOUS
 62
     4
 10
51.078301
 20
179.709386
 11
50.301844
 21
182.607164
  0
LINE
  8
CSLAYER1
  6
CONTINUOUS
 62
     4
 10
51.078301
 20
179.709386
 11
51.854758
 21
182.607164
  0
LINE
  8
CSLAYER1
  6
CONTINUOUS
 62
     4
 10
51.078301
 20
222.709386
 11
50.301844
 21
219.811609
  0
LINE
  8
CSLAYER1
  6
CONTINUOUS
 62
     4
 10
51.078301
 20
222.709386
 11
51.854758
 21
219.811609
  0
LINE
  8
CSLAYER1
  6
CONTINUOUS
 62
     4
 10
75.750967
 20
179.709386
 11
50.078301
 21
179.709386
  0
LINE
  8
CSLAYER1
  6
CONTINUOUS
 62
     4
 10
75.750967
 20
222.709386
 11
50.078301
 21
222.709386
  0
ENDBLK
  8
0
  0
BLOCK
  8
CSLAYER1
  2
*D0005
 70
    65
 10
0.0
 20
0.0
 30
0.0
  0
TEXT
  8
CSLAYER1
 62
     4
 10
56.578300
 20
194.809381
 40
3.200000
 41
1.090909
  1
25.2
 50
90.000000
 51
15.000000
  7
FX_FONT
 72
     5
 11
56.578300
 21
207.609381
  0
LINE
  8
CSLAYER1
  6
CONTINUOUS
 62
     4
 10
57.078301
 20
188.609386
 11
57.078301
 21
213.809386
  0
LINE
  8
CSLAYER1
  6
CONTINUOUS
 62
     4
 10
57.078301
 20
188.609386
 11
56.301844
 21
191.507164
  0
LINE
  8
CSLAYER1
  6
CONTINUOUS
 62
     4
 10
57.078301
 20
188.609386
 11
57.854758
 21
191.507164
  0
LINE
  8
CSLAYER1
  6
CONTINUOUS
 62
     4
 10
57.078301
 20
213.809386
 11
56.301844
 21
210.911609
  0
LINE
  8
CSLAYER1
  6
CONTINUOUS
 62
     4
 10
57.078301
 20
213.809386
 11
57.854758
 21
210.911609
  0
LINE
  8
CSLAYER1
  6
CONTINUOUS
 62
     4
 10
71.750967
 20
188.609386
 11
56.078301
 21
188.609386
  0
LINE
  8
CSLAYER1
  6
CONTINUOUS
 62
     4
 10
71.750967
 20
213.809386
 11
56.078301
 21
213.809386
  0
ENDBLK
  8
0
  0
BLOCK
  8
CSLAYER1
  2
*D0006
 70
    65
 10
0.0
 20
0.0
 30
0.0
  0
TEXT
  8
CSLAYER1
 62
     4
 10
50.578300
 20
80.049655
 40
3.200000
 41
1.125000
  1
%%c75
 50
90.000000
 51
15.000000
  7
FX_FONT
 72
     5
 11
50.578300
 21
89.649655
  0
LINE
  8
CSLAYER1
  6
CONTINUOUS
 62
     4
 10
51.078301
 20
47.349652
 11
51.078301
 21
122.349652
  0
LINE
  8
CSLAYER1
  6
CONTINUOUS
 62
     4
 10
51.078301
 20
47.349652
 11
50.301844
 21
50.247430
  0
LINE
  8
CSLAYER1
  6
CONTINUOUS
 62
     4
 10
51.078301
 20
47.349652
 11
51.854758
 21
50.247430
  0
LINE
  8
CSLAYER1
  6
CONTINUOUS
 62
     4
 10
51.078301
 20
122.349652
 11
50.301844
 21
119.451875
  0
LINE
  8
CSLAYER1
  6
CONTINUOUS
 62
     4
 10
51.078301
 20
122.349652
 11
51.854758
 21
119.451875
  0
LINE
  8
CSLAYER1
  6
CONTINUOUS
 62
     4
 10
141.750967
 20
47.349652
 11
50.078301
 21
47.349652
  0
LINE
  8
CSLAYER1
  6
CONTINUOUS
 62
     4
 10
141.750967
 20
122.349652
 11
50.078301
 21
122.349652
  0
ENDBLK
  8
0
  0
BLOCK
  8
CSLAYER1
  2
*D0007
 70
    65
 10
0.0
 20
0.0
 30
0.0
  0
TEXT
  8
CSLAYER1
 62
     4
 10
186.450961
 20
151.235687
 40
3.200000
 41
1.125000
  1
237
 50
0.000000
 51
15.000000
  7
FX_FONT
 72
     5
 11
196.050961
 21
151.235687
  0
LINE
  8
CSLAYER1
  6
CONTINUOUS
 62
     4
 10
72.750967
 20
150.735697
 11
309.750967
 21
150.735697
  0
LINE
  8
CSLAYER1
  6
CONTINUOUS
 62
     4
 10
72.750967
 20
150.735697
 11
75.648745
 21
151.512154
  0
LINE
  8
CSLAYER1
  6
CONTINUOUS
 62
     4
 10
72.750967
 20
150.735697
 11
75.648745
 21
149.959239
  0
LINE
  8
CSLAYER1
  6
CONTINUOUS
 62
     4
 10
309.750967
 20
150.735697
 11
306.853190
 21
151.512154
  0
LINE
  8
CSLAYER1
  6
CONTINUOUS
 62
     4
 10
309.750967
 20
150.735697
 11
306.853190
 21
149.959239
  0
LINE
  8
CSLAYER1
  6
CONTINUOUS
 62
     4
 10
72.750967
 20
102.077924
 11
72.750967
 21
151.735697
  0
LINE
  8
CSLAYER1
  6
CONTINUOUS
 62
     4
 10
309.750967
 20
104.778584
 11
309.750967
 21
151.735697
  0
ENDBLK
  8
0
  0
BLOCK
  8
CSLAYER1
  2
*D0008
 70
    65
 10
0.0
 20
0.0
 30
0.0
  0
TEXT
  8
CSLAYER1
 62
     4
 10
77.050969
 20
145.235687
 40
3.200000
 41
1.200000
  1
15
 50
0.000000
 51
15.000000
  7
FX_FONT
 72
     5
 11
83.450969
 21
145.235687
  0
LINE
  8
CSLAYER1
  6
CONTINUOUS
 62
     4
 10
72.750967
 20
144.735697
 11
87.750967
 21
144.735697
  0
LINE
  8
CSLAYER1
  6
CONTINUOUS
 62
     4
 10
72.750967
 20
144.735697
 11
75.648745
 21
145.512154
  0
LINE
  8
CSLAYER1
  6
CONTINUOUS
 62
     4
 10
72.750967
 20
144.735697
 11
75.648745
 21
143.959239
  0
LINE
  8
CSLAYER1
  6
CONTINUOUS
 62
     4
 10
87.750967
 20
144.735697
 11
84.853190
 21
145.512154
  0
LINE
  8
CSLAYER1
  6
CONTINUOUS
 62
     4
 10
87.750967
 20
144.735697
 11
84.853190
 21
143.959239
  0
LINE
  8
CSLAYER1
  6
CONTINUOUS
 62
     4
 10
87.750967
 20
96.325720
 11
87.750967
 21
145.735697
  0
ENDBLK
  8
0
  0
BLOCK
  8
CSLAYER1
  2
BLKF0000
 70
   64
 10
0.0
 20
0.0
 30
0.0
  0
LINE
  8
CSLAYER1
  6
CONTINUOUS
 62
     4
 10
242.750967
 20
237.295173
 11
244.165181
 21
238.709386
  0
LINE
  8
CSLAYER1
  6
CONTINUOUS
 62
     4
 10
242.750967
 20
235.880959
 11
245.579395
 21
238.709386
  0
LINE
  8
CSLAYER1
  6
CONTINUOUS
 62
     4
 10
242.750967
 20
234.466746
 11
246.993608
 21
238.709386
  0
LINE
  8
CSLAYER1
  6
CONTINUOUS
 62
     4
 10
242.750967
 20
233.052532
 11
248.407822
 21
238.709386
  0
LINE
  8
CSLAYER1
  6
CONTINUOUS
 62
     4
 10
242.750967
 20
231.638319
 11
249.822035
 21
238.709386
  0
LINE
  8
CSLAYER1
  6
CONTINUOUS
 62
     4
 10
242.750967
 20
230.224105
 11
251.236249
 21
238.709386
  0
LINE
  8
CSLAYER1
  6
CONTINUOUS
 62
     4
 10
242.750967
 20
228.809891
 11
252.650462
 21
238.709386
  0
LINE
  8
CSLAYER1
  6
CONTINUOUS
 62
     4
 10
242.750967
 20
227.395678
 11
254.064676
 21
238.709386
  0
LINE
  8
CSLAYER1
  6
CONTINUOUS
 62
     4
 10
242.750967
 20
225.981464
 11
255.478890
 21
238.709386
  0
LINE
  8
CSLAYER1
  6
CONTINUOUS
 62
     4
 10
242.750967
 20
224.567251
 11
256.893103
 21
238.709386
  0
LINE
  8
CSLAYER1
  6
CONTINUOUS
 62
     4
 10
242.750967
 20
223.153037
 11
258.307317
 21
238.709386
  0
LINE
  8
CSLAYER1
  6
CONTINUOUS
 62
     4
 10
242.750967
 20
221.738824
 11
259.721530
 21
238.709386
  0
LINE
  8
CSLAYER1
  6
CONTINUOUS
 62
     4
 10
242.750967
 20
220.324610
 11
261.135744
 21
238.709386
  0
LINE
  8
CSLAYER1
  6
CONTINUOUS
 62
     4
 10
242.750967
 20
218.910396
 11
262.549957
 21
238.709386
  0
LINE
  8
CSLAYER1
  6
CONTINUOUS
 62
     4
 10
242.750967
 20
217.496183
 11
262.750967
 21
237.496183
  0
LINE
  8
CSLAYER1
  6
CONTINUOUS
 62
     4
 10
242.750967
 20
216.081969
 11
262.750967
 21
236.081969
  0
LINE
  8
CSLAYER1
  6
CONTINUOUS
 62
     4
 10
242.750967
 20
214.667756
 11
262.750967
 21
234.667756
  0
LINE
  8
CSLAYER1
  6
CONTINUOUS
 62
     4
 10
242.750967
 20
213.253542
 11
262.750967
 21
233.253542
  0
LINE
  8
CSLAYER1
  6
CONTINUOUS
 62
     4
 10
242.750967
 20
211.839329
 11
262.750967
 21
231.839329
  0
LINE
  8
CSLAYER1
  6
CONTINUOUS
 62
     4
 10
242.750967
 20
210.425115
 11
262.750967
 21
230.425115
  0
LINE
  8
CSLAYER1
  6
CONTINUOUS
 62
     4
 10
243.449452
 20
209.709386
 11
262.750967
 21
229.010902
  0
LINE
  8
CSLAYER1
  6
CONTINUOUS
 62
     4
 10
244.863666
 20
209.709386
 11
262.750967
 21
227.596688
  0
LINE
  8
CSLAYER1
  6
CONTINUOUS
 62
     4
 10
246.277879
 20
209.709386
 11
262.750967
 21
226.182474
  0
LINE
  8
CSLAYER1
  6
CONTINUOUS
 62
     4
 10
247.692093
 20
209.709386
 11
262.750967
 21
224.768261
  0
LINE
  8
CSLAYER1
  6
CONTINUOUS
 62
     4
 10
249.106307
 20
209.709386
 11
262.750967
 21
223.354047
  0
LINE
  8
CSLAYER1
  6
CONTINUOUS
 62
     4
 10
250.520520
 20
209.709386
 11
262.750967
 21
221.939834
  0
LINE
  8
CSLAYER1
  6
CONTINUOUS
 62
     4
 10
251.934734
 20
209.709386
 11
262.750967
 21
220.525620
  0
LINE
  8
CSLAYER1
  6
CONTINUOUS
 62
     4
 10
253.348947
 20
209.709386
 11
262.750967
 21
219.111407
  0
LINE
  8
CSLAYER1
  6
CONTINUOUS
 62
     4
 10
254.763161
 20
209.709386
 11
262.750967
 21
217.697193
  0
LINE
  8
CSLAYER1
  6
CONTINUOUS
 62
     4
 10
256.177374
 20
209.709386
 11
262.750967
 21
216.282979
  0
LINE
  8
CSLAYER1
  6
CONTINUOUS
 62
     4
 10
257.591588
 20
209.709386
 11
262.750967
 21
214.868766
  0
LINE
  8
CSLAYER1
  6
CONTINUOUS
 62
     4
 10
259.005801
 20
209.709386
 11
262.750967
 21
213.454552
  0
LINE
  8
CSLAYER1
  6
CONTINUOUS
 62
     4
 10
260.420015
 20
209.709386
 11
262.750967
 21
212.040339
  0
LINE
  8
CSLAYER1
  6
CONTINUOUS
 62
     4
 10
261.834229
 20
209.709386
 11
262.750967
 21
210.626125
  0
ENDBLK
  8
0
  0
BLOCK
  8
CSLAYER1
  2
BLKF0001
 70
   64
 10
0.0
 20
0.0
 30
0.0
  0
LINE
  8
CSLAYER1
  6
CONTINUOUS
 62
     4
 10
242.750967
 20
238.709386
 11
262.750967
 21
218.709386
  0
LINE
  8
CSLAYER1
  6
CONTINUOUS
 62
     4
 10
244.165181
 20
238.709386
 11
262.750967
 21
220.123600
  0
LINE
  8
CSLAYER1
  6
CONTINUOUS
 62
     4
 10
245.579395
 20
238.709386
 11
262.750967
 21
221.537813
  0
LINE
  8
CSLAYER1
  6
CONTINUOUS
 62
     4
 10
246.993608
 20
238.709386
 11
262.750967
 21
222.952027
  0
LINE
  8
CSLAYER1
  6
CONTINUOUS
 62
     4
 10
248.407822
 20
238.709386
 11
262.750967
 21
224.366241
  0
LINE
  8
CSLAYER1
  6
CONTINUOUS
 62
     4
 10
249.822035
 20
238.709386
 11
262.750967
 21
225.780454
  0
LINE
  8
CSLAYER1
  6
CONTINUOUS
 62
     4
 10
251.236249
 20
238.709386
 11
262.750967
 21
227.194668
  0
LINE
  8
CSLAYER1
  6
CONTINUOUS
 62
     4
 10
252.650462
 20
238.709386
 11
262.750967
 21
228.608881
  0
LINE
  8
CSLAYER1
  6
CONTINUOUS
 62
     4
 10
254.064676
 20
238.709386
 11
262.750967
 21
230.023095
  0
LINE
  8
CSLAYER1
  6
CONTINUOUS
 62
     4
 10
255.478890
 20
238.709386
 11
262.750967
 21
231.437308
  0
LINE
  8
CSLAYER1
  6
CONTINUOUS
 62
     4
 10
256.893103
 20
238.709386
 11
262.750967
 21
232.851522
  0
LINE
  8
CSLAYER1
  6
CONTINUOUS
 62
     4
 10
258.307317
 20
238.709386
 11
262.750967
 21
234.265736
  0
LINE
  8
CSLAYER1
  6
CONTINUOUS
 62
     4
 10
259.721530
 20
238.709386
 11
262.750967
 21
235.679949
  0
LINE
  8
CSLAYER1
  6
CONTINUOUS
 62
     4
 10
261.135744
 20
238.709386
 11
262.750967
 21
237.094163
  0
LINE
  8
CSLAYER1
  6
CONTINUOUS
 62
     4
 10
262.549957
 20
238.709386
 11
262.750967
 21
238.508376
  0
LINE
  8
CSLAYER1
  6
CONTINUOUS
 62
     4
 10
242.750967
 20
237.295173
 11
262.750967
 21
217.295173
  0
LINE
  8
CSLAYER1
  6
CONTINUOUS
 62
     4
 10
242.750967
 20
235.880959
 11
262.750967
 21
215.880959
  0
LINE
  8
CSLAYER1
  6
CONTINUOUS
 62
     4
 10
242.750967
 20
234.466746
 11
262.750967
 21
214.466746
  0
LINE
  8
CSLAYER1
  6
CONTINUOUS
 62
     4
 10
242.750967
 20
233.052532
 11
262.750967
 21
213.052532
  0
LINE
  8
CSLAYER1
  6
CONTINUOUS
 62
     4
 10
242.750967
 20
231.638319
 11
262.750967
 21
211.638319
  0
LINE
  8
CSLAYER1
  6
CONTINUOUS
 62
     4
 10
242.750967
 20
230.224105
 11
262.750967
 21
210.224105
  0
LINE
  8
CSLAYER1
  6
CONTINUOUS
 62
     4
 10
242.750967
 20
228.809891
 11
261.851473
 21
209.709386
  0
LINE
  8
CSLAYER1
  6
CONTINUOUS
 62
     4
 10
242.750967
 20
227.395678
 11
260.437259
 21
209.709386
  0
LINE
  8
CSLAYER1
  6
CONTINUOUS
 62
     4
 10
242.750967
 20
225.981464
 11
259.023045
 21
209.709386
  0
LINE
  8
CSLAYER1
  6
CONTINUOUS
 62
     4
 10
242.750967
 20
224.567251
 11
257.608832
 21
209.709386
  0
LINE
  8
CSLAYER1
  6
CONTINUOUS
 62
     4
 10
242.750967
 20
223.153037
 11
256.194618
 21
209.709386
  0
LINE
  8
CSLAYER1
  6
CONTINUOUS
 62
     4
 10
242.750967
 20
221.738824
 11
254.780405
 21
209.709386
  0
LINE
  8
CSLAYER1
  6
CONTINUOUS
 62
     4
 10
242.750967
 20
220.324610
 11
253.366191
 21
209.709386
  0
LINE
  8
CSLAYER1
  6
CONTINUOUS
 62
     4
 10
242.750967
 20
218.910396
 11
251.951978
 21
209.709386
  0
LINE
  8
CSLAYER1
  6
CONTINUOUS
 62
     4
 10
242.750967
 20
217.496183
 11
250.537764
 21
209.709386
  0
LINE
  8
CSLAYER1
  6
CONTINUOUS
 62
     4
 10
242.750967
 20
216.081969
 11
249.123550
 21
209.709386
  0
LINE
  8
CSLAYER1
  6
CONTINUOUS
 62
     4
 10
242.750967
 20
214.667756
 11
247.709337
 21
209.709386
  0
LINE
  8
CSLAYER1
  6
CONTINUOUS
 62
     4
 10
242.750967
 20
213.253542
 11
246.295123
 21
209.709386
  0
LINE
  8
CSLAYER1
  6
CONTINUOUS
 62
     4
 10
242.750967
 20
211.839329
 11
244.880910
 21
209.709386
  0
LINE
  8
CSLAYER1
  6
CONTINUOUS
 62
     4
 10
242.750967
 20
210.425115
 11
243.466696
 21
209.709386
  0
ENDBLK
  8
0
  0
BLOCK
  8
CSLAYER1
  2
BLKF0002
 70
   64
 10
0.0
 20
0.0
 30
0.0
  0
LINE
  8
CSLAYER1
  6
CONTINUOUS
 62
     4
 10
152.750967
 20
237.295173
 11
154.165181
 21
238.709386
  0
LINE
  8
CSLAYER1
  6
CONTINUOUS
 62
     4
 10
152.750967
 20
235.880959
 11
155.579395
 21
238.709386
  0
LINE
  8
CSLAYER1
  6
CONTINUOUS
 62
     4
 10
152.750967
 20
234.466746
 11
156.993608
 21
238.709386
  0
LINE
  8
CSLAYER1
  6
CONTINUOUS
 62
     4
 10
152.750967
 20
233.052532
 11
158.407822
 21
238.709386
  0
LINE
  8
CSLAYER1
  6
CONTINUOUS
 62
     4
 10
152.750967
 20
231.638319
 11
159.822035
 21
238.709386
  0
LINE
  8
CSLAYER1
  6
CONTINUOUS
 62
     4
 10
152.750967
 20
230.224105
 11
161.236249
 21
238.709386
  0
LINE
  8
CSLAYER1
  6
CONTINUOUS
 62
     4
 10
152.750967
 20
228.809891
 11
162.650462
 21
238.709386
  0
LINE
  8
CSLAYER1
  6
CONTINUOUS
 62
     4
 10
152.750967
 20
227.395678
 11
164.064676
 21
238.709386
  0
LINE
  8
CSLAYER1
  6
CONTINUOUS
 62
     4
 10
152.750967
 20
225.981464
 11
165.478890
 21
238.709386
  0
LINE
  8
CSLAYER1
  6
CONTINUOUS
 62
     4
 10
152.750967
 20
224.567251
 11
166.893103
 21
238.709386
  0
LINE
  8
CSLAYER1
  6
CONTINUOUS
 62
     4
 10
152.750967
 20
223.153037
 11
168.307317
 21
238.709386
  0
LINE
  8
CSLAYER1
  6
CONTINUOUS
 62
     4
 10
152.750967
 20
221.738824
 11
169.721530
 21
238.709386
  0
LINE
  8
CSLAYER1
  6
CONTINUOUS
 62
     4
 10
152.750967
 20
220.324610
 11
171.135744
 21
238.709386
  0
LINE
  8
CSLAYER1
  6
CONTINUOUS
 62
     4
 10
152.750967
 20
218.910396
 11
172.549957
 21
238.709386
  0
LINE
  8
CSLAYER1
  6
CONTINUOUS
 62
     4
 10
152.750967
 20
217.496183
 11
172.750967
 21
237.496183
  0
LINE
  8
CSLAYER1
  6
CONTINUOUS
 62
     4
 10
152.750967
 20
216.081969
 11
172.750967
 21
236.081969
  0
LINE
  8
CSLAYER1
  6
CONTINUOUS
 62
     4
 10
152.750967
 20
214.667756
 11
172.750967
 21
234.667756
  0
LINE
  8
CSLAYER1
  6
CONTINUOUS
 62
     4
 10
152.750967
 20
213.253542
 11
172.750967
 21
233.253542
  0
LINE
  8
CSLAYER1
  6
CONTINUOUS
 62
     4
 10
152.750967
 20
211.839329
 11
172.750967
 21
231.839329
  0
LINE
  8
CSLAYER1
  6
CONTINUOUS
 62
     4
 10
152.750967
 20
210.425115
 11
172.750967
 21
230.425115
  0
LINE
  8
CSLAYER1
  6
CONTINUOUS
 62
     4
 10
153.449452
 20
209.709386
 11
172.750967
 21
229.010902
  0
LINE
  8
CSLAYER1
  6
CONTINUOUS
 62
     4
 10
154.863666
 20
209.709386
 11
172.750967
 21
227.596688
  0
LINE
  8
CSLAYER1
  6
CONTINUOUS
 62
     4
 10
156.277879
 20
209.709386
 11
172.750967
 21
226.182474
  0
LINE
  8
CSLAYER1
  6
CONTINUOUS
 62
     4
 10
157.692093
 20
209.709386
 11
172.750967
 21
224.768261
  0
LINE
  8
CSLAYER1
  6
CONTINUOUS
 62
     4
 10
159.106307
 20
209.709386
 11
172.750967
 21
223.354047
  0
LINE
  8
CSLAYER1
  6
CONTINUOUS
 62
     4
 10
160.520520
 20
209.709386
 11
172.750967
 21
221.939834
  0
LINE
  8
CSLAYER1
  6
CONTINUOUS
 62
     4
 10
161.934734
 20
209.709386
 11
172.750967
 21
220.525620
  0
LINE
  8
CSLAYER1
  6
CONTINUOUS
 62
     4
 10
163.348947
 20
209.709386
 11
172.750967
 21
219.111407
  0
LINE
  8
CSLAYER1
  6
CONTINUOUS
 62
     4
 10
164.763161
 20
209.709386
 11
172.750967
 21
217.697193
  0
LINE
  8
CSLAYER1
  6
CONTINUOUS
 62
     4
 10
166.177374
 20
209.709386
 11
172.750967
 21
216.282979
  0
LINE
  8
CSLAYER1
  6
CONTINUOUS
 62
     4
 10
167.591588
 20
209.709386
 11
172.750967
 21
214.868766
  0
LINE
  8
CSLAYER1
  6
CONTINUOUS
 62
     4
 10
169.005801
 20
209.709386
 11
172.750967
 21
213.454552
  0
LINE
  8
CSLAYER1
  6
CONTINUOUS
 62
     4
 10
170.420015
 20
209.709386
 11
172.750967
 21
212.040339
  0
LINE
  8
CSLAYER1
  6
CONTINUOUS
 62
     4
 10
171.834229
 20
209.709386
 11
172.750967
 21
210.626125
  0
ENDBLK
  8
0
  0
BLOCK
  8
CSLAYER1
  2
BLKF0003
 70
   64
 10
0.0
 20
0.0
 30
0.0
  0
LINE
  8
CSLAYER1
  6
CONTINUOUS
 62
     4
 10
152.750967
 20
238.709386
 11
172.750967
 21
218.709386
  0
LINE
  8
CSLAYER1
  6
CONTINUOUS
 62
     4
 10
154.165181
 20
238.709386
 11
172.750967
 21
220.123600
  0
LINE
  8
CSLAYER1
  6
CONTINUOUS
 62
     4
 10
155.579395
 20
238.709386
 11
172.750967
 21
221.537813
  0
LINE
  8
CSLAYER1
  6
CONTINUOUS
 62
     4
 10
156.993608
 20
238.709386
 11
172.750967
 21
222.952027
  0
LINE
  8
CSLAYER1
  6
CONTINUOUS
 62
     4
 10
158.407822
 20
238.709386
 11
172.750967
 21
224.366241
  0
LINE
  8
CSLAYER1
  6
CONTINUOUS
 62
     4
 10
159.822035
 20
238.709386
 11
172.750967
 21
225.780454
  0
LINE
  8
CSLAYER1
  6
CONTINUOUS
 62
     4
 10
161.236249
 20
238.709386
 11
172.750967
 21
227.194668
  0
LINE
  8
CSLAYER1
  6
CONTINUOUS
 62
     4
 10
162.650462
 20
238.709386
 11
172.750967
 21
228.608881
  0
LINE
  8
CSLAYER1
  6
CONTINUOUS
 62
     4
 10
164.064676
 20
238.709386
 11
172.750967
 21
230.023095
  0
LINE
  8
CSLAYER1
  6
CONTINUOUS
 62
     4
 10
165.478890
 20
238.709386
 11
172.750967
 21
231.437308
  0
LINE
  8
CSLAYER1
  6
CONTINUOUS
 62
     4
 10
166.893103
 20
238.709386
 11
172.750967
 21
232.851522
  0
LINE
  8
CSLAYER1
  6
CONTINUOUS
 62
     4
 10
168.307317
 20
238.709386
 11
172.750967
 21
234.265736
  0
LINE
  8
CSLAYER1
  6
CONTINUOUS
 62
     4
 10
169.721530
 20
238.709386
 11
172.750967
 21
235.679949
  0
LINE
  8
CSLAYER1
  6
CONTINUOUS
 62
     4
 10
171.135744
 20
238.709386
 11
172.750967
 21
237.094163
  0
LINE
  8
CSLAYER1
  6
CONTINUOUS
 62
     4
 10
172.549957
 20
238.709386
 11
172.750967
 21
238.508376
  0
LINE
  8
CSLAYER1
  6
CONTINUOUS
 62
     4
 10
152.750967
 20
237.295173
 11
172.750967
 21
217.295173
  0
LINE
  8
CSLAYER1
  6
CONTINUOUS
 62
     4
 10
152.750967
 20
235.880959
 11
172.750967
 21
215.880959
  0
LINE
  8
CSLAYER1
  6
CONTINUOUS
 62
     4
 10
152.750967
 20
234.466746
 11
172.750967
 21
214.466746
  0
LINE
  8
CSLAYER1
  6
CONTINUOUS
 62
     4
 10
152.750967
 20
233.052532
 11
172.750967
 21
213.052532
  0
LINE
  8
CSLAYER1
  6
CONTINUOUS
 62
     4
 10
152.750967
 20
231.638319
 11
172.750967
 21
211.638319
  0
LINE
  8
CSLAYER1
  6
CONTINUOUS
 62
     4
 10
152.750967
 20
230.224105
 11
172.750967
 21
210.224105
  0
LINE
  8
CSLAYER1
  6
CONTINUOUS
 62
     4
 10
152.750967
 20
228.809891
 11
171.851473
 21
209.709386
  0
LINE
  8
CSLAYER1
  6
CONTINUOUS
 62
     4
 10
152.750967
 20
227.395678
 11
170.437259
 21
209.709386
  0
LINE
  8
CSLAYER1
  6
CONTINUOUS
 62
     4
 10
152.750967
 20
225.981464
 11
169.023045
 21
209.709386
  0
LINE
  8
CSLAYER1
  6
CONTINUOUS
 62
     4
 10
152.750967
 20
224.567251
 11
167.608832
 21
209.709386
  0
LINE
  8
CSLAYER1
  6
CONTINUOUS
 62
     4
 10
152.750967
 20
223.153037
 11
166.194618
 21
209.709386
  0
LINE
  8
CSLAYER1
  6
CONTINUOUS
 62
     4
 10
152.750967
 20
221.738824
 11
164.780405
 21
209.709386
  0
LINE
  8
CSLAYER1
  6
CONTINUOUS
 62
     4
 10
152.750967
 20
220.324610
 11
163.366191
 21
209.709386
  0
LINE
  8
CSLAYER1
  6
CONTINUOUS
 62
     4
 10
152.750967
 20
218.910396
 11
161.951978
 21
209.709386
  0
LINE
  8
CSLAYER1
  6
CONTINUOUS
 62
     4
 10
152.750967
 20
217.496183
 11
160.537764
 21
209.709386
  0
LINE
  8
CSLAYER1
  6
CONTINUOUS
 62
     4
 10
152.750967
 20
216.081969
 11
159.123550
 21
209.709386
  0
LINE
  8
CSLAYER1
  6
CONTINUOUS
 62
     4
 10
152.750967
 20
214.667756
 11
157.709337
 21
209.709386
  0
LINE
  8
CSLAYER1
  6
CONTINUOUS
 62
     4
 10
152.750967
 20
213.253542
 11
156.295123
 21
209.709386
  0
LINE
  8
CSLAYER1
  6
CONTINUOUS
 62
     4
 10
152.750967
 20
211.839329
 11
154.880910
 21
209.709386
  0
LINE
  8
CSLAYER1
  6
CONTINUOUS
 62
     4
 10
152.750967
 20
210.425115
 11
153.466696
 21
209.709386
  0
ENDBLK
  8
0
  0
BLOCK
  8
CSLAYER1
  2
BLKF0004
 70
   64
 10
0.0
 20
0.0
 30
0.0
  0
LINE
  8
CSLAYER1
  6
CONTINUOUS
 62
     4
 10
192.750967
 20
237.295173
 11
194.165181
 21
238.709386
  0
LINE
  8
CSLAYER1
  6
CONTINUOUS
 62
     4
 10
192.750967
 20
235.880959
 11
195.579395
 21
238.709386
  0
LINE
  8
CSLAYER1
  6
CONTINUOUS
 62
     4
 10
192.750967
 20
234.466746
 11
196.993608
 21
238.709386
  0
LINE
  8
CSLAYER1
  6
CONTINUOUS
 62
     4
 10
192.750967
 20
233.052532
 11
198.407822
 21
238.709386
  0
LINE
  8
CSLAYER1
  6
CONTINUOUS
 62
     4
 10
192.750967
 20
231.638319
 11
199.822035
 21
238.709386
  0
LINE
  8
CSLAYER1
  6
CONTINUOUS
 62
     4
 10
192.750967
 20
230.224105
 11
201.236249
 21
238.709386
  0
LINE
  8
CSLAYER1
  6
CONTINUOUS
 62
     4
 10
192.750967
 20
228.809891
 11
202.650462
 21
238.709386
  0
LINE
  8
CSLAYER1
  6
CONTINUOUS
 62
     4
 10
192.750967
 20
227.395678
 11
204.064676
 21
238.709386
  0
LINE
  8
CSLAYER1
  6
CONTINUOUS
 62
     4
 10
192.750967
 20
225.981464
 11
205.478890
 21
238.709386
  0
LINE
  8
CSLAYER1
  6
CONTINUOUS
 62
     4
 10
192.750967
 20
224.567251
 11
206.893103
 21
238.709386
  0
LINE
  8
CSLAYER1
  6
CONTINUOUS
 62
     4
 10
192.750967
 20
223.153037
 11
208.307317
 21
238.709386
  0
LINE
  8
CSLAYER1
  6
CONTINUOUS
 62
     4
 10
192.750967
 20
221.738824
 11
209.721530
 21
238.709386
  0
LINE
  8
CSLAYER1
  6
CONTINUOUS
 62
     4
 10
192.750967
 20
220.324610
 11
211.135744
 21
238.709386
  0
LINE
  8
CSLAYER1
  6
CONTINUOUS
 62
     4
 10
192.750967
 20
218.910396
 11
212.549957
 21
238.709386
  0
LINE
  8
CSLAYER1
  6
CONTINUOUS
 62
     4
 10
192.750967
 20
217.496183
 11
213.964171
 21
238.709386
  0
LINE
  8
CSLAYER1
  6
CONTINUOUS
 62
     4
 10
192.750967
 20
216.081969
 11
215.378384
 21
238.709386
  0
LINE
  8
CSLAYER1
  6
CONTINUOUS
 62
     4
 10
192.750967
 20
214.667756
 11
216.792598
 21
238.709386
  0
LINE
  8
CSLAYER1
  6
CONTINUOUS
 62
     4
 10
192.750967
 20
213.253542
 11
218.206812
 21
238.709386
  0
LINE
  8
CSLAYER1
  6
CONTINUOUS
 62
     4
 10
192.750967
 20
211.839329
 11
219.621025
 21
238.709386
  0
LINE
  8
CSLAYER1
  6
CONTINUOUS
 62
     4
 10
192.750967
 20
210.425115
 11
221.035239
 21
238.709386
  0
LINE
  8
CSLAYER1
  6
CONTINUOUS
 62
     4
 10
193.449452
 20
209.709386
 11
222.449452
 21
238.709386
  0
LINE
  8
CSLAYER1
  6
CONTINUOUS
 62
     4
 10
194.863666
 20
209.709386
 11
222.750967
 21
237.596688
  0
LINE
  8
CSLAYER1
  6
CONTINUOUS
 62
     4
 10
196.277879
 20
209.709386
 11
222.750967
 21
236.182474
  0
LINE
  8
CSLAYER1
  6
CONTINUOUS
 62
     4
 10
197.692093
 20
209.709386
 11
222.750967
 21
234.768261
  0
LINE
  8
CSLAYER1
  6
CONTINUOUS
 62
     4
 10
199.106307
 20
209.709386
 11
222.750967
 21
233.354047
  0
LINE
  8
CSLAYER1
  6
CONTINUOUS
 62
     4
 10
200.520520
 20
209.709386
 11
222.750967
 21
231.939834
  0
LINE
  8
CSLAYER1
  6
CONTINUOUS
 62
     4
 10
201.934734
 20
209.709386
 11
222.750967
 21
230.525620
  0
LINE
  8
CSLAYER1
  6
CONTINUOUS
 62
     4
 10
203.348947
 20
209.709386
 11
222.750967
 21
229.111407
  0
LINE
  8
CSLAYER1
  6
CONTINUOUS
 62
     4
 10
204.763161
 20
209.709386
 11
222.750967
 21
227.697193
  0
LINE
  8
CSLAYER1
  6
CONTINUOUS
 62
     4
 10
206.177374
 20
209.709386
 11
222.750967
 21
226.282979
  0
LINE
  8
CSLAYER1
  6
CONTINUOUS
 62
     4
 10
207.591588
 20
209.709386
 11
222.750967
 21
224.868766
  0
LINE
  8
CSLAYER1
  6
CONTINUOUS
 62
     4
 10
209.005801
 20
209.709386
 11
222.750967
 21
223.454552
  0
LINE
  8
CSLAYER1
  6
CONTINUOUS
 62
     4
 10
210.420015
 20
209.709386
 11
222.750967
 21
222.040339
  0
LINE
  8
CSLAYER1
  6
CONTINUOUS
 62
     4
 10
211.834229
 20
209.709386
 11
222.750967
 21
220.626125
  0
LINE
  8
CSLAYER1
  6
CONTINUOUS
 62
     4
 10
213.248442
 20
209.709386
 11
222.750967
 21
219.211912
  0
LINE
  8
CSLAYER1
  6
CONTINUOUS
 62
     4
 10
214.662656
 20
209.709386
 11
222.750967
 21
217.797698
  0
LINE
  8
CSLAYER1
  6
CONTINUOUS
 62
     4
 10
216.076869
 20
209.709386
 11
222.750967
 21
216.383485
  0
LINE
  8
CSLAYER1
  6
CONTINUOUS
 62
     4
 10
217.491083
 20
209.709386
 11
222.750967
 21
214.969271
  0
LINE
  8
CSLAYER1
  6
CONTINUOUS
 62
     4
 10
218.905296
 20
209.709386
 11
222.750967
 21
213.555057
  0
LINE
  8
CSLAYER1
  6
CONTINUOUS
 62
     4
 10
220.319510
 20
209.709386
 11
222.750967
 21
212.140844
  0
LINE
  8
CSLAYER1
  6
CONTINUOUS
 62
     4
 10
221.733724
 20
209.709386
 11
222.750967
 21
210.726630
  0
ENDBLK
  8
0
  0
BLOCK
  8
CSLAYER1
  2
BLKF0005
 70
   64
 10
0.0
 20
0.0
 30
0.0
  0
LINE
  8
CSLAYER1
  6
CONTINUOUS
 62
     4
 10
192.750967
 20
238.709386
 11
221.750967
 21
209.709386
  0
LINE
  8
CSLAYER1
  6
CONTINUOUS
 62
     4
 10
194.165181
 20
238.709386
 11
222.750967
 21
210.123600
  0
LINE
  8
CSLAYER1
  6
CONTINUOUS
 62
     4
 10
195.579395
 20
238.709386
 11
222.750967
 21
211.537813
  0
LINE
  8
CSLAYER1
  6
CONTINUOUS
 62
     4
 10
196.993608
 20
238.709386
 11
222.750967
 21
212.952027
  0
LINE
  8
CSLAYER1
  6
CONTINUOUS
 62
     4
 10
198.407822
 20
238.709386
 11
222.750967
 21
214.366241
  0
LINE
  8
CSLAYER1
  6
CONTINUOUS
 62
     4
 10
199.822035
 20
238.709386
 11
222.750967
 21
215.780454
  0
LINE
  8
CSLAYER1
  6
CONTINUOUS
 62
     4
 10
201.236249
 20
238.709386
 11
222.750967
 21
217.194668
  0
LINE
  8
CSLAYER1
  6
CONTINUOUS
 62
     4
 10
202.650462
 20
238.709386
 11
222.750967
 21
218.608881
  0
LINE
  8
CSLAYER1
  6
CONTINUOUS
 62
     4
 10
204.064676
 20
238.709386
 11
222.750967
 21
220.023095
  0
LINE
  8
CSLAYER1
  6
CONTINUOUS
 62
     4
 10
205.478890
 20
238.709386
 11
222.750967
 21
221.437308
  0
LINE
  8
CSLAYER1
  6
CONTINUOUS
 62
     4
 10
206.893103
 20
238.709386
 11
222.750967
 21
222.851522
  0
LINE
  8
CSLAYER1
  6
CONTINUOUS
 62
     4
 10
208.307317
 20
238.709386
 11
222.750967
 21
224.265736
  0
LINE
  8
CSLAYER1
  6
CONTINUOUS
 62
     4
 10
209.721530
 20
238.709386
 11
222.750967
 21
225.679949
  0
LINE
  8
CSLAYER1
  6
CONTINUOUS
 62
     4
 10
211.135744
 20
238.709386
 11
222.750967
 21
227.094163
  0
LINE
  8
CSLAYER1
  6
CONTINUOUS
 62
     4
 10
212.549957
 20
238.709386
 11
222.750967
 21
228.508376
  0
LINE
  8
CSLAYER1
  6
CONTINUOUS
 62
     4
 10
213.964171
 20
238.709386
 11
222.750967
 21
229.922590
  0
LINE
  8
CSLAYER1
  6
CONTINUOUS
 62
     4
 10
215.378384
 20
238.709386
 11
222.750967
 21
231.336803
  0
LINE
  8
CSLAYER1
  6
CONTINUOUS
 62
     4
 10
216.792598
 20
238.709386
 11
222.750967
 21
232.751017
  0
LINE
  8
CSLAYER1
  6
CONTINUOUS
 62
     4
 10
218.206812
 20
238.709386
 11
222.750967
 21
234.165230
  0
LINE
  8
CSLAYER1
  6
CONTINUOUS
 62
     4
 10
219.621025
 20
238.709386
 11
222.750967
 21
235.579444
  0
LINE
  8
CSLAYER1
  6
CONTINUOUS
 62
     4
 10
221.035239
 20
238.709386
 11
222.750967
 21
236.993658
  0
LINE
  8
CSLAYER1
  6
CONTINUOUS
 62
     4
 10
222.449452
 20
238.709386
 11
222.750967
 21
238.407871
  0
LINE
  8
CSLAYER1
  6
CONTINUOUS
 62
     4
 10
192.750967
 20
237.295173
 11
220.336754
 21
209.709386
  0
LINE
  8
CSLAYER1
  6
CONTINUOUS
 62
     4
 10
192.750967
 20
235.880959
 11
218.922540
 21
209.709386
  0
LINE
  8
CSLAYER1
  6
CONTINUOUS
 62
     4
 10
192.750967
 20
234.466746
 11
217.508327
 21
209.709386
  0
LINE
  8
CSLAYER1
  6
CONTINUOUS
 62
     4
 10
192.750967
 20
233.052532
 11
216.094113
 21
209.709386
  0
LINE
  8
CSLAYER1
  6
CONTINUOUS
 62
     4
 10
192.750967
 20
231.638319
 11
214.679900
 21
209.709386
  0
LINE
  8
CSLAYER1
  6
CONTINUOUS
 62
     4
 10
192.750967
 20
230.224105
 11
213.265686
 21
209.709386
  0
LINE
  8
CSLAYER1
  6
CONTINUOUS
 62
     4
 10
192.750967
 20
228.809891
 11
211.851473
 21
209.709386
  0
LINE
  8
CSLAYER1
  6
CONTINUOUS
 62
     4
 10
192.750967
 20
227.395678
 11
210.437259
 21
209.709386
  0
LINE
  8
CSLAYER1
  6
CONTINUOUS
 62
     4
 10
192.750967
 20
225.981464
 11
209.023045
 21
209.709386
  0
LINE
  8
CSLAYER1
  6
CONTINUOUS
 62
     4
 10
192.750967
 20
224.567251
 11
207.608832
 21
209.709386
  0
LINE
  8
CSLAYER1
  6
CONTINUOUS
 62
     4
 10
192.750967
 20
223.153037
 11
206.194618
 21
209.709386
  0
LINE
  8
CSLAYER1
  6
CONTINUOUS
 62
     4
 10
192.750967
 20
221.738824
 11
204.780405
 21
209.709386
  0
LINE
  8
CSLAYER1
  6
CONTINUOUS
 62
     4
 10
192.750967
 20
220.324610
 11
203.366191
 21
209.709386
  0
LINE
  8
CSLAYER1
  6
CONTINUOUS
 62
     4
 10
192.750967
 20
218.910396
 11
201.951978
 21
209.709386
  0
LINE
  8
CSLAYER1
  6
CONTINUOUS
 62
     4
 10
192.750967
 20
217.496183
 11
200.537764
 21
209.709386
  0
LINE
  8
CSLAYER1
  6
CONTINUOUS
 62
     4
 10
192.750967
 20
216.081969
 11
199.123550
 21
209.709386
  0
LINE
  8
CSLAYER1
  6
CONTINUOUS
 62
     4
 10
192.750967
 20
214.667756
 11
197.709337
 21
209.709386
  0
LINE
  8
CSLAYER1
  6
CONTINUOUS
 62
     4
 10
192.750967
 20
213.253542
 11
196.295123
 21
209.709386
  0
LINE
  8
CSLAYER1
  6
CONTINUOUS
 62
     4
 10
192.750967
 20
211.839329
 11
194.880910
 21
209.709386
  0
LINE
  8
CSLAYER1
  6
CONTINUOUS
 62
     4
 10
192.750967
 20
210.425115
 11
193.466696
 21
209.709386
  0
ENDBLK
  8
0
  0
BLOCK
  8
CSLAYER1
  2
BLKF0006
 70
   64
 10
0.0
 20
0.0
 30
0.0
  0
LINE
  8
CSLAYER1
  6
CONTINUOUS
 62
     4
 10
242.750967
 20
191.295173
 11
244.165181
 21
192.709386
  0
LINE
  8
CSLAYER1
  6
CONTINUOUS
 62
     4
 10
242.750967
 20
189.880959
 11
245.579395
 21
192.709386
  0
LINE
  8
CSLAYER1
  6
CONTINUOUS
 62
     4
 10
242.750967
 20
188.466746
 11
246.993608
 21
192.709386
  0
LINE
  8
CSLAYER1
  6
CONTINUOUS
 62
     4
 10
242.750967
 20
187.052532
 11
248.407822
 21
192.709386
  0
LINE
  8
CSLAYER1
  6
CONTINUOUS
 62
     4
 10
242.750967
 20
185.638319
 11
249.822035
 21
192.709386
  0
LINE
  8
CSLAYER1
  6
CONTINUOUS
 62
     4
 10
242.750967
 20
184.224105
 11
251.236249
 21
192.709386
  0
LINE
  8
CSLAYER1
  6
CONTINUOUS
 62
     4
 10
242.750967
 20
182.809891
 11
252.650462
 21
192.709386
  0
LINE
  8
CSLAYER1
  6
CONTINUOUS
 62
     4
 10
242.750967
 20
181.395678
 11
254.064676
 21
192.709386
  0
LINE
  8
CSLAYER1
  6
CONTINUOUS
 62
     4
 10
242.750967
 20
179.981464
 11
255.478890
 21
192.709386
  0
LINE
  8
CSLAYER1
  6
CONTINUOUS
 62
     4
 10
242.750967
 20
178.567251
 11
256.893103
 21
192.709386
  0
LINE
  8
CSLAYER1
  6
CONTINUOUS
 62
     4
 10
242.750967
 20
177.153037
 11
258.307317
 21
192.709386
  0
LINE
  8
CSLAYER1
  6
CONTINUOUS
 62
     4
 10
242.750967
 20
175.738824
 11
259.721530
 21
192.709386
  0
LINE
  8
CSLAYER1
  6
CONTINUOUS
 62
     4
 10
242.750967
 20
174.324610
 11
261.135744
 21
192.709386
  0
LINE
  8
CSLAYER1
  6
CONTINUOUS
 62
     4
 10
242.750967
 20
172.910396
 11
262.549957
 21
192.709386
  0
LINE
  8
CSLAYER1
  6
CONTINUOUS
 62
     4
 10
242.750967
 20
171.496183
 11
262.750967
 21
191.496183
  0
LINE
  8
CSLAYER1
  6
CONTINUOUS
 62
     4
 10
242.750967
 20
170.081969
 11
262.750967
 21
190.081969
  0
LINE
  8
CSLAYER1
  6
CONTINUOUS
 62
     4
 10
242.750967
 20
168.667756
 11
262.750967
 21
188.667756
  0
LINE
  8
CSLAYER1
  6
CONTINUOUS
 62
     4
 10
242.750967
 20
167.253542
 11
262.750967
 21
187.253542
  0
LINE
  8
CSLAYER1
  6
CONTINUOUS
 62
     4
 10
242.750967
 20
165.839329
 11
262.750967
 21
185.839329
  0
LINE
  8
CSLAYER1
  6
CONTINUOUS
 62
     4
 10
242.750967
 20
164.425115
 11
262.750967
 21
184.425115
  0
LINE
  8
CSLAYER1
  6
CONTINUOUS
 62
     4
 10
243.449452
 20
163.709386
 11
262.750967
 21
183.010902
  0
LINE
  8
CSLAYER1
  6
CONTINUOUS
 62
     4
 10
244.863666
 20
163.709386
 11
262.750967
 21
181.596688
  0
LINE
  8
CSLAYER1
  6
CONTINUOUS
 62
     4
 10
246.277879
 20
163.709386
 11
262.750967
 21
180.182474
  0
LINE
  8
CSLAYER1
  6
CONTINUOUS
 62
     4
 10
247.692093
 20
163.709386
 11
262.750967
 21
178.768261
  0
LINE
  8
CSLAYER1
  6
CONTINUOUS
 62
     4
 10
249.106307
 20
163.709386
 11
262.750967
 21
177.354047
  0
LINE
  8
CSLAYER1
  6
CONTINUOUS
 62
     4
 10
250.520520
 20
163.709386
 11
262.750967
 21
175.939834
  0
LINE
  8
CSLAYER1
  6
CONTINUOUS
 62
     4
 10
251.934734
 20
163.709386
 11
262.750967
 21
174.525620
  0
LINE
  8
CSLAYER1
  6
CONTINUOUS
 62
     4
 10
253.348947
 20
163.709386
 11
262.750967
 21
173.111407
  0
LINE
  8
CSLAYER1
  6
CONTINUOUS
 62
     4
 10
254.763161
 20
163.709386
 11
262.750967
 21
171.697193
  0
LINE
  8
CSLAYER1
  6
CONTINUOUS
 62
     4
 10
256.177374
 20
163.709386
 11
262.750967
 21
170.282979
  0
LINE
  8
CSLAYER1
  6
CONTINUOUS
 62
     4
 10
257.591588
 20
163.709386
 11
262.750967
 21
168.868766
  0
LINE
  8
CSLAYER1
  6
CONTINUOUS
 62
     4
 10
259.005801
 20
163.709386
 11
262.750967
 21
167.454552
  0
LINE
  8
CSLAYER1
  6
CONTINUOUS
 62
     4
 10
260.420015
 20
163.709386
 11
262.750967
 21
166.040339
  0
LINE
  8
CSLAYER1
  6
CONTINUOUS
 62
     4
 10
261.834229
 20
163.709386
 11
262.750967
 21
164.626125
  0
ENDBLK
  8
0
  0
BLOCK
  8
CSLAYER1
  2
BLKF0007
 70
   64
 10
0.0
 20
0.0
 30
0.0
  0
LINE
  8
CSLAYER1
  6
CONTINUOUS
 62
     4
 10
242.750967
 20
192.709386
 11
262.750967
 21
172.709386
  0
LINE
  8
CSLAYER1
  6
CONTINUOUS
 62
     4
 10
244.165181
 20
192.709386
 11
262.750967
 21
174.123600
  0
LINE
  8
CSLAYER1
  6
CONTINUOUS
 62
     4
 10
245.579395
 20
192.709386
 11
262.750967
 21
175.537813
  0
LINE
  8
CSLAYER1
  6
CONTINUOUS
 62
     4
 10
246.993608
 20
192.709386
 11
262.750967
 21
176.952027
  0
LINE
  8
CSLAYER1
  6
CONTINUOUS
 62
     4
 10
248.407822
 20
192.709386
 11
262.750967
 21
178.366241
  0
LINE
  8
CSLAYER1
  6
CONTINUOUS
 62
     4
 10
249.822035
 20
192.709386
 11
262.750967
 21
179.780454
  0
LINE
  8
CSLAYER1
  6
CONTINUOUS
 62
     4
 10
251.236249
 20
192.709386
 11
262.750967
 21
181.194668
  0
LINE
  8
CSLAYER1
  6
CONTINUOUS
 62
     4
 10
252.650462
 20
192.709386
 11
262.750967
 21
182.608881
  0
LINE
  8
CSLAYER1
  6
CONTINUOUS
 62
     4
 10
254.064676
 20
192.709386
 11
262.750967
 21
184.023095
  0
LINE
  8
CSLAYER1
  6
CONTINUOUS
 62
     4
 10
255.478890
 20
192.709386
 11
262.750967
 21
185.437308
  0
LINE
  8
CSLAYER1
  6
CONTINUOUS
 62
     4
 10
256.893103
 20
192.709386
 11
262.750967
 21
186.851522
  0
LINE
  8
CSLAYER1
  6
CONTINUOUS
 62
     4
 10
258.307317
 20
192.709386
 11
262.750967
 21
188.265736
  0
LINE
  8
CSLAYER1
  6
CONTINUOUS
 62
     4
 10
259.721530
 20
192.709386
 11
262.750967
 21
189.679949
  0
LINE
  8
CSLAYER1
  6
CONTINUOUS
 62
     4
 10
261.135744
 20
192.709386
 11
262.750967
 21
191.094163
  0
LINE
  8
CSLAYER1
  6
CONTINUOUS
 62
     4
 10
262.549957
 20
192.709386
 11
262.750967
 21
192.508376
  0
LINE
  8
CSLAYER1
  6
CONTINUOUS
 62
     4
 10
242.750967
 20
191.295173
 11
262.750967
 21
171.295173
  0
LINE
  8
CSLAYER1
  6
CONTINUOUS
 62
     4
 10
242.750967
 20
189.880959
 11
262.750967
 21
169.880959
  0
LINE
  8
CSLAYER1
  6
CONTINUOUS
 62
     4
 10
242.750967
 20
188.466746
 11
262.750967
 21
168.466746
  0
LINE
  8
CSLAYER1
  6
CONTINUOUS
 62
     4
 10
242.750967
 20
187.052532
 11
262.750967
 21
167.052532
  0
LINE
  8
CSLAYER1
  6
CONTINUOUS
 62
     4
 10
242.750967
 20
185.638319
 11
262.750967
 21
165.638319
  0
LINE
  8
CSLAYER1
  6
CONTINUOUS
 62
     4
 10
242.750967
 20
184.224105
 11
262.750967
 21
164.224105
  0
LINE
  8
CSLAYER1
  6
CONTINUOUS
 62
     4
 10
242.750967
 20
182.809891
 11
261.851473
 21
163.709386
  0
LINE
  8
CSLAYER1
  6
CONTINUOUS
 62
     4
 10
242.750967
 20
181.395678
 11
260.437259
 21
163.709386
  0
LINE
  8
CSLAYER1
  6
CONTINUOUS
 62
     4
 10
242.750967
 20
179.981464
 11
259.023045
 21
163.709386
  0
LINE
  8
CSLAYER1
  6
CONTINUOUS
 62
     4
 10
242.750967
 20
178.567251
 11
257.608832
 21
163.709386
  0
LINE
  8
CSLAYER1
  6
CONTINUOUS
 62
     4
 10
242.750967
 20
177.153037
 11
256.194618
 21
163.709386
  0
LINE
  8
CSLAYER1
  6
CONTINUOUS
 62
     4
 10
242.750967
 20
175.738824
 11
254.780405
 21
163.709386
  0
LINE
  8
CSLAYER1
  6
CONTINUOUS
 62
     4
 10
242.750967
 20
174.324610
 11
253.366191
 21
163.709386
  0
LINE
  8
CSLAYER1
  6
CONTINUOUS
 62
     4
 10
242.750967
 20
172.910396
 11
251.951978
 21
163.709386
  0
LINE
  8
CSLAYER1
  6
CONTINUOUS
 62
     4
 10
242.750967
 20
171.496183
 11
250.537764
 21
163.709386
  0
LINE
  8
CSLAYER1
  6
CONTINUOUS
 62
     4
 10
242.750967
 20
170.081969
 11
249.123550
 21
163.709386
  0
LINE
  8
CSLAYER1
  6
CONTINUOUS
 62
     4
 10
242.750967
 20
168.667756
 11
247.709337
 21
163.709386
  0
LINE
  8
CSLAYER1
  6
CONTINUOUS
 62
     4
 10
242.750967
 20
167.253542
 11
246.295123
 21
163.709386
  0
LINE
  8
CSLAYER1
  6
CONTINUOUS
 62
     4
 10
242.750967
 20
165.839329
 11
244.880910
 21
163.709386
  0
LINE
  8
CSLAYER1
  6
CONTINUOUS
 62
     4
 10
242.750967
 20
164.425115
 11
243.466696
 21
163.709386
  0
ENDBLK
  8
0
  0
BLOCK
  8
CSLAYER1
  2
BLKF0008
 70
   64
 10
0.0
 20
0.0
 30
0.0
  0
LINE
  8
CSLAYER1
  6
CONTINUOUS
 62
     4
 10
152.750967
 20
191.295173
 11
154.165181
 21
192.709386
  0
LINE
  8
CSLAYER1
  6
CONTINUOUS
 62
     4
 10
152.750967
 20
189.880959
 11
155.579395
 21
192.709386
  0
LINE
  8
CSLAYER1
  6
CONTINUOUS
 62
     4
 10
152.750967
 20
188.466746
 11
156.993608
 21
192.709386
  0
LINE
  8
CSLAYER1
  6
CONTINUOUS
 62
     4
 10
152.750967
 20
187.052532
 11
158.407822
 21
192.709386
  0
LINE
  8
CSLAYER1
  6
CONTINUOUS
 62
     4
 10
152.750967
 20
185.638319
 11
159.822035
 21
192.709386
  0
LINE
  8
CSLAYER1
  6
CONTINUOUS
 62
     4
 10
152.750967
 20
184.224105
 11
161.236249
 21
192.709386
  0
LINE
  8
CSLAYER1
  6
CONTINUOUS
 62
     4
 10
152.750967
 20
182.809891
 11
162.650462
 21
192.709386
  0
LINE
  8
CSLAYER1
  6
CONTINUOUS
 62
     4
 10
152.750967
 20
181.395678
 11
164.064676
 21
192.709386
  0
LINE
  8
CSLAYER1
  6
CONTINUOUS
 62
     4
 10
152.750967
 20
179.981464
 11
165.478890
 21
192.709386
  0
LINE
  8
CSLAYER1
  6
CONTINUOUS
 62
     4
 10
152.750967
 20
178.567251
 11
166.893103
 21
192.709386
  0
LINE
  8
CSLAYER1
  6
CONTINUOUS
 62
     4
 10
152.750967
 20
177.153037
 11
168.307317
 21
192.709386
  0
LINE
  8
CSLAYER1
  6
CONTINUOUS
 62
     4
 10
152.750967
 20
175.738824
 11
169.721530
 21
192.709386
  0
LINE
  8
CSLAYER1
  6
CONTINUOUS
 62
     4
 10
152.750967
 20
174.324610
 11
171.135744
 21
192.709386
  0
LINE
  8
CSLAYER1
  6
CONTINUOUS
 62
     4
 10
152.750967
 20
172.910396
 11
172.549957
 21
192.709386
  0
LINE
  8
CSLAYER1
  6
CONTINUOUS
 62
     4
 10
152.750967
 20
171.496183
 11
172.750967
 21
191.496183
  0
LINE
  8
CSLAYER1
  6
CONTINUOUS
 62
     4
 10
152.750967
 20
170.081969
 11
172.750967
 21
190.081969
  0
LINE
  8
CSLAYER1
  6
CONTINUOUS
 62
     4
 10
152.750967
 20
168.667756
 11
172.750967
 21
188.667756
  0
LINE
  8
CSLAYER1
  6
CONTINUOUS
 62
     4
 10
152.750967
 20
167.253542
 11
172.750967
 21
187.253542
  0
LINE
  8
CSLAYER1
  6
CONTINUOUS
 62
     4
 10
152.750967
 20
165.839329
 11
172.750967
 21
185.839329
  0
LINE
  8
CSLAYER1
  6
CONTINUOUS
 62
     4
 10
152.750967
 20
164.425115
 11
172.750967
 21
184.425115
  0
LINE
  8
CSLAYER1
  6
CONTINUOUS
 62
     4
 10
153.449452
 20
163.709386
 11
172.750967
 21
183.010902
  0
LINE
  8
CSLAYER1
  6
CONTINUOUS
 62
     4
 10
154.863666
 20
163.709386
 11
172.750967
 21
181.596688
  0
LINE
  8
CSLAYER1
  6
CONTINUOUS
 62
     4
 10
156.277879
 20
163.709386
 11
172.750967
 21
180.182474
  0
LINE
  8
CSLAYER1
  6
CONTINUOUS
 62
     4
 10
157.692093
 20
163.709386
 11
172.750967
 21
178.768261
  0
LINE
  8
CSLAYER1
  6
CONTINUOUS
 62
     4
 10
159.106307
 20
163.709386
 11
172.750967
 21
177.354047
  0
LINE
  8
CSLAYER1
  6
CONTINUOUS
 62
     4
 10
160.520520
 20
163.709386
 11
172.750967
 21
175.939834
  0
LINE
  8
CSLAYER1
  6
CONTINUOUS
 62
     4
 10
161.934734
 20
163.709386
 11
172.750967
 21
174.525620
  0
LINE
  8
CSLAYER1
  6
CONTINUOUS
 62
     4
 10
163.348947
 20
163.709386
 11
172.750967
 21
173.111407
  0
LINE
  8
CSLAYER1
  6
CONTINUOUS
 62
     4
 10
164.763161
 20
163.709386
 11
172.750967
 21
171.697193
  0
LINE
  8
CSLAYER1
  6
CONTINUOUS
 62
     4
 10
166.177374
 20
163.709386
 11
172.750967
 21
170.282979
  0
LINE
  8
CSLAYER1
  6
CONTINUOUS
 62
     4
 10
167.591588
 20
163.709386
 11
172.750967
 21
168.868766
  0
LINE
  8
CSLAYER1
  6
CONTINUOUS
 62
     4
 10
169.005801
 20
163.709386
 11
172.750967
 21
167.454552
  0
LINE
  8
CSLAYER1
  6
CONTINUOUS
 62
     4
 10
170.420015
 20
163.709386
 11
172.750967
 21
166.040339
  0
LINE
  8
CSLAYER1
  6
CONTINUOUS
 62
     4
 10
171.834229
 20
163.709386
 11
172.750967
 21
164.626125
  0
ENDBLK
  8
0
  0
BLOCK
  8
CSLAYER1
  2
BLKF0009
 70
   64
 10
0.0
 20
0.0
 30
0.0
  0
LINE
  8
CSLAYER1
  6
CONTINUOUS
 62
     4
 10
152.750967
 20
192.709386
 11
172.750967
 21
172.709386
  0
LINE
  8
CSLAYER1
  6
CONTINUOUS
 62
     4
 10
154.165181
 20
192.709386
 11
172.750967
 21
174.123600
  0
LINE
  8
CSLAYER1
  6
CONTINUOUS
 62
     4
 10
155.579395
 20
192.709386
 11
172.750967
 21
175.537813
  0
LINE
  8
CSLAYER1
  6
CONTINUOUS
 62
     4
 10
156.993608
 20
192.709386
 11
172.750967
 21
176.952027
  0
LINE
  8
CSLAYER1
  6
CONTINUOUS
 62
     4
 10
158.407822
 20
192.709386
 11
172.750967
 21
178.366241
  0
LINE
  8
CSLAYER1
  6
CONTINUOUS
 62
     4
 10
159.822035
 20
192.709386
 11
172.750967
 21
179.780454
  0
LINE
  8
CSLAYER1
  6
CONTINUOUS
 62
     4
 10
161.236249
 20
192.709386
 11
172.750967
 21
181.194668
  0
LINE
  8
CSLAYER1
  6
CONTINUOUS
 62
     4
 10
162.650462
 20
192.709386
 11
172.750967
 21
182.608881
  0
LINE
  8
CSLAYER1
  6
CONTINUOUS
 62
     4
 10
164.064676
 20
192.709386
 11
172.750967
 21
184.023095
  0
LINE
  8
CSLAYER1
  6
CONTINUOUS
 62
     4
 10
165.478890
 20
192.709386
 11
172.750967
 21
185.437308
  0
LINE
  8
CSLAYER1
  6
CONTINUOUS
 62
     4
 10
166.893103
 20
192.709386
 11
172.750967
 21
186.851522
  0
LINE
  8
CSLAYER1
  6
CONTINUOUS
 62
     4
 10
168.307317
 20
192.709386
 11
172.750967
 21
188.265736
  0
LINE
  8
CSLAYER1
  6
CONTINUOUS
 62
     4
 10
169.721530
 20
192.709386
 11
172.750967
 21
189.679949
  0
LINE
  8
CSLAYER1
  6
CONTINUOUS
 62
     4
 10
171.135744
 20
192.709386
 11
172.750967
 21
191.094163
  0
LINE
  8
CSLAYER1
  6
CONTINUOUS
 62
     4
 10
172.549957
 20
192.709386
 11
172.750967
 21
192.508376
  0
LINE
  8
CSLAYER1
  6
CONTINUOUS
 62
     4
 10
152.750967
 20
191.295173
 11
172.750967
 21
171.295173
  0
LINE
  8
CSLAYER1
  6
CONTINUOUS
 62
     4
 10
152.750967
 20
189.880959
 11
172.750967
 21
169.880959
  0
LINE
  8
CSLAYER1
  6
CONTINUOUS
 62
     4
 10
152.750967
 20
188.466746
 11
172.750967
 21
168.466746
  0
LINE
  8
CSLAYER1
  6
CONTINUOUS
 62
     4
 10
152.750967
 20
187.052532
 11
172.750967
 21
167.052532
  0
LINE
  8
CSLAYER1
  6
CONTINUOUS
 62
     4
 10
152.750967
 20
185.638319
 11
172.750967
 21
165.638319
  0
LINE
  8
CSLAYER1
  6
CONTINUOUS
 62
     4
 10
152.750967
 20
184.224105
 11
172.750967
 21
164.224105
  0
LINE
  8
CSLAYER1
  6
CONTINUOUS
 62
     4
 10
152.750967
 20
182.809891
 11
171.851473
 21
163.709386
  0
LINE
  8
CSLAYER1
  6
CONTINUOUS
 62
     4
 10
152.750967
 20
181.395678
 11
170.437259
 21
163.709386
  0
LINE
  8
CSLAYER1
  6
CONTINUOUS
 62
     4
 10
152.750967
 20
179.981464
 11
169.023045
 21
163.709386
  0
LINE
  8
CSLAYER1
  6
CONTINUOUS
 62
     4
 10
152.750967
 20
178.567251
 11
167.608832
 21
163.709386
  0
LINE
  8
CSLAYER1
  6
CONTINUOUS
 62
     4
 10
152.750967
 20
177.153037
 11
166.194618
 21
163.709386
  0
LINE
  8
CSLAYER1
  6
CONTINUOUS
 62
     4
 10
152.750967
 20
175.738824
 11
164.780405
 21
163.709386
  0
LINE
  8
CSLAYER1
  6
CONTINUOUS
 62
     4
 10
152.750967
 20
174.324610
 11
163.366191
 21
163.709386
  0
LINE
  8
CSLAYER1
  6
CONTINUOUS
 62
     4
 10
152.750967
 20
172.910396
 11
161.951978
 21
163.709386
  0
LINE
  8
CSLAYER1
  6
CONTINUOUS
 62
     4
 10
152.750967
 20
171.496183
 11
160.537764
 21
163.709386
  0
LINE
  8
CSLAYER1
  6
CONTINUOUS
 62
     4
 10
152.750967
 20
170.081969
 11
159.123550
 21
163.709386
  0
LINE
  8
CSLAYER1
  6
CONTINUOUS
 62
     4
 10
152.750967
 20
168.667756
 11
157.709337
 21
163.709386
  0
LINE
  8
CSLAYER1
  6
CONTINUOUS
 62
     4
 10
152.750967
 20
167.253542
 11
156.295123
 21
163.709386
  0
LINE
  8
CSLAYER1
  6
CONTINUOUS
 62
     4
 10
152.750967
 20
165.839329
 11
154.880910
 21
163.709386
  0
LINE
  8
CSLAYER1
  6
CONTINUOUS
 62
     4
 10
152.750967
 20
164.425115
 11
153.466696
 21
163.709386
  0
ENDBLK
  8
0
  0
BLOCK
  8
CSLAYER1
  2
BLKF0010
 70
   64
 10
0.0
 20
0.0
 30
0.0
  0
LINE
  8
CSLAYER1
  6
CONTINUOUS
 62
     4
 10
192.750967
 20
191.295173
 11
194.165181
 21
192.709386
  0
LINE
  8
CSLAYER1
  6
CONTINUOUS
 62
     4
 10
192.750967
 20
189.880959
 11
195.579395
 21
192.709386
  0
LINE
  8
CSLAYER1
  6
CONTINUOUS
 62
     4
 10
192.750967
 20
188.466746
 11
196.993608
 21
192.709386
  0
LINE
  8
CSLAYER1
  6
CONTINUOUS
 62
     4
 10
192.750967
 20
187.052532
 11
198.407822
 21
192.709386
  0
LINE
  8
CSLAYER1
  6
CONTINUOUS
 62
     4
 10
192.750967
 20
185.638319
 11
199.822035
 21
192.709386
  0
LINE
  8
CSLAYER1
  6
CONTINUOUS
 62
     4
 10
192.750967
 20
184.224105
 11
201.236249
 21
192.709386
  0
LINE
  8
CSLAYER1
  6
CONTINUOUS
 62
     4
 10
192.750967
 20
182.809891
 11
202.650462
 21
192.709386
  0
LINE
  8
CSLAYER1
  6
CONTINUOUS
 62
     4
 10
192.750967
 20
181.395678
 11
204.064676
 21
192.709386
  0
LINE
  8
CSLAYER1
  6
CONTINUOUS
 62
     4
 10
192.750967
 20
179.981464
 11
205.478890
 21
192.709386
  0
LINE
  8
CSLAYER1
  6
CONTINUOUS
 62
     4
 10
192.750967
 20
178.567251
 11
206.893103
 21
192.709386
  0
LINE
  8
CSLAYER1
  6
CONTINUOUS
 62
     4
 10
192.750967
 20
177.153037
 11
208.307317
 21
192.709386
  0
LINE
  8
CSLAYER1
  6
CONTINUOUS
 62
     4
 10
192.750967
 20
175.738824
 11
209.721530
 21
192.709386
  0
LINE
  8
CSLAYER1
  6
CONTINUOUS
 62
     4
 10
192.750967
 20
174.324610
 11
211.135744
 21
192.709386
  0
LINE
  8
CSLAYER1
  6
CONTINUOUS
 62
     4
 10
192.750967
 20
172.910396
 11
212.549957
 21
192.709386
  0
LINE
  8
CSLAYER1
  6
CONTINUOUS
 62
     4
 10
192.750967
 20
171.496183
 11
213.964171
 21
192.709386
  0
LINE
  8
CSLAYER1
  6
CONTINUOUS
 62
     4
 10
192.750967
 20
170.081969
 11
215.378384
 21
192.709386
  0
LINE
  8
CSLAYER1
  6
CONTINUOUS
 62
     4
 10
192.750967
 20
168.667756
 11
216.792598
 21
192.709386
  0
LINE
  8
CSLAYER1
  6
CONTINUOUS
 62
     4
 10
192.750967
 20
167.253542
 11
218.206812
 21
192.709386
  0
LINE
  8
CSLAYER1
  6
CONTINUOUS
 62
     4
 10
192.750967
 20
165.839329
 11
219.621025
 21
192.709386
  0
LINE
  8
CSLAYER1
  6
CONTINUOUS
 62
     4
 10
192.750967
 20
164.425115
 11
221.035239
 21
192.709386
  0
LINE
  8
CSLAYER1
  6
CONTINUOUS
 62
     4
 10
193.449452
 20
163.709386
 11
222.449452
 21
192.709386
  0
LINE
  8
CSLAYER1
  6
CONTINUOUS
 62
     4
 10
194.863666
 20
163.709386
 11
222.750967
 21
191.596688
  0
LINE
  8
CSLAYER1
  6
CONTINUOUS
 62
     4
 10
196.277879
 20
163.709386
 11
222.750967
 21
190.182474
  0
LINE
  8
CSLAYER1
  6
CONTINUOUS
 62
     4
 10
197.692093
 20
163.709386
 11
222.750967
 21
188.768261
  0
LINE
  8
CSLAYER1
  6
CONTINUOUS
 62
     4
 10
199.106307
 20
163.709386
 11
222.750967
 21
187.354047
  0
LINE
  8
CSLAYER1
  6
CONTINUOUS
 62
     4
 10
200.520520
 20
163.709386
 11
222.750967
 21
185.939834
  0
LINE
  8
CSLAYER1
  6
CONTINUOUS
 62
     4
 10
201.934734
 20
163.709386
 11
222.750967
 21
184.525620
  0
LINE
  8
CSLAYER1
  6
CONTINUOUS
 62
     4
 10
203.348947
 20
163.709386
 11
222.750967
 21
183.111407
  0
LINE
  8
CSLAYER1
  6
CONTINUOUS
 62
     4
 10
204.763161
 20
163.709386
 11
222.750967
 21
181.697193
  0
LINE
  8
CSLAYER1
  6
CONTINUOUS
 62
     4
 10
206.177374
 20
163.709386
 11
222.750967
 21
180.282979
  0
LINE
  8
CSLAYER1
  6
CONTINUOUS
 62
     4
 10
207.591588
 20
163.709386
 11
222.750967
 21
178.868766
  0
LINE
  8
CSLAYER1
  6
CONTINUOUS
 62
     4
 10
209.005801
 20
163.709386
 11
222.750967
 21
177.454552
  0
LINE
  8
CSLAYER1
  6
CONTINUOUS
 62
     4
 10
210.420015
 20
163.709386
 11
222.750967
 21
176.040339
  0
LINE
  8
CSLAYER1
  6
CONTINUOUS
 62
     4
 10
211.834229
 20
163.709386
 11
222.750967
 21
174.626125
  0
LINE
  8
CSLAYER1
  6
CONTINUOUS
 62
     4
 10
213.248442
 20
163.709386
 11
222.750967
 21
173.211912
  0
LINE
  8
CSLAYER1
  6
CONTINUOUS
 62
     4
 10
214.662656
 20
163.709386
 11
222.750967
 21
171.797698
  0
LINE
  8
CSLAYER1
  6
CONTINUOUS
 62
     4
 10
216.076869
 20
163.709386
 11
222.750967
 21
170.383485
  0
LINE
  8
CSLAYER1
  6
CONTINUOUS
 62
     4
 10
217.491083
 20
163.709386
 11
222.750967
 21
168.969271
  0
LINE
  8
CSLAYER1
  6
CONTINUOUS
 62
     4
 10
218.905296
 20
163.709386
 11
222.750967
 21
167.555057
  0
LINE
  8
CSLAYER1
  6
CONTINUOUS
 62
     4
 10
220.319510
 20
163.709386
 11
222.750967
 21
166.140844
  0
LINE
  8
CSLAYER1
  6
CONTINUOUS
 62
     4
 10
221.733724
 20
163.709386
 11
222.750967
 21
164.726630
  0
ENDBLK
  8
0
  0
BLOCK
  8
CSLAYER1
  2
BLKF0011
 70
   64
 10
0.0
 20
0.0
 30
0.0
  0
LINE
  8
CSLAYER1
  6
CONTINUOUS
 62
     4
 10
192.750967
 20
192.709386
 11
221.750967
 21
163.709386
  0
LINE
  8
CSLAYER1
  6
CONTINUOUS
 62
     4
 10
194.165181
 20
192.709386
 11
222.750967
 21
164.123600
  0
LINE
  8
CSLAYER1
  6
CONTINUOUS
 62
     4
 10
195.579395
 20
192.709386
 11
222.750967
 21
165.537813
  0
LINE
  8
CSLAYER1
  6
CONTINUOUS
 62
     4
 10
196.993608
 20
192.709386
 11
222.750967
 21
166.952027
  0
LINE
  8
CSLAYER1
  6
CONTINUOUS
 62
     4
 10
198.407822
 20
192.709386
 11
222.750967
 21
168.366241
  0
LINE
  8
CSLAYER1
  6
CONTINUOUS
 62
     4
 10
199.822035
 20
192.709386
 11
222.750967
 21
169.780454
  0
LINE
  8
CSLAYER1
  6
CONTINUOUS
 62
     4
 10
201.236249
 20
192.709386
 11
222.750967
 21
171.194668
  0
LINE
  8
CSLAYER1
  6
CONTINUOUS
 62
     4
 10
202.650462
 20
192.709386
 11
222.750967
 21
172.608881
  0
LINE
  8
CSLAYER1
  6
CONTINUOUS
 62
     4
 10
204.064676
 20
192.709386
 11
222.750967
 21
174.023095
  0
LINE
  8
CSLAYER1
  6
CONTINUOUS
 62
     4
 10
205.478890
 20
192.709386
 11
222.750967
 21
175.437308
  0
LINE
  8
CSLAYER1
  6
CONTINUOUS
 62
     4
 10
206.893103
 20
192.709386
 11
222.750967
 21
176.851522
  0
LINE
  8
CSLAYER1
  6
CONTINUOUS
 62
     4
 10
208.307317
 20
192.709386
 11
222.750967
 21
178.265736
  0
LINE
  8
CSLAYER1
  6
CONTINUOUS
 62
     4
 10
209.721530
 20
192.709386
 11
222.750967
 21
179.679949
  0
LINE
  8
CSLAYER1
  6
CONTINUOUS
 62
     4
 10
211.135744
 20
192.709386
 11
222.750967
 21
181.094163
  0
LINE
  8
CSLAYER1
  6
CONTINUOUS
 62
     4
 10
212.549957
 20
192.709386
 11
222.750967
 21
182.508376
  0
LINE
  8
CSLAYER1
  6
CONTINUOUS
 62
     4
 10
213.964171
 20
192.709386
 11
222.750967
 21
183.922590
  0
LINE
  8
CSLAYER1
  6
CONTINUOUS
 62
     4
 10
215.378384
 20
192.709386
 11
222.750967
 21
185.336803
  0
LINE
  8
CSLAYER1
  6
CONTINUOUS
 62
     4
 10
216.792598
 20
192.709386
 11
222.750967
 21
186.751017
  0
LINE
  8
CSLAYER1
  6
CONTINUOUS
 62
     4
 10
218.206812
 20
192.709386
 11
222.750967
 21
188.165230
  0
LINE
  8
CSLAYER1
  6
CONTINUOUS
 62
     4
 10
219.621025
 20
192.709386
 11
222.750967
 21
189.579444
  0
LINE
  8
CSLAYER1
  6
CONTINUOUS
 62
     4
 10
221.035239
 20
192.709386
 11
222.750967
 21
190.993658
  0
LINE
  8
CSLAYER1
  6
CONTINUOUS
 62
     4
 10
222.449452
 20
192.709386
 11
222.750967
 21
192.407871
  0
LINE
  8
CSLAYER1
  6
CONTINUOUS
 62
     4
 10
192.750967
 20
191.295173
 11
220.336754
 21
163.709386
  0
LINE
  8
CSLAYER1
  6
CONTINUOUS
 62
     4
 10
192.750967
 20
189.880959
 11
218.922540
 21
163.709386
  0
LINE
  8
CSLAYER1
  6
CONTINUOUS
 62
     4
 10
192.750967
 20
188.466746
 11
217.508327
 21
163.709386
  0
LINE
  8
CSLAYER1
  6
CONTINUOUS
 62
     4
 10
192.750967
 20
187.052532
 11
216.094113
 21
163.709386
  0
LINE
  8
CSLAYER1
  6
CONTINUOUS
 62
     4
 10
192.750967
 20
185.638319
 11
214.679900
 21
163.709386
  0
LINE
  8
CSLAYER1
  6
CONTINUOUS
 62
     4
 10
192.750967
 20
184.224105
 11
213.265686
 21
163.709386
  0
LINE
  8
CSLAYER1
  6
CONTINUOUS
 62
     4
 10
192.750967
 20
182.809891
 11
211.851473
 21
163.709386
  0
LINE
  8
CSLAYER1
  6
CONTINUOUS
 62
     4
 10
192.750967
 20
181.395678
 11
210.437259
 21
163.709386
  0
LINE
  8
CSLAYER1
  6
CONTINUOUS
 62
     4
 10
192.750967
 20
179.981464
 11
209.023045
 21
163.709386
  0
LINE
  8
CSLAYER1
  6
CONTINUOUS
 62
     4
 10
192.750967
 20
178.567251
 11
207.608832
 21
163.709386
  0
LINE
  8
CSLAYER1
  6
CONTINUOUS
 62
     4
 10
192.750967
 20
177.153037
 11
206.194618
 21
163.709386
  0
LINE
  8
CSLAYER1
  6
CONTINUOUS
 62
     4
 10
192.750967
 20
175.738824
 11
204.780405
 21
163.709386
  0
LINE
  8
CSLAYER1
  6
CONTINUOUS
 62
     4
 10
192.750967
 20
174.324610
 11
203.366191
 21
163.709386
  0
LINE
  8
CSLAYER1
  6
CONTINUOUS
 62
     4
 10
192.750967
 20
172.910396
 11
201.951978
 21
163.709386
  0
LINE
  8
CSLAYER1
  6
CONTINUOUS
 62
     4
 10
192.750967
 20
171.496183
 11
200.537764
 21
163.709386
  0
LINE
  8
CSLAYER1
  6
CONTINUOUS
 62
     4
 10
192.750967
 20
170.081969
 11
199.123550
 21
163.709386
  0
LINE
  8
CSLAYER1
  6
CONTINUOUS
 62
     4
 10
192.750967
 20
168.667756
 11
197.709337
 21
163.709386
  0
LINE
  8
CSLAYER1
  6
CONTINUOUS
 62
     4
 10
192.750967
 20
167.253542
 11
196.295123
 21
163.709386
  0
LINE
  8
CSLAYER1
  6
CONTINUOUS
 62
     4
 10
192.750967
 20
165.839329
 11
194.880910
 21
163.709386
  0
LINE
  8
CSLAYER1
  6
CONTINUOUS
 62
     4
 10
192.750967
 20
164.425115
 11
193.466696
 21
163.709386
  0
ENDBLK
  8
0
  0
BLOCK
  8
CSLAYER1
  2
BLKF0012
 70
   64
 10
0.0
 20
0.0
 30
0.0
  0
LINE
  8
CSLAYER1
  6
CONTINUOUS
 62
     4
 10
242.750967
 20
120.935439
 11
244.165181
 21
122.349652
  0
LINE
  8
CSLAYER1
  6
CONTINUOUS
 62
     4
 10
242.750967
 20
119.521225
 11
245.579395
 21
122.349652
  0
LINE
  8
CSLAYER1
  6
CONTINUOUS
 62
     4
 10
242.750967
 20
118.107011
 11
246.993608
 21
122.349652
  0
LINE
  8
CSLAYER1
  6
CONTINUOUS
 62
     4
 10
242.750967
 20
116.692798
 11
248.407822
 21
122.349652
  0
LINE
  8
CSLAYER1
  6
CONTINUOUS
 62
     4
 10
242.750967
 20
115.278584
 11
249.822035
 21
122.349652
  0
LINE
  8
CSLAYER1
  6
CONTINUOUS
 62
     4
 10
242.750967
 20
113.864371
 11
251.236249
 21
122.349652
  0
LINE
  8
CSLAYER1
  6
CONTINUOUS
 62
     4
 10
242.750967
 20
112.450157
 11
252.650462
 21
122.349652
  0
LINE
  8
CSLAYER1
  6
CONTINUOUS
 62
     4
 10
242.750967
 20
111.035944
 11
254.064676
 21
122.349652
  0
LINE
  8
CSLAYER1
  6
CONTINUOUS
 62
     4
 10
242.750967
 20
109.621730
 11
255.478890
 21
122.349652
  0
LINE
  8
CSLAYER1
  6
CONTINUOUS
 62
     4
 10
242.750967
 20
108.207516
 11
256.893103
 21
122.349652
  0
LINE
  8
CSLAYER1
  6
CONTINUOUS
 62
     4
 10
242.750967
 20
106.793303
 11
258.307317
 21
122.349652
  0
LINE
  8
CSLAYER1
  6
CONTINUOUS
 62
     4
 10
242.750967
 20
105.379089
 11
259.721530
 21
122.349652
  0
LINE
  8
CSLAYER1
  6
CONTINUOUS
 62
     4
 10
242.750967
 20
103.964876
 11
261.135744
 21
122.349652
  0
LINE
  8
CSLAYER1
  6
CONTINUOUS
 62
     4
 10
242.750967
 20
102.550662
 11
262.549957
 21
122.349652
  0
LINE
  8
CSLAYER1
  6
CONTINUOUS
 62
     4
 10
242.750967
 20
101.136449
 11
262.750967
 21
121.136449
  0
LINE
  8
CSLAYER1
  6
CONTINUOUS
 62
     4
 10
242.750967
 20
99.722235
 11
262.750967
 21
119.722235
  0
LINE
  8
CSLAYER1
  6
CONTINUOUS
 62
     4
 10
242.750967
 20
98.308022
 11
262.750967
 21
118.308022
  0
LINE
  8
CSLAYER1
  6
CONTINUOUS
 62
     4
 10
242.750967
 20
96.893808
 11
262.750967
 21
116.893808
  0
LINE
  8
CSLAYER1
  6
CONTINUOUS
 62
     4
 10
242.750967
 20
95.479594
 11
262.750967
 21
115.479594
  0
LINE
  8
CSLAYER1
  6
CONTINUOUS
 62
     4
 10
242.750967
 20
94.065381
 11
262.750967
 21
114.065381
  0
LINE
  8
CSLAYER1
  6
CONTINUOUS
 62
     4
 10
242.750967
 20
92.651167
 11
262.750967
 21
112.651167
  0
LINE
  8
CSLAYER1
  6
CONTINUOUS
 62
     4
 10
242.750967
 20
91.236954
 11
262.750967
 21
111.236954
  0
LINE
  8
CSLAYER1
  6
CONTINUOUS
 62
     4
 10
242.750967
 20
89.822740
 11
262.750967
 21
109.822740
  0
LINE
  8
CSLAYER1
  6
CONTINUOUS
 62
     4
 10
242.750967
 20
88.408527
 11
262.750967
 21
108.408527
  0
LINE
  8
CSLAYER1
  6
CONTINUOUS
 62
     4
 10
242.750967
 20
86.994313
 11
262.750967
 21
106.994313
  0
LINE
  8
CSLAYER1
  6
CONTINUOUS
 62
     4
 10
242.750967
 20
85.580099
 11
262.750967
 21
105.580099
  0
LINE
  8
CSLAYER1
  6
CONTINUOUS
 62
     4
 10
242.750967
 20
84.165886
 11
262.750967
 21
104.165886
  0
LINE
  8
CSLAYER1
  6
CONTINUOUS
 62
     4
 10
242.750967
 20
82.751672
 11
262.750967
 21
102.751672
  0
LINE
  8
CSLAYER1
  6
CONTINUOUS
 62
     4
 10
242.750967
 20
81.337459
 11
262.750967
 21
101.337459
  0
LINE
  8
CSLAYER1
  6
CONTINUOUS
 62
     4
 10
242.750967
 20
79.923245
 11
262.750967
 21
99.923245
  0
LINE
  8
CSLAYER1
  6
CONTINUOUS
 62
     4
 10
242.750967
 20
78.509032
 11
262.750967
 21
98.509032
  0
LINE
  8
CSLAYER1
  6
CONTINUOUS
 62
     4
 10
242.750967
 20
77.094818
 11
262.750967
 21
97.094818
  0
LINE
  8
CSLAYER1
  6
CONTINUOUS
 62
     4
 10
242.750967
 20
75.680605
 11
262.750967
 21
95.680605
  0
LINE
  8
CSLAYER1
  6
CONTINUOUS
 62
     4
 10
242.750967
 20
74.266391
 11
262.750967
 21
94.266391
  0
LINE
  8
CSLAYER1
  6
CONTINUOUS
 62
     4
 10
242.750967
 20
72.852177
 11
262.750967
 21
92.852177
  0
LINE
  8
CSLAYER1
  6
CONTINUOUS
 62
     4
 10
242.750967
 20
71.437964
 11
262.750967
 21
91.437964
  0
LINE
  8
CSLAYER1
  6
CONTINUOUS
 62
     4
 10
242.750967
 20
70.023750
 11
262.750967
 21
90.023750
  0
LINE
  8
CSLAYER1
  6
CONTINUOUS
 62
     4
 10
242.750967
 20
68.609537
 11
262.750967
 21
88.609537
  0
LINE
  8
CSLAYER1
  6
CONTINUOUS
 62
     4
 10
242.750967
 20
67.195323
 11
262.750967
 21
87.195323
  0
LINE
  8
CSLAYER1
  6
CONTINUOUS
 62
     4
 10
242.750967
 20
65.781110
 11
262.750967
 21
85.781110
  0
LINE
  8
CSLAYER1
  6
CONTINUOUS
 62
     4
 10
242.750967
 20
64.366896
 11
262.750967
 21
84.366896
  0
LINE
  8
CSLAYER1
  6
CONTINUOUS
 62
     4
 10
242.750967
 20
62.952683
 11
262.750967
 21
82.952683
  0
LINE
  8
CSLAYER1
  6
CONTINUOUS
 62
     4
 10
242.750967
 20
61.538469
 11
262.750967
 21
81.538469
  0
LINE
  8
CSLAYER1
  6
CONTINUOUS
 62
     4
 10
242.750967
 20
60.124255
 11
262.750967
 21
80.124255
  0
LINE
  8
CSLAYER1
  6
CONTINUOUS
 62
     4
 10
242.750967
 20
58.710042
 11
262.750967
 21
78.710042
  0
LINE
  8
CSLAYER1
  6
CONTINUOUS
 62
     4
 10
242.750967
 20
57.295828
 11
262.750967
 21
77.295828
  0
LINE
  8
CSLAYER1
  6
CONTINUOUS
 62
     4
 10
242.750967
 20
55.881615
 11
262.750967
 21
75.881615
  0
LINE
  8
CSLAYER1
  6
CONTINUOUS
 62
     4
 10
242.750967
 20
54.467401
 11
262.750967
 21
74.467401
  0
LINE
  8
CSLAYER1
  6
CONTINUOUS
 62
     4
 10
242.750967
 20
53.053188
 11
262.750967
 21
73.053188
  0
LINE
  8
CSLAYER1
  6
CONTINUOUS
 62
     4
 10
242.750967
 20
51.638974
 11
262.750967
 21
71.638974
  0
LINE
  8
CSLAYER1
  6
CONTINUOUS
 62
     4
 10
242.750967
 20
50.224760
 11
262.750967
 21
70.224760
  0
LINE
  8
CSLAYER1
  6
CONTINUOUS
 62
     4
 10
242.750967
 20
48.810547
 11
262.750967
 21
68.810547
  0
LINE
  8
CSLAYER1
  6
CONTINUOUS
 62
     4
 10
242.750967
 20
47.396333
 11
262.750967
 21
67.396333
  0
LINE
  8
CSLAYER1
  6
CONTINUOUS
 62
     4
 10
244.118500
 20
47.349652
 11
262.750967
 21
65.982120
  0
LINE
  8
CSLAYER1
  6
CONTINUOUS
 62
     4
 10
245.532713
 20
47.349652
 11
262.750967
 21
64.567906
  0
LINE
  8
CSLAYER1
  6
CONTINUOUS
 62
     4
 10
246.946927
 20
47.349652
 11
262.750967
 21
63.153693
  0
LINE
  8
CSLAYER1
  6
CONTINUOUS
 62
     4
 10
248.361141
 20
47.349652
 11
262.750967
 21
61.739479
  0
LINE
  8
CSLAYER1
  6
CONTINUOUS
 62
     4
 10
249.775354
 20
47.349652
 11
262.750967
 21
60.325266
  0
LINE
  8
CSLAYER1
  6
CONTINUOUS
 62
     4
 10
251.189568
 20
47.349652
 11
262.750967
 21
58.911052
  0
LINE
  8
CSLAYER1
  6
CONTINUOUS
 62
     4
 10
252.603781
 20
47.349652
 11
262.750967
 21
57.496838
  0
LINE
  8
CSLAYER1
  6
CONTINUOUS
 62
     4
 10
254.017995
 20
47.349652
 11
262.750967
 21
56.082625
  0
LINE
  8
CSLAYER1
  6
CONTINUOUS
 62
     4
 10
255.432208
 20
47.349652
 11
262.750967
 21
54.668411
  0
LINE
  8
CSLAYER1
  6
CONTINUOUS
 62
     4
 10
256.846422
 20
47.349652
 11
262.750967
 21
53.254198
  0
LINE
  8
CSLAYER1
  6
CONTINUOUS
 62
     4
 10
258.260635
 20
47.349652
 11
262.750967
 21
51.839984
  0
LINE
  8
CSLAYER1
  6
CONTINUOUS
 62
     4
 10
259.674849
 20
47.349652
 11
262.750967
 21
50.425771
  0
LINE
  8
CSLAYER1
  6
CONTINUOUS
 62
     4
 10
261.089063
 20
47.349652
 11
262.750967
 21
49.011557
  0
LINE
  8
CSLAYER1
  6
CONTINUOUS
 62
     4
 10
262.503276
 20
47.349652
 11
262.750967
 21
47.597343
  0
ENDBLK
  8
0
  0
BLOCK
  8
CSLAYER1
  2
BLKF0013
 70
   64
 10
0.0
 20
0.0
 30
0.0
  0
LINE
  8
CSLAYER1
  6
CONTINUOUS
 62
     4
 10
242.750967
 20
122.349652
 11
262.750967
 21
102.349652
  0
LINE
  8
CSLAYER1
  6
CONTINUOUS
 62
     4
 10
244.165181
 20
122.349652
 11
262.750967
 21
103.763866
  0
LINE
  8
CSLAYER1
  6
CONTINUOUS
 62
     4
 10
245.579395
 20
122.349652
 11
262.750967
 21
105.178079
  0
LINE
  8
CSLAYER1
  6
CONTINUOUS
 62
     4
 10
246.993608
 20
122.349652
 11
262.750967
 21
106.592293
  0
LINE
  8
CSLAYER1
  6
CONTINUOUS
 62
     4
 10
248.407822
 20
122.349652
 11
262.750967
 21
108.006506
  0
LINE
  8
CSLAYER1
  6
CONTINUOUS
 62
     4
 10
249.822035
 20
122.349652
 11
262.750967
 21
109.420720
  0
LINE
  8
CSLAYER1
  6
CONTINUOUS
 62
     4
 10
251.236249
 20
122.349652
 11
262.750967
 21
110.834933
  0
LINE
  8
CSLAYER1
  6
CONTINUOUS
 62
     4
 10
252.650462
 20
122.349652
 11
262.750967
 21
112.249147
  0
LINE
  8
CSLAYER1
  6
CONTINUOUS
 62
     4
 10
254.064676
 20
122.349652
 11
262.750967
 21
113.663361
  0
LINE
  8
CSLAYER1
  6
CONTINUOUS
 62
     4
 10
255.478890
 20
122.349652
 11
262.750967
 21
115.077574
  0
LINE
  8
CSLAYER1
  6
CONTINUOUS
 62
     4
 10
256.893103
 20
122.349652
 11
262.750967
 21
116.491788
  0
LINE
  8
CSLAYER1
  6
CONTINUOUS
 62
     4
 10
258.307317
 20
122.349652
 11
262.750967
 21
117.906001
  0
LINE
  8
CSLAYER1
  6
CONTINUOUS
 62
     4
 10
259.721530
 20
122.349652
 11
262.750967
 21
119.320215
  0
LINE
  8
CSLAYER1
  6
CONTINUOUS
 62
     4
 10
261.135744
 20
122.349652
 11
262.750967
 21
120.734428
  0
LINE
  8
CSLAYER1
  6
CONTINUOUS
 62
     4
 10
262.549957
 20
122.349652
 11
262.750967
 21
122.148642
  0
LINE
  8
CSLAYER1
  6
CONTINUOUS
 62
     4
 10
242.750967
 20
120.935439
 11
262.750967
 21
100.935439
  0
LINE
  8
CSLAYER1
  6
CONTINUOUS
 62
     4
 10
242.750967
 20
119.521225
 11
262.750967
 21
99.521225
  0
LINE
  8
CSLAYER1
  6
CONTINUOUS
 62
     4
 10
242.750967
 20
118.107011
 11
262.750967
 21
98.107011
  0
LINE
  8
CSLAYER1
  6
CONTINUOUS
 62
     4
 10
242.750967
 20
116.692798
 11
262.750967
 21
96.692798
  0
LINE
  8
CSLAYER1
  6
CONTINUOUS
 62
     4
 10
242.750967
 20
115.278584
 11
262.750967
 21
95.278584
  0
LINE
  8
CSLAYER1
  6
CONTINUOUS
 62
     4
 10
242.750967
 20
113.864371
 11
262.750967
 21
93.864371
  0
LINE
  8
CSLAYER1
  6
CONTINUOUS
 62
     4
 10
242.750967
 20
112.450157
 11
262.750967
 21
92.450157
  0
LINE
  8
CSLAYER1
  6
CONTINUOUS
 62
     4
 10
242.750967
 20
111.035944
 11
262.750967
 21
91.035944
  0
LINE
  8
CSLAYER1
  6
CONTINUOUS
 62
     4
 10
242.750967
 20
109.621730
 11
262.750967
 21
89.621730
  0
LINE
  8
CSLAYER1
  6
CONTINUOUS
 62
     4
 10
242.750967
 20
108.207516
 11
262.750967
 21
88.207516
  0
LINE
  8
CSLAYER1
  6
CONTINUOUS
 62
     4
 10
242.750967
 20
106.793303
 11
262.750967
 21
86.793303
  0
LINE
  8
CSLAYER1
  6
CONTINUOUS
 62
     4
 10
242.750967
 20
105.379089
 11
262.750967
 21
85.379089
  0
LINE
  8
CSLAYER1
  6
CONTINUOUS
 62
     4
 10
242.750967
 20
103.964876
 11
262.750967
 21
83.964876
  0
LINE
  8
CSLAYER1
  6
CONTINUOUS
 62
     4
 10
242.750967
 20
102.550662
 11
262.750967
 21
82.550662
  0
LINE
  8
CSLAYER1
  6
CONTINUOUS
 62
     4
 10
242.750967
 20
101.136449
 11
262.750967
 21
81.136449
  0
LINE
  8
CSLAYER1
  6
CONTINUOUS
 62
     4
 10
242.750967
 20
99.722235
 11
262.750967
 21
79.722235
  0
LINE
  8
CSLAYER1
  6
CONTINUOUS
 62
     4
 10
242.750967
 20
98.308022
 11
262.750967
 21
78.308022
  0
LINE
  8
CSLAYER1
  6
CONTINUOUS
 62
     4
 10
242.750967
 20
96.893808
 11
262.750967
 21
76.893808
  0
LINE
  8
CSLAYER1
  6
CONTINUOUS
 62
     4
 10
242.750967
 20
95.479594
 11
262.750967
 21
75.479594
  0
LINE
  8
CSLAYER1
  6
CONTINUOUS
 62
     4
 10
242.750967
 20
94.065381
 11
262.750967
 21
74.065381
  0
LINE
  8
CSLAYER1
  6
CONTINUOUS
 62
     4
 10
242.750967
 20
92.651167
 11
262.750967
 21
72.651167
  0
LINE
  8
CSLAYER1
  6
CONTINUOUS
 62
     4
 10
242.750967
 20
91.236954
 11
262.750967
 21
71.236954
  0
LINE
  8
CSLAYER1
  6
CONTINUOUS
 62
     4
 10
242.750967
 20
89.822740
 11
262.750967
 21
69.822740
  0
LINE
  8
CSLAYER1
  6
CONTINUOUS
 62
     4
 10
242.750967
 20
88.408527
 11
262.750967
 21
68.408527
  0
LINE
  8
CSLAYER1
  6
CONTINUOUS
 62
     4
 10
242.750967
 20
86.994313
 11
262.750967
 21
66.994313
  0
LINE
  8
CSLAYER1
  6
CONTINUOUS
 62
     4
 10
242.750967
 20
85.580099
 11
262.750967
 21
65.580099
  0
LINE
  8
CSLAYER1
  6
CONTINUOUS
 62
     4
 10
242.750967
 20
84.165886
 11
262.750967
 21
64.165886
  0
LINE
  8
CSLAYER1
  6
CONTINUOUS
 62
     4
 10
242.750967
 20
82.751672
 11
262.750967
 21
62.751672
  0
LINE
  8
CSLAYER1
  6
CONTINUOUS
 62
     4
 10
242.750967
 20
81.337459
 11
262.750967
 21
61.337459
  0
LINE
  8
CSLAYER1
  6
CONTINUOUS
 62
     4
 10
242.750967
 20
79.923245
 11
262.750967
 21
59.923245
  0
LINE
  8
CSLAYER1
  6
CONTINUOUS
 62
     4
 10
242.750967
 20
78.509032
 11
262.750967
 21
58.509032
  0
LINE
  8
CSLAYER1
  6
CONTINUOUS
 62
     4
 10
242.750967
 20
77.094818
 11
262.750967
 21
57.094818
  0
LINE
  8
CSLAYER1
  6
CONTINUOUS
 62
     4
 10
242.750967
 20
75.680605
 11
262.750967
 21
55.680605
  0
LINE
  8
CSLAYER1
  6
CONTINUOUS
 62
     4
 10
242.750967
 20
74.266391
 11
262.750967
 21
54.266391
  0
LINE
  8
CSLAYER1
  6
CONTINUOUS
 62
     4
 10
242.750967
 20
72.852177
 11
262.750967
 21
52.852177
  0
LINE
  8
CSLAYER1
  6
CONTINUOUS
 62
     4
 10
242.750967
 20
71.437964
 11
262.750967
 21
51.437964
  0
LINE
  8
CSLAYER1
  6
CONTINUOUS
 62
     4
 10
242.750967
 20
70.023750
 11
262.750967
 21
50.023750
  0
LINE
  8
CSLAYER1
  6
CONTINUOUS
 62
     4
 10
242.750967
 20
68.609537
 11
262.750967
 21
48.609537
  0
LINE
  8
CSLAYER1
  6
CONTINUOUS
 62
     4
 10
242.750967
 20
67.195323
 11
262.596639
 21
47.349652
  0
LINE
  8
CSLAYER1
  6
CONTINUOUS
 62
     4
 10
242.750967
 20
65.781110
 11
261.182425
 21
47.349652
  0
LINE
  8
CSLAYER1
  6
CONTINUOUS
 62
     4
 10
242.750967
 20
64.366896
 11
259.768211
 21
47.349652
  0
LINE
  8
CSLAYER1
  6
CONTINUOUS
 62
     4
 10
242.750967
 20
62.952683
 11
258.353998
 21
47.349652
  0
LINE
  8
CSLAYER1
  6
CONTINUOUS
 62
     4
 10
242.750967
 20
61.538469
 11
256.939784
 21
47.349652
  0
LINE
  8
CSLAYER1
  6
CONTINUOUS
 62
     4
 10
242.750967
 20
60.124255
 11
255.525571
 21
47.349652
  0
LINE
  8
CSLAYER1
  6
CONTINUOUS
 62
     4
 10
242.750967
 20
58.710042
 11
254.111357
 21
47.349652
  0
LINE
  8
CSLAYER1
  6
CONTINUOUS
 62
     4
 10
242.750967
 20
57.295828
 11
252.697144
 21
47.349652
  0
LINE
  8
CSLAYER1
  6
CONTINUOUS
 62
     4
 10
242.750967
 20
55.881615
 11
251.282930
 21
47.349652
  0
LINE
  8
CSLAYER1
  6
CONTINUOUS
 62
     4
 10
242.750967
 20
54.467401
 11
249.868716
 21
47.349652
  0
LINE
  8
CSLAYER1
  6
CONTINUOUS
 62
     4
 10
242.750967
 20
53.053188
 11
248.454503
 21
47.349652
  0
LINE
  8
CSLAYER1
  6
CONTINUOUS
 62
     4
 10
242.750967
 20
51.638974
 11
247.040289
 21
47.349652
  0
LINE
  8
CSLAYER1
  6
CONTINUOUS
 62
     4
 10
242.750967
 20
50.224760
 11
245.626076
 21
47.349652
  0
LINE
  8
CSLAYER1
  6
CONTINUOUS
 62
     4
 10
242.750967
 20
48.810547
 11
244.211862
 21
47.349652
  0
LINE
  8
CSLAYER1
  6
CONTINUOUS
 62
     4
 10
242.750967
 20
47.396333
 11
242.797649
 21
47.349652
  0
ENDBLK
  8
0
  0
BLOCK
  8
CSLAYER1
  2
BLKF0014
 70
   64
 10
0.0
 20
0.0
 30
0.0
  0
LINE
  8
CSLAYER1
  6
CONTINUOUS
 62
     4
 10
152.750967
 20
120.935439
 11
154.165181
 21
122.349652
  0
LINE
  8
CSLAYER1
  6
CONTINUOUS
 62
     4
 10
152.750967
 20
119.521225
 11
155.579395
 21
122.349652
  0
LINE
  8
CSLAYER1
  6
CONTINUOUS
 62
     4
 10
152.750967
 20
118.107011
 11
156.993608
 21
122.349652
  0
LINE
  8
CSLAYER1
  6
CONTINUOUS
 62
     4
 10
152.750967
 20
116.692798
 11
158.407822
 21
122.349652
  0
LINE
  8
CSLAYER1
  6
CONTINUOUS
 62
     4
 10
152.750967
 20
115.278584
 11
159.822035
 21
122.349652
  0
LINE
  8
CSLAYER1
  6
CONTINUOUS
 62
     4
 10
152.750967
 20
113.864371
 11
161.236249
 21
122.349652
  0
LINE
  8
CSLAYER1
  6
CONTINUOUS
 62
     4
 10
152.750967
 20
112.450157
 11
162.650462
 21
122.349652
  0
LINE
  8
CSLAYER1
  6
CONTINUOUS
 62
     4
 10
152.750967
 20
111.035944
 11
164.064676
 21
122.349652
  0
LINE
  8
CSLAYER1
  6
CONTINUOUS
 62
     4
 10
152.750967
 20
109.621730
 11
165.478890
 21
122.349652
  0
LINE
  8
CSLAYER1
  6
CONTINUOUS
 62
     4
 10
152.750967
 20
108.207516
 11
166.893103
 21
122.349652
  0
LINE
  8
CSLAYER1
  6
CONTINUOUS
 62
     4
 10
152.750967
 20
106.793303
 11
168.307317
 21
122.349652
  0
LINE
  8
CSLAYER1
  6
CONTINUOUS
 62
     4
 10
152.750967
 20
105.379089
 11
169.721530
 21
122.349652
  0
LINE
  8
CSLAYER1
  6
CONTINUOUS
 62
     4
 10
152.750967
 20
103.964876
 11
171.135744
 21
122.349652
  0
LINE
  8
CSLAYER1
  6
CONTINUOUS
 62
     4
 10
152.750967
 20
102.550662
 11
172.549957
 21
122.349652
  0
LINE
  8
CSLAYER1
  6
CONTINUOUS
 62
     4
 10
152.750967
 20
101.136449
 11
172.750967
 21
121.136449
  0
LINE
  8
CSLAYER1
  6
CONTINUOUS
 62
     4
 10
152.750967
 20
99.722235
 11
172.750967
 21
119.722235
  0
LINE
  8
CSLAYER1
  6
CONTINUOUS
 62
     4
 10
152.750967
 20
98.308022
 11
172.750967
 21
118.308022
  0
LINE
  8
CSLAYER1
  6
CONTINUOUS
 62
     4
 10
152.750967
 20
96.893808
 11
172.750967
 21
116.893808
  0
LINE
  8
CSLAYER1
  6
CONTINUOUS
 62
     4
 10
152.750967
 20
95.479594
 11
172.750967
 21
115.479594
  0
LINE
  8
CSLAYER1
  6
CONTINUOUS
 62
     4
 10
152.750967
 20
94.065381
 11
172.750967
 21
114.065381
  0
LINE
  8
CSLAYER1
  6
CONTINUOUS
 62
     4
 10
152.750967
 20
92.651167
 11
172.750967
 21
112.651167
  0
LINE
  8
CSLAYER1
  6
CONTINUOUS
 62
     4
 10
152.750967
 20
91.236954
 11
172.750967
 21
111.236954
  0
LINE
  8
CSLAYER1
  6
CONTINUOUS
 62
     4
 10
152.750967
 20
89.822740
 11
172.750967
 21
109.822740
  0
LINE
  8
CSLAYER1
  6
CONTINUOUS
 62
     4
 10
152.750967
 20
88.408527
 11
172.750967
 21
108.408527
  0
LINE
  8
CSLAYER1
  6
CONTINUOUS
 62
     4
 10
152.750967
 20
86.994313
 11
172.750967
 21
106.994313
  0
LINE
  8
CSLAYER1
  6
CONTINUOUS
 62
     4
 10
152.750967
 20
85.580099
 11
172.750967
 21
105.580099
  0
LINE
  8
CSLAYER1
  6
CONTINUOUS
 62
     4
 10
152.750967
 20
84.165886
 11
172.750967
 21
104.165886
  0
LINE
  8
CSLAYER1
  6
CONTINUOUS
 62
     4
 10
152.750967
 20
82.751672
 11
172.750967
 21
102.751672
  0
LINE
  8
CSLAYER1
  6
CONTINUOUS
 62
     4
 10
152.750967
 20
81.337459
 11
172.750967
 21
101.337459
  0
LINE
  8
CSLAYER1
  6
CONTINUOUS
 62
     4
 10
152.750967
 20
79.923245
 11
172.750967
 21
99.923245
  0
LINE
  8
CSLAYER1
  6
CONTINUOUS
 62
     4
 10
152.750967
 20
78.509032
 11
172.750967
 21
98.509032
  0
LINE
  8
CSLAYER1
  6
CONTINUOUS
 62
     4
 10
152.750967
 20
77.094818
 11
172.750967
 21
97.094818
  0
LINE
  8
CSLAYER1
  6
CONTINUOUS
 62
     4
 10
152.750967
 20
75.680605
 11
172.750967
 21
95.680605
  0
LINE
  8
CSLAYER1
  6
CONTINUOUS
 62
     4
 10
152.750967
 20
74.266391
 11
172.750967
 21
94.266391
  0
LINE
  8
CSLAYER1
  6
CONTINUOUS
 62
     4
 10
152.750967
 20
72.852177
 11
172.750967
 21
92.852177
  0
LINE
  8
CSLAYER1
  6
CONTINUOUS
 62
     4
 10
152.750967
 20
71.437964
 11
172.750967
 21
91.437964
  0
LINE
  8
CSLAYER1
  6
CONTINUOUS
 62
     4
 10
152.750967
 20
70.023750
 11
172.750967
 21
90.023750
  0
LINE
  8
CSLAYER1
  6
CONTINUOUS
 62
     4
 10
152.750967
 20
68.609537
 11
172.750967
 21
88.609537
  0
LINE
  8
CSLAYER1
  6
CONTINUOUS
 62
     4
 10
152.750967
 20
67.195323
 11
172.750967
 21
87.195323
  0
LINE
  8
CSLAYER1
  6
CONTINUOUS
 62
     4
 10
152.750967
 20
65.781110
 11
172.750967
 21
85.781110
  0
LINE
  8
CSLAYER1
  6
CONTINUOUS
 62
     4
 10
152.750967
 20
64.366896
 11
172.750967
 21
84.366896
  0
LINE
  8
CSLAYER1
  6
CONTINUOUS
 62
     4
 10
152.750967
 20
62.952683
 11
172.750967
 21
82.952683
  0
LINE
  8
CSLAYER1
  6
CONTINUOUS
 62
     4
 10
152.750967
 20
61.538469
 11
172.750967
 21
81.538469
  0
LINE
  8
CSLAYER1
  6
CONTINUOUS
 62
     4
 10
152.750967
 20
60.124255
 11
172.750967
 21
80.124255
  0
LINE
  8
CSLAYER1
  6
CONTINUOUS
 62
     4
 10
152.750967
 20
58.710042
 11
172.750967
 21
78.710042
  0
LINE
  8
CSLAYER1
  6
CONTINUOUS
 62
     4
 10
152.750967
 20
57.295828
 11
172.750967
 21
77.295828
  0
LINE
  8
CSLAYER1
  6
CONTINUOUS
 62
     4
 10
152.750967
 20
55.881615
 11
172.750967
 21
75.881615
  0
LINE
  8
CSLAYER1
  6
CONTINUOUS
 62
     4
 10
152.750967
 20
54.467401
 11
172.750967
 21
74.467401
  0
LINE
  8
CSLAYER1
  6
CONTINUOUS
 62
     4
 10
152.750967
 20
53.053188
 11
172.750967
 21
73.053188
  0
LINE
  8
CSLAYER1
  6
CONTINUOUS
 62
     4
 10
152.750967
 20
51.638974
 11
172.750967
 21
71.638974
  0
LINE
  8
CSLAYER1
  6
CONTINUOUS
 62
     4
 10
152.750967
 20
50.224760
 11
172.750967
 21
70.224760
  0
LINE
  8
CSLAYER1
  6
CONTINUOUS
 62
     4
 10
152.750967
 20
48.810547
 11
172.750967
 21
68.810547
  0
LINE
  8
CSLAYER1
  6
CONTINUOUS
 62
     4
 10
152.750967
 20
47.396333
 11
172.750967
 21
67.396333
  0
LINE
  8
CSLAYER1
  6
CONTINUOUS
 62
     4
 10
154.118500
 20
47.349652
 11
172.750967
 21
65.982120
  0
LINE
  8
CSLAYER1
  6
CONTINUOUS
 62
     4
 10
155.532713
 20
47.349652
 11
172.750967
 21
64.567906
  0
LINE
  8
CSLAYER1
  6
CONTINUOUS
 62
     4
 10
156.946927
 20
47.349652
 11
172.750967
 21
63.153693
  0
LINE
  8
CSLAYER1
  6
CONTINUOUS
 62
     4
 10
158.361141
 20
47.349652
 11
172.750967
 21
61.739479
  0
LINE
  8
CSLAYER1
  6
CONTINUOUS
 62
     4
 10
159.775354
 20
47.349652
 11
172.750967
 21
60.325266
  0
LINE
  8
CSLAYER1
  6
CONTINUOUS
 62
     4
 10
161.189568
 20
47.349652
 11
172.750967
 21
58.911052
  0
LINE
  8
CSLAYER1
  6
CONTINUOUS
 62
     4
 10
162.603781
 20
47.349652
 11
172.750967
 21
57.496838
  0
LINE
  8
CSLAYER1
  6
CONTINUOUS
 62
     4
 10
164.017995
 20
47.349652
 11
172.750967
 21
56.082625
  0
LINE
  8
CSLAYER1
  6
CONTINUOUS
 62
     4
 10
165.432208
 20
47.349652
 11
172.750967
 21
54.668411
  0
LINE
  8
CSLAYER1
  6
CONTINUOUS
 62
     4
 10
166.846422
 20
47.349652
 11
172.750967
 21
53.254198
  0
LINE
  8
CSLAYER1
  6
CONTINUOUS
 62
     4
 10
168.260635
 20
47.349652
 11
172.750967
 21
51.839984
  0
LINE
  8
CSLAYER1
  6
CONTINUOUS
 62
     4
 10
169.674849
 20
47.349652
 11
172.750967
 21
50.425771
  0
LINE
  8
CSLAYER1
  6
CONTINUOUS
 62
     4
 10
171.089063
 20
47.349652
 11
172.750967
 21
49.011557
  0
LINE
  8
CSLAYER1
  6
CONTINUOUS
 62
     4
 10
172.503276
 20
47.349652
 11
172.750967
 21
47.597343
  0
ENDBLK
  8
0
  0
BLOCK
  8
CSLAYER1
  2
BLKF0015
 70
   64
 10
0.0
 20
0.0
 30
0.0
  0
LINE
  8
CSLAYER1
  6
CONTINUOUS
 62
     4
 10
152.750967
 20
122.349652
 11
172.750967
 21
102.349652
  0
LINE
  8
CSLAYER1
  6
CONTINUOUS
 62
     4
 10
154.165181
 20
122.349652
 11
172.750967
 21
103.763866
  0
LINE
  8
CSLAYER1
  6
CONTINUOUS
 62
     4
 10
155.579395
 20
122.349652
 11
172.750967
 21
105.178079
  0
LINE
  8
CSLAYER1
  6
CONTINUOUS
 62
     4
 10
156.993608
 20
122.349652
 11
172.750967
 21
106.592293
  0
LINE
  8
CSLAYER1
  6
CONTINUOUS
 62
     4
 10
158.407822
 20
122.349652
 11
172.750967
 21
108.006506
  0
LINE
  8
CSLAYER1
  6
CONTINUOUS
 62
     4
 10
159.822035
 20
122.349652
 11
172.750967
 21
109.420720
  0
LINE
  8
CSLAYER1
  6
CONTINUOUS
 62
     4
 10
161.236249
 20
122.349652
 11
172.750967
 21
110.834933
  0
LINE
  8
CSLAYER1
  6
CONTINUOUS
 62
     4
 10
162.650462
 20
122.349652
 11
172.750967
 21
112.249147
  0
LINE
  8
CSLAYER1
  6
CONTINUOUS
 62
     4
 10
164.064676
 20
122.349652
 11
172.750967
 21
113.663361
  0
LINE
  8
CSLAYER1
  6
CONTINUOUS
 62
     4
 10
165.478890
 20
122.349652
 11
172.750967
 21
115.077574
  0
LINE
  8
CSLAYER1
  6
CONTINUOUS
 62
     4
 10
166.893103
 20
122.349652
 11
172.750967
 21
116.491788
  0
LINE
  8
CSLAYER1
  6
CONTINUOUS
 62
     4
 10
168.307317
 20
122.349652
 11
172.750967
 21
117.906001
  0
LINE
  8
CSLAYER1
  6
CONTINUOUS
 62
     4
 10
169.721530
 20
122.349652
 11
172.750967
 21
119.320215
  0
LINE
  8
CSLAYER1
  6
CONTINUOUS
 62
     4
 10
171.135744
 20
122.349652
 11
172.750967
 21
120.734428
  0
LINE
  8
CSLAYER1
  6
CONTINUOUS
 62
     4
 10
172.549957
 20
122.349652
 11
172.750967
 21
122.148642
  0
LINE
  8
CSLAYER1
  6
CONTINUOUS
 62
     4
 10
152.750967
 20
120.935439
 11
172.750967
 21
100.935439
  0
LINE
  8
CSLAYER1
  6
CONTINUOUS
 62
     4
 10
152.750967
 20
119.521225
 11
172.750967
 21
99.521225
  0
LINE
  8
CSLAYER1
  6
CONTINUOUS
 62
     4
 10
152.750967
 20
118.107011
 11
172.750967
 21
98.107011
  0
LINE
  8
CSLAYER1
  6
CONTINUOUS
 62
     4
 10
152.750967
 20
116.692798
 11
172.750967
 21
96.692798
  0
LINE
  8
CSLAYER1
  6
CONTINUOUS
 62
     4
 10
152.750967
 20
115.278584
 11
172.750967
 21
95.278584
  0
LINE
  8
CSLAYER1
  6
CONTINUOUS
 62
     4
 10
152.750967
 20
113.864371
 11
172.750967
 21
93.864371
  0
LINE
  8
CSLAYER1
  6
CONTINUOUS
 62
     4
 10
152.750967
 20
112.450157
 11
172.750967
 21
92.450157
  0
LINE
  8
CSLAYER1
  6
CONTINUOUS
 62
     4
 10
152.750967
 20
111.035944
 11
172.750967
 21
91.035944
  0
LINE
  8
CSLAYER1
  6
CONTINUOUS
 62
     4
 10
152.750967
 20
109.621730
 11
172.750967
 21
89.621730
  0
LINE
  8
CSLAYER1
  6
CONTINUOUS
 62
     4
 10
152.750967
 20
108.207516
 11
172.750967
 21
88.207516
  0
LINE
  8
CSLAYER1
  6
CONTINUOUS
 62
     4
 10
152.750967
 20
106.793303
 11
172.750967
 21
86.793303
  0
LINE
  8
CSLAYER1
  6
CONTINUOUS
 62
     4
 10
152.750967
 20
105.379089
 11
172.750967
 21
85.379089
  0
LINE
  8
CSLAYER1
  6
CONTINUOUS
 62
     4
 10
152.750967
 20
103.964876
 11
172.750967
 21
83.964876
  0
LINE
  8
CSLAYER1
  6
CONTINUOUS
 62
     4
 10
152.750967
 20
102.550662
 11
172.750967
 21
82.550662
  0
LINE
  8
CSLAYER1
  6
CONTINUOUS
 62
     4
 10
152.750967
 20
101.136449
 11
172.750967
 21
81.136449
  0
LINE
  8
CSLAYER1
  6
CONTINUOUS
 62
     4
 10
152.750967
 20
99.722235
 11
172.750967
 21
79.722235
  0
LINE
  8
CSLAYER1
  6
CONTINUOUS
 62
     4
 10
152.750967
 20
98.308022
 11
172.750967
 21
78.308022
  0
LINE
  8
CSLAYER1
  6
CONTINUOUS
 62
     4
 10
152.750967
 20
96.893808
 11
172.750967
 21
76.893808
  0
LINE
  8
CSLAYER1
  6
CONTINUOUS
 62
     4
 10
152.750967
 20
95.479594
 11
172.750967
 21
75.479594
  0
LINE
  8
CSLAYER1
  6
CONTINUOUS
 62
     4
 10
152.750967
 20
94.065381
 11
172.750967
 21
74.065381
  0
LINE
  8
CSLAYER1
  6
CONTINUOUS
 62
     4
 10
152.750967
 20
92.651167
 11
172.750967
 21
72.651167
  0
LINE
  8
CSLAYER1
  6
CONTINUOUS
 62
     4
 10
152.750967
 20
91.236954
 11
172.750967
 21
71.236954
  0
LINE
  8
CSLAYER1
  6
CONTINUOUS
 62
     4
 10
152.750967
 20
89.822740
 11
172.750967
 21
69.822740
  0
LINE
  8
CSLAYER1
  6
CONTINUOUS
 62
     4
 10
152.750967
 20
88.408527
 11
172.750967
 21
68.408527
  0
LINE
  8
CSLAYER1
  6
CONTINUOUS
 62
     4
 10
152.750967
 20
86.994313
 11
172.750967
 21
66.994313
  0
LINE
  8
CSLAYER1
  6
CONTINUOUS
 62
     4
 10
152.750967
 20
85.580099
 11
172.750967
 21
65.580099
  0
LINE
  8
CSLAYER1
  6
CONTINUOUS
 62
     4
 10
152.750967
 20
84.165886
 11
172.750967
 21
64.165886
  0
LINE
  8
CSLAYER1
  6
CONTINUOUS
 62
     4
 10
152.750967
 20
82.751672
 11
172.750967
 21
62.751672
  0
LINE
  8
CSLAYER1
  6
CONTINUOUS
 62
     4
 10
152.750967
 20
81.337459
 11
172.750967
 21
61.337459
  0
LINE
  8
CSLAYER1
  6
CONTINUOUS
 62
     4
 10
152.750967
 20
79.923245
 11
172.750967
 21
59.923245
  0
LINE
  8
CSLAYER1
  6
CONTINUOUS
 62
     4
 10
152.750967
 20
78.509032
 11
172.750967
 21
58.509032
  0
LINE
  8
CSLAYER1
  6
CONTINUOUS
 62
     4
 10
152.750967
 20
77.094818
 11
172.750967
 21
57.094818
  0
LINE
  8
CSLAYER1
  6
CONTINUOUS
 62
     4
 10
152.750967
 20
75.680605
 11
172.750967
 21
55.680605
  0
LINE
  8
CSLAYER1
  6
CONTINUOUS
 62
     4
 10
152.750967
 20
74.266391
 11
172.750967
 21
54.266391
  0
LINE
  8
CSLAYER1
  6
CONTINUOUS
 62
     4
 10
152.750967
 20
72.852177
 11
172.750967
 21
52.852177
  0
LINE
  8
CSLAYER1
  6
CONTINUOUS
 62
     4
 10
152.750967
 20
71.437964
 11
172.750967
 21
51.437964
  0
LINE
  8
CSLAYER1
  6
CONTINUOUS
 62
     4
 10
152.750967
 20
70.023750
 11
172.750967
 21
50.023750
  0
LINE
  8
CSLAYER1
  6
CONTINUOUS
 62
     4
 10
152.750967
 20
68.609537
 11
172.750967
 21
48.609537
  0
LINE
  8
CSLAYER1
  6
CONTINUOUS
 62
     4
 10
152.750967
 20
67.195323
 11
172.596639
 21
47.349652
  0
LINE
  8
CSLAYER1
  6
CONTINUOUS
 62
     4
 10
152.750967
 20
65.781110
 11
171.182425
 21
47.349652
  0
LINE
  8
CSLAYER1
  6
CONTINUOUS
 62
     4
 10
152.750967
 20
64.366896
 11
169.768211
 21
47.349652
  0
LINE
  8
CSLAYER1
  6
CONTINUOUS
 62
     4
 10
152.750967
 20
62.952683
 11
168.353998
 21
47.349652
  0
LINE
  8
CSLAYER1
  6
CONTINUOUS
 62
     4
 10
152.750967
 20
61.538469
 11
166.939784
 21
47.349652
  0
LINE
  8
CSLAYER1
  6
CONTINUOUS
 62
     4
 10
152.750967
 20
60.124255
 11
165.525571
 21
47.349652
  0
LINE
  8
CSLAYER1
  6
CONTINUOUS
 62
     4
 10
152.750967
 20
58.710042
 11
164.111357
 21
47.349652
  0
LINE
  8
CSLAYER1
  6
CONTINUOUS
 62
     4
 10
152.750967
 20
57.295828
 11
162.697144
 21
47.349652
  0
LINE
  8
CSLAYER1
  6
CONTINUOUS
 62
     4
 10
152.750967
 20
55.881615
 11
161.282930
 21
47.349652
  0
LINE
  8
CSLAYER1
  6
CONTINUOUS
 62
     4
 10
152.750967
 20
54.467401
 11
159.868716
 21
47.349652
  0
LINE
  8
CSLAYER1
  6
CONTINUOUS
 62
     4
 10
152.750967
 20
53.053188
 11
158.454503
 21
47.349652
  0
LINE
  8
CSLAYER1
  6
CONTINUOUS
 62
     4
 10
152.750967
 20
51.638974
 11
157.040289
 21
47.349652
  0
LINE
  8
CSLAYER1
  6
CONTINUOUS
 62
     4
 10
152.750967
 20
50.224760
 11
155.626076
 21
47.349652
  0
LINE
  8
CSLAYER1
  6
CONTINUOUS
 62
     4
 10
152.750967
 20
48.810547
 11
154.211862
 21
47.349652
  0
LINE
  8
CSLAYER1
  6
CONTINUOUS
 62
     4
 10
152.750967
 20
47.396333
 11
152.797649
 21
47.349652
  0
ENDBLK
  8
0
  0
BLOCK
  8
CSLAYER1
  2
BLKF0016
 70
   64
 10
0.0
 20
0.0
 30
0.0
  0
LINE
  8
CSLAYER1
  6
CONTINUOUS
 62
     4
 10
192.750967
 20
120.935439
 11
194.165181
 21
122.349652
  0
LINE
  8
CSLAYER1
  6
CONTINUOUS
 62
     4
 10
192.750967
 20
119.521225
 11
195.579395
 21
122.349652
  0
LINE
  8
CSLAYER1
  6
CONTINUOUS
 62
     4
 10
192.750967
 20
118.107011
 11
196.993608
 21
122.349652
  0
LINE
  8
CSLAYER1
  6
CONTINUOUS
 62
     4
 10
192.750967
 20
116.692798
 11
198.407822
 21
122.349652
  0
LINE
  8
CSLAYER1
  6
CONTINUOUS
 62
     4
 10
192.750967
 20
115.278584
 11
199.822035
 21
122.349652
  0
LINE
  8
CSLAYER1
  6
CONTINUOUS
 62
     4
 10
192.750967
 20
113.864371
 11
201.236249
 21
122.349652
  0
LINE
  8
CSLAYER1
  6
CONTINUOUS
 62
     4
 10
192.750967
 20
112.450157
 11
202.650462
 21
122.349652
  0
LINE
  8
CSLAYER1
  6
CONTINUOUS
 62
     4
 10
192.750967
 20
111.035944
 11
204.064676
 21
122.349652
  0
LINE
  8
CSLAYER1
  6
CONTINUOUS
 62
     4
 10
192.750967
 20
109.621730
 11
205.478890
 21
122.349652
  0
LINE
  8
CSLAYER1
  6
CONTINUOUS
 62
     4
 10
192.750967
 20
108.207516
 11
206.893103
 21
122.349652
  0
LINE
  8
CSLAYER1
  6
CONTINUOUS
 62
     4
 10
192.750967
 20
106.793303
 11
208.307317
 21
122.349652
  0
LINE
  8
CSLAYER1
  6
CONTINUOUS
 62
     4
 10
192.750967
 20
105.379089
 11
209.721530
 21
122.349652
  0
LINE
  8
CSLAYER1
  6
CONTINUOUS
 62
     4
 10
192.750967
 20
103.964876
 11
211.135744
 21
122.349652
  0
LINE
  8
CSLAYER1
  6
CONTINUOUS
 62
     4
 10
192.750967
 20
102.550662
 11
212.549957
 21
122.349652
  0
LINE
  8
CSLAYER1
  6
CONTINUOUS
 62
     4
 10
192.750967
 20
101.136449
 11
213.964171
 21
122.349652
  0
LINE
  8
CSLAYER1
  6
CONTINUOUS
 62
     4
 10
192.750967
 20
99.722235
 11
215.378384
 21
122.349652
  0
LINE
  8
CSLAYER1
  6
CONTINUOUS
 62
     4
 10
192.750967
 20
98.308022
 11
216.792598
 21
122.349652
  0
LINE
  8
CSLAYER1
  6
CONTINUOUS
 62
     4
 10
192.750967
 20
96.893808
 11
218.206812
 21
122.349652
  0
LINE
  8
CSLAYER1
  6
CONTINUOUS
 62
     4
 10
192.750967
 20
95.479594
 11
219.621025
 21
122.349652
  0
LINE
  8
CSLAYER1
  6
CONTINUOUS
 62
     4
 10
192.750967
 20
94.065381
 11
221.035239
 21
122.349652
  0
LINE
  8
CSLAYER1
  6
CONTINUOUS
 62
     4
 10
192.750967
 20
92.651167
 11
222.449452
 21
122.349652
  0
LINE
  8
CSLAYER1
  6
CONTINUOUS
 62
     4
 10
192.750967
 20
91.236954
 11
222.750967
 21
121.236954
  0
LINE
  8
CSLAYER1
  6
CONTINUOUS
 62
     4
 10
192.750967
 20
89.822740
 11
222.750967
 21
119.822740
  0
LINE
  8
CSLAYER1
  6
CONTINUOUS
 62
     4
 10
192.750967
 20
88.408527
 11
222.750967
 21
118.408527
  0
LINE
  8
CSLAYER1
  6
CONTINUOUS
 62
     4
 10
192.750967
 20
86.994313
 11
222.750967
 21
116.994313
  0
LINE
  8
CSLAYER1
  6
CONTINUOUS
 62
     4
 10
192.750967
 20
85.580099
 11
222.750967
 21
115.580099
  0
LINE
  8
CSLAYER1
  6
CONTINUOUS
 62
     4
 10
192.750967
 20
84.165886
 11
222.750967
 21
114.165886
  0
LINE
  8
CSLAYER1
  6
CONTINUOUS
 62
     4
 10
192.750967
 20
82.751672
 11
222.750967
 21
112.751672
  0
LINE
  8
CSLAYER1
  6
CONTINUOUS
 62
     4
 10
192.750967
 20
81.337459
 11
222.750967
 21
111.337459
  0
LINE
  8
CSLAYER1
  6
CONTINUOUS
 62
     4
 10
192.750967
 20
79.923245
 11
222.750967
 21
109.923245
  0
LINE
  8
CSLAYER1
  6
CONTINUOUS
 62
     4
 10
192.750967
 20
78.509032
 11
222.750967
 21
108.509032
  0
LINE
  8
CSLAYER1
  6
CONTINUOUS
 62
     4
 10
192.750967
 20
77.094818
 11
222.750967
 21
107.094818
  0
LINE
  8
CSLAYER1
  6
CONTINUOUS
 62
     4
 10
192.750967
 20
75.680605
 11
222.750967
 21
105.680605
  0
LINE
  8
CSLAYER1
  6
CONTINUOUS
 62
     4
 10
192.750967
 20
74.266391
 11
222.750967
 21
104.266391
  0
LINE
  8
CSLAYER1
  6
CONTINUOUS
 62
     4
 10
192.750967
 20
72.852177
 11
222.750967
 21
102.852177
  0
LINE
  8
CSLAYER1
  6
CONTINUOUS
 62
     4
 10
192.750967
 20
71.437964
 11
222.750967
 21
101.437964
  0
LINE
  8
CSLAYER1
  6
CONTINUOUS
 62
     4
 10
192.750967
 20
70.023750
 11
222.750967
 21
100.023750
  0
LINE
  8
CSLAYER1
  6
CONTINUOUS
 62
     4
 10
192.750967
 20
68.609537
 11
222.750967
 21
98.609537
  0
LINE
  8
CSLAYER1
  6
CONTINUOUS
 62
     4
 10
192.750967
 20
67.195323
 11
222.750967
 21
97.195323
  0
LINE
  8
CSLAYER1
  6
CONTINUOUS
 62
     4
 10
192.750967
 20
65.781110
 11
222.750967
 21
95.781110
  0
LINE
  8
CSLAYER1
  6
CONTINUOUS
 62
     4
 10
192.750967
 20
64.366896
 11
222.750967
 21
94.366896
  0
LINE
  8
CSLAYER1
  6
CONTINUOUS
 62
     4
 10
192.750967
 20
62.952683
 11
222.750967
 21
92.952683
  0
LINE
  8
CSLAYER1
  6
CONTINUOUS
 62
     4
 10
192.750967
 20
61.538469
 11
222.750967
 21
91.538469
  0
LINE
  8
CSLAYER1
  6
CONTINUOUS
 62
     4
 10
192.750967
 20
60.124255
 11
222.750967
 21
90.124255
  0
LINE
  8
CSLAYER1
  6
CONTINUOUS
 62
     4
 10
192.750967
 20
58.710042
 11
222.750967
 21
88.710042
  0
LINE
  8
CSLAYER1
  6
CONTINUOUS
 62
     4
 10
192.750967
 20
57.295828
 11
222.750967
 21
87.295828
  0
LINE
  8
CSLAYER1
  6
CONTINUOUS
 62
     4
 10
192.750967
 20
55.881615
 11
222.750967
 21
85.881615
  0
LINE
  8
CSLAYER1
  6
CONTINUOUS
 62
     4
 10
192.750967
 20
54.467401
 11
222.750967
 21
84.467401
  0
LINE
  8
CSLAYER1
  6
CONTINUOUS
 62
     4
 10
192.750967
 20
53.053188
 11
222.750967
 21
83.053188
  0
LINE
  8
CSLAYER1
  6
CONTINUOUS
 62
     4
 10
192.750967
 20
51.638974
 11
222.750967
 21
81.638974
  0
LINE
  8
CSLAYER1
  6
CONTINUOUS
 62
     4
 10
192.750967
 20
50.224760
 11
222.750967
 21
80.224760
  0
LINE
  8
CSLAYER1
  6
CONTINUOUS
 62
     4
 10
192.750967
 20
48.810547
 11
222.750967
 21
78.810547
  0
LINE
  8
CSLAYER1
  6
CONTINUOUS
 62
     4
 10
192.750967
 20
47.396333
 11
222.750967
 21
77.396333
  0
LINE
  8
CSLAYER1
  6
CONTINUOUS
 62
     4
 10
194.118500
 20
47.349652
 11
222.750967
 21
75.982120
  0
LINE
  8
CSLAYER1
  6
CONTINUOUS
 62
     4
 10
195.532713
 20
47.349652
 11
222.750967
 21
74.567906
  0
LINE
  8
CSLAYER1
  6
CONTINUOUS
 62
     4
 10
196.946927
 20
47.349652
 11
222.750967
 21
73.153693
  0
LINE
  8
CSLAYER1
  6
CONTINUOUS
 62
     4
 10
198.361141
 20
47.349652
 11
222.750967
 21
71.739479
  0
LINE
  8
CSLAYER1
  6
CONTINUOUS
 62
     4
 10
199.775354
 20
47.349652
 11
222.750967
 21
70.325266
  0
LINE
  8
CSLAYER1
  6
CONTINUOUS
 62
     4
 10
201.189568
 20
47.349652
 11
222.750967
 21
68.911052
  0
LINE
  8
CSLAYER1
  6
CONTINUOUS
 62
     4
 10
202.603781
 20
47.349652
 11
222.750967
 21
67.496838
  0
LINE
  8
CSLAYER1
  6
CONTINUOUS
 62
     4
 10
204.017995
 20
47.349652
 11
222.750967
 21
66.082625
  0
LINE
  8
CSLAYER1
  6
CONTINUOUS
 62
     4
 10
205.432208
 20
47.349652
 11
222.750967
 21
64.668411
  0
LINE
  8
CSLAYER1
  6
CONTINUOUS
 62
     4
 10
206.846422
 20
47.349652
 11
222.750967
 21
63.254198
  0
LINE
  8
CSLAYER1
  6
CONTINUOUS
 62
     4
 10
208.260635
 20
47.349652
 11
222.750967
 21
61.839984
  0
LINE
  8
CSLAYER1
  6
CONTINUOUS
 62
     4
 10
209.674849
 20
47.349652
 11
222.750967
 21
60.425771
  0
LINE
  8
CSLAYER1
  6
CONTINUOUS
 62
     4
 10
211.089063
 20
47.349652
 11
222.750967
 21
59.011557
  0
LINE
  8
CSLAYER1
  6
CONTINUOUS
 62
     4
 10
212.503276
 20
47.349652
 11
222.750967
 21
57.597343
  0
LINE
  8
CSLAYER1
  6
CONTINUOUS
 62
     4
 10
213.917490
 20
47.349652
 11
222.750967
 21
56.183130
  0
LINE
  8
CSLAYER1
  6
CONTINUOUS
 62
     4
 10
215.331703
 20
47.349652
 11
222.750967
 21
54.768916
  0
LINE
  8
CSLAYER1
  6
CONTINUOUS
 62
     4
 10
216.745917
 20
47.349652
 11
222.750967
 21
53.354703
  0
LINE
  8
CSLAYER1
  6
CONTINUOUS
 62
     4
 10
218.160130
 20
47.349652
 11
222.750967
 21
51.940489
  0
LINE
  8
CSLAYER1
  6
CONTINUOUS
 62
     4
 10
219.574344
 20
47.349652
 11
222.750967
 21
50.526276
  0
LINE
  8
CSLAYER1
  6
CONTINUOUS
 62
     4
 10
220.988558
 20
47.349652
 11
222.750967
 21
49.112062
  0
LINE
  8
CSLAYER1
  6
CONTINUOUS
 62
     4
 10
222.402771
 20
47.349652
 11
222.750967
 21
47.697849
  0
ENDBLK
  8
0
  0
BLOCK
  8
CSLAYER1
  2
BLKF0017
 70
   64
 10
0.0
 20
0.0
 30
0.0
  0
LINE
  8
CSLAYER1
  6
CONTINUOUS
 62
     4
 10
192.750967
 20
122.349652
 11
222.750967
 21
92.349652
  0
LINE
  8
CSLAYER1
  6
CONTINUOUS
 62
     4
 10
194.165181
 20
122.349652
 11
222.750967
 21
93.763866
  0
LINE
  8
CSLAYER1
  6
CONTINUOUS
 62
     4
 10
195.579395
 20
122.349652
 11
222.750967
 21
95.178079
  0
LINE
  8
CSLAYER1
  6
CONTINUOUS
 62
     4
 10
196.993608
 20
122.349652
 11
222.750967
 21
96.592293
  0
LINE
  8
CSLAYER1
  6
CONTINUOUS
 62
     4
 10
198.407822
 20
122.349652
 11
222.750967
 21
98.006506
  0
LINE
  8
CSLAYER1
  6
CONTINUOUS
 62
     4
 10
199.822035
 20
122.349652
 11
222.750967
 21
99.420720
  0
LINE
  8
CSLAYER1
  6
CONTINUOUS
 62
     4
 10
201.236249
 20
122.349652
 11
222.750967
 21
100.834933
  0
LINE
  8
CSLAYER1
  6
CONTINUOUS
 62
     4
 10
202.650462
 20
122.349652
 11
222.750967
 21
102.249147
  0
LINE
  8
CSLAYER1
  6
CONTINUOUS
 62
     4
 10
204.064676
 20
122.349652
 11
222.750967
 21
103.663361
  0
LINE
  8
CSLAYER1
  6
CONTINUOUS
 62
     4
 10
205.478890
 20
122.349652
 11
222.750967
 21
105.077574
  0
LINE
  8
CSLAYER1
  6
CONTINUOUS
 62
     4
 10
206.893103
 20
122.349652
 11
222.750967
 21
106.491788
  0
LINE
  8
CSLAYER1
  6
CONTINUOUS
 62
     4
 10
208.307317
 20
122.349652
 11
222.750967
 21
107.906001
  0
LINE
  8
CSLAYER1
  6
CONTINUOUS
 62
     4
 10
209.721530
 20
122.349652
 11
222.750967
 21
109.320215
  0
LINE
  8
CSLAYER1
  6
CONTINUOUS
 62
     4
 10
211.135744
 20
122.349652
 11
222.750967
 21
110.734428
  0
LINE
  8
CSLAYER1
  6
CONTINUOUS
 62
     4
 10
212.549957
 20
122.349652
 11
222.750967
 21
112.148642
  0
LINE
  8
CSLAYER1
  6
CONTINUOUS
 62
     4
 10
213.964171
 20
122.349652
 11
222.750967
 21
113.562856
  0
LINE
  8
CSLAYER1
  6
CONTINUOUS
 62
     4
 10
215.378384
 20
122.349652
 11
222.750967
 21
114.977069
  0
LINE
  8
CSLAYER1
  6
CONTINUOUS
 62
     4
 10
216.792598
 20
122.349652
 11
222.750967
 21
116.391283
  0
LINE
  8
CSLAYER1
  6
CONTINUOUS
 62
     4
 10
218.206812
 20
122.349652
 11
222.750967
 21
117.805496
  0
LINE
  8
CSLAYER1
  6
CONTINUOUS
 62
     4
 10
219.621025
 20
122.349652
 11
222.750967
 21
119.219710
  0
LINE
  8
CSLAYER1
  6
CONTINUOUS
 62
     4
 10
221.035239
 20
122.349652
 11
222.750967
 21
120.633923
  0
LINE
  8
CSLAYER1
  6
CONTINUOUS
 62
     4
 10
222.449452
 20
122.349652
 11
222.750967
 21
122.048137
  0
LINE
  8
CSLAYER1
  6
CONTINUOUS
 62
     4
 10
192.750967
 20
120.935439
 11
222.750967
 21
90.935439
  0
LINE
  8
CSLAYER1
  6
CONTINUOUS
 62
     4
 10
192.750967
 20
119.521225
 11
222.750967
 21
89.521225
  0
LINE
  8
CSLAYER1
  6
CONTINUOUS
 62
     4
 10
192.750967
 20
118.107011
 11
222.750967
 21
88.107011
  0
LINE
  8
CSLAYER1
  6
CONTINUOUS
 62
     4
 10
192.750967
 20
116.692798
 11
222.750967
 21
86.692798
  0
LINE
  8
CSLAYER1
  6
CONTINUOUS
 62
     4
 10
192.750967
 20
115.278584
 11
222.750967
 21
85.278584
  0
LINE
  8
CSLAYER1
  6
CONTINUOUS
 62
     4
 10
192.750967
 20
113.864371
 11
222.750967
 21
83.864371
  0
LINE
  8
CSLAYER1
  6
CONTINUOUS
 62
     4
 10
192.750967
 20
112.450157
 11
222.750967
 21
82.450157
  0
LINE
  8
CSLAYER1
  6
CONTINUOUS
 62
     4
 10
192.750967
 20
111.035944
 11
222.750967
 21
81.035944
  0
LINE
  8
CSLAYER1
  6
CONTINUOUS
 62
     4
 10
192.750967
 20
109.621730
 11
222.750967
 21
79.621730
  0
LINE
  8
CSLAYER1
  6
CONTINUOUS
 62
     4
 10
192.750967
 20
108.207516
 11
222.750967
 21
78.207516
  0
LINE
  8
CSLAYER1
  6
CONTINUOUS
 62
     4
 10
192.750967
 20
106.793303
 11
222.750967
 21
76.793303
  0
LINE
  8
CSLAYER1
  6
CONTINUOUS
 62
     4
 10
192.750967
 20
105.379089
 11
222.750967
 21
75.379089
  0
LINE
  8
CSLAYER1
  6
CONTINUOUS
 62
     4
 10
192.750967
 20
103.964876
 11
222.750967
 21
73.964876
  0
LINE
  8
CSLAYER1
  6
CONTINUOUS
 62
     4
 10
192.750967
 20
102.550662
 11
222.750967
 21
72.550662
  0
LINE
  8
CSLAYER1
  6
CONTINUOUS
 62
     4
 10
192.750967
 20
101.136449
 11
222.750967
 21
71.136449
  0
LINE
  8
CSLAYER1
  6
CONTINUOUS
 62
     4
 10
192.750967
 20
99.722235
 11
222.750967
 21
69.722235
  0
LINE
  8
CSLAYER1
  6
CONTINUOUS
 62
     4
 10
192.750967
 20
98.308022
 11
222.750967
 21
68.308022
  0
LINE
  8
CSLAYER1
  6
CONTINUOUS
 62
     4
 10
192.750967
 20
96.893808
 11
222.750967
 21
66.893808
  0
LINE
  8
CSLAYER1
  6
CONTINUOUS
 62
     4
 10
192.750967
 20
95.479594
 11
222.750967
 21
65.479594
  0
LINE
  8
CSLAYER1
  6
CONTINUOUS
 62
     4
 10
192.750967
 20
94.065381
 11
222.750967
 21
64.065381
  0
LINE
  8
CSLAYER1
  6
CONTINUOUS
 62
     4
 10
192.750967
 20
92.651167
 11
222.750967
 21
62.651167
  0
LINE
  8
CSLAYER1
  6
CONTINUOUS
 62
     4
 10
192.750967
 20
91.236954
 11
222.750967
 21
61.236954
  0
LINE
  8
CSLAYER1
  6
CONTINUOUS
 62
     4
 10
192.750967
 20
89.822740
 11
222.750967
 21
59.822740
  0
LINE
  8
CSLAYER1
  6
CONTINUOUS
 62
     4
 10
192.750967
 20
88.408527
 11
222.750967
 21
58.408527
  0
LINE
  8
CSLAYER1
  6
CONTINUOUS
 62
     4
 10
192.750967
 20
86.994313
 11
222.750967
 21
56.994313
  0
LINE
  8
CSLAYER1
  6
CONTINUOUS
 62
     4
 10
192.750967
 20
85.580099
 11
222.750967
 21
55.580099
  0
LINE
  8
CSLAYER1
  6
CONTINUOUS
 62
     4
 10
192.750967
 20
84.165886
 11
222.750967
 21
54.165886
  0
LINE
  8
CSLAYER1
  6
CONTINUOUS
 62
     4
 10
192.750967
 20
82.751672
 11
222.750967
 21
52.751672
  0
LINE
  8
CSLAYER1
  6
CONTINUOUS
 62
     4
 10
192.750967
 20
81.337459
 11
222.750967
 21
51.337459
  0
LINE
  8
CSLAYER1
  6
CONTINUOUS
 62
     4
 10
192.750967
 20
79.923245
 11
222.750967
 21
49.923245
  0
LINE
  8
CSLAYER1
  6
CONTINUOUS
 62
     4
 10
192.750967
 20
78.509032
 11
222.750967
 21
48.509032
  0
LINE
  8
CSLAYER1
  6
CONTINUOUS
 62
     4
 10
192.750967
 20
77.094818
 11
222.496133
 21
47.349652
  0
LINE
  8
CSLAYER1
  6
CONTINUOUS
 62
     4
 10
192.750967
 20
75.680605
 11
221.081920
 21
47.349652
  0
LINE
  8
CSLAYER1
  6
CONTINUOUS
 62
     4
 10
192.750967
 20
74.266391
 11
219.667706
 21
47.349652
  0
LINE
  8
CSLAYER1
  6
CONTINUOUS
 62
     4
 10
192.750967
 20
72.852177
 11
218.253493
 21
47.349652
  0
LINE
  8
CSLAYER1
  6
CONTINUOUS
 62
     4
 10
192.750967
 20
71.437964
 11
216.839279
 21
47.349652
  0
LINE
  8
CSLAYER1
  6
CONTINUOUS
 62
     4
 10
192.750967
 20
70.023750
 11
215.425066
 21
47.349652
  0
LINE
  8
CSLAYER1
  6
CONTINUOUS
 62
     4
 10
192.750967
 20
68.609537
 11
214.010852
 21
47.349652
  0
LINE
  8
CSLAYER1
  6
CONTINUOUS
 62
     4
 10
192.750967
 20
67.195323
 11
212.596639
 21
47.349652
  0
LINE
  8
CSLAYER1
  6
CONTINUOUS
 62
     4
 10
192.750967
 20
65.781110
 11
211.182425
 21
47.349652
  0
LINE
  8
CSLAYER1
  6
CONTINUOUS
 62
     4
 10
192.750967
 20
64.366896
 11
209.768211
 21
47.349652
  0
LINE
  8
CSLAYER1
  6
CONTINUOUS
 62
     4
 10
192.750967
 20
62.952683
 11
208.353998
 21
47.349652
  0
LINE
  8
CSLAYER1
  6
CONTINUOUS
 62
     4
 10
192.750967
 20
61.538469
 11
206.939784
 21
47.349652
  0
LINE
  8
CSLAYER1
  6
CONTINUOUS
 62
     4
 10
192.750967
 20
60.124255
 11
205.525571
 21
47.349652
  0
LINE
  8
CSLAYER1
  6
CONTINUOUS
 62
     4
 10
192.750967
 20
58.710042
 11
204.111357
 21
47.349652
  0
LINE
  8
CSLAYER1
  6
CONTINUOUS
 62
     4
 10
192.750967
 20
57.295828
 11
202.697144
 21
47.349652
  0
LINE
  8
CSLAYER1
  6
CONTINUOUS
 62
     4
 10
192.750967
 20
55.881615
 11
201.282930
 21
47.349652
  0
LINE
  8
CSLAYER1
  6
CONTINUOUS
 62
     4
 10
192.750967
 20
54.467401
 11
199.868716
 21
47.349652
  0
LINE
  8
CSLAYER1
  6
CONTINUOUS
 62
     4
 10
192.750967
 20
53.053188
 11
198.454503
 21
47.349652
  0
LINE
  8
CSLAYER1
  6
CONTINUOUS
 62
     4
 10
192.750967
 20
51.638974
 11
197.040289
 21
47.349652
  0
LINE
  8
CSLAYER1
  6
CONTINUOUS
 62
     4
 10
192.750967
 20
50.224760
 11
195.626076
 21
47.349652
  0
LINE
  8
CSLAYER1
  6
CONTINUOUS
 62
     4
 10
192.750967
 20
48.810547
 11
194.211862
 21
47.349652
  0
LINE
  8
CSLAYER1
  6
CONTINUOUS
 62
     4
 10
192.750967
 20
47.396333
 11
192.797649
 21
47.349652
  0
ENDBLK
  8
0
  0
ENDSEC
  0
SECTION
  2
ENTITIES
  0
POINT
  8
CSLAYER1
 62
     3
 10
10.000000
 20
3.000000
  0
POINT
  8
CSLAYER1
 62
     3
 10
124.000000
 20
3.000000
  0
POINT
  8
CSLAYER1
 62
     3
 10
233.500000
 20
28.000000
  0
POINT
  8
CSLAYER1
 62
     3
 10
263.500000
 20
28.000000
  0
POINT
  8
CSLAYER1
 62
     3
 10
146.500000
 20
25.500000
  0
POINT
  8
CSLAYER1
 62
     3
 10
146.500000
 20
20.500000
  0
POINT
  8
CSLAYER1
 62
     3
 10
146.500000
 20
15.500000
  0
POINT
  8
CSLAYER1
 62
     3
 10
146.500000
 20
10.500000
  0
POINT
  8
CSLAYER1
 62
     3
 10
146.500000
 20
5.500000
  0
POINT
  8
CSLAYER1
 62
     3
 10
183.000000
 20
25.500000
  0
POINT
  8
CSLAYER1
 62
     3
 10
183.000000
 20
20.500000
  0
POINT
  8
CSLAYER1
 62
     3
 10
183.000000
 20
15.500000
  0
POINT
  8
CSLAYER1
 62
     3
 10
183.000000
 20
10.500000
  0
POINT
  8
CSLAYER1
 62
     3
 10
183.000000
 20
5.500000
  0
POINT
  8
CSLAYER1
 62
     3
 10
241.000000
 20
19.500000
  0
POINT
  8
CSLAYER1
 62
     3
 10
365.500000
 20
9.000000
  0
POINT
  8
CSLAYER1
 62
     3
 10
365.500000
 20
20.500000
  0
POINT
  8
CSLAYER1
 62
     3
 10
318.000000
 20
28.000000
  0
POINT
  8
CSLAYER1
 62
     3
 10
270.250000
 20
9.250000
  0
POINT
  8
CSLAYER1
 62
     3
 10
318.000000
 20
18.000000
  0
POINT
  8
CSLAYER1
 62
     3
 10
318.000000
 20
8.000000
  0
POINT
  8
CSLAYER1
 62
     3
 10
255.250000
 20
9.250000
  0
POINT
  8
CSLAYER1
 62
     3
 10
240.250000
 20
9.250000
  0
POINT
  8
CSLAYER1
 62
     3
 10
225.250000
 20
9.250000
  0
POINT
  8
CSLAYER1
 62
     3
 10
283.525000
 20
11.475000
  0
POINT
  8
CSLAYER1
 62
     3
 10
287.550000
 20
7.450000
  0
POINT
  8
CSLAYER1
 62
     3
 10
222.205136
 20
19.500000
  0
POINT
  8
CSLAYER1
 62
     3
 10
235.567968
 20
19.500000
  0
POINT
  8
CSLAYER1
 62
     3
 10
248.294474
 20
19.500000
  0
POINT
  8
CSLAYER1
 62
     3
 10
390.000000
 20
19.500000
  0
POINT
  8
CSLAYER1
 62
     3
 10
139.000000
 20
25.500000
  0
POINT
  8
CSLAYER1
 62
     3
 10
139.000000
 20
20.500000
  0
POINT
  8
CSLAYER1
 62
     3
 10
139.000000
 20
15.500000
  0
POINT
  8
CSLAYER1
 62
     3
 10
139.000000
 20
10.500000
  0
POINT
  8
CSLAYER1
 62
     3
 10
139.000000
 20
5.500000
  0
POINT
  8
CSLAYER1
 62
     3
 10
158.000000
 20
25.500000
  0
POINT
  8
CSLAYER1
 62
     3
 10
158.000000
 20
20.500000
  0
POINT
  8
CSLAYER1
 62
     3
 10
158.000000
 20
15.500000
  0
POINT
  8
CSLAYER1
 62
     3
 10
158.000000
 20
10.500000
  0
POINT
  8
CSLAYER1
 62
     3
 10
158.000000
 20
5.500000
  0
LINE
  8
CSLAYER1
  6
CONTINUOUS
 62
     3
 10
10.000000
 20
3.000000
 11
395.000000
 21
3.000000
  0
LINE
  8
CSLAYER1
  6
CONTINUOUS
 62
     3
 10
395.000000
 20
3.000000
 11
395.000000
 21
275.000000
  0
LINE
  8
CSLAYER1
  6
CONTINUOUS
 62
     3
 10
395.000000
 20
275.000000
 11
10.000000
 21
275.000000
  0
LINE
  8
CSLAYER1
  6
CONTINUOUS
 62
     3
 10
10.000000
 20
275.000000
 11
10.000000
 21
3.000000
  0
LINE
  8
CSLAYER1
  6
CONTINUOUS
 62
     3
 10
124.000000
 20
3.000000
 11
124.000000
 21
33.000000
  0
LINE
  8
CSLAYER1
  6
CONTINUOUS
 62
     3
 10
124.000000
 20
33.000000
 11
395.000000
 21
33.000000
  0
TEXT
  8
CSLAYER1
 62
     4
 10
292.899970
 20
26.200008
 40
3.600000
 41
1.866667
  1
材質
 50
0.000000
 51
0.000000
  7
FX_FONT
 72
     5
 11
304.099969
 21
26.200008
  0
TEXT
  8
CSLAYER1
 62
     4
 10
292.899970
 20
16.200008
 40
3.600000
 41
1.866667
  1
処理
 50
0.000000
 51
0.000000
  7
FX_FONT
 72
     5
 11
304.099969
 21
16.200008
  0
TEXT
  8
CSLAYER1
 62
     4
 10
291.299970
 20
6.200004
 40
3.600000
 41
1.090909
  1
一台数量
 50
0.000000
 51
0.000000
  7
FX_FONT
 72
     5
 11
305.699969
 21
6.200004
  0
TEXT
  8
CSLAYER1
 62
     4
 10
225.099985
 20
26.200008
 40
3.600000
 41
1.272727
  1
株式会社
 50
0.000000
 51
0.000000
  7
FX_FONT
 72
     5
 11
241.899985
 21
26.200008
  0
TEXT
  8
CSLAYER1
 62
     4
 10
244.799969
 20
25.500008
 40
5.000000
 41
1.122000
  1
ベツセル福知山
 50
0.000000
 51
0.000000
  7
FX_FONT
 72
     5
 11
282.199970
 21
25.500008
  0
TEXT
  8
CSLAYER1
 62
     4
 10
131.200000
 20
29.100008
 40
2.800000
 41
1.200000
  1
符号
 50
0.000000
 51
0.000000
  7
FX_FONT
 72
     5
 11
136.800000
 21
29.100008
  0
TEXT
  8
CSLAYER1
 62
     4
 10
132.200000
 20
23.700008
 40
3.600000
 41
1.500000
  1
1
 50
0.000000
 51
0.000000
  7
FX_FONT
 72
     5
 11
135.800000
 21
23.700008
  0
TEXT
  8
CSLAYER1
 62
     4
 10
132.200000
 20
18.700008
 40
3.600000
 41
1.500000
  1
2
 50
0.000000
 51
0.000000
  7
FX_FONT
 72
     5
 11
135.800000
 21
18.700008
  0
TEXT
  8
CSLAYER1
 62
     4
 10
132.200000
 20
13.700000
 40
3.600000
 41
1.500000
  1
3
 50
0.000000
 51
0.000000
  7
FX_FONT
 72
     5
 11
135.800000
 21
13.700000
  0
TEXT
  8
CSLAYER1
 62
     4
 10
132.200000
 20
8.700000
 40
3.600000
 41
1.500000
  1
4
 50
0.000000
 51
0.000000
  7
FX_FONT
 72
     5
 11
135.800000
 21
8.700000
  0
TEXT
  8
CSLAYER1
 62
     4
 10
138.600000
 20
28.700008
 40
3.600000
 41
1.645833
  1
年月日
 50
0.000000
 51
0.000000
  7
FX_FONT
 72
     5
 11
154.400000
 21
28.700008
  0
TEXT
  8
CSLAYER1
 62
     4
 10
160.800000
 20
28.700008
 40
3.600000
 41
3.363636
  1
改正理由
 50
0.000000
 51
0.000000
  7
FX_FONT
 72
     5
 11
205.200000
 21
28.700008
  0
TEXT
  8
CSLAYER1
 62
     4
 10
211.200000
 20
28.700008
 40
3.600000
 41
1.500000
  1
印
 50
0.000000
 51
0.000000
  7
FX_FONT
 72
     5
 11
214.800000
 21
28.700008
  0
TEXT
  8
CSLAYER1
 62
     4
 10
225.599985
 20
17.700008
 40
3.600000
 41
3.208333
  1
年月日
 50
0.000000
 51
0.000000
  7
FX_FONT
 72
     5
 11
256.399985
 21
17.700008
  0
TEXT
  8
CSLAYER1
 62
     4
 10
216.350000
 20
10.725000
 40
2.800000
 41
1.500000
  1
設
 50
0.000000
 51
0.000000
  7
FX_FONT
 72
     5
 11
219.150000
 21
10.725000
  0
TEXT
  8
CSLAYER1
 62
     4
 10
216.350000
 20
5.475004
 40
2.800000
 41
1.500000
  1
計
 50
0.000000
 51
0.000000
  7
FX_FONT
 72
     5
 11
219.150000
 21
5.475004
  0
TEXT
  8
CSLAYER1
 62
     4
 10
231.349985
 20
10.725000
 40
2.800000
 41
1.500000
  1
製
 50
0.000000
 51
0.000000
  7
FX_FONT
 72
     5
 11
234.149985
 21
10.725000
  0
TEXT
  8
CSLAYER1
 62
     4
 10
231.349985
 20
5.475004
 40
2.800000
 41
1.500000
  1
図
 50
0.000000
 51
0.000000
  7
FX_FONT
 72
     5
 11
234.149985
 21
5.475004
  0
TEXT
  8
CSLAYER1
 62
     4
 10
246.349985
 20
10.725000
 40
2.800000
 41
1.500000
  1
検
 50
0.000000
 51
0.000000
  7
FX_FONT
 72
     5
 11
249.149985
 21
10.725000
  0
TEXT
  8
CSLAYER1
 62
     4
 10
246.349985
 20
5.475004
 40
2.800000
 41
1.500000
  1
図
 50
0.000000
 51
0.000000
  7
FX_FONT
 72
     5
 11
249.149985
 21
5.475004
  0
TEXT
  8
CSLAYER1
 62
     4
 10
261.349970
 20
10.725000
 40
2.800000
 41
1.500000
  1
承
 50
0.000000
 51
0.000000
  7
FX_FONT
 72
     5
 11
264.149969
 21
10.725000
  0
TEXT
  8
CSLAYER1
 62
     4
 10
261.349970
 20
5.475004
 40
2.800000
 41
1.500000
  1
認
 50
0.000000
 51
0.000000
  7
FX_FONT
 72
     5
 11
264.149969
 21
5.475004
  0
TEXT
  8
CSLAYER1
 62
     4
 10
276.349970
 20
10.725000
 40
2.800000
 41
1.500000
  1
尺
 50
0.000000
 51
0.000000
  7
FX_FONT
 72
     5
 11
279.149969
 21
10.725000
  0
TEXT
  8
CSLAYER1
 62
     4
 10
276.349970
 20
5.475004
 40
2.800000
 41
1.500000
  1
度
 50
0.000000
 51
0.000000
  7
FX_FONT
 72
     5
 11
279.149969
 21
5.475004
  0
TEXT
  8
CSLAYER1
 62
     4
 10
125.700000
 20
23.200008
 40
3.600000
 41
1.500000
  1
改
 50
0.000000
 51
0.000000
  7
FX_FONT
 72
     5
 11
129.300000
 21
23.200008
  0
TEXT
  8
CSLAYER1
 62
     4
 10
125.700000
 20
9.200000
 40
3.600000
 41
1.500000
  1
正
 50
0.000000
 51
0.000000
  7
FX_FONT
 72
     5
 11
129.300000
 21
9.200000
  0
TEXT
  8
CSLAYER1
 62
     4
 10
331.200000
 20
28.900005
 40
3.600000
 41
1.500000
  1
図
 50
0.000000
 51
0.000000
  7
FX_FONT
 72
     5
 11
334.800000
 21
28.900005
  0
TEXT
  8
CSLAYER1
 62
     4
 10
331.200000
 20
25.500011
 40
3.600000
 41
1.500000
  1
番
 50
0.000000
 51
0.000000
  7
FX_FONT
 72
     5
 11
334.800000
 21
25.500011
  0
TEXT
  8
CSLAYER1
 62
     4
 10
331.200000
 20
20.900005
 40
3.600000
 41
1.500000
  1
型
 50
0.000000
 51
0.000000
  7
FX_FONT
 72
     5
 11
334.800000
 21
20.900005
  0
TEXT
  8
CSLAYER1
 62
     4
 10
331.200000
 20
17.500011
 40
3.600000
 41
1.500000
  1
式
 50
0.000000
 51
0.000000
  7
FX_FONT
 72
     5
 11
334.800000
 21
17.500011
  0
TEXT
  8
CSLAYER1
 62
     4
 10
331.200000
 20
10.950000
 40
3.600000
 41
1.500000
  1
品
 50
0.000000
 51
0.000000
  7
FX_FONT
 72
     5
 11
334.800000
 21
10.950000
  0
TEXT
  8
CSLAYER1
 62
     4
 10
331.200000
 20
5.450004
 40
3.600000
 41
1.500000
  1
名
 50
0.000000
 51
0.000000
  7
FX_FONT
 72
     5
 11
334.800000
 21
5.450004
  0
TEXT
  8
CSLAYER1
 62
     4
 10
280.449982
 20
9.550003
 40
5.000000
 41
1.500000
  1
1
 50
0.000000
 51
0.000000
  7
FX_FONT
 72
     5
 11
285.449982
 21
9.550003
  0
TEXT
  8
CSLAYER1
 62
     4
 10
285.049957
 20
4.950001
 40
5.000000
 41
1.500000
  1
1
 50
0.000000
 51
0.000000
  7
FX_FONT
 72
     5
 11
290.049957
 21
4.950001
  0
TEXT
  8
CSLAYER1
 62
     4
 10
132.200000
 20
3.700004
 40
3.600000
 41
1.500000
  1
5
 50
0.000000
 51
0.000000
  7
FX_FONT
 72
     5
 11
135.800000
 21
3.700004
  0
LINE
  8
CSLAYER1
  6
CONTINUOUS
 62
     4
 10
131.000000
 20
3.000000
 11
131.000000
 21
33.000000
  0
LINE
  8
CSLAYER1
  6
CONTINUOUS
 62
     4
 10
131.000000
 20
28.000000
 11
216.000000
 21
28.000000
  0
LINE
  8
CSLAYER1
  6
CONTINUOUS
 62
     4
 10
216.000000
 20
33.000000
 11
216.000000
 21
3.000000
  0
LINE
  8
CSLAYER1
  6
CONTINUOUS
 62
     4
 10
219.500000
 20
3.000000
 11
219.500000
 21
15.500000
  0
LINE
  8
CSLAYER1
  6
CONTINUOUS
 62
     4
 10
218.000000
 20
17.500000
 11
259.000000
 21
17.500000
  0
LINE
  8
CSLAYER1
  6
CONTINUOUS
 62
     4
 10
261.000000
 20
23.000000
 11
261.000000
 21
3.000000
  0
LINE
  8
CSLAYER1
  6
CONTINUOUS
 62
     4
 10
264.500000
 20
3.000000
 11
264.500000
 21
15.500000
  0
LINE
  8
CSLAYER1
  6
CENTER
 62
     4
 10
266.143030
 20
19.250000
 11
273.423532
 21
19.250000
  0
CIRCLE
  8
CSLAYER1
  6
CONTINUOUS
 62
     4
 10
269.893939
 20
19.250000
 40
2.500000
  0
CIRCLE
  8
CSLAYER1
  6
CONTINUOUS
 62
     4
 10
269.893939
 20
19.250000
 40
1.508161
  0
LINE
  8
CSLAYER1
  6
CENTER
 62
     4
 10
269.893939
 20
16.225455
 11
269.893939
 21
22.412121
  0
LINE
  8
CSLAYER1
  6
CENTER
 62
     4
 10
277.475519
 20
19.250000
 11
285.476364
 21
19.250000
  0
LINE
  8
CSLAYER1
  6
CONTINUOUS
 62
     4
 10
284.245455
 20
21.750000
 11
284.245455
 21
16.750000
  0
LINE
  8
CSLAYER1
  6
CONTINUOUS
 62
     4
 10
284.245455
 20
16.750000
 11
278.620455
 21
17.741839
  0
LINE
  8
CSLAYER1
  6
CONTINUOUS
 62
     4
 10
278.620455
 20
17.741839
 11
278.620455
 21
20.758161
  0
LINE
  8
CSLAYER1
  6
CONTINUOUS
 62
     4
 10
278.620455
 20
20.758161
 11
284.245455
 21
21.750000
  0
LINE
  8
CSLAYER1
  6
CONTINUOUS
 62
     4
 10
279.500000
 20
15.500000
 11
279.500000
 21
3.000000
  0
LINE
  8
CSLAYER1
  6
CONTINUOUS
 62
     4
 10
280.553000
 20
5.053000
 11
289.701618
 21
14.201618
  0
LINE
  8
CSLAYER1
  6
CONTINUOUS
 62
     4
 10
291.000000
 20
13.000000
 11
330.000000
 21
13.000000
  0
LINE
  8
CSLAYER1
  6
CONTINUOUS
 62
     4
 10
330.000000
 20
17.000000
 11
395.000000
 21
17.000000
  0
LINE
  8
CSLAYER1
  6
CONTINUOUS
 62
     4
 10
395.000000
 20
25.000000
 11
330.000000
 21
25.000000
  0
LINE
  8
CSLAYER1
  6
CONTINUOUS
 62
     4
 10
330.000000
 20
23.000000
 11
131.000000
 21
23.000000
  0
LINE
  8
CSLAYER1
  6
CONTINUOUS
 62
     4
 10
131.000000
 20
18.000000
 11
216.000000
 21
18.000000
  0
LINE
  8
CSLAYER1
  6
CONTINUOUS
 62
     4
 10
216.000000
 20
15.500000
 11
291.000000
 21
15.500000
  0
LINE
  8
CSLAYER1
  6
CONTINUOUS
 62
     4
 10
291.000000
 20
3.000000
 11
291.000000
 21
33.000000
  0
LINE
  8
CSLAYER1
  6
CONTINUOUS
 62
     4
 10
306.000000
 20
33.000000
 11
306.000000
 21
3.000000
  0
LINE
  8
CSLAYER1
  6
CONTINUOUS
 62
     4
 10
330.000000
 20
3.000000
 11
330.000000
 21
33.000000
  0
LINE
  8
CSLAYER1
  6
CONTINUOUS
 62
     4
 10
336.000000
 20
33.000000
 11
336.000000
 21
3.000000
  0
LINE
  8
CSLAYER1
  6
CONTINUOUS
 62
     4
 10
276.000000
 20
3.000000
 11
276.000000
 21
15.500000
  0
LINE
  8
CSLAYER1
  6
CONTINUOUS
 62
     4
 10
249.500000
 20
15.500000
 11
249.500000
 21
3.000000
  0
LINE
  8
CSLAYER1
  6
CONTINUOUS
 62
     4
 10
246.000000
 20
3.000000
 11
246.000000
 21
15.500000
  0
LINE
  8
CSLAYER1
  6
CONTINUOUS
 62
     4
 10
234.500000
 20
15.500000
 11
234.500000
 21
3.000000
  0
LINE
  8
CSLAYER1
  6
CONTINUOUS
 62
     4
 10
231.000000
 20
3.000000
 11
231.000000
 21
15.500000
  0
LINE
  8
CSLAYER1
  6
CONTINUOUS
 62
     4
 10
216.000000
 20
13.000000
 11
131.000000
 21
13.000000
  0
LINE
  8
CSLAYER1
  6
CONTINUOUS
 62
     4
 10
131.000000
 20
8.000000
 11
216.000000
 21
8.000000
  0
LINE
  8
CSLAYER1
  6
CONTINUOUS
 62
     4
 10
210.000000
 20
3.000000
 11
210.000000
 21
33.000000
  0
LINE
  8
CSLAYER1
  6
CONTINUOUS
 62
     4
 10
156.000000
 20
33.000000
 11
156.000000
 21
3.000000
  0
LINE
  8
CSLAYER1
  6
CONTINUOUS
 62
     4
 10
137.000000
 20
3.000000
 11
137.000000
 21
33.000000
  0
LINE
  8
CSLAYER1
  6
CONTINUOUS
 62
     3
 10
84.450967
 20
168.709386
 11
91.050967
 21
168.709386
  0
LINE
  8
CSLAYER1
  6
CONTINUOUS
 62
     3
 10
91.050967
 20
168.709386
 11
91.750967
 21
169.409386
  0
LINE
  8
CSLAYER1
  6
CONTINUOUS
 62
     3
 10
91.750967
 20
169.409386
 11
91.750967
 21
172.909386
  0
LINE
  8
CSLAYER1
  6
CONTINUOUS
 62
     3
 10
95.256521
 20
173.489943
 11
95.256521
 21
179.709386
  0
LINE
  8
CSLAYER1
  6
CONTINUOUS
 62
     3
 10
91.503744
 20
179.709386
 11
91.503744
 21
173.489943
  0
LINE
  8
CSLAYER1
  6
CONTINUOUS
 62
     3
 10
80.245414
 20
173.489943
 11
80.245414
 21
179.709386
  0
LINE
  8
CSLAYER1
  6
CONTINUOUS
 62
     3
 10
76.750967
 20
179.709386
 11
72.750967
 21
183.709386
  0
LINE
  8
CSLAYER1
  6
CONTINUOUS
 62
     3
 10
72.750967
 20
183.709386
 11
72.750967
 21
188.609386
  0
LINE
  8
CSLAYER1
  6
CONTINUOUS
 62
     3
 10
72.750967
 20
188.609386
 11
119.750967
 21
188.609386
  0
LINE
  8
CSLAYER1
  6
CONTINUOUS
 62
     3
 10
119.750967
 20
188.609386
 11
119.750967
 21
201.209386
  0
LINE
  8
CSLAYER1
  6
CONTINUOUS
 62
     3
 10
119.750967
 20
213.809386
 11
72.750967
 21
213.809386
  0
LINE
  8
CSLAYER1
  6
CONTINUOUS
 62
     3
 10
72.750967
 20
213.809386
 11
72.750967
 21
218.709386
  0
LINE
  8
CSLAYER1
  6
CONTINUOUS
 62
     3
 10
72.750967
 20
218.709386
 11
76.750967
 21
222.709386
  0
LINE
  8
CSLAYER1
  6
CONTINUOUS
 62
     3
 10
76.750967
 20
222.709386
 11
125.322542
 21
222.709386
  0
ARC
  8
CSLAYER1
  6
CONTINUOUS
 62
     3
 10
124.862424
 20
240.709386
 40
18.000000
 50
270.000000
 51
353.620630
  0
LINE
  8
CSLAYER1
  6
CONTINUOUS
 62
     3
 10
142.750967
 20
192.709386
 11
142.750967
 21
163.709386
  0
LINE
  8
CSLAYER1
  6
CONTINUOUS
 62
     3
 10
142.750967
 20
47.349652
 11
272.450967
 21
47.349652
  0
LINE
  8
CSLAYER1
  6
CONTINUOUS
 62
     3
 10
272.450967
 20
47.349652
 11
272.750967
 21
47.649652
  0
LINE
  8
CSLAYER1
  6
CONTINUOUS
 62
     3
 10
272.750967
 20
47.349652
 11
272.750967
 21
122.349652
  0
LINE
  8
CSLAYER1
  6
CONTINUOUS
 62
     3
 10
272.750967
 20
122.049652
 11
272.450967
 21
122.349652
  0
LINE
  8
CSLAYER1
  6
CONTINUOUS
 62
     3
 10
272.450967
 20
122.349652
 11
142.750967
 21
122.349652
  0
ARC
  8
CSLAYER1
  6
CONTINUOUS
 62
     3
 10
148.256709
 20
141.313943
 40
1.000000
 50
263.954528
 51
302.614336
  0
LINE
  8
CSLAYER1
  6
CONTINUOUS
 62
     3
 10
148.795690
 20
140.471625
 11
150.901484
 21
141.819079
  0
ARC
  8
CSLAYER1
  6
CONTINUOUS
 62
     3
 10
151.440466
 20
140.976762
 40
1.000000
 50
83.954528
 51
122.614336
  0
LINE
  8
CSLAYER1
  6
CONTINUOUS
 62
     3
 10
151.545783
 20
141.971200
 11
276.147390
 21
128.775055
  0
ARC
  8
CSLAYER1
  6
CONTINUOUS
 62
     3
 10
276.042072
 20
127.780616
 40
1.000000
 50
45.294720
 51
83.954528
  0
LINE
  8
CSLAYER1
  6
CONTINUOUS
 62
     3
 10
276.745532
 20
128.491351
 11
278.522369
 21
126.732700
  0
LINE
  8
CSLAYER1
  6
CONTINUOUS
 62
     3
 10
272.750967
 20
122.349652
 11
275.750967
 21
122.349652
  0
LINE
  8
CSLAYER1
  6
CONTINUOUS
 62
     3
 10
275.750967
 20
122.349652
 11
275.750967
 21
47.349652
  0
LINE
  8
CSLAYER1
  6
CONTINUOUS
 62
     3
 10
275.750967
 20
47.349652
 11
272.750967
 21
47.349652
  0
LINE
  8
CSLAYER1
  6
CONTINUOUS
 62
     3
 10
291.750967
 20
47.849652
 11
292.922540
 21
47.849652
  0
ARC
  8
CSLAYER1
  6
CONTINUOUS
 62
     3
 10
292.922540
 20
49.849652
 40
2.000000
 50
270.000000
 51
315.000000
  0
LINE
  8
CSLAYER1
  6
CONTINUOUS
 62
     3
 10
294.336754
 20
48.435439
 11
308.286501
 21
62.385186
  0
ARC
  8
CSLAYER1
  6
CONTINUOUS
 62
     3
 10
304.750967
 20
65.920720
 40
5.000000
 50
315.000000
 51
360.000000
  0
LINE
  8
CSLAYER1
  6
CONTINUOUS
 62
     3
 10
309.750967
 20
65.920720
 11
309.750967
 21
103.778584
  0
ARC
  8
CSLAYER1
  6
CONTINUOUS
 62
     3
 10
304.750967
 20
103.778584
 40
5.000000
 50
-0.000000
 51
45.000000
  0
LINE
  8
CSLAYER1
  6
CONTINUOUS
 62
     3
 10
308.286501
 20
107.314118
 11
305.347162
 21
110.253458
  0
LINE
  8
CSLAYER1
  6
CONTINUOUS
 62
     3
 10
293.750967
 20
121.849652
 11
288.750967
 21
121.849652
  0
ARC
  8
CSLAYER1
  6
CONTINUOUS
 62
     3
 10
323.634233
 20
143.883546
 40
50.000000
 50
206.147140
 51
253.879087
  0
LINE
  8
CSLAYER1
  6
CONTINUOUS
 62
     3
 10
305.089802
 20
109.996099
 11
307.140412
 21
112.046708
  0
ARC
  8
CSLAYER1
  6
CONTINUOUS
 62
     3
 10
306.645437
 20
112.541683
 40
0.700000
 50
-45.000000
 51
45.000000
  0
LINE
  8
CSLAYER1
  6
CONTINUOUS
 62
     3
 10
307.140412
 20
113.036658
 11
304.810552
 21
115.366518
  0
ARC
  8
CSLAYER1
  6
CONTINUOUS
 62
     3
 10
294.087293
 20
121.847137
 40
3.000000
 50
45.000000
 51
83.954528
  0
LINE
  8
CSLAYER1
  6
CONTINUOUS
 62
     3
 10
294.403246
 20
124.830452
 11
120.655940
 21
143.231457
  0
LINE
  8
CSLAYER1
  6
CONTINUOUS
 62
     3
 10
293.672009
 20
123.298947
 11
120.487431
 21
141.640355
  0
LINE
  8
CSLAYER1
  6
CONTINUOUS
 62
     3
 10
119.750967
 20
52.442509
 11
119.750967
 21
55.003064
  0
LINE
  8
CSLAYER1
  6
CONTINUOUS
 62
     3
 10
119.750967
 20
55.003064
 11
75.886200
 21
64.715977
  0
LINE
  8
CSLAYER1
  6
CONTINUOUS
 62
     3
 10
72.750967
 20
68.621381
 11
72.750967
 21
101.077924
  0
ARC
  8
CSLAYER1
  6
CONTINUOUS
 62
     3
 10
76.750967
 20
101.077924
 40
4.000000
 50
102.485467
 51
180.000000
  0
LINE
  8
CSLAYER1
  6
CONTINUOUS
 62
     3
 10
75.886200
 20
104.983327
 11
119.750967
 21
114.696240
  0
LINE
  8
CSLAYER1
  6
CONTINUOUS
 62
     3
 10
119.750967
 20
114.696240
 11
119.750967
 21
117.256795
  0
LINE
  8
CSLAYER1
  6
CONTINUOUS
 62
     3
 10
119.750967
 20
117.256795
 11
142.750967
 21
122.349652
  0
LINE
  8
CSLAYER1
  6
CONTINUOUS
 62
     3
 10
142.750967
 20
122.349652
 11
142.750967
 21
84.849652
  0
ARC
  8
CSLAYER1
  6
CONTINUOUS
 62
     3
 10
122.949671
 20
87.661889
 40
20.000000
 50
8.083253
 51
107.447188
  0
LINE
  8
CSLAYER1
  6
CONTINUOUS
 62
     3
 10
116.953140
 20
106.741763
 11
78.151314
 21
94.546904
  0
ARC
  8
CSLAYER1
  6
CONTINUOUS
 62
     3
 10
78.750967
 20
92.638917
 40
2.000000
 50
107.447188
 51
180.000000
  0
LINE
  8
CSLAYER1
  6
CONTINUOUS
 62
     3
 10
76.750967
 20
92.638917
 11
76.750967
 21
77.060388
  0
ARC
  8
CSLAYER1
  6
CONTINUOUS
 62
     3
 10
78.750967
 20
77.060388
 40
2.000000
 50
180.000000
 51
252.552812
  0
LINE
  8
CSLAYER1
  6
CONTINUOUS
 62
     3
 10
78.151314
 20
75.152400
 11
116.953140
 21
62.957541
  0
ARC
  8
CSLAYER1
  6
CONTINUOUS
 62
     3
 10
122.949671
 20
82.037415
 40
20.000000
 50
252.552812
 51
351.916747
  0
LINE
  8
CSLAYER1
  6
CONTINUOUS
 62
     3
 10
142.750967
 20
84.849652
 11
142.750967
 21
47.349652
  0
LINE
  8
CSLAYER1
  6
CONTINUOUS
 62
     3
 10
142.750967
 20
163.709386
 11
272.750967
 21
163.709386
  0
LINE
  8
CSLAYER1
  6
CONTINUOUS
 62
     3
 10
272.750967
 20
163.709386
 11
272.750967
 21
192.709386
  0
LINE
  8
CSLAYER1
  6
CONTINUOUS
 62
     3
 10
275.750967
 20
192.709386
 11
275.750967
 21
164.209386
  0
LINE
  8
CSLAYER1
  6
CONTINUOUS
 62
     3
 10
275.750967
 20
164.209386
 11
272.750967
 21
164.209386
  0
LINE
  8
CSLAYER1
  6
CONTINUOUS
 62
     3
 10
285.422540
 20
192.709386
 11
128.987431
 21
192.709386
  0
LINE
  8
CSLAYER1
  6
CONTINUOUS
 62
     3
 10
128.987431
 20
209.709386
 11
285.422540
 21
209.709386
  0
ARC
  8
CSLAYER1
  6
CONTINUOUS
 62
     3
 10
325.832022
 20
209.543113
 40
50.000000
 50
199.674397
 51
212.688300
  0
LINE
  8
CSLAYER1
  6
CONTINUOUS
 62
     3
 10
305.635387
 20
192.709386
 11
309.750967
 21
192.709386
  0
ARC
  8
CSLAYER1
  6
CONTINUOUS
 62
     3
 10
308.750967
 20
212.209386
 40
1.000000
 50
0.000000
 51
90.000000
  0
LINE
  8
CSLAYER1
  6
CONTINUOUS
 62
     3
 10
308.750967
 20
213.209386
 11
304.644694
 21
213.209386
  0
LINE
  8
CSLAYER1
  6
CONTINUOUS
 62
     3
 10
305.635387
 20
209.709386
 11
309.750967
 21
209.709386
  0
LINE
  8
CSLAYER1
  6
CONTINUOUS
 62
     3
 10
308.750967
 20
189.209386
 11
300.750967
 21
189.209386
  0
ARC
  8
CSLAYER1
  6
CONTINUOUS
 62
     3
 10
300.750967
 20
164.209386
 40
25.000000
 50
90.000000
 51
180.000000
  0
LINE
  8
CSLAYER1
  6
CONTINUOUS
 62
     3
 10
278.750967
 20
121.849652
 11
275.750967
 21
121.849652
  0
ARC
  8
CSLAYER1
  6
CONTINUOUS
 62
     3
 10
283.750967
 20
146.599652
 40
25.250000
 50
258.578814
 51
281.421186
  0
ARC
  8
CSLAYER1
  6
CONTINUOUS
 62
     3
 10
293.356056
 20
120.315631
 40
3.000000
 50
45.000000
 51
83.954528
  0
LINE
  8
CSLAYER1
  6
CONTINUOUS
 62
     3
 10
295.477376
 20
122.436952
 11
296.250967
 21
121.663361
  0
LINE
  8
CSLAYER1
  6
CONTINUOUS
 62
     3
 10
296.250967
 20
121.663361
 11
292.122240
 21
112.139516
  0
ARC
  8
CSLAYER1
  6
CONTINUOUS
 62
     3
 10
296.250967
 20
110.349652
 40
4.500000
 50
156.562557
 51
315.000000
  0
LINE
  8
CSLAYER1
  6
CONTINUOUS
 62
     3
 10
299.432948
 20
107.167672
 11
303.675589
 21
111.410312
  0
LINE
  8
CSLAYER1
  6
CONTINUOUS
 62
     3
 10
303.675589
 20
111.410312
 11
305.089802
 21
109.996099
  0
ARC
  8
CSLAYER1
  6
CONTINUOUS
 62
     3
 10
283.750967
 20
32.849652
 40
17.000000
 50
61.927513
 51
118.072487
  0
ARC
  8
CSLAYER1
  6
CONTINUOUS
 62
     3
 10
308.750967
 20
190.209386
 40
1.000000
 50
270.000000
 51
360.000000
  0
LINE
  8
CSLAYER1
  6
CONTINUOUS
 62
     3
 10
275.750967
 20
209.709386
 11
275.750967
 21
238.209386
  0
LINE
  8
CSLAYER1
  6
CONTINUOUS
 62
     3
 10
275.750967
 20
238.209386
 11
272.750967
 21
238.209386
  0
LINE
  8
CSLAYER1
  6
CONTINUOUS
 62
     3
 10
272.750967
 20
238.709386
 11
142.750967
 21
238.709386
  0
ARC
  8
CSLAYER1
  6
CONTINUOUS
 62
     3
 10
152.500221
 20
201.209386
 40
4.000000
 50
90.000000
 51
270.000000
  0
LINE
  8
CSLAYER1
  6
CONTINUOUS
 62
     3
 10
152.500221
 20
197.209386
 11
274.771681
 21
197.209386
  0
ARC
  8
CSLAYER1
  6
CONTINUOUS
 62
     3
 10
274.771681
 20
201.209386
 40
4.000000
 50
-90.000000
 51
90.000000
  0
LINE
  8
CSLAYER1
  6
CONTINUOUS
 62
     3
 10
274.771681
 20
205.209386
 11
152.500221
 21
205.209386
  0
ARC
  8
CSLAYER1
  6
CONTINUOUS
 62
     3
 10
128.987431
 20
201.209386
 40
8.500000
 50
90.000000
 51
270.000000
  0
LINE
  8
CSLAYER1
  6
CONTINUOUS
 62
     3
 10
119.750967
 20
52.442509
 11
142.750967
 21
47.349652
  0
ARC
  8
CSLAYER1
  6
CONTINUOUS
 62
     3
 10
74.750967
 20
76.862570
 40
2.000000
 50
180.000000
 51
360.000000
  0
ARC
  8
CSLAYER1
  6
CONTINUOUS
 62
     3
 10
76.750967
 20
68.621381
 40
4.000000
 50
180.000000
 51
257.514533
  0
ARC
  8
CSLAYER1
  6
CONTINUOUS
 62
     3
 10
74.750967
 20
92.836734
 40
2.000000
 50
0.000000
 51
180.000000
  0
ARC
  8
CSLAYER1
  6
CONTINUOUS
 62
     3
 10
325.832022
 20
192.875660
 40
50.000000
 50
147.311700
 51
160.325603
  0
LINE
  8
CSLAYER1
  6
CONTINUOUS
 62
     3
 10
272.750967
 20
209.709386
 11
272.750967
 21
238.709386
  0
ARC
  8
CSLAYER1
  6
CONTINUOUS
 62
     3
 10
300.750967
 20
238.209386
 40
25.000000
 50
180.000000
 51
264.873600
  0
ARC
  8
CSLAYER1
  6
CONTINUOUS
 62
     3
 10
124.862424
 20
161.709386
 40
18.000000
 50
6.379370
 51
90.000000
  0
LINE
  8
CSLAYER1
  6
CONTINUOUS
 62
     3
 10
125.322542
 20
179.709386
 11
76.750967
 21
179.709386
  0
LINE
  8
CSLAYER1
  6
CONTINUOUS
 62
     3
 10
83.998191
 20
179.709386
 11
83.998191
 21
173.489943
  0
LINE
  8
CSLAYER1
  6
CONTINUOUS
 62
     4
 10
91.750967
 20
169.409386
 11
83.750967
 21
169.409386
  0
LINE
  8
CSLAYER1
  6
CONTINUOUS
 62
     3
 10
83.750967
 20
169.409386
 11
84.450967
 21
168.709386
  0
LINE
  8
CSLAYER1
  6
CONTINUOUS
 62
     3
 10
83.750967
 20
169.409386
 11
83.750967
 21
172.909386
  0
LINE
  8
CSLAYER1
  6
CONTINUOUS
 62
     3
 10
83.750967
 20
188.609386
 11
83.750967
 21
213.809386
  0
LINE
  8
CSLAYER1
  6
CONTINUOUS
 62
     3
 10
91.750967
 20
213.809386
 11
91.750967
 21
188.609386
  0
LINE
  8
CSLAYER1
  6
CONTINUOUS
 62
     3
 10
93.750967
 20
222.709386
 11
93.750967
 21
225.709386
  0
LINE
  8
CSLAYER1
  6
CONTINUOUS
 62
     3
 10
93.750967
 20
225.709386
 11
81.750967
 21
225.709386
  0
LINE
  8
CSLAYER1
  6
CONTINUOUS
 62
     3
 10
81.750967
 20
225.709386
 11
81.750967
 21
222.709386
  0
LINE
  8
CSLAYER1
  6
CONTINUOUS
 62
     3
 10
81.750967
 20
225.709386
 11
82.750967
 21
226.709386
  0
LINE
  8
CSLAYER1
  6
CONTINUOUS
 62
     3
 10
82.750967
 20
226.709386
 11
87.250967
 21
226.709386
  0
LINE
  8
CSLAYER1
  6
CONTINUOUS
 62
     3
 10
87.250967
 20
226.709386
 11
87.250967
 21
225.709386
  0
LINE
  8
CSLAYER1
  6
CONTINUOUS
 62
     3
 10
88.250967
 20
225.709386
 11
88.250967
 21
226.709386
  0
LINE
  8
CSLAYER1
  6
CONTINUOUS
 62
     3
 10
88.250967
 20
226.709386
 11
92.750967
 21
226.709386
  0
LINE
  8
CSLAYER1
  6
CONTINUOUS
 62
     3
 10
92.750967
 20
226.709386
 11
93.750967
 21
225.709386
  0
LINE
  8
CSLAYER1
  6
CONTINUOUS
 62
     4
 10
84.375967
 20
168.784386
 11
84.375967
 21
172.909386
  0
LINE
  8
CSLAYER1
  6
CONTINUOUS
 62
     4
 10
91.125967
 20
172.909386
 11
91.125967
 21
168.784386
  0
LINE
  8
CSLAYER1
  6
CENTER
 62
     4
 10
87.750967
 20
166.729975
 11
87.750967
 21
231.782114
  0
LINE
  8
CSLAYER1
  6
CENTER
 62
     4
 10
66.742029
 20
84.849652
 11
352.590253
 21
84.849652
  0
LINE
  8
CSLAYER1
  6
CENTER
 62
     4
 10
300.193998
 20
110.349652
 11
291.953998
 21
110.349652
  0
LINE
  8
CSLAYER1
  6
CENTER
 62
     4
 10
296.250967
 20
114.482985
 11
296.250967
 21
106.742379
  0
LINE
  8
CSLAYER1
  6
CONTINUOUS
 62
     4
 10
262.750967
 20
209.709386
 11
262.750967
 21
238.709386
  0
LINE
  8
CSLAYER1
  6
CONTINUOUS
 62
     4
 10
242.750967
 20
238.709386
 11
242.750967
 21
209.709386
  0
LINE
  8
CSLAYER1
  6
CONTINUOUS
 62
     4
 10
222.750967
 20
209.709386
 11
222.750967
 21
238.709386
  0
LINE
  8
CSLAYER1
  6
CONTINUOUS
 62
     4
 10
192.750967
 20
238.709386
 11
192.750967
 21
209.709386
  0
LINE
  8
CSLAYER1
  6
CONTINUOUS
 62
     4
 10
172.750967
 20
209.709386
 11
172.750967
 21
238.709386
  0
LINE
  8
CSLAYER1
  6
CONTINUOUS
 62
     4
 10
152.750967
 20
238.709386
 11
152.750967
 21
209.709386
  0
LINE
  8
CSLAYER1
  6
CENTER
 62
     4
 10
87.750967
 20
74.212679
 11
87.750967
 21
95.325720
  0
LINE
  8
CSLAYER1
  6
CENTER
 62
     4
 10
67.144982
 20
201.209386
 11
366.692567
 21
201.209386
  0
ARC
  8
CSLAYER1
  6
CONTINUOUS
 62
     3
 10
295.750967
 20
99.849652
 40
20.000000
 50
130.457882
 51
180.000000
  0
ARC
  8
CSLAYER1
  6
CONTINUOUS
 62
     3
 10
295.750967
 20
69.849652
 40
20.000000
 50
180.000000
 51
270.000000
  0
LINE
  8
CSLAYER1
  6
CONTINUOUS
 62
     3
 10
295.551270
 20
120.049350
 11
293.750967
 21
121.849652
  0
ARC
  8
CSLAYER1
  6
CONTINUOUS
 62
     3
 10
279.225829
 20
127.443435
 40
1.000000
 50
225.294720
 51
263.954528
  0
INSERT
  8
CSLAYER1
  2
BLKF0000
 10
0.0
 20
0.0
 30
0.0
  0
INSERT
  8
CSLAYER1
  2
BLKF0001
 10
0.0
 20
0.0
 30
0.0
  0
INSERT
  8
CSLAYER1
  2
BLKF0002
 10
0.0
 20
0.0
 30
0.0
  0
INSERT
  8
CSLAYER1
  2
BLKF0003
 10
0.0
 20
0.0
 30
0.0
  0
INSERT
  8
CSLAYER1
  2
BLKF0004
 10
0.0
 20
0.0
 30
0.0
  0
INSERT
  8
CSLAYER1
  2
BLKF0005
 10
0.0
 20
0.0
 30
0.0
  0
LINE
  8
CSLAYER1
  6
CONTINUOUS
 62
     4
 10
242.750967
 20
192.709386
 11
242.750967
 21
163.709386
  0
LINE
  8
CSLAYER1
  6
CONTINUOUS
 62
     4
 10
222.750967
 20
163.709386
 11
222.750967
 21
192.709386
  0
LINE
  8
CSLAYER1
  6
CONTINUOUS
 62
     4
 10
192.750967
 20
192.709386
 11
192.750967
 21
163.709386
  0
LINE
  8
CSLAYER1
  6
CONTINUOUS
 62
     4
 10
172.750967
 20
163.709386
 11
172.750967
 21
192.709386
  0
LINE
  8
CSLAYER1
  6
CONTINUOUS
 62
     4
 10
152.750967
 20
192.709386
 11
152.750967
 21
163.709386
  0
INSERT
  8
CSLAYER1
  2
BLKF0006
 10
0.0
 20
0.0
 30
0.0
  0
INSERT
  8
CSLAYER1
  2
BLKF0007
 10
0.0
 20
0.0
 30
0.0
  0
INSERT
  8
CSLAYER1
  2
BLKF0008
 10
0.0
 20
0.0
 30
0.0
  0
INSERT
  8
CSLAYER1
  2
BLKF0009
 10
0.0
 20
0.0
 30
0.0
  0
INSERT
  8
CSLAYER1
  2
BLKF0010
 10
0.0
 20
0.0
 30
0.0
  0
INSERT
  8
CSLAYER1
  2
BLKF0011
 10
0.0
 20
0.0
 30
0.0
  0
LINE
  8
CSLAYER1
  6
CONTINUOUS
 62
     4
 10
262.750967
 20
192.709386
 11
262.750967
 21
163.709386
  0
LINE
  8
CSLAYER1
  6
CONTINUOUS
 62
     3
 10
119.750967
 20
213.809386
 11
119.750967
 21
201.209386
  0
LINE
  8
CSLAYER1
  6
CONTINUOUS
 62
     3
 10
142.750967
 20
209.709386
 11
142.750967
 21
238.709386
  0
CIRCLE
  8
CSLAYER1
  6
CONTINUOUS
 62
     3
 10
87.750967
 20
84.849652
 40
4.000000
  0
CIRCLE
  8
CSLAYER1
  6
CONTINUOUS
 62
     4
 10
87.750967
 20
84.849652
 40
3.375000
  0
LINE
  8
CSLAYER1
  6
CONTINUOUS
 62
     3
 10
83.998191
 20
91.349652
 11
91.503744
 21
91.349652
  0
LINE
  8
CSLAYER1
  6
CONTINUOUS
 62
     3
 10
91.503744
 20
91.349652
 11
95.256521
 21
84.849652
  0
LINE
  8
CSLAYER1
  6
CONTINUOUS
 62
     3
 10
83.998191
 20
91.349652
 11
80.245414
 21
84.849652
  0
LINE
  8
CSLAYER1
  6
CONTINUOUS
 62
     3
 10
91.503744
 20
78.349652
 11
95.256521
 21
84.849652
  0
LINE
  8
CSLAYER1
  6
CONTINUOUS
 62
     3
 10
83.998191
 20
78.349652
 11
80.245414
 21
84.849652
  0
LINE
  8
CSLAYER1
  6
CONTINUOUS
 62
     3
 10
83.998191
 20
78.349652
 11
91.503744
 21
78.349652
  0
CIRCLE
  8
CSLAYER1
  6
CONTINUOUS
 62
     3
 10
87.750967
 20
84.849652
 40
6.500000
  0
LINE
  8
CSLAYER1
  6
CONTINUOUS
 62
     3
 10
94.250967
 20
172.909386
 11
81.250967
 21
172.909386
  0
LINE
  8
CSLAYER1
  6
CONTINUOUS
 62
     3
 10
81.250967
 20
172.909386
 11
80.245414
 21
173.489943
  0
LINE
  8
CSLAYER1
  6
CONTINUOUS
 62
     3
 10
94.250967
 20
172.909386
 11
95.256521
 21
173.489943
  0
ARC
  8
CSLAYER1
  6
CONTINUOUS
 62
     3
 10
87.750967
 20
185.328830
 40
12.419443
 50
252.412046
 51
287.587954
  0
ARC
  8
CSLAYER1
  6
CONTINUOUS
 62
     3
 10
95.341419
 20
184.859738
 40
12.000000
 50
251.348791
 51
264.786283
  0
ARC
  8
CSLAYER1
  6
CONTINUOUS
 62
     3
 10
80.160516
 20
184.859738
 40
12.000000
 50
275.213717
 51
288.651209
  0
LINE
  8
CSLAYER1
  6
CONTINUOUS
 62
     4
 10
262.750967
 20
122.349652
 11
262.750967
 21
47.349652
  0
LINE
  8
CSLAYER1
  6
CONTINUOUS
 62
     4
 10
242.750967
 20
122.349652
 11
242.750967
 21
47.349652
  0
LINE
  8
CSLAYER1
  6
CONTINUOUS
 62
     4
 10
222.750967
 20
122.349652
 11
222.750967
 21
47.349652
  0
LINE
  8
CSLAYER1
  6
CONTINUOUS
 62
     4
 10
192.750967
 20
122.349652
 11
192.750967
 21
47.349652
  0
LINE
  8
CSLAYER1
  6
CONTINUOUS
 62
     4
 10
172.750967
 20
122.349652
 11
172.750967
 21
47.349652
  0
INSERT
  8
CSLAYER1
  2
BLKF0012
 10
0.0
 20
0.0
 30
0.0
  0
INSERT
  8
CSLAYER1
  2
BLKF0013
 10
0.0
 20
0.0
 30
0.0
  0
LINE
  8
CSLAYER1
  6
CONTINUOUS
 62
     4
 10
152.750967
 20
122.349652
 11
152.750967
 21
47.349652
  0
INSERT
  8
CSLAYER1
  2
BLKF0014
 10
0.0
 20
0.0
 30
0.0
  0
INSERT
  8
CSLAYER1
  2
BLKF0015
 10
0.0
 20
0.0
 30
0.0
  0
INSERT
  8
CSLAYER1
  2
BLKF0016
 10
0.0
 20
0.0
 30
0.0
  0
INSERT
  8
CSLAYER1
  2
BLKF0017
 10
0.0
 20
0.0
 30
0.0
  0
LINE
  8
CSLAYER1
  6
CONTINUOUS
 62
     3
 10
346.750967
 20
90.928152
 11
346.750967
 21
78.771152
  0
LINE
  8
CSLAYER1
  6
CONTINUOUS
 62
     4
 10
346.250967
 20
91.428152
 11
346.250967
 21
78.271152
  0
LINE
  8
CSLAYER1
  6
CONTINUOUS
 62
     3
 10
336.750967
 20
78.271152
 11
346.250967
 21
78.271152
  0
LINE
  8
CSLAYER1
  6
CONTINUOUS
 62
     4
 10
336.750967
 20
79.127152
 11
346.750967
 21
79.127152
  0
LINE
  8
CSLAYER1
  6
CONTINUOUS
 62
     3
 10
346.250967
 20
78.271152
 11
346.750967
 21
78.771152
  0
LINE
  8
CSLAYER1
  6
CONTINUOUS
 62
     3
 10
336.750967
 20
91.428152
 11
346.250967
 21
91.428152
  0
LINE
  8
CSLAYER1
  6
CONTINUOUS
 62
     4
 10
336.750967
 20
90.572152
 11
346.750967
 21
90.572152
  0
LINE
  8
CSLAYER1
  6
CONTINUOUS
 62
     3
 10
346.250967
 20
91.428152
 11
346.750967
 21
90.928152
  0
LINE
  8
CSLAYER1
  6
CONTINUOUS
 62
     4
 10
312.750967
 20
78.845902
 11
309.750967
 21
78.939652
  0
LINE
  8
CSLAYER1
  6
CONTINUOUS
 62
     3
 10
312.750967
 20
77.989902
 11
309.750967
 21
78.083652
  0
LINE
  8
CSLAYER1
  6
CONTINUOUS
 62
     4
 10
312.686451
 20
77.991918
 11
311.837901
 21
78.840469
  0
LINE
  8
CSLAYER1
  6
CONTINUOUS
 62
     4
 10
311.867355
 20
84.849652
 11
311.867355
 21
78.873515
  0
LINE
  8
CSLAYER1
  6
CONTINUOUS
 62
     4
 10
312.750967
 20
90.853402
 11
309.750967
 21
90.759652
  0
LINE
  8
CSLAYER1
  6
CONTINUOUS
 62
     3
 10
312.750967
 20
91.709402
 11
309.750967
 21
91.615652
  0
LINE
  8
CSLAYER1
  6
CONTINUOUS
 62
     4
 10
312.686451
 20
91.707386
 11
311.837901
 21
90.858835
  0
LINE
  8
CSLAYER1
  6
CONTINUOUS
 62
     4
 10
311.867355
 20
84.849652
 11
311.867355
 21
90.825789
  0
LINE
  8
CSLAYER1
  6
CONTINUOUS
 62
     3
 10
336.750967
 20
92.849652
 11
336.750967
 21
76.849652
  0
LINE
  8
CSLAYER1
  6
CONTINUOUS
 62
     3
 10
312.750967
 20
91.709402
 11
312.750967
 21
77.991918
  0
LINE
  8
CSLAYER1
  6
CONTINUOUS
 62
     3
 10
333.750967
 20
94.699652
 11
333.750967
 21
74.999652
  0
LINE
  8
CSLAYER1
  6
CONTINUOUS
 62
     3
 10
333.750967
 20
76.849652
 11
336.750967
 21
76.849652
  0
LINE
  8
CSLAYER1
  6
CONTINUOUS
 62
     3
 10
331.250967
 20
74.999652
 11
333.750967
 21
74.999652
  0
LINE
  8
CSLAYER1
  6
CONTINUOUS
 62
     3
 10
331.250967
 20
94.699652
 11
331.250967
 21
74.999652
  0
LINE
  8
CSLAYER1
  6
CONTINUOUS
 62
     3
 10
329.550967
 20
94.699652
 11
333.750967
 21
94.699652
  0
LINE
  8
CSLAYER1
  6
CONTINUOUS
 62
     3
 10
333.750967
 20
92.849652
 11
336.750967
 21
92.849652
  0
LINE
  8
CSLAYER1
  6
CONTINUOUS
 62
     3
 10
316.250967
 20
76.349652
 11
331.250967
 21
76.349652
  0
LINE
  8
CSLAYER1
  6
CONTINUOUS
 62
     3
 10
313.750967
 20
94.699652
 11
313.750967
 21
74.999652
  0
LINE
  8
CSLAYER1
  6
CONTINUOUS
 62
     3
 10
316.250967
 20
94.699652
 11
316.250967
 21
74.999652
  0
LINE
  8
CSLAYER1
  6
CONTINUOUS
 62
     3
 10
316.250967
 20
74.999652
 11
313.750967
 21
74.999652
  0
LINE
  8
CSLAYER1
  6
CONTINUOUS
 62
     3
 10
317.950967
 20
94.699652
 11
313.750967
 21
94.699652
  0
LINE
  8
CSLAYER1
  6
CONTINUOUS
 62
     3
 10
312.750967
 20
77.991918
 11
313.750967
 21
77.991918
  0
LINE
  8
CSLAYER1
  6
CONTINUOUS
 62
     3
 10
312.750967
 20
91.707386
 11
313.750967
 21
91.707386
  0
LINE
  8
CSLAYER1
  6
CONTINUOUS
 62
     3
 10
318.250967
 20
111.849652
 11
329.250967
 21
111.849652
  0
LINE
  8
CSLAYER1
  6
CONTINUOUS
 62
     3
 10
329.550967
 20
95.849652
 11
329.550967
 21
93.349652
  0
LINE
  8
CSLAYER1
  6
CONTINUOUS
 62
     3
 10
329.550967
 20
93.349652
 11
331.250967
 21
93.349652
  0
LINE
  8
CSLAYER1
  6
CONTINUOUS
 62
     3
 10
317.950967
 20
95.849652
 11
317.950967
 21
93.349652
  0
ARC
  8
CSLAYER1
  6
CONTINUOUS
 62
     3
 10
323.750967
 20
99.563347
 40
8.500000
 50
226.972215
 51
313.027785
  0
LINE
  8
CSLAYER1
  6
CONTINUOUS
 62
     3
 10
316.500967
 20
95.849652
 11
331.000967
 21
95.849652
  0
LINE
  8
CSLAYER1
  6
CONTINUOUS
 62
     3
 10
316.500967
 20
103.849652
 11
316.500967
 21
95.849652
  0
LINE
  8
CSLAYER1
  6
CONTINUOUS
 62
     3
 10
316.500967
 20
103.849652
 11
343.300967
 21
103.849652
  0
LINE
  8
CSLAYER1
  6
CONTINUOUS
 62
     3
 10
318.250967
 20
111.849652
 11
316.500967
 21
103.849652
  0
LINE
  8
CSLAYER1
  6
CONTINUOUS
 62
     3
 10
329.250967
 20
111.849652
 11
331.000967
 21
103.849652
  0
LINE
  8
CSLAYER1
  6
CONTINUOUS
 62
     3
 10
363.800967
 20
113.349652
 11
363.800967
 21
108.849652
  0
LINE
  8
CSLAYER1
  6
CONTINUOUS
 62
     3
 10
343.800967
 20
113.349652
 11
363.800967
 21
113.349652
  0
LINE
  8
CSLAYER1
  6
CONTINUOUS
 62
     3
 10
350.465217
 20
102.849652
 11
357.800967
 21
102.849652
  0
ARC
  8
CSLAYER1
  6
CONTINUOUS
 62
     3
 10
338.855654
 20
119.849652
 40
12.500000
 50
219.791819
 51
270.000000
  0
ARC
  8
CSLAYER1
  6
CONTINUOUS
 62
     3
 10
337.801693
 20
113.256357
 40
6.000000
 50
-79.882922
 51
0.890936
  0
ARC
  8
CSLAYER1
  6
CONTINUOUS
 62
     3
 10
333.000967
 20
95.849652
 40
2.000000
 50
121.952746
 51
180.000000
  0
ARC
  8
CSLAYER1
  6
CONTINUOUS
 62
     3
 10
350.465217
 20
67.849652
 40
35.000000
 50
90.000000
 51
121.952746
  0
ARC
  8
CSLAYER1
  6
CONTINUOUS
 62
     3
 10
357.800967
 20
108.849652
 40
6.000000
 50
270.000000
 51
360.000000
  0
LINE
  8
CSLAYER1
  6
CONTINUOUS
 62
     3
 10
346.750967
 20
197.559386
 11
346.750967
 21
195.130886
  0
LINE
  8
CSLAYER1
  6
CONTINUOUS
 62
     4
 10
346.250967
 20
197.559386
 11
346.250967
 21
194.630886
  0
LINE
  8
CSLAYER1
  6
CONTINUOUS
 62
     3
 10
336.750967
 20
194.630886
 11
346.250967
 21
194.630886
  0
LINE
  8
CSLAYER1
  6
CONTINUOUS
 62
     4
 10
336.750967
 20
195.486886
 11
346.750967
 21
195.486886
  0
LINE
  8
CSLAYER1
  6
CONTINUOUS
 62
     3
 10
346.250967
 20
194.630886
 11
346.750967
 21
195.130886
  0
LINE
  8
CSLAYER1
  6
CONTINUOUS
 62
     3
 10
336.750967
 20
207.787886
 11
346.250967
 21
207.787886
  0
LINE
  8
CSLAYER1
  6
CONTINUOUS
 62
     4
 10
336.750967
 20
206.931886
 11
346.750967
 21
206.931886
  0
LINE
  8
CSLAYER1
  6
CONTINUOUS
 62
     3
 10
346.250967
 20
207.787886
 11
346.750967
 21
207.287886
  0
LINE
  8
CSLAYER1
  6
CONTINUOUS
 62
     4
 10
312.750967
 20
195.205636
 11
309.750967
 21
195.299386
  0
LINE
  8
CSLAYER1
  6
CONTINUOUS
 62
     3
 10
312.750967
 20
194.349636
 11
309.750967
 21
194.443386
  0
LINE
  8
CSLAYER1
  6
CONTINUOUS
 62
     4
 10
312.686451
 20
194.351652
 11
311.837901
 21
195.200203
  0
LINE
  8
CSLAYER1
  6
CONTINUOUS
 62
     4
 10
311.867355
 20
201.209386
 11
311.867355
 21
195.233249
  0
LINE
  8
CSLAYER1
  6
CONTINUOUS
 62
     4
 10
312.750967
 20
207.213136
 11
309.750967
 21
207.119386
  0
LINE
  8
CSLAYER1
  6
CONTINUOUS
 62
     3
 10
312.750967
 20
208.069136
 11
309.750967
 21
207.975386
  0
LINE
  8
CSLAYER1
  6
CONTINUOUS
 62
     4
 10
312.686451
 20
208.067120
 11
311.837901
 21
207.218570
  0
LINE
  8
CSLAYER1
  6
CONTINUOUS
 62
     4
 10
311.867355
 20
201.209386
 11
311.867355
 21
207.185523
  0
LINE
  8
CSLAYER1
  6
CONTINUOUS
 62
     3
 10
336.750967
 20
209.209386
 11
336.750967
 21
205.017837
  0
LINE
  8
CSLAYER1
  6
CONTINUOUS
 62
     3
 10
312.750967
 20
208.069136
 11
312.750967
 21
194.351652
  0
LINE
  8
CSLAYER1
  6
CONTINUOUS
 62
     3
 10
333.750967
 20
211.059386
 11
333.750967
 21
205.523105
  0
LINE
  8
CSLAYER1
  6
CONTINUOUS
 62
     3
 10
333.750967
 20
193.209386
 11
336.750967
 21
193.209386
  0
LINE
  8
CSLAYER1
  6
CONTINUOUS
 62
     3
 10
331.250967
 20
191.359386
 11
333.750967
 21
191.359386
  0
LINE
  8
CSLAYER1
  6
CONTINUOUS
 62
     3
 10
331.250967
 20
211.059386
 11
331.250967
 21
206.153938
  0
LINE
  8
CSLAYER1
  6
CONTINUOUS
 62
     3
 10
331.250967
 20
211.059386
 11
333.750967
 21
211.059386
  0
LINE
  8
CSLAYER1
  6
CONTINUOUS
 62
     3
 10
333.750967
 20
209.209386
 11
336.750967
 21
209.209386
  0
LINE
  8
CSLAYER1
  6
CONTINUOUS
 62
     3
 10
316.250967
 20
192.709386
 11
331.250967
 21
192.709386
  0
LINE
  8
CSLAYER1
  6
CONTINUOUS
 62
     3
 10
313.750967
 20
211.059386
 11
313.750967
 21
209.439033
  0
LINE
  8
CSLAYER1
  6
CONTINUOUS
 62
     3
 10
316.250967
 20
211.059386
 11
316.250967
 21
208.273264
  0
LINE
  8
CSLAYER1
  6
CONTINUOUS
 62
     3
 10
316.250967
 20
191.359386
 11
313.750967
 21
191.359386
  0
LINE
  8
CSLAYER1
  6
CONTINUOUS
 62
     3
 10
316.250967
 20
211.059386
 11
313.750967
 21
211.059386
  0
LINE
  8
CSLAYER1
  6
CONTINUOUS
 62
     3
 10
312.750967
 20
194.351652
 11
313.261832
 21
194.351652
  0
LINE
  8
CSLAYER1
  6
CONTINUOUS
 62
     3
 10
312.750967
 20
208.067120
 11
313.261832
 21
208.067120
  0
LINE
  8
CSLAYER1
  6
CONTINUOUS
 62
     3
 10
316.250967
 20
209.509386
 11
331.250967
 21
209.509386
  0
ARC
  8
CSLAYER1
  6
CONTINUOUS
 62
     3
 10
323.750967
 20
201.209386
 40
7.250000
 50
143.458072
 51
216.541928
  0
ARC
  8
CSLAYER1
  6
CONTINUOUS
 62
     3
 10
323.750967
 20
201.209386
 40
5.500000
 50
148.918613
 51
211.081387
  0
LINE
  8
CSLAYER1
  6
CONTINUOUS
 62
     3
 10
318.900967
 20
201.709386
 11
319.732366
 21
201.709386
  0
LINE
  8
CSLAYER1
  6
CONTINUOUS
 62
     3
 10
328.600967
 20
201.709386
 11
328.600967
 21
200.709386
  0
LINE
  8
CSLAYER1
  6
CONTINUOUS
 62
     3
 10
318.900967
 20
200.709386
 11
319.732366
 21
200.709386
  0
LINE
  8
CSLAYER1
  6
CONTINUOUS
 62
     3
 10
318.900967
 20
201.709386
 11
318.900967
 21
200.709386
  0
LINE
  8
CSLAYER1
  6
CONTINUOUS
 62
     3
 10
363.800967
 20
197.559386
 11
363.800967
 21
204.859386
  0
LINE
  8
CSLAYER1
  6
CONTINUOUS
 62
     3
 10
343.800967
 20
204.859386
 11
363.800967
 21
204.859386
  0
LINE
  8
CSLAYER1
  6
CONTINUOUS
 62
     3
 10
343.800967
 20
197.559386
 11
363.800967
 21
197.559386
  0
LINE
  8
CSLAYER1
  6
CONTINUOUS
 62
     3
 10
343.800967
 20
197.559386
 11
343.800967
 21
204.859386
  0
LINE
  8
CSLAYER1
  6
CONTINUOUS
 62
     3
 10
330.844098
 20
202.709386
 11
343.800967
 21
204.859386
  0
ARC
  8
CSLAYER1
  6
CONTINUOUS
 62
     3
 10
341.058402
 20
239.751768
 40
35.000000
 50
245.817564
 51
274.494249
  0
LINE
  8
CSLAYER1
  6
CONTINUOUS
 62
     3
 10
330.844098
 20
199.709386
 11
343.800967
 21
197.559386
  0
ARC
  8
CSLAYER1
  6
CONTINUOUS
 62
     3
 10
341.058402
 20
162.667004
 40
35.000000
 50
85.505751
 51
114.182436
  0
LINE
  8
CSLAYER1
  6
CONTINUOUS
 62
     3
 10
331.250967
 20
196.264835
 11
331.250967
 21
191.359386
  0
LINE
  8
CSLAYER1
  6
CONTINUOUS
 62
     3
 10
333.750967
 20
196.895668
 11
333.750967
 21
191.359386
  0
LINE
  8
CSLAYER1
  6
CONTINUOUS
 62
     3
 10
336.750967
 20
197.400936
 11
336.750967
 21
193.209386
  0
LINE
  8
CSLAYER1
  6
CONTINUOUS
 62
     3
 10
346.750967
 20
204.859386
 11
346.750967
 21
207.287886
  0
LINE
  8
CSLAYER1
  6
CONTINUOUS
 62
     4
 10
346.250967
 20
204.859386
 11
346.250967
 21
207.787886
  0
LINE
  8
CSLAYER1
  6
CONTINUOUS
 62
     3
 10
313.750967
 20
207.839033
 11
313.750967
 21
194.579740
  0
LINE
  8
CSLAYER1
  6
CONTINUOUS
 62
     3
 10
316.250967
 20
206.673264
 11
316.250967
 21
195.745612
  0
LINE
  8
CSLAYER1
  6
CONTINUOUS
 62
     3
 10
321.336171
 20
201.709386
 11
328.600967
 21
201.709386
  0
LINE
  8
CSLAYER1
  6
CONTINUOUS
 62
     3
 10
321.336171
 20
200.709386
 11
328.600967
 21
200.709386
  0
ARC
  8
CSLAYER1
  6
CONTINUOUS
 62
     3
 10
323.750967
 20
201.209386
 40
5.500000
 50
-131.634392
 51
131.634392
  0
ARC
  8
CSLAYER1
  6
CONTINUOUS
 62
     3
 10
323.750967
 20
201.209386
 40
7.250000
 50
-131.438324
 51
131.438324
  0
LINE
  8
CSLAYER1
  6
CONTINUOUS
 62
     3
 10
316.250967
 20
194.145509
 11
316.250967
 21
191.359386
  0
LINE
  8
CSLAYER1
  6
CONTINUOUS
 62
     3
 10
313.750967
 20
192.979740
 11
313.750967
 21
191.359386
  0
LINE
  8
CSLAYER1
  6
CONTINUOUS
 62
     3
 10
309.750967
 20
212.209386
 11
309.750967
 21
211.304263
  0
LINE
  8
CSLAYER1
  6
CENTER
 62
     4
 10
296.250967
 20
185.842293
 11
296.250967
 21
217.144640
  0
LINE
  8
CSLAYER1
  6
CONTINUOUS
 62
     3
 10
288.250967
 20
190.709386
 11
303.234021
 21
190.709386
  0
LINE
  8
CSLAYER1
  6
CONTINUOUS
 62
     3
 10
305.635387
 20
191.001995
 11
305.635387
 21
195.209386
  0
LINE
  8
CSLAYER1
  6
CONTINUOUS
 62
     3
 10
306.635387
 20
196.209386
 11
307.635387
 21
196.209386
  0
LINE
  8
CSLAYER1
  6
CONTINUOUS
 62
     3
 10
307.635387
 20
196.209386
 11
307.635387
 21
206.209386
  0
LINE
  8
CSLAYER1
  6
CONTINUOUS
 62
     3
 10
307.635387
 20
206.209386
 11
306.635387
 21
206.209386
  0
LINE
  8
CSLAYER1
  6
CONTINUOUS
 62
     3
 10
305.635387
 20
207.209386
 11
305.635387
 21
211.416777
  0
LINE
  8
CSLAYER1
  6
CONTINUOUS
 62
     3
 10
303.234021
 20
211.709386
 11
288.250967
 21
211.709386
  0
ARC
  8
CSLAYER1
  6
CONTINUOUS
 62
     3
 10
285.422540
 20
189.709386
 40
3.000000
 50
19.471221
 51
90.000000
  0
ARC
  8
CSLAYER1
  6
CONTINUOUS
 62
     3
 10
306.635387
 20
195.209386
 40
1.000000
 50
90.000000
 51
180.000000
  0
ARC
  8
CSLAYER1
  6
CONTINUOUS
 62
     3
 10
306.635387
 20
207.209386
 40
1.000000
 50
180.000000
 51
270.000000
  0
ARC
  8
CSLAYER1
  6
CONTINUOUS
 62
     3
 10
285.422540
 20
212.709386
 40
3.000000
 50
270.000000
 51
340.528779
  0
ARC
  8
CSLAYER1
  6
CONTINUOUS
 62
     3
 10
296.250967
 20
110.349652
 40
1.550000
 50
-293.927049
 51
3.927049
  0
ARC
  8
CSLAYER1
  6
CONTINUOUS
 62
     3
 10
296.250967
 20
110.349652
 40
1.650000
 50
-295.997454
 51
5.997454
  0
LINE
  8
CSLAYER1
  6
CONTINUOUS
 62
     3
 10
320.694328
 20
128.441697
 11
295.792106
 21
111.004974
  0
LINE
  8
CSLAYER1
  6
CONTINUOUS
 62
     3
 10
321.612051
 20
127.131054
 11
296.709829
 21
109.694330
  0
ARC
  8
CSLAYER1
  6
CONTINUOUS
 62
     3
 10
296.250967
 20
110.349652
 40
0.800000
 50
125.000000
 51
305.000000
  0
ARC
  8
CSLAYER1
  6
CONTINUOUS
 62
     3
 10
321.153190
 20
127.786376
 40
0.800000
 50
-55.000000
 51
125.000000
  0
LINE
  8
CSLAYER1
  6
CONTINUOUS
 62
     3
 10
303.661728
 20
116.515342
 11
296.208613
 21
123.968457
  0
LINE
  8
CSLAYER1
  6
CONTINUOUS
 62
     3
 10
295.450967
 20
211.709386
 11
295.450967
 21
212.809386
  0
LINE
  8
CSLAYER1
  6
CONTINUOUS
 62
     3
 10
295.950967
 20
213.309386
 11
303.234021
 21
213.309386
  0
ARC
  8
CSLAYER1
  6
CONTINUOUS
 62
     3
 10
295.950967
 20
212.809386
 40
0.500000
 50
90.000000
 51
180.000000
  0
LINE
  8
CSLAYER1
  6
CONTINUOUS
 62
     3
 10
295.450967
 20
190.709386
 11
295.450967
 21
189.609386
  0
LINE
  8
CSLAYER1
  6
CONTINUOUS
 62
     3
 10
295.950967
 20
189.109386
 11
298.517137
 21
189.109386
  0
ARC
  8
CSLAYER1
  6
CONTINUOUS
 62
     3
 10
295.950967
 20
189.609386
 40
0.500000
 50
180.000000
 51
270.000000
  0
LINE
  8
CSLAYER1
  6
CONTINUOUS
 62
     3
 10
307.460203
 20
212.372464
 11
317.107435
 21
207.873886
  0
LINE
  8
CSLAYER1
  6
CONTINUOUS
 62
     3
 10
307.460203
 20
210.772464
 11
316.281338
 21
206.659102
  0
LINE
  8
CSLAYER1
  6
CONTINUOUS
 62
     3
 10
307.460203
 20
190.046308
 11
317.107435
 21
194.544886
  0
LINE
  8
CSLAYER1
  6
CONTINUOUS
 62
     3
 10
307.460203
 20
191.646308
 11
316.281338
 21
195.759671
  0
ARC
  8
CSLAYER1
  6
CONTINUOUS
 62
     3
 10
313.999728
 20
201.209386
 40
7.353462
 50
-65.000000
 51
65.000000
  0
ARC
  8
CSLAYER1
  6
CONTINUOUS
 62
     3
 10
313.740094
 20
201.209386
 40
6.013095
 50
-65.000000
 51
65.000000
  0
ARC
  8
CSLAYER1
  6
CONTINUOUS
 62
     3
 10
303.234021
 20
203.309386
 40
10.000000
 50
65.000000
 51
90.000000
  0
ARC
  8
CSLAYER1
  6
CONTINUOUS
 62
     3
 10
303.234021
 20
201.709386
 40
10.000000
 50
65.000000
 51
90.000000
  0
ARC
  8
CSLAYER1
  6
CONTINUOUS
 62
     3
 10
303.234021
 20
200.709386
 40
10.000000
 50
270.000000
 51
295.000000
  0
ARC
  8
CSLAYER1
  6
CONTINUOUS
 62
     3
 10
303.234021
 20
199.109386
 40
10.000000
 50
278.109614
 51
295.000000
  0
LINE
  8
CSLAYER1
  6
CONTINUOUS
 62
     3
 10
309.750967
 20
209.709386
 11
309.750967
 21
192.709386
  0
LINE
  8
CSLAYER1
  6
CONTINUOUS
 62
     3
 10
309.750967
 20
191.114509
 11
309.750967
 21
190.209386
  0
DIMENSION
  8
CSLAYER1
 62
     4
  2
*D0000
 10
272.750967
 20
259.520581
 11
172.750961
 21
260.020599
 13
72.750967
 23
218.709386
 14
272.750967
 24
238.709386
  0
DIMENSION
  8
CSLAYER1
 62
     4
  2
*D0001
 10
309.750967
 20
259.520581
 11
291.250977
 21
260.020599
 13
272.750967
 23
238.709386
 14
309.750967
 24
212.209386
  0
DIMENSION
  8
CSLAYER1
 62
     4
  2
*D0002
 10
87.750967
 20
253.520581
 11
80.250969
 21
254.020584
 13
72.750967
 23
218.709386
 14
87.750967
 24
231.782114
  0
DIMENSION
  8
CSLAYER1
 62
     4
  2
*D0003
 10
272.750967
 20
253.520581
 11
207.750961
 21
254.020584
 13
142.750967
 23
238.709386
 14
272.750967
 24
238.709386
 70
1
  0
DIMENSION
  8
CSLAYER1
 62
     4
  2
*D0004
 10
51.078301
 20
222.709386
 11
50.578300
 21
201.209381
 13
76.750967
 23
179.709386
 14
76.750967
 24
222.709386
 50
90.000000
 70
1
  0
DIMENSION
  8
CSLAYER1
 62
     4
  2
*D0005
 10
57.078301
 20
213.809386
 11
56.578300
 21
201.209381
 13
72.750967
 23
188.609386
 14
72.750967
 24
213.809386
 50
90.000000
 70
1
  0
DIMENSION
  8
CSLAYER1
 62
     4
  2
*D0006
 10
51.078301
 20
122.349652
 11
50.578300
 21
84.849655
 13
142.750967
 23
47.349652
 14
142.750967
 24
122.349652
 50
90.000000
 70
1
  0
DIMENSION
  8
CSLAYER1
 62
     4
  2
*D0007
 10
309.750967
 20
150.735697
 11
191.250961
 21
151.235687
 13
72.750967
 23
101.077924
 14
309.750967
 24
103.778584
  0
DIMENSION
  8
CSLAYER1
 62
     4
  2
*D0008
 10
87.750967
 20
144.735697
 11
80.250969
 21
145.235687
 13
72.750967
 23
101.077924
 14
87.750967
 24
95.325720
  0
LINE
  8
CSLAYER1
  6
CONTINUOUS
 62
     4
 10
337.825917
 20
44.408441
 11
357.872617
 21
44.408441
  0
TEXT
  8
CSLAYER1
 62
     4
 10
338.575354
 20
44.908436
 40
3.200000
 41
1.058824
  1
GT-N50
 50
0.000000
 51
0.000000
  7
FX_FONT
 72
     5
 11
357.775354
 21
44.908436
  0
TEXT
  8
CSLAYER1
 62
     3
 10
355.900000
 20
26.900000
 40
3.200000
 41
1.058824
  1
GT-N50
 50
0.000000
 51
0.000000
  7
FX_FONT
 72
     5
 11
375.100000
 21
26.900000
  0
TEXT
  8
CSLAYER1
 62
     3
 10
355.900000
 20
18.900000
 40
3.200000
 41
1.058824
  1
GT-N50
 50
0.000000
 51
0.000000
  7
FX_FONT
 72
     5
 11
375.100000
 21
18.900000
  0
TEXT
  8
CSLAYER1
 62
     3
 10
360.700000
 20
7.400000
 40
3.200000
 41
1.125000
  1
組立図
 50
0.000000
 51
0.000000
  7
FX_FONT
 72
     5
 11
370.300000
 21
7.400000
  0
POINT
  8
CSLAYER1
 62
     3
 10
365.500000
 20
28.500000
  0
TEXT
  8
CSLAYER1
 62
     4
 10
219.005139
 20
17.900000
 40
3.200000
 41
1.200000
  1
98
 50
0.000000
 51
0.000000
  7
FX_FONT
 72
     5
 11
225.405139
 21
17.900000
  0
TEXT
  8
CSLAYER1
 62
     4
 10
233.967963
 20
17.900000
 40
3.200000
 41
1.500000
  1
2
 50
0.000000
 51
0.000000
  7
FX_FONT
 72
     5
 11
237.167963
 21
17.900000
  0
TEXT
  8
CSLAYER1
 62
     4
 10
246.694479
 20
17.900000
 40
3.200000
 41
1.500000
  1
9
 50
0.000000
 51
0.000000
  7
FX_FONT
 72
     5
 11
249.894479
 21
17.900000
  0
LINE
  8
CSLAYER1
  6
CONTINUOUS
 62
     3
 10
120.655940
 20
143.231457
 11
120.487431
 21
141.640355
  0
ENDSEC
  0
EOF
