  0
SECTION
  2
HEADER
  9
$ACADVER
  1
AC1012
  9
$DWGCODEPAGE
  3
dos932
  9
$INSBASE
 10
0.0
 20
0.0
 30
0.0
  9
$EXTMIN
 10
9.98474220045
 20
2.981964806306564
 30
-0.0015258207003583
  9
$EXTMAX
 10
395.0189218472444
 20
275.0068823797708
 30
0.0000000349246037
  9
$LIMMIN
 10
0.0
 20
0.0
  9
$LIMMAX
 10
420.0
 20
297.0
  9
$ORTHOMODE
 70
     0
  9
$REGENMODE
 70
     1
  9
$FILLMODE
 70
     1
  9
$QTEXTMODE
 70
     0
  9
$MIRRTEXT
 70
     1
  9
$DRAGMODE
 70
     2
  9
$LTSCALE
 40
15.0
  9
$OSMODE
 70
    37
  9
$ATTMODE
 70
     1
  9
$TEXTSIZE
 40
0.2
  9
$TRACEWID
 40
0.05
  9
$TEXTSTYLE
  7
GOTHIC
  9
$CLAYER
  8
CSLAYER1
  9
$CELTYPE
  6
BYLAYER
  9
$CECOLOR
 62
   256
  9
$CELTSCALE
 40
1.0
  9
$DELOBJ
 70
     1
  9
$DISPSILH
 70
     0
  9
$DIMSCALE
 40
1.0
  9
$DIMASZ
 40
0.18
  9
$DIMEXO
 40
0.0625
  9
$DIMDLI
 40
0.38
  9
$DIMRND
 40
0.0
  9
$DIMDLE
 40
0.0
  9
$DIMEXE
 40
0.18
  9
$DIMTP
 40
0.0
  9
$DIMTM
 40
0.0
  9
$DIMTXT
 40
0.18
  9
$DIMCEN
 40
0.09
  9
$DIMTSZ
 40
0.0
  9
$DIMTOL
 70
     0
  9
$DIMLIM
 70
     0
  9
$DIMTIH
 70
     1
  9
$DIMTOH
 70
     1
  9
$DIMSE1
 70
     0
  9
$DIMSE2
 70
     0
  9
$DIMTAD
 70
     0
  9
$DIMZIN
 70
     0
  9
$DIMBLK
  1

  9
$DIMASO
 70
     1
  9
$DIMSHO
 70
     1
  9
$DIMPOST
  1

  9
$DIMAPOST
  1

  9
$DIMALT
 70
     0
  9
$DIMALTD
 70
     2
  9
$DIMALTF
 40
25.4
  9
$DIMLFAC
 40
1.0
  9
$DIMTOFL
 70
     0
  9
$DIMTVP
 40
0.0
  9
$DIMTIX
 70
     0
  9
$DIMSOXD
 70
     0
  9
$DIMSAH
 70
     0
  9
$DIMBLK1
  1

  9
$DIMBLK2
  1

  9
$DIMSTYLE
  2
STANDARD
  9
$DIMCLRD
 70
     0
  9
$DIMCLRE
 70
     0
  9
$DIMCLRT
 70
     0
  9
$DIMTFAC
 40
1.0
  9
$DIMGAP
 40
0.09
  9
$DIMJUST
 70
     0
  9
$DIMSD1
 70
     0
  9
$DIMSD2
 70
     0
  9
$DIMTOLJ
 70
     1
  9
$DIMTZIN
 70
     0
  9
$DIMALTZ
 70
     0
  9
$DIMALTTZ
 70
     0
  9
$DIMFIT
 70
     3
  9
$DIMUPT
 70
     0
  9
$DIMUNIT
 70
     2
  9
$DIMDEC
 70
     4
  9
$DIMTDEC
 70
     4
  9
$DIMALTU
 70
     2
  9
$DIMALTTD
 70
     2
  9
$DIMTXSTY
  7
STANDARD
  9
$DIMAUNIT
 70
     0
  9
$LUNITS
 70
     2
  9
$LUPREC
 70
     4
  9
$SKETCHINC
 40
0.1
  9
$FILLETRAD
 40
0.0
  9
$AUNITS
 70
     0
  9
$AUPREC
 70
     0
  9
$MENU
  1
ACAD
  9
$ELEVATION
 40
0.0
  9
$PELEVATION
 40
0.0
  9
$THICKNESS
 40
0.0
  9
$LIMCHECK
 70
     0
  9
$BLIPMODE
 70
     1
  9
$CHAMFERA
 40
0.0
  9
$CHAMFERB
 40
0.0
  9
$CHAMFERC
 40
0.0
  9
$CHAMFERD
 40
0.0
  9
$SKPOLY
 70
     0
  9
$TDCREATE
 40
2453483.000000000
  9
$TDUPDATE
 40
2453516.607884826
  9
$TDINDWG
 40
0.0003951157
  9
$TDUSRTIMER
 40
0.0003951157
  9
$USRTIMER
 70
     1
  9
$ANGBASE
 50
0.0
  9
$ANGDIR
 70
     0
  9
$PDMODE
 70
     0
  9
$PDSIZE
 40
0.0
  9
$PLINEWID
 40
0.0
  9
$COORDS
 70
     0
  9
$SPLFRAME
 70
     0
  9
$SPLINETYPE
 70
     6
  9
$SPLINESEGS
 70
     8
  9
$ATTDIA
 70
     0
  9
$ATTREQ
 70
     1
  9
$HANDLING
 70
-16383
  9
$HANDSEED
  5
351
  9
$SURFTAB1
 70
     6
  9
$SURFTAB2
 70
     6
  9
$SURFTYPE
 70
     6
  9
$SURFU
 70
     6
  9
$SURFV
 70
     6
  9
$UCSNAME
  2

  9
$UCSORG
 10
0.0
 20
0.0
 30
0.0
  9
$UCSXDIR
 10
1.0
 20
0.0
 30
0.0
  9
$UCSYDIR
 10
0.0
 20
1.0
 30
0.0
  9
$PUCSNAME
  2

  9
$PUCSORG
 10
0.0
 20
0.0
 30
0.0
  9
$PUCSXDIR
 10
1.0
 20
0.0
 30
0.0
  9
$PUCSYDIR
 10
0.0
 20
1.0
 30
0.0
  9
$USERI1
 70
     0
  9
$USERI2
 70
     0
  9
$USERI3
 70
     0
  9
$USERI4
 70
     0
  9
$USERI5
 70
     0
  9
$USERR1
 40
0.0
  9
$USERR2
 40
0.0
  9
$USERR3
 40
0.0
  9
$USERR4
 40
0.0
  9
$USERR5
 40
0.0
  9
$WORLDVIEW
 70
     1
  9
$SHADEDGE
 70
     3
  9
$SHADEDIF
 70
    70
  9
$TILEMODE
 70
     1
  9
$MAXACTVP
 70
    64
  9
$PINSBASE
 10
0.0
 20
0.0
 30
0.0
  9
$PLIMCHECK
 70
     0
  9
$PEXTMIN
 10
1.000000000000000E+20
 20
1.000000000000000E+20
 30
1.000000000000000E+20
  9
$PEXTMAX
 10
-1.000000000000000E+20
 20
-1.000000000000000E+20
 30
-1.000000000000000E+20
  9
$PLIMMIN
 10
0.0
 20
0.0
  9
$PLIMMAX
 10
12.0
 20
9.0
  9
$UNITMODE
 70
     0
  9
$VISRETAIN
 70
     1
  9
$PLINEGEN
 70
     0
  9
$PSLTSCALE
 70
     1
  9
$TREEDEPTH
 70
  3020
  9
$PICKSTYLE
 70
     3
  9
$CMLSTYLE
  2
STANDARD
  9
$CMLJUST
 70
     0
  9
$CMLSCALE
 40
1.0
  9
$SAVEIMAGES
 70
     1
  0
ENDSEC
  0
SECTION
  2
CLASSES
  0
CLASS
  1
ACDBDICTIONARYWDFLT
  2
AcDbDictionaryWithDefault
  3
AutoCAD 2000
 90
    32768
280
     0
281
     0
  0
CLASS
  1
ACDBPLACEHOLDER
  2
AcDbPlaceHolder
  3
AutoCAD 2000
 90
    32768
280
     0
281
     0
  0
CLASS
  1
LAYOUT
  2
AcDbLayout
  3
AutoCAD 2000
 90
    32768
280
     0
281
     0
  0
CLASS
  1
DICTIONARYVAR
  2
AcDbDictionaryVar
  3
AutoCAD 2000
 90
    32768
280
     0
281
     0
  0
CLASS
  1
LONG_TRANSACTION
  2
AcDbLongTransaction
  3
AutoCAD 2000
 90
    32768
280
     0
281
     0
  0
CLASS
  1
LWPOLYLINE
  2
AcDbPolyline
  3
AutoCAD 2000
 90
    32768
280
     0
281
     1
  0
CLASS
  1
HATCH
  2
AcDbHatch
  3
AutoCAD 2000
 90
    32768
280
     0
281
     1
  0
CLASS
  1
XRECORD
  2
AcDbXrecord
  3
AutoCAD 2000
 90
    32768
280
     0
281
     0
  0
CLASS
  1
LONG_TRANSACTION
  2
AcDbLongTransaction
  3
AutoCAD 2000
 90
    32768
280
     0
281
     0
  0
CLASS
  1
LWPOLYLINE
  2
AcDbPolyline
  3
AutoCAD 2000
 90
    32768
280
     0
281
     1
  0
CLASS
  1
HATCH
  2
AcDbHatch
  3
AutoCAD 2000
 90
    32768
280
     0
281
     1
  0
CLASS
  1
XRECORD
  2
AcDbXrecord
  3
AutoCAD 2000
 90
    32768
280
     0
281
     0
  0
ENDSEC
  0
SECTION
  2
TABLES
  0
TABLE
  2
VPORT
  5
8
330
0
100
AcDbSymbolTable
 70
     2
  0
VPORT
  5
34E
330
8
100
AcDbSymbolTableRecord
100
AcDbViewportTableRecord
  2
*ACTIVE
 70
     0
 10
0.0
 20
0.0
 11
1.0
 21
1.0
 12
202.5018320238472
 22
138.9944235930387
 13
0.0
 23
0.0
 14
1.0
 24
1.0
 15
0.0
 25
0.0
 16
0.0
 26
0.0
 36
1.0
 17
0.0
 27
0.0
 37
0.0
 40
274.0676578806492
 41
1.510025062656641
 42
50.0
 43
0.0
 44
0.0
 50
0.0
 51
0.0
 71
     0
 72
   100
 73
     1
 74
     1
 75
     0
 76
     0
 77
     0
 78
     0
  0
ENDTAB
  0
TABLE
  2
LTYPE
  5
5
330
0
100
AcDbSymbolTable
 70
     4
  0
LTYPE
  5
13
330
5
100
AcDbSymbolTableRecord
100
AcDbLinetypeTableRecord
  2
BYBLOCK
 70
     0
  3

 72
    65
 73
     0
 40
0.0
  0
LTYPE
  5
14
330
5
100
AcDbSymbolTableRecord
100
AcDbLinetypeTableRecord
  2
BYLAYER
 70
     0
  3

 72
    65
 73
     0
 40
0.0
  0
LTYPE
  5
15
330
5
100
AcDbSymbolTableRecord
100
AcDbLinetypeTableRecord
  2
CONTINUOUS
 70
     0
  3
Solid line
 72
    65
 73
     0
 40
0.0
  0
LTYPE
  5
23
330
5
100
AcDbSymbolTableRecord
100
AcDbLinetypeTableRecord
  2
DASHED
 70
     0
  3
__ __ __ __ __ __ __ __ __ __ __ __ __ __ __
 72
    65
 73
     2
 40
0.75
 49
0.5
 74
     0
 49
-0.25
 74
     0
  0
LTYPE
  5
25
330
5
100
AcDbSymbolTableRecord
100
AcDbLinetypeTableRecord
  2
DOT
 70
     0
  3
...............................................
 72
    65
 73
     2
 40
0.25
 49
0.0
 74
     0
 49
-0.25
 74
     0
  0
LTYPE
  5
28
330
5
100
AcDbSymbolTableRecord
100
AcDbLinetypeTableRecord
  2
CENTER
 70
     0
  3
____ _ ____ _ ____ _ ____ _ ____ _ ____ _ ____ 
 72
    65
 73
     4
 40
2.0
 49
1.25
 74
     0
 49
-0.25
 74
     0
 49
0.25
 74
     0
 49
-0.25
 74
     0
  0
ENDTAB
  0
TABLE
  2
LAYER
  5
2
330
0
100
AcDbSymbolTable
 70
     3
  0
LAYER
  5
10
330
2
100
AcDbSymbolTableRecord
100
AcDbLayerTableRecord
  2
0
 70
     0
 62
     7
  6
CONTINUOUS
  0
LAYER
  5
22
330
2
100
AcDbSymbolTableRecord
100
AcDbLayerTableRecord
  2
CSLAYER1
 70
     0
 62
     7
  6
CONTINUOUS
  0
LAYER
  5
325
330
2
100
AcDbSymbolTableRecord
100
AcDbLayerTableRecord
  2
DEFPOINTS
 70
     0
 62
     7
  6
CONTINUOUS
  0
ENDTAB
  0
TABLE
  2
STYLE
  5
3
330
0
100
AcDbSymbolTable
 70
     3
  0
STYLE
  5
11
330
3
100
AcDbSymbolTableRecord
100
AcDbTextStyleTableRecord
  2
STANDARD
 70
     0
 40
0.0
 41
1.0
 50
0.0
 71
     0
 42
0.2
  3
txt
  4
extfont.shx
  0
STYLE
  5
3A
330
3
100
AcDbSymbolTableRecord
100
AcDbTextStyleTableRecord
  2
FX_FONT
 70
     0
 40
1.0
 41
1.0
 50
0.0
 71
     0
 42
1.0
  3
monotxt
  4
bigfont
  0
STYLE
  5
31D
330
3
100
AcDbSymbolTableRecord
100
AcDbTextStyleTableRecord
  2
GOTHIC
 70
     0
 40
0.0
 41
1.0
 50
0.0
 71
     0
 42
0.2
  3
txt.shx
  4
extfont.shx
  0
ENDTAB
  0
TABLE
  2
VIEW
  5
6
330
0
100
AcDbSymbolTable
 70
     0
  0
ENDTAB
  0
TABLE
  2
UCS
  5
7
330
0
100
AcDbSymbolTable
 70
     0
  0
ENDTAB
  0
TABLE
  2
APPID
  5
9
330
0
100
AcDbSymbolTable
 70
     1
  0
APPID
  5
12
330
9
100
AcDbSymbolTableRecord
100
AcDbRegAppTableRecord
  2
ACAD
 70
     0
  0
ENDTAB
  0
TABLE
  2
DIMSTYLE
  5
A
330
0
100
AcDbSymbolTable
 70
     1
  0
DIMSTYLE
105
31A
330
A
100
AcDbSymbolTableRecord
100
AcDbDimStyleTableRecord
  2
STANDARD
 70
     0
  3

  4

  5

  6

  7

 40
1.0
 41
0.18
 42
0.0625
 43
0.38
 44
0.18
 45
0.0
 46
0.0
 47
0.0
 48
0.0
140
0.18
141
0.09
142
0.0
143
25.4
144
1.0
145
0.0
146
1.0
147
0.09
 71
     0
 72
     0
 73
     1
 74
     1
 75
     0
 76
     0
 77
     0
 78
     0
170
     0
171
     2
172
     0
173
     0
174
     0
175
     0
176
     0
177
     0
178
     0
270
     2
271
     4
272
     4
273
     2
274
     2
340
11
275
     0
280
     0
281
     0
282
     0
283
     1
284
     0
285
     0
286
     0
287
     3
288
     0
  0
ENDTAB
  0
TABLE
  2
BLOCK_RECORD
  5
1
330
0
100
AcDbSymbolTable
 70
    26
  0
BLOCK_RECORD
  5
1E
102
{ACAD_XDICTIONARY
360
323
102
}
330
1
100
AcDbSymbolTableRecord
100
AcDbBlockTableRecord
  2
*MODEL_SPACE
  0
BLOCK_RECORD
  5
1A
102
{ACAD_XDICTIONARY
360
321
102
}
330
1
100
AcDbSymbolTableRecord
100
AcDbBlockTableRecord
  2
*PAPER_SPACE
  0
BLOCK_RECORD
  5
3F
330
1
100
AcDbSymbolTableRecord
100
AcDbBlockTableRecord
  2
*D0
  0
BLOCK_RECORD
  5
4A
330
1
100
AcDbSymbolTableRecord
100
AcDbBlockTableRecord
  2
*D1
  0
BLOCK_RECORD
  5
54
330
1
100
AcDbSymbolTableRecord
100
AcDbBlockTableRecord
  2
*D2
  0
BLOCK_RECORD
  5
5E
330
1
100
AcDbSymbolTableRecord
100
AcDbBlockTableRecord
  2
*D3
  0
BLOCK_RECORD
  5
67
330
1
100
AcDbSymbolTableRecord
100
AcDbBlockTableRecord
  2
*D4
  0
BLOCK_RECORD
  5
72
330
1
100
AcDbSymbolTableRecord
100
AcDbBlockTableRecord
  2
*D5
  0
BLOCK_RECORD
  5
7C
330
1
100
AcDbSymbolTableRecord
100
AcDbBlockTableRecord
  2
*D6
  0
BLOCK_RECORD
  5
86
330
1
100
AcDbSymbolTableRecord
100
AcDbBlockTableRecord
  2
*D7
  0
BLOCK_RECORD
  5
8F
330
1
100
AcDbSymbolTableRecord
100
AcDbBlockTableRecord
  2
*D8
  0
BLOCK_RECORD
  5
98
330
1
100
AcDbSymbolTableRecord
100
AcDbBlockTableRecord
  2
*D9
  0
BLOCK_RECORD
  5
A2
330
1
100
AcDbSymbolTableRecord
100
AcDbBlockTableRecord
  2
*D10
  0
BLOCK_RECORD
  5
AC
330
1
100
AcDbSymbolTableRecord
100
AcDbBlockTableRecord
  2
*D11
  0
BLOCK_RECORD
  5
B6
330
1
100
AcDbSymbolTableRecord
100
AcDbBlockTableRecord
  2
*D12
  0
BLOCK_RECORD
  5
C1
330
1
100
AcDbSymbolTableRecord
100
AcDbBlockTableRecord
  2
*D13
  0
BLOCK_RECORD
  5
CB
330
1
100
AcDbSymbolTableRecord
100
AcDbBlockTableRecord
  2
*D14
  0
BLOCK_RECORD
  5
D6
330
1
100
AcDbSymbolTableRecord
100
AcDbBlockTableRecord
  2
*D15
  0
BLOCK_RECORD
  5
E0
330
1
100
AcDbSymbolTableRecord
100
AcDbBlockTableRecord
  2
*D16
  0
BLOCK_RECORD
  5
EA
330
1
100
AcDbSymbolTableRecord
100
AcDbBlockTableRecord
  2
*D17
  0
BLOCK_RECORD
  5
F4
330
1
100
AcDbSymbolTableRecord
100
AcDbBlockTableRecord
  2
*D18
  0
BLOCK_RECORD
  5
FE
330
1
100
AcDbSymbolTableRecord
100
AcDbBlockTableRecord
  2
*D19
  0
BLOCK_RECORD
  5
107
330
1
100
AcDbSymbolTableRecord
100
AcDbBlockTableRecord
  2
*D20
  0
BLOCK_RECORD
  5
112
330
1
100
AcDbSymbolTableRecord
100
AcDbBlockTableRecord
  2
FXDIM0000
  0
BLOCK_RECORD
  5
11A
330
1
100
AcDbSymbolTableRecord
100
AcDbBlockTableRecord
  2
FXDIM0001
  0
BLOCK_RECORD
  5
122
330
1
100
AcDbSymbolTableRecord
100
AcDbBlockTableRecord
  2
FXDIM0002
  0
BLOCK_RECORD
  5
326
330
1
100
AcDbSymbolTableRecord
100
AcDbBlockTableRecord
  2
*D24
  0
BLOCK_RECORD
  5
335
330
1
100
AcDbSymbolTableRecord
100
AcDbBlockTableRecord
  2
*D25
  0
ENDTAB
  0
ENDSEC
  0
SECTION
  2
BLOCKS
  0
BLOCK
  5
1F
330
1E
100
AcDbEntity
  8
0
100
AcDbBlockBegin
  2
*MODEL_SPACE
 70
     0
 10
0.0
 20
0.0
 30
0.0
  3
*MODEL_SPACE
  1

  0
ENDBLK
  5
20
330
1E
100
AcDbEntity
  8
0
100
AcDbBlockEnd
  0
BLOCK
  5
1B
330
1A
100
AcDbEntity
 67
     1
  8
0
100
AcDbBlockBegin
  2
*PAPER_SPACE
 70
     0
 10
0.0
 20
0.0
 30
0.0
  3
*PAPER_SPACE
  1

  0
ENDBLK
  5
1C
330
1A
100
AcDbEntity
 67
     1
  8
0
100
AcDbBlockEnd
  0
BLOCK
  5
40
330
3F
100
AcDbEntity
  8
0
100
AcDbBlockBegin
  2
*D0
 70
     1
 10
0.0
 20
0.0
 30
0.0
  3
*D0
  1

  0
TEXT
  5
41
330
3F
100
AcDbEntity
  8
CSLAYER1
 62
     4
100
AcDbText
 10
102.4982709999999
 20
134.308716
 30
0.0
 40
3.2
  1
110
 41
1.12500000000001
 51
15.0
  7
FX_FONT
 72
     5
 11
112.098271
 21
134.308716
 31
0.0
100
AcDbText
  0
LINE
  5
42
330
3F
100
AcDbEntity
  8
CSLAYER1
  6
CONTINUOUS
 62
     4
100
AcDbLine
 10
52.298273
 20
133.808722
 30
0.0
 11
162.2982729999999
 21
133.808722
 31
0.0
  0
LINE
  5
43
330
3F
100
AcDbEntity
  8
CSLAYER1
  6
CONTINUOUS
 62
     4
100
AcDbLine
 10
52.298273
 20
133.808722
 30
0.0
 11
55.19605
 21
134.585179
 31
0.0
  0
LINE
  5
44
330
3F
100
AcDbEntity
  8
CSLAYER1
  6
CONTINUOUS
 62
     4
100
AcDbLine
 10
52.298273
 20
133.808722
 30
0.0
 11
55.19605
 21
133.032265
 31
0.0
  0
LINE
  5
45
330
3F
100
AcDbEntity
  8
CSLAYER1
  6
CONTINUOUS
 62
     4
100
AcDbLine
 10
162.2982729999999
 20
133.808722
 30
0.0
 11
159.400495
 21
134.585179
 31
0.0
  0
LINE
  5
46
330
3F
100
AcDbEntity
  8
CSLAYER1
  6
CONTINUOUS
 62
     4
100
AcDbLine
 10
162.2982729999999
 20
133.808722
 30
0.0
 11
159.400495
 21
133.032265
 31
0.0
  0
LINE
  5
47
330
3F
100
AcDbEntity
  8
CSLAYER1
  6
CONTINUOUS
 62
     4
100
AcDbLine
 10
52.298273
 20
116.90905
 30
0.0
 11
52.298273
 21
134.8087219999999
 31
0.0
  0
LINE
  5
48
330
3F
100
AcDbEntity
  8
CSLAYER1
  6
CONTINUOUS
 62
     4
100
AcDbLine
 10
162.2982729999999
 20
116.90905
 30
0.0
 11
162.2982729999999
 21
134.8087219999999
 31
0.0
  0
ENDBLK
  5
49
330
3F
100
AcDbEntity
  8
0
100
AcDbBlockEnd
  0
BLOCK
  5
4B
330
4A
100
AcDbEntity
  8
0
100
AcDbBlockBegin
  2
*D1
 70
     1
 10
0.0
 20
0.0
 30
0.0
  3
*D1
  1

  0
TEXT
  5
4C
330
4A
100
AcDbEntity
  8
CSLAYER1
 62
     4
100
AcDbText
 10
55.198271
 20
128.308716
 30
0.0
 40
3.2
  1
9
 41
1.499999999999994
 51
15.0
  7
FX_FONT
 72
     5
 11
58.39827099999999
 21
128.308716
 31
0.0
100
AcDbText
  0
LINE
  5
4D
330
4A
100
AcDbEntity
  8
CSLAYER1
  6
CONTINUOUS
 62
     4
100
AcDbLine
 10
52.298273
 20
127.8087219999999
 30
0.0
 11
61.29827299999998
 21
127.8087219999999
 31
0.0
  0
LINE
  5
4E
330
4A
100
AcDbEntity
  8
CSLAYER1
  6
CONTINUOUS
 62
     4
100
AcDbLine
 10
52.298273
 20
127.8087219999999
 30
0.0
 11
55.19605
 21
128.585179
 31
0.0
  0
LINE
  5
4F
330
4A
100
AcDbEntity
  8
CSLAYER1
  6
CONTINUOUS
 62
     4
100
AcDbLine
 10
52.298273
 20
127.8087219999999
 30
0.0
 11
55.19605
 21
127.0322649999999
 31
0.0
  0
LINE
  5
50
330
4A
100
AcDbEntity
  8
CSLAYER1
  6
CONTINUOUS
 62
     4
100
AcDbLine
 10
61.29827299999998
 20
127.8087219999999
 30
0.0
 11
58.40049499999999
 21
128.585179
 31
0.0
  0
LINE
  5
51
330
4A
100
AcDbEntity
  8
CSLAYER1
  6
CONTINUOUS
 62
     4
100
AcDbLine
 10
61.29827299999998
 20
127.8087219999999
 30
0.0
 11
58.40049499999999
 21
127.0322649999999
 31
0.0
  0
LINE
  5
52
330
4A
100
AcDbEntity
  8
CSLAYER1
  6
CONTINUOUS
 62
     4
100
AcDbLine
 10
61.29827299999998
 20
121.792973
 30
0.0
 11
61.29827299999998
 21
128.8087219999999
 31
0.0
  0
ENDBLK
  5
53
330
4A
100
AcDbEntity
  8
0
100
AcDbBlockEnd
  0
BLOCK
  5
55
330
54
100
AcDbEntity
  8
0
100
AcDbBlockBegin
  2
*D2
 70
     1
 10
0.0
 20
0.0
 30
0.0
  3
*D2
  1

  0
TEXT
  5
56
330
54
100
AcDbEntity
  8
CSLAYER1
 62
     4
100
AcDbText
 10
104.0982709999999
 20
128.308716
 30
0.0
 40
3.2
  1
92
 41
1.200000000000017
 51
15.0
  7
FX_FONT
 72
     5
 11
110.498271
 21
128.308716
 31
0.0
100
AcDbText
  0
LINE
  5
57
330
54
100
AcDbEntity
  8
CSLAYER1
  6
CONTINUOUS
 62
     4
100
AcDbLine
 10
61.29827299999998
 20
127.8087219999999
 30
0.0
 11
153.298273
 21
127.8087219999999
 31
0.0
  0
LINE
  5
58
330
54
100
AcDbEntity
  8
CSLAYER1
  6
CONTINUOUS
 62
     4
100
AcDbLine
 10
61.29827299999998
 20
127.8087219999999
 30
0.0
 11
64.19605
 21
128.585179
 31
0.0
  0
LINE
  5
59
330
54
100
AcDbEntity
  8
CSLAYER1
  6
CONTINUOUS
 62
     4
100
AcDbLine
 10
61.29827299999998
 20
127.8087219999999
 30
0.0
 11
64.19605
 21
127.0322649999999
 31
0.0
  0
LINE
  5
5A
330
54
100
AcDbEntity
  8
CSLAYER1
  6
CONTINUOUS
 62
     4
100
AcDbLine
 10
153.298273
 20
127.8087219999999
 30
0.0
 11
150.400495
 21
128.585179
 31
0.0
  0
LINE
  5
5B
330
54
100
AcDbEntity
  8
CSLAYER1
  6
CONTINUOUS
 62
     4
100
AcDbLine
 10
153.298273
 20
127.8087219999999
 30
0.0
 11
150.400495
 21
127.0322649999999
 31
0.0
  0
LINE
  5
5C
330
54
100
AcDbEntity
  8
CSLAYER1
  6
CONTINUOUS
 62
     4
100
AcDbLine
 10
153.298273
 20
121.792973
 30
0.0
 11
153.298273
 21
128.8087219999999
 31
0.0
  0
ENDBLK
  5
5D
330
54
100
AcDbEntity
  8
0
100
AcDbBlockEnd
  0
BLOCK
  5
5F
330
5E
100
AcDbEntity
  8
0
100
AcDbBlockBegin
  2
*D3
 70
     1
 10
0.0
 20
0.0
 30
0.0
  3
*D3
  1

  0
TEXT
  5
60
330
5E
100
AcDbEntity
  8
CSLAYER1
 62
     4
100
AcDbText
 10
156.198279
 20
128.308716
 30
0.0
 40
3.2
  1
9
 41
1.499999999999994
 51
15.0
  7
FX_FONT
 72
     5
 11
159.398279
 21
128.308716
 31
0.0
100
AcDbText
  0
LINE
  5
61
330
5E
100
AcDbEntity
  8
CSLAYER1
  6
CONTINUOUS
 62
     4
100
AcDbLine
 10
153.298273
 20
127.8087219999999
 30
0.0
 11
162.2982729999999
 21
127.8087219999999
 31
0.0
  0
LINE
  5
62
330
5E
100
AcDbEntity
  8
CSLAYER1
  6
CONTINUOUS
 62
     4
100
AcDbLine
 10
153.298273
 20
127.8087219999999
 30
0.0
 11
156.19605
 21
128.585179
 31
0.0
  0
LINE
  5
63
330
5E
100
AcDbEntity
  8
CSLAYER1
  6
CONTINUOUS
 62
     4
100
AcDbLine
 10
153.298273
 20
127.8087219999999
 30
0.0
 11
156.19605
 21
127.0322649999999
 31
0.0
  0
LINE
  5
64
330
5E
100
AcDbEntity
  8
CSLAYER1
  6
CONTINUOUS
 62
     4
100
AcDbLine
 10
162.2982729999999
 20
127.8087219999999
 30
0.0
 11
159.400495
 21
128.585179
 31
0.0
  0
LINE
  5
65
330
5E
100
AcDbEntity
  8
CSLAYER1
  6
CONTINUOUS
 62
     4
100
AcDbLine
 10
162.2982729999999
 20
127.8087219999999
 30
0.0
 11
159.400495
 21
127.0322649999999
 31
0.0
  0
ENDBLK
  5
66
330
5E
100
AcDbEntity
  8
0
100
AcDbBlockEnd
  0
BLOCK
  5
68
330
67
100
AcDbEntity
  8
0
100
AcDbBlockBegin
  2
*D4
 70
     1
 10
0.0
 20
0.0
 30
0.0
  3
*D4
  1

  0
TEXT
  5
69
330
67
100
AcDbEntity
  8
CSLAYER1
 62
     4
100
AcDbText
 10
102.4982709999999
 20
259.359344
 30
0.0
 40
3.2
  1
110
 41
1.12500000000001
 51
15.0
  7
FX_FONT
 72
     5
 11
112.098271
 21
259.359344
 31
0.0
100
AcDbText
  0
LINE
  5
6A
330
67
100
AcDbEntity
  8
CSLAYER1
  6
CONTINUOUS
 62
     4
100
AcDbLine
 10
52.298273
 20
258.859337
 30
0.0
 11
162.2982729999999
 21
258.859337
 31
0.0
  0
LINE
  5
6B
330
67
100
AcDbEntity
  8
CSLAYER1
  6
CONTINUOUS
 62
     4
100
AcDbLine
 10
52.298273
 20
258.859337
 30
0.0
 11
55.19605
 21
259.6357939999999
 31
0.0
  0
LINE
  5
6C
330
67
100
AcDbEntity
  8
CSLAYER1
  6
CONTINUOUS
 62
     4
100
AcDbLine
 10
52.298273
 20
258.859337
 30
0.0
 11
55.19605
 21
258.0828789999999
 31
0.0
  0
LINE
  5
6D
330
67
100
AcDbEntity
  8
CSLAYER1
  6
CONTINUOUS
 62
     4
100
AcDbLine
 10
162.2982729999999
 20
258.859337
 30
0.0
 11
159.400495
 21
259.6357939999999
 31
0.0
  0
LINE
  5
6E
330
67
100
AcDbEntity
  8
CSLAYER1
  6
CONTINUOUS
 62
     4
100
AcDbLine
 10
162.2982729999999
 20
258.859337
 30
0.0
 11
159.400495
 21
258.0828789999999
 31
0.0
  0
LINE
  5
6F
330
67
100
AcDbEntity
  8
CSLAYER1
  6
CONTINUOUS
 62
     4
100
AcDbLine
 10
52.298273
 20
156.111995
 30
0.0
 11
52.298273
 21
259.859337
 31
0.0
  0
LINE
  5
70
330
67
100
AcDbEntity
  8
CSLAYER1
  6
CONTINUOUS
 62
     4
100
AcDbLine
 10
162.2982729999999
 20
156.111995
 30
0.0
 11
162.2982729999999
 21
259.859337
 31
0.0
  0
ENDBLK
  5
71
330
67
100
AcDbEntity
  8
0
100
AcDbBlockEnd
  0
BLOCK
  5
73
330
72
100
AcDbEntity
  8
0
100
AcDbBlockBegin
  2
*D5
 70
     1
 10
0.0
 20
0.0
 30
0.0
  3
*D5
  1

  0
TEXT
  5
74
330
72
100
AcDbEntity
  8
CSLAYER1
 62
     4
100
AcDbText
 10
61.598271
 20
253.359329
 30
0.0
 40
3.2
  1
25
 41
1.200000000000001
 51
15.0
  7
FX_FONT
 72
     5
 11
67.998271
 21
253.359329
 31
0.0
100
AcDbText
  0
LINE
  5
75
330
72
100
AcDbEntity
  8
CSLAYER1
  6
CONTINUOUS
 62
     4
100
AcDbLine
 10
52.298273
 20
252.859337
 30
0.0
 11
77.298273
 21
252.859337
 31
0.0
  0
LINE
  5
76
330
72
100
AcDbEntity
  8
CSLAYER1
  6
CONTINUOUS
 62
     4
100
AcDbLine
 10
52.298273
 20
252.859337
 30
0.0
 11
55.19605
 21
253.635794
 31
0.0
  0
LINE
  5
77
330
72
100
AcDbEntity
  8
CSLAYER1
  6
CONTINUOUS
 62
     4
100
AcDbLine
 10
52.298273
 20
252.859337
 30
0.0
 11
55.19605
 21
252.0828789999999
 31
0.0
  0
LINE
  5
78
330
72
100
AcDbEntity
  8
CSLAYER1
  6
CONTINUOUS
 62
     4
100
AcDbLine
 10
77.298273
 20
252.859337
 30
0.0
 11
74.40049499999997
 21
253.635794
 31
0.0
  0
LINE
  5
79
330
72
100
AcDbEntity
  8
CSLAYER1
  6
CONTINUOUS
 62
     4
100
AcDbLine
 10
77.298273
 20
252.859337
 30
0.0
 11
74.40049499999997
 21
252.0828789999999
 31
0.0
  0
LINE
  5
7A
330
72
100
AcDbEntity
  8
CSLAYER1
  6
CONTINUOUS
 62
     4
100
AcDbLine
 10
77.298273
 20
228.111995
 30
0.0
 11
77.298273
 21
253.859337
 31
0.0
  0
ENDBLK
  5
7B
330
72
100
AcDbEntity
  8
0
100
AcDbBlockEnd
  0
BLOCK
  5
7D
330
7C
100
AcDbEntity
  8
0
100
AcDbBlockBegin
  2
*D6
 70
     1
 10
0.0
 20
0.0
 30
0.0
  3
*D6
  1

  0
TEXT
  5
7E
330
7C
100
AcDbEntity
  8
CSLAYER1
 62
     4
100
AcDbText
 10
104.0982709999999
 20
253.359329
 30
0.0
 40
3.2
  1
60
 41
1.200000000000017
 51
15.0
  7
FX_FONT
 72
     5
 11
110.498271
 21
253.359329
 31
0.0
100
AcDbText
  0
LINE
  5
7F
330
7C
100
AcDbEntity
  8
CSLAYER1
  6
CONTINUOUS
 62
     4
100
AcDbLine
 10
77.298273
 20
252.859337
 30
0.0
 11
137.2982729999999
 21
252.859337
 31
0.0
  0
LINE
  5
80
330
7C
100
AcDbEntity
  8
CSLAYER1
  6
CONTINUOUS
 62
     4
100
AcDbLine
 10
77.298273
 20
252.859337
 30
0.0
 11
80.19605
 21
253.635794
 31
0.0
  0
LINE
  5
81
330
7C
100
AcDbEntity
  8
CSLAYER1
  6
CONTINUOUS
 62
     4
100
AcDbLine
 10
77.298273
 20
252.859337
 30
0.0
 11
80.19605
 21
252.0828789999999
 31
0.0
  0
LINE
  5
82
330
7C
100
AcDbEntity
  8
CSLAYER1
  6
CONTINUOUS
 62
     4
100
AcDbLine
 10
137.2982729999999
 20
252.859337
 30
0.0
 11
134.400495
 21
253.635794
 31
0.0
  0
LINE
  5
83
330
7C
100
AcDbEntity
  8
CSLAYER1
  6
CONTINUOUS
 62
     4
100
AcDbLine
 10
137.2982729999999
 20
252.859337
 30
0.0
 11
134.400495
 21
252.0828789999999
 31
0.0
  0
LINE
  5
84
330
7C
100
AcDbEntity
  8
CSLAYER1
  6
CONTINUOUS
 62
     4
100
AcDbLine
 10
137.2982729999999
 20
228.111995
 30
0.0
 11
137.2982729999999
 21
253.859337
 31
0.0
  0
ENDBLK
  5
85
330
7C
100
AcDbEntity
  8
0
100
AcDbBlockEnd
  0
BLOCK
  5
87
330
86
100
AcDbEntity
  8
0
100
AcDbBlockBegin
  2
*D7
 70
     1
 10
0.0
 20
0.0
 30
0.0
  3
*D7
  1

  0
TEXT
  5
88
330
86
100
AcDbEntity
  8
CSLAYER1
 62
     4
100
AcDbText
 10
146.5982789999999
 20
253.359329
 30
0.0
 40
3.2
  1
25
 41
1.200000000000017
 51
15.0
  7
FX_FONT
 72
     5
 11
152.998279
 21
253.359329
 31
0.0
100
AcDbText
  0
LINE
  5
89
330
86
100
AcDbEntity
  8
CSLAYER1
  6
CONTINUOUS
 62
     4
100
AcDbLine
 10
137.2982729999999
 20
252.859337
 30
0.0
 11
162.2982729999999
 21
252.859337
 31
0.0
  0
LINE
  5
8A
330
86
100
AcDbEntity
  8
CSLAYER1
  6
CONTINUOUS
 62
     4
100
AcDbLine
 10
137.2982729999999
 20
252.859337
 30
0.0
 11
140.19605
 21
253.635794
 31
0.0
  0
LINE
  5
8B
330
86
100
AcDbEntity
  8
CSLAYER1
  6
CONTINUOUS
 62
     4
100
AcDbLine
 10
137.2982729999999
 20
252.859337
 30
0.0
 11
140.19605
 21
252.0828789999999
 31
0.0
  0
LINE
  5
8C
330
86
100
AcDbEntity
  8
CSLAYER1
  6
CONTINUOUS
 62
     4
100
AcDbLine
 10
162.2982729999999
 20
252.859337
 30
0.0
 11
159.400495
 21
253.635794
 31
0.0
  0
LINE
  5
8D
330
86
100
AcDbEntity
  8
CSLAYER1
  6
CONTINUOUS
 62
     4
100
AcDbLine
 10
162.2982729999999
 20
252.859337
 30
0.0
 11
159.400495
 21
252.0828789999999
 31
0.0
  0
ENDBLK
  5
8E
330
86
100
AcDbEntity
  8
0
100
AcDbBlockEnd
  0
BLOCK
  5
90
330
8F
100
AcDbEntity
  8
0
100
AcDbBlockBegin
  2
*D8
 70
     1
 10
0.0
 20
0.0
 30
0.0
  3
*D8
  1

  0
TEXT
  5
91
330
8F
100
AcDbEntity
  8
CSLAYER1
 62
     4
100
AcDbText
 10
94.16099399999998
 20
187.8781309999999
 30
0.0
 40
3.2
  1
%%c45
 50
36.88677841650506
 41
1.124999908202188
 51
15.0
  7
FX_FONT
 72
     5
 11
101.8392959999999
 21
193.6403929999999
 31
0.0
100
AcDbText
  0
LINE
  5
92
330
8F
100
AcDbEntity
  8
CSLAYER1
  6
CONTINUOUS
 62
     4
100
AcDbLine
 10
89.30225099999999
 20
183.606692
 30
0.0
 11
125.294294
 21
210.617297
 31
0.0
  0
LINE
  5
93
330
8F
100
AcDbEntity
  8
CSLAYER1
  6
CONTINUOUS
 62
     4
100
AcDbLine
 10
89.30225099999999
 20
183.606692
 30
0.0
 11
91.15390299999999
 21
185.9670689999999
 31
0.0
  0
LINE
  5
94
330
8F
100
AcDbEntity
  8
CSLAYER1
  6
CONTINUOUS
 62
     4
100
AcDbLine
 10
89.30225099999999
 20
183.606692
 30
0.0
 11
92.08601800000002
 21
184.7250129999999
 31
0.0
  0
LINE
  5
95
330
8F
100
AcDbEntity
  8
CSLAYER1
  6
CONTINUOUS
 62
     4
100
AcDbLine
 10
125.294294
 20
210.617297
 30
0.0
 11
123.4426419999999
 21
208.25692
 31
0.0
  0
LINE
  5
96
330
8F
100
AcDbEntity
  8
CSLAYER1
  6
CONTINUOUS
 62
     4
100
AcDbLine
 10
125.294294
 20
210.617297
 30
0.0
 11
122.510527
 21
209.4989759999999
 31
0.0
  0
ENDBLK
  5
97
330
8F
100
AcDbEntity
  8
0
100
AcDbBlockEnd
  0
BLOCK
  5
99
330
98
100
AcDbEntity
  8
0
100
AcDbBlockBegin
  2
*D9
 70
     1
 10
0.0
 20
0.0
 30
0.0
  3
*D9
  1

  0
TEXT
  5
9A
330
98
100
AcDbEntity
  8
CSLAYER1
 62
     4
100
AcDbText
 10
213.363049
 20
255.3037409999999
 30
0.0
 40
3.2
  1
15
 41
1.200000000000001
 51
15.0
  7
FX_FONT
 72
     5
 11
219.763049
 21
255.3037409999999
 31
0.0
100
AcDbText
  0
LINE
  5
9B
330
98
100
AcDbEntity
  8
CSLAYER1
  6
CONTINUOUS
 62
     4
100
AcDbLine
 10
209.063027
 20
254.803739
 30
0.0
 11
224.063027
 21
254.803739
 31
0.0
  0
LINE
  5
9C
330
98
100
AcDbEntity
  8
CSLAYER1
  6
CONTINUOUS
 62
     4
100
AcDbLine
 10
209.063027
 20
254.803739
 30
0.0
 11
211.960804
 21
255.580196
 31
0.0
  0
LINE
  5
9D
330
98
100
AcDbEntity
  8
CSLAYER1
  6
CONTINUOUS
 62
     4
100
AcDbLine
 10
209.063027
 20
254.803739
 30
0.0
 11
211.960804
 21
254.0272819999999
 31
0.0
  0
LINE
  5
9E
330
98
100
AcDbEntity
  8
CSLAYER1
  6
CONTINUOUS
 62
     4
100
AcDbLine
 10
224.063027
 20
254.803739
 30
0.0
 11
221.165249
 21
255.580196
 31
0.0
  0
LINE
  5
9F
330
98
100
AcDbEntity
  8
CSLAYER1
  6
CONTINUOUS
 62
     4
100
AcDbLine
 10
224.063027
 20
254.803739
 30
0.0
 11
221.165249
 21
254.0272819999999
 31
0.0
  0
LINE
  5
A0
330
98
100
AcDbEntity
  8
CSLAYER1
  6
CONTINUOUS
 62
     4
100
AcDbLine
 10
224.063027
 20
243.111995
 30
0.0
 11
224.063027
 21
255.8037389999999
 31
0.0
  0
ENDBLK
  5
A1
330
98
100
AcDbEntity
  8
0
100
AcDbBlockEnd
  0
BLOCK
  5
A3
330
A2
100
AcDbEntity
  8
0
100
AcDbBlockBegin
  2
*D10
 70
     1
 10
0.0
 20
0.0
 30
0.0
  3
*D10
  1

  0
TEXT
  5
A4
330
A2
100
AcDbEntity
  8
CSLAYER1
 62
     4
100
AcDbText
 10
239.913049
 20
255.3037409999999
 30
0.0
 40
3.2
  1
44.5
 41
1.090909090909089
 51
15.0
  7
FX_FONT
 72
     5
 11
252.713049
 21
255.3037409999999
 31
0.0
100
AcDbText
  0
LINE
  5
A5
330
A2
100
AcDbEntity
  8
CSLAYER1
  6
CONTINUOUS
 62
     4
100
AcDbLine
 10
224.063027
 20
254.803739
 30
0.0
 11
268.5630269999999
 21
254.803739
 31
0.0
  0
LINE
  5
A6
330
A2
100
AcDbEntity
  8
CSLAYER1
  6
CONTINUOUS
 62
     4
100
AcDbLine
 10
224.063027
 20
254.803739
 30
0.0
 11
226.960804
 21
255.580196
 31
0.0
  0
LINE
  5
A7
330
A2
100
AcDbEntity
  8
CSLAYER1
  6
CONTINUOUS
 62
     4
100
AcDbLine
 10
224.063027
 20
254.803739
 30
0.0
 11
226.960804
 21
254.0272819999999
 31
0.0
  0
LINE
  5
A8
330
A2
100
AcDbEntity
  8
CSLAYER1
  6
CONTINUOUS
 62
     4
100
AcDbLine
 10
268.5630269999999
 20
254.803739
 30
0.0
 11
265.665249
 21
255.580196
 31
0.0
  0
LINE
  5
A9
330
A2
100
AcDbEntity
  8
CSLAYER1
  6
CONTINUOUS
 62
     4
100
AcDbLine
 10
268.5630269999999
 20
254.803739
 30
0.0
 11
265.665249
 21
254.0272819999999
 31
0.0
  0
LINE
  5
AA
330
A2
100
AcDbEntity
  8
CSLAYER1
  6
CONTINUOUS
 62
     4
100
AcDbLine
 10
268.5630269999999
 20
198.111995
 30
0.0
 11
268.5630269999999
 21
255.8037389999999
 31
0.0
  0
ENDBLK
  5
AB
330
A2
100
AcDbEntity
  8
0
100
AcDbBlockEnd
  0
BLOCK
  5
AD
330
AC
100
AcDbEntity
  8
0
100
AcDbBlockBegin
  2
*D11
 70
     1
 10
0.0
 20
0.0
 30
0.0
  3
*D11
  1

  0
TEXT
  5
AE
330
AC
100
AcDbEntity
  8
CSLAYER1
 62
     4
100
AcDbText
 10
184.7630399999999
 20
255.3037409999999
 30
0.0
 40
3.2
  1
10.5
 41
1.090909090909096
 51
15.0
  7
FX_FONT
 72
     5
 11
197.56304
 21
255.3037409999999
 31
0.0
100
AcDbText
  0
LINE
  5
AF
330
AC
100
AcDbEntity
  8
CSLAYER1
  6
CONTINUOUS
 62
     4
100
AcDbLine
 10
198.563027
 20
254.803739
 30
0.0
 11
209.063027
 21
254.803739
 31
0.0
  0
LINE
  5
B0
330
AC
100
AcDbEntity
  8
CSLAYER1
  6
CONTINUOUS
 62
     4
100
AcDbLine
 10
198.563027
 20
213.1119949999999
 30
0.0
 11
198.563027
 21
255.8037389999999
 31
0.0
  0
LINE
  5
B1
330
AC
100
AcDbEntity
  8
CSLAYER1
  6
CONTINUOUS
 62
     4
100
AcDbLine
 10
209.063027
 20
243.111995
 30
0.0
 11
209.063027
 21
255.8037389999999
 31
0.0
  0
LINE
  5
B2
330
AC
100
AcDbEntity
  8
CSLAYER1
  6
CONTINUOUS
 62
     4
100
AcDbLine
 10
183.763027
 20
254.803739
 30
0.0
 11
198.563027
 21
254.803739
 31
0.0
  0
LINE
  5
B3
330
AC
100
AcDbEntity
  8
CSLAYER1
  6
CONTINUOUS
 62
     4
100
AcDbLine
 10
198.563027
 20
254.803739
 30
0.0
 11
195.6652489999999
 21
255.580196
 31
0.0
  0
LINE
  5
B4
330
AC
100
AcDbEntity
  8
CSLAYER1
  6
CONTINUOUS
 62
     4
100
AcDbLine
 10
198.563027
 20
254.803739
 30
0.0
 11
195.6652489999999
 21
254.0272819999999
 31
0.0
  0
ENDBLK
  5
B5
330
AC
100
AcDbEntity
  8
0
100
AcDbBlockEnd
  0
BLOCK
  5
B7
330
B6
100
AcDbEntity
  8
0
100
AcDbBlockBegin
  2
*D12
 70
     1
 10
0.0
 20
0.0
 30
0.0
  3
*D12
  1

  0
TEXT
  5
B8
330
B6
100
AcDbEntity
  8
CSLAYER1
 62
     4
100
AcDbText
 10
240.2163379999999
 20
166.543298
 30
0.0
 40
3.2
  1
60%%d
 50
29.99999963095119
 41
1.285714300058156
 51
15.0
  7
FX_FONT
 72
     5
 11
248.530182
 21
171.343298
 31
0.0
100
AcDbText
  0
ARC
  5
B9
330
B6
100
AcDbEntity
  8
CSLAYER1
  6
CONTINUOUS
 62
     4
100
AcDbCircle
 10
216.563027
 20
217.111995
 30
0.0
 40
56.120435
100
AcDbArc
 50
270.0
 51
330.0
  0
LINE
  5
BA
330
B6
100
AcDbEntity
  8
CSLAYER1
  6
CONTINUOUS
 62
     4
100
AcDbLine
 10
216.563027
 20
160.9915589999999
 30
0.0
 11
219.4608039999998
 21
161.7680159999999
 31
0.0
  0
LINE
  5
BB
330
B6
100
AcDbEntity
  8
CSLAYER1
  6
CONTINUOUS
 62
     4
100
AcDbLine
 10
216.563027
 20
160.9915589999999
 30
0.0
 11
219.4608039999998
 21
160.2151019999999
 31
0.0
  0
LINE
  5
BC
330
B6
100
AcDbEntity
  8
CSLAYER1
  6
CONTINUOUS
 62
     4
100
AcDbLine
 10
265.16475
 20
189.051777
 30
0.0
 11
264.3882919999999
 21
186.1539989999999
 31
0.0
  0
LINE
  5
BD
330
B6
100
AcDbEntity
  8
CSLAYER1
  6
CONTINUOUS
 62
     4
100
AcDbLine
 10
265.16475
 20
189.051777
 30
0.0
 11
263.043429
 21
186.9304559999999
 31
0.0
  0
LINE
  5
BE
330
B6
100
AcDbEntity
  8
CSLAYER1
  6
CONTINUOUS
 62
     4
100
AcDbLine
 10
216.563027
 20
161.6200409999999
 30
0.0
 11
216.563027
 21
159.9915589999999
 31
0.0
  0
LINE
  5
BF
330
B6
100
AcDbEntity
  8
CSLAYER1
  6
CONTINUOUS
 62
     4
100
AcDbLine
 10
263.328824
 20
190.111749
 30
0.0
 11
266.030775
 21
188.551777
 31
0.0
  0
ENDBLK
  5
C0
330
B6
100
AcDbEntity
  8
0
100
AcDbBlockEnd
  0
BLOCK
  5
C2
330
C1
100
AcDbEntity
  8
0
100
AcDbBlockBegin
  2
*D13
 70
     1
 10
0.0
 20
0.0
 30
0.0
  3
*D13
  1

  0
TEXT
  5
C3
330
C1
100
AcDbEntity
  8
CSLAYER1
 62
     4
100
AcDbText
 10
362.2615329999998
 20
86.669092
 30
0.0
 40
3.2
  1
45%%d
 50
112.4999991574809
 41
1.285714348609483
 51
15.0
  7
FX_FONT
 72
     5
 11
358.587772
 21
95.538336
 31
0.0
100
AcDbText
  0
ARC
  5
C4
330
C1
100
AcDbEntity
  8
CSLAYER1
  6
CONTINUOUS
 62
     4
100
AcDbCircle
 10
263.117233
 20
50.797671
 30
0.0
 40
105.824786
100
AcDbArc
 50
0.0
 51
45.0
  0
LINE
  5
C5
330
C1
100
AcDbEntity
  8
CSLAYER1
  6
CONTINUOUS
 62
     4
100
AcDbLine
 10
368.942019
 20
50.797671
 30
0.0
 11
368.165562
 21
53.69544799999999
 31
0.0
  0
LINE
  5
C6
330
C1
100
AcDbEntity
  8
CSLAYER1
  6
CONTINUOUS
 62
     4
100
AcDbLine
 10
368.942019
 20
50.797671
 30
0.0
 11
369.7184759999998
 21
53.69544799999999
 31
0.0
  0
LINE
  5
C7
330
C1
100
AcDbEntity
  8
CSLAYER1
  6
CONTINUOUS
 62
     4
100
AcDbLine
 10
337.9466569999999
 20
125.627094
 30
0.0
 11
340.544733
 21
124.1270939999999
 31
0.0
  0
LINE
  5
C8
330
C1
100
AcDbEntity
  8
CSLAYER1
  6
CONTINUOUS
 62
     4
100
AcDbLine
 10
337.9466569999999
 20
125.627094
 30
0.0
 11
339.4466569999999
 21
123.0290179999999
 31
0.0
  0
LINE
  5
C9
330
C1
100
AcDbEntity
  8
CSLAYER1
  6
CONTINUOUS
 62
     4
100
AcDbLine
 10
352.832962
 20
50.797671
 30
0.0
 11
369.942019
 21
50.797671
 31
0.0
  0
ENDBLK
  5
CA
330
C1
100
AcDbEntity
  8
0
100
AcDbBlockEnd
  0
BLOCK
  5
CC
330
CB
100
AcDbEntity
  8
0
100
AcDbBlockBegin
  2
*D14
 70
     1
 10
0.0
 20
0.0
 30
0.0
  3
*D14
  1

  0
TEXT
  5
CD
330
CB
100
AcDbEntity
  8
CSLAYER1
 62
     4
100
AcDbText
 10
33.714458
 20
77.70905
 30
0.0
 40
3.2
  1
70
 50
90.0
 41
1.199999999999995
 51
15.0
  7
FX_FONT
 72
     5
 11
33.714458
 21
84.10904999999997
 31
0.0
100
AcDbText
  0
LINE
  5
CE
330
CB
100
AcDbEntity
  8
CSLAYER1
  6
CONTINUOUS
 62
     4
100
AcDbLine
 10
34.214459
 20
45.90905
 30
0.0
 11
34.214459
 21
115.90905
 31
0.0
  0
LINE
  5
CF
330
CB
100
AcDbEntity
  8
CSLAYER1
  6
CONTINUOUS
 62
     4
100
AcDbLine
 10
34.214459
 20
45.90905
 30
0.0
 11
33.438002
 21
48.806827
 31
0.0
  0
LINE
  5
D0
330
CB
100
AcDbEntity
  8
CSLAYER1
  6
CONTINUOUS
 62
     4
100
AcDbLine
 10
34.214459
 20
45.90905
 30
0.0
 11
34.99091599999999
 21
48.806827
 31
0.0
  0
LINE
  5
D1
330
CB
100
AcDbEntity
  8
CSLAYER1
  6
CONTINUOUS
 62
     4
100
AcDbLine
 10
34.214459
 20
115.90905
 30
0.0
 11
33.438002
 21
113.0112719999999
 31
0.0
  0
LINE
  5
D2
330
CB
100
AcDbEntity
  8
CSLAYER1
  6
CONTINUOUS
 62
     4
100
AcDbLine
 10
34.214459
 20
115.90905
 30
0.0
 11
34.99091599999999
 21
113.0112719999999
 31
0.0
  0
LINE
  5
D3
330
CB
100
AcDbEntity
  8
CSLAYER1
  6
CONTINUOUS
 62
     4
100
AcDbLine
 10
51.29827299999998
 20
45.90905
 30
0.0
 11
33.214459
 21
45.90905
 31
0.0
  0
LINE
  5
D4
330
CB
100
AcDbEntity
  8
CSLAYER1
  6
CONTINUOUS
 62
     4
100
AcDbLine
 10
51.29827299999998
 20
115.90905
 30
0.0
 11
33.214459
 21
115.90905
 31
0.0
  0
ENDBLK
  5
D5
330
CB
100
AcDbEntity
  8
0
100
AcDbBlockEnd
  0
BLOCK
  5
D7
330
D6
100
AcDbEntity
  8
0
100
AcDbBlockBegin
  2
*D15
 70
     1
 10
0.0
 20
0.0
 30
0.0
  3
*D15
  1

  0
TEXT
  5
D8
330
D6
100
AcDbEntity
  8
CSLAYER1
 62
     4
100
AcDbText
 10
39.714458
 20
47.80904999999999
 30
0.0
 40
3.2
  1
7
 50
90.0
 41
1.500000000000004
 51
15.0
  7
FX_FONT
 72
     5
 11
39.714458
 21
51.00905
 31
0.0
100
AcDbText
  0
LINE
  5
D9
330
D6
100
AcDbEntity
  8
CSLAYER1
  6
CONTINUOUS
 62
     4
100
AcDbLine
 10
40.214459
 20
45.90905
 30
0.0
 11
40.214459
 21
52.90905
 31
0.0
  0
LINE
  5
DA
330
D6
100
AcDbEntity
  8
CSLAYER1
  6
CONTINUOUS
 62
     4
100
AcDbLine
 10
40.214459
 20
45.90905
 30
0.0
 11
39.438002
 21
48.806827
 31
0.0
  0
LINE
  5
DB
330
D6
100
AcDbEntity
  8
CSLAYER1
  6
CONTINUOUS
 62
     4
100
AcDbLine
 10
40.214459
 20
45.90905
 30
0.0
 11
40.990916
 21
48.806827
 31
0.0
  0
LINE
  5
DC
330
D6
100
AcDbEntity
  8
CSLAYER1
  6
CONTINUOUS
 62
     4
100
AcDbLine
 10
40.214459
 20
52.90905
 30
0.0
 11
39.438002
 21
50.01127199999999
 31
0.0
  0
LINE
  5
DD
330
D6
100
AcDbEntity
  8
CSLAYER1
  6
CONTINUOUS
 62
     4
100
AcDbLine
 10
40.214459
 20
52.90905
 30
0.0
 11
40.990916
 21
50.01127199999999
 31
0.0
  0
LINE
  5
DE
330
D6
100
AcDbEntity
  8
CSLAYER1
  6
CONTINUOUS
 62
     4
100
AcDbLine
 10
60.298273
 20
52.90905
 30
0.0
 11
39.214459
 21
52.90905
 31
0.0
  0
ENDBLK
  5
DF
330
D6
100
AcDbEntity
  8
0
100
AcDbBlockEnd
  0
BLOCK
  5
E1
330
E0
100
AcDbEntity
  8
0
100
AcDbBlockBegin
  2
*D16
 70
     1
 10
0.0
 20
0.0
 30
0.0
  3
*D16
  1

  0
TEXT
  5
E2
330
E0
100
AcDbEntity
  8
CSLAYER1
 62
     4
100
AcDbText
 10
39.714458
 20
55.70904999999999
 30
0.0
 40
3.2
  1
12
 50
90.0
 41
1.200000000000002
 51
15.0
  7
FX_FONT
 72
     5
 11
39.714458
 21
62.10905
 31
0.0
100
AcDbText
  0
LINE
  5
E3
330
E0
100
AcDbEntity
  8
CSLAYER1
  6
CONTINUOUS
 62
     4
100
AcDbLine
 10
40.214459
 20
52.90905
 30
0.0
 11
40.214459
 21
64.90904999999999
 31
0.0
  0
LINE
  5
E4
330
E0
100
AcDbEntity
  8
CSLAYER1
  6
CONTINUOUS
 62
     4
100
AcDbLine
 10
40.214459
 20
52.90905
 30
0.0
 11
39.438002
 21
55.806827
 31
0.0
  0
LINE
  5
E5
330
E0
100
AcDbEntity
  8
CSLAYER1
  6
CONTINUOUS
 62
     4
100
AcDbLine
 10
40.214459
 20
52.90905
 30
0.0
 11
40.990916
 21
55.806827
 31
0.0
  0
LINE
  5
E6
330
E0
100
AcDbEntity
  8
CSLAYER1
  6
CONTINUOUS
 62
     4
100
AcDbLine
 10
40.214459
 20
64.90904999999999
 30
0.0
 11
39.438002
 21
62.011272
 31
0.0
  0
LINE
  5
E7
330
E0
100
AcDbEntity
  8
CSLAYER1
  6
CONTINUOUS
 62
     4
100
AcDbLine
 10
40.214459
 20
64.90904999999999
 30
0.0
 11
40.990916
 21
62.011272
 31
0.0
  0
LINE
  5
E8
330
E0
100
AcDbEntity
  8
CSLAYER1
  6
CONTINUOUS
 62
     4
100
AcDbLine
 10
60.298273
 20
64.90904999999999
 30
0.0
 11
39.214459
 21
64.90904999999999
 31
0.0
  0
ENDBLK
  5
E9
330
E0
100
AcDbEntity
  8
0
100
AcDbBlockEnd
  0
BLOCK
  5
EB
330
EA
100
AcDbEntity
  8
0
100
AcDbBlockBegin
  2
*D17
 70
     1
 10
0.0
 20
0.0
 30
0.0
  3
*D17
  1

  0
TEXT
  5
EC
330
EA
100
AcDbEntity
  8
CSLAYER1
 62
     4
100
AcDbText
 10
39.714458
 20
77.70905
 30
0.0
 40
3.2
  1
32
 50
90.0
 41
1.199999999999995
 51
15.0
  7
FX_FONT
 72
     5
 11
39.714458
 21
84.10904999999997
 31
0.0
100
AcDbText
  0
LINE
  5
ED
330
EA
100
AcDbEntity
  8
CSLAYER1
  6
CONTINUOUS
 62
     4
100
AcDbLine
 10
40.214459
 20
64.90904999999999
 30
0.0
 11
40.214459
 21
96.90905
 31
0.0
  0
LINE
  5
EE
330
EA
100
AcDbEntity
  8
CSLAYER1
  6
CONTINUOUS
 62
     4
100
AcDbLine
 10
40.214459
 20
64.90904999999999
 30
0.0
 11
39.438002
 21
67.80682699999998
 31
0.0
  0
LINE
  5
EF
330
EA
100
AcDbEntity
  8
CSLAYER1
  6
CONTINUOUS
 62
     4
100
AcDbLine
 10
40.214459
 20
64.90904999999999
 30
0.0
 11
40.990916
 21
67.80682699999998
 31
0.0
  0
LINE
  5
F0
330
EA
100
AcDbEntity
  8
CSLAYER1
  6
CONTINUOUS
 62
     4
100
AcDbLine
 10
40.214459
 20
96.90905
 30
0.0
 11
39.438002
 21
94.01127200000001
 31
0.0
  0
LINE
  5
F1
330
EA
100
AcDbEntity
  8
CSLAYER1
  6
CONTINUOUS
 62
     4
100
AcDbLine
 10
40.214459
 20
96.90905
 30
0.0
 11
40.990916
 21
94.01127200000001
 31
0.0
  0
LINE
  5
F2
330
EA
100
AcDbEntity
  8
CSLAYER1
  6
CONTINUOUS
 62
     4
100
AcDbLine
 10
60.298273
 20
96.90905
 30
0.0
 11
39.214459
 21
96.90905
 31
0.0
  0
ENDBLK
  5
F3
330
EA
100
AcDbEntity
  8
0
100
AcDbBlockEnd
  0
BLOCK
  5
F5
330
F4
100
AcDbEntity
  8
0
100
AcDbBlockBegin
  2
*D18
 70
     1
 10
0.0
 20
0.0
 30
0.0
  3
*D18
  1

  0
TEXT
  5
F6
330
F4
100
AcDbEntity
  8
CSLAYER1
 62
     4
100
AcDbText
 10
39.714458
 20
99.70905000000001
 30
0.0
 40
3.2
  1
12
 50
90.0
 41
1.199999999999982
 51
15.0
  7
FX_FONT
 72
     5
 11
39.714458
 21
106.1090499999999
 31
0.0
100
AcDbText
  0
LINE
  5
F7
330
F4
100
AcDbEntity
  8
CSLAYER1
  6
CONTINUOUS
 62
     4
100
AcDbLine
 10
40.214459
 20
96.90905
 30
0.0
 11
40.214459
 21
108.9090499999999
 31
0.0
  0
LINE
  5
F8
330
F4
100
AcDbEntity
  8
CSLAYER1
  6
CONTINUOUS
 62
     4
100
AcDbLine
 10
40.214459
 20
96.90905
 30
0.0
 11
39.438002
 21
99.806827
 31
0.0
  0
LINE
  5
F9
330
F4
100
AcDbEntity
  8
CSLAYER1
  6
CONTINUOUS
 62
     4
100
AcDbLine
 10
40.214459
 20
96.90905
 30
0.0
 11
40.990916
 21
99.806827
 31
0.0
  0
LINE
  5
FA
330
F4
100
AcDbEntity
  8
CSLAYER1
  6
CONTINUOUS
 62
     4
100
AcDbLine
 10
40.214459
 20
108.9090499999999
 30
0.0
 11
39.438002
 21
106.011272
 31
0.0
  0
LINE
  5
FB
330
F4
100
AcDbEntity
  8
CSLAYER1
  6
CONTINUOUS
 62
     4
100
AcDbLine
 10
40.214459
 20
108.9090499999999
 30
0.0
 11
40.990916
 21
106.011272
 31
0.0
  0
LINE
  5
FC
330
F4
100
AcDbEntity
  8
CSLAYER1
  6
CONTINUOUS
 62
     4
100
AcDbLine
 10
60.298273
 20
108.9090499999999
 30
0.0
 11
39.214459
 21
108.9090499999999
 31
0.0
  0
ENDBLK
  5
FD
330
F4
100
AcDbEntity
  8
0
100
AcDbBlockEnd
  0
BLOCK
  5
FF
330
FE
100
AcDbEntity
  8
0
100
AcDbBlockBegin
  2
*D19
 70
     1
 10
0.0
 20
0.0
 30
0.0
  3
*D19
  1

  0
TEXT
  5
100
330
FE
100
AcDbEntity
  8
CSLAYER1
 62
     4
100
AcDbText
 10
39.714458
 20
110.80905
 30
0.0
 40
3.2
  1
7
 50
90.0
 41
1.500000000000001
 51
15.0
  7
FX_FONT
 72
     5
 11
39.714458
 21
114.00905
 31
0.0
100
AcDbText
  0
LINE
  5
101
330
FE
100
AcDbEntity
  8
CSLAYER1
  6
CONTINUOUS
 62
     4
100
AcDbLine
 10
40.214459
 20
108.9090499999999
 30
0.0
 11
40.214459
 21
115.90905
 31
0.0
  0
LINE
  5
102
330
FE
100
AcDbEntity
  8
CSLAYER1
  6
CONTINUOUS
 62
     4
100
AcDbLine
 10
40.214459
 20
108.9090499999999
 30
0.0
 11
39.438002
 21
111.8068269999999
 31
0.0
  0
LINE
  5
103
330
FE
100
AcDbEntity
  8
CSLAYER1
  6
CONTINUOUS
 62
     4
100
AcDbLine
 10
40.214459
 20
108.9090499999999
 30
0.0
 11
40.990916
 21
111.8068269999999
 31
0.0
  0
LINE
  5
104
330
FE
100
AcDbEntity
  8
CSLAYER1
  6
CONTINUOUS
 62
     4
100
AcDbLine
 10
40.214459
 20
115.90905
 30
0.0
 11
39.438002
 21
113.0112719999999
 31
0.0
  0
LINE
  5
105
330
FE
100
AcDbEntity
  8
CSLAYER1
  6
CONTINUOUS
 62
     4
100
AcDbLine
 10
40.214459
 20
115.90905
 30
0.0
 11
40.990916
 21
113.0112719999999
 31
0.0
  0
ENDBLK
  5
106
330
FE
100
AcDbEntity
  8
0
100
AcDbBlockEnd
  0
BLOCK
  5
108
330
107
100
AcDbEntity
  8
0
100
AcDbBlockBegin
  2
*D20
 70
     1
 10
0.0
 20
0.0
 30
0.0
  3
*D20
  1

  0
TEXT
  5
109
330
107
100
AcDbEntity
  8
CSLAYER1
 62
     4
100
AcDbText
 10
65.168204
 20
91.122902
 30
0.0
 40
3.2
  1
6
 41
1.500000000000001
 51
15.0
  7
FX_FONT
 72
     5
 11
68.368204
 21
91.122902
 31
0.0
100
AcDbText
  0
LINE
  5
10A
330
107
100
AcDbEntity
  8
CSLAYER1
  6
CONTINUOUS
 62
     4
100
AcDbLine
 10
58.29827299999998
 20
90.6229
 30
0.0
 11
64.29827299999999
 21
90.6229
 31
0.0
  0
LINE
  5
10B
330
107
100
AcDbEntity
  8
CSLAYER1
  6
CONTINUOUS
 62
     4
100
AcDbLine
 10
58.29827299999998
 20
90.6229
 30
0.0
 11
61.19604999999999
 21
91.399357
 31
0.0
  0
LINE
  5
10C
330
107
100
AcDbEntity
  8
CSLAYER1
  6
CONTINUOUS
 62
     4
100
AcDbLine
 10
58.29827299999998
 20
90.6229
 30
0.0
 11
61.19604999999999
 21
89.84644300000002
 31
0.0
  0
LINE
  5
10D
330
107
100
AcDbEntity
  8
CSLAYER1
  6
CONTINUOUS
 62
     4
100
AcDbLine
 10
64.29827299999999
 20
90.6229
 30
0.0
 11
61.40049499999999
 21
91.399357
 31
0.0
  0
LINE
  5
10E
330
107
100
AcDbEntity
  8
CSLAYER1
  6
CONTINUOUS
 62
     4
100
AcDbLine
 10
64.29827299999999
 20
90.6229
 30
0.0
 11
61.40049499999999
 21
89.84644300000002
 31
0.0
  0
LINE
  5
10F
330
107
100
AcDbEntity
  8
CSLAYER1
  6
CONTINUOUS
 62
     4
100
AcDbLine
 10
58.29827299999998
 20
98.90905
 30
0.0
 11
58.29827299999998
 21
89.62290000000001
 31
0.0
  0
LINE
  5
110
330
107
100
AcDbEntity
  8
CSLAYER1
  6
CONTINUOUS
 62
     4
100
AcDbLine
 10
64.29827299999999
 20
98.90905
 30
0.0
 11
64.29827299999999
 21
89.62290000000001
 31
0.0
  0
ENDBLK
  5
111
330
107
100
AcDbEntity
  8
0
100
AcDbBlockEnd
  0
BLOCK
  5
113
330
112
100
AcDbEntity
  8
0
100
AcDbBlockBegin
  2
FXDIM0000
 70
     0
 10
0.0
 20
0.0
 30
0.0
  3
FXDIM0000
  1

  0
LINE
  5
114
330
112
100
AcDbEntity
  8
CSLAYER1
  6
CONTINUOUS
 62
     4
100
AcDbLine
 10
326.0628379999999
 20
130.6431199999998
 30
0.0
 11
312.982985
 21
149.245577
 31
0.0
  0
CIRCLE
  5
115
330
112
100
AcDbEntity
  8
CSLAYER1
  6
CONTINUOUS
 62
     4
100
AcDbCircle
 10
326.0628379999999
 20
130.6431199999998
 30
0.0
 40
0.3
  0
CIRCLE
  5
116
330
112
100
AcDbEntity
  8
CSLAYER1
  6
CONTINUOUS
 62
     4
100
AcDbCircle
 10
326.0628379999999
 20
130.6431199999998
 30
0.0
 40
0.15
  0
LINE
  5
117
330
112
100
AcDbEntity
  8
CSLAYER1
  6
CONTINUOUS
 62
     4
100
AcDbLine
 10
312.982985
 20
149.245577
 30
0.0
 11
288.582985
 21
149.245577
 31
0.0
  0
TEXT
  5
118
330
112
100
AcDbEntity
  8
CSLAYER1
 62
     4
100
AcDbText
 10
289.5829889999999
 20
149.745575
 30
0.0
 40
3.2
  1
GT-NR20
 41
1.050000046874998
 51
15.0
  7
FX_FONT
 72
     5
 11
311.9829899999998
 21
149.745575
 31
0.0
100
AcDbText
  0
ENDBLK
  5
119
330
112
100
AcDbEntity
  8
0
100
AcDbBlockEnd
  0
BLOCK
  5
11B
330
11A
100
AcDbEntity
  8
0
100
AcDbBlockBegin
  2
FXDIM0001
 70
     0
 10
0.0
 20
0.0
 30
0.0
  3
FXDIM0001
  1

  0
LINE
  5
11C
330
11A
100
AcDbEntity
  8
CSLAYER1
  6
CONTINUOUS
 62
     4
100
AcDbLine
 10
212.6832549999999
 20
236.346893
 30
0.0
 11
195.32775
 21
244.107669
 31
0.0
  0
LINE
  5
11D
330
11A
100
AcDbEntity
  8
CSLAYER1
  6
CONTINUOUS
 62
     4
100
AcDbLine
 10
212.6832549999999
 20
236.346893
 30
0.0
 11
209.720952
 21
236.820981
 31
0.0
  0
LINE
  5
11E
330
11A
100
AcDbEntity
  8
CSLAYER1
  6
CONTINUOUS
 62
     4
100
AcDbLine
 10
212.6832549999999
 20
236.346893
 30
0.0
 11
210.354869
 21
238.238617
 31
0.0
  0
LINE
  5
11F
330
11A
100
AcDbEntity
  8
CSLAYER1
  6
CONTINUOUS
 62
     4
100
AcDbLine
 10
195.32775
 20
244.107669
 30
0.0
 11
170.927749
 21
244.107669
 31
0.0
  0
TEXT
  5
120
330
11A
100
AcDbEntity
  8
CSLAYER1
 62
     4
100
AcDbText
 10
171.9277619999999
 20
244.6076509999999
 30
0.0
 40
3.2
  1
六角穴付ボルト
 41
0.8823529411764738
 51
15.0
  7
FX_FONT
 72
     5
 11
194.327762
 21
244.6076509999999
 31
0.0
100
AcDbText
  0
ENDBLK
  5
121
330
11A
100
AcDbEntity
  8
0
100
AcDbBlockEnd
  0
BLOCK
  5
123
330
122
100
AcDbEntity
  8
0
100
AcDbBlockBegin
  2
FXDIM0002
 70
     0
 10
0.0
 20
0.0
 30
0.0
  3
FXDIM0002
  1

  0
LINE
  5
124
330
122
100
AcDbEntity
  8
CSLAYER1
  6
CONTINUOUS
 62
     4
100
AcDbLine
 10
213.157605
 20
218.6347799999999
 30
0.0
 11
195.32775
 21
226.6076689999999
 31
0.0
  0
LINE
  5
125
330
122
100
AcDbEntity
  8
CSLAYER1
  6
CONTINUOUS
 62
     4
100
AcDbLine
 10
213.157605
 20
218.6347799999999
 30
0.0
 11
210.1953019999998
 21
219.108868
 31
0.0
  0
LINE
  5
126
330
122
100
AcDbEntity
  8
CSLAYER1
  6
CONTINUOUS
 62
     4
100
AcDbLine
 10
213.157605
 20
218.6347799999999
 30
0.0
 11
210.8292189999999
 21
220.526504
 31
0.0
  0
LINE
  5
127
330
122
100
AcDbEntity
  8
CSLAYER1
  6
CONTINUOUS
 62
     4
100
AcDbLine
 10
195.32775
 20
226.6076689999999
 30
0.0
 11
170.927749
 21
226.6076689999999
 31
0.0
  0
TEXT
  5
128
330
122
100
AcDbEntity
  8
CSLAYER1
 62
     4
100
AcDbText
 10
171.9277619999999
 20
227.1076509999999
 30
0.0
 40
3.2
  1
六角穴付ボルト
 41
0.8823529411764738
 51
15.0
  7
FX_FONT
 72
     5
 11
194.327762
 21
227.1076509999999
 31
0.0
100
AcDbText
  0
ENDBLK
  5
129
330
122
100
AcDbEntity
  8
0
100
AcDbBlockEnd
  0
BLOCK
  5
333
330
326
100
AcDbEntity
  8
0
100
AcDbBlockBegin
  2
*D24
 70
     1
 10
0.0
 20
0.0
 30
0.0
  3
*D24
  1

  0
LINE
  5
327
330
326
100
AcDbEntity
  8
CSLAYER1
 62
     0
100
AcDbLine
 10
216.563027
 20
162.5575409999999
 30
0.0
 11
216.563027
 21
160.8115597143054
 31
0.0
  0
LINE
  5
328
330
326
100
AcDbEntity
  8
CSLAYER1
 62
     0
100
AcDbLine
 10
262.5169255875935
 20
190.5804989997522
 30
0.0
 11
265.3206340727142
 21
188.9617771340316
 31
0.0
  0
ARC
  5
329
330
326
100
AcDbEntity
  8
CSLAYER1
 62
     0
100
AcDbCircle
 10
216.563027
 20
217.111995
 30
0.0
 40
56.12043528569444
100
AcDbArc
 50
270.1837698635179
 51
299.6303928925612
  0
ARC
  5
32A
330
326
100
AcDbEntity
  8
CSLAYER1
 62
     0
100
AcDbCircle
 10
216.563027
 20
217.111995
 30
0.0
 40
56.12043528569444
100
AcDbArc
 50
300.3655224605398
 51
329.8162298742893
  0
SOLID
  5
32B
330
326
100
AcDbEntity
  8
CSLAYER1
 62
     0
100
AcDbTrace
 10
216.7430748793519
 20
160.9618484177859
 30
0.0
 11
216.7429786577176
 21
161.0218483406308
 31
0.0
 12
216.563027
 22
160.9915597143055
 32
0.0
 13
216.563027
 23
160.9915597143055
 33
0.0
  0
SOLID
  5
32C
330
326
100
AcDbEntity
  8
CSLAYER1
 62
     0
100
AcDbTrace
 10
265.0485429510986
 20
188.9110787414028
 30
0.0
 11
265.1004562975527
 21
188.880995449363
 31
0.0
 12
265.1647495004447
 22
189.0517771347449
 32
0.0
 13
265.1647495004447
 23
189.0517771347449
 33
0.0
  0
MTEXT
  5
32D
330
326
100
AcDbEntity
  8
CSLAYER1
 62
     0
100
AcDbMText
 10
244.6232445316434
 20
168.5102723069444
 30
0.0
 40
0.18
 41
0.0
 71
     5
 72
     1
  1
\A1;60°
1001
ACAD
1000
MTEXTBEGIN
1070
    73
1070
     1
1070
    44
1040
1.0
1070
    74
1070
     0
1000
MTEXTEND
  0
POINT
  5
32E
330
326
100
AcDbEntity
  8
DEFPOINTS
 62
     0
100
AcDbPoint
 10
235.75734623947
 20
164.3760360574612
 30
0.0
  0
POINT
  5
32F
330
326
100
AcDbEntity
  8
DEFPOINTS
 62
     0
100
AcDbPoint
 10
216.563027
 20
217.111995
 30
0.0
  0
POINT
  5
330
330
326
100
AcDbEntity
  8
DEFPOINTS
 62
     0
100
AcDbPoint
 10
262.462799
 20
190.6117489999999
 30
0.0
  0
POINT
  5
331
330
326
100
AcDbEntity
  8
DEFPOINTS
 62
     0
100
AcDbPoint
 10
216.563027
 20
217.111995
 30
0.0
  0
POINT
  5
332
330
326
100
AcDbEntity
  8
DEFPOINTS
 62
     0
100
AcDbPoint
 10
216.563027
 20
162.6200409999999
 30
0.0
  0
ENDBLK
  5
334
330
326
100
AcDbEntity
  8
0
100
AcDbBlockEnd
  0
BLOCK
  5
341
330
335
100
AcDbEntity
  8
0
100
AcDbBlockBegin
  2
*D25
 70
     1
 10
0.0
 20
0.0
 30
0.0
  3
*D25
  1

  0
LINE
  5
336
330
335
100
AcDbEntity
  8
CSLAYER1
 62
     0
100
AcDbLine
 10
351.8954619999998
 20
50.79767099999997
 30
0.0
 11
369.1220190398448
 21
50.79767100000002
 31
0.0
  0
ARC
  5
337
330
335
100
AcDbEntity
  8
CSLAYER1
 62
     0
100
AcDbCircle
 10
263.117233
 20
50.79767099999997
 30
0.0
 40
105.824786039845
100
AcDbArc
 50
0.0974558224167808
 51
22.39455472186072
  0
ARC
  5
338
330
335
100
AcDbEntity
  8
CSLAYER1
 62
     0
100
AcDbCircle
 10
263.117233
 20
50.79767099999997
 30
0.0
 40
105.824786039845
100
AcDbArc
 50
22.60552572107042
 51
44.90254417758321
  0
SOLID
  5
339
330
335
100
AcDbEntity
  8
CSLAYER1
 62
     0
100
AcDbTrace
 10
368.9718659457663
 20
50.97769644877579
 30
0.0
 11
368.9118659674649
 21
50.97764542103262
 31
0.0
 12
368.942019039845
 22
50.79767099999997
 32
0.0
 13
368.942019039845
 23
50.79767099999997
 33
0.0
  0
SOLID
  5
33A
330
335
100
AcDbEntity
  8
CSLAYER1
 62
     0
100
AcDbTrace
 10
338.0525965179886
 20
125.4785122508839
 30
0.0
 11
338.0950589915797
 21
125.5209025603487
 31
0.0
 12
337.9466568263898
 22
125.6270948263898
 32
0.0
 13
337.9466568263898
 23
125.6270948263898
 33
0.0
  0
MTEXT
  5
33B
330
335
100
AcDbEntity
  8
CSLAYER1
 62
     0
100
AcDbMText
 10
360.886586854599
 20
91.29506335102908
 30
0.0
 40
0.18
 41
0.0
 71
     5
 72
     1
  1
\A1;45°
1001
ACAD
1000
MTEXTBEGIN
1070
    73
1070
     1
1070
    44
1040
1.0
1070
    74
1070
     0
1000
MTEXTEND
  0
POINT
  5
33C
330
335
100
AcDbEntity
  8
DEFPOINTS
 62
     0
100
AcDbPoint
 10
365.3361268974009
 20
78.18714107101124
 30
0.0
  0
POINT
  5
33D
330
335
100
AcDbEntity
  8
DEFPOINTS
 62
     0
100
AcDbPoint
 10
281.8329619999999
 20
50.79767099999997
 30
0.0
  0
POINT
  5
33E
330
335
100
AcDbEntity
  8
DEFPOINTS
 62
     0
100
AcDbPoint
 10
361.4615659999998
 20
149.1420039999999
 30
0.0
  0
POINT
  5
33F
330
335
100
AcDbEntity
  8
DEFPOINTS
 62
     0
100
AcDbPoint
 10
263.117233
 20
50.79767099999997
 30
0.0
  0
POINT
  5
340
330
335
100
AcDbEntity
  8
DEFPOINTS
 62
     0
100
AcDbPoint
 10
351.8329619999998
 20
50.79767099999997
 30
0.0
  0
ENDBLK
  5
342
330
335
100
AcDbEntity
  8
0
100
AcDbBlockEnd
  0
ENDSEC
  0
SECTION
  2
ENTITIES
  0
POINT
  5
12A
330
1E
100
AcDbEntity
  8
CSLAYER1
 62
     3
100
AcDbPoint
 10
10.0
 20
3.0
 30
0.0
  0
POINT
  5
12B
330
1E
100
AcDbEntity
  8
CSLAYER1
 62
     3
100
AcDbPoint
 10
365.5
 20
20.5
 30
0.0
  0
LINE
  5
12C
330
1E
100
AcDbEntity
  8
CSLAYER1
  6
CENTER
 62
     4
100
AcDbLine
 10
107.2982729999999
 20
249.019615
 30
0.0
 11
107.2982729999999
 21
161.688399
 31
0.0
  0
ARC
  5
12D
330
1E
100
AcDbEntity
  8
CSLAYER1
  6
CONTINUOUS
 62
     3
100
AcDbCircle
 10
107.2982729999999
 20
197.111995
 30
0.0
 40
22.5
100
AcDbArc
 50
92.54731800000001
 51
87.45268199999998
  0
LINE
  5
12E
330
1E
100
AcDbEntity
  8
CSLAYER1
  6
CONTINUOUS
 62
     3
100
AcDbLine
 10
77.298273
 20
227.111995
 30
0.0
 11
77.298273
 21
155.111995
 31
0.0
  0
LINE
  5
12F
330
1E
100
AcDbEntity
  8
CSLAYER1
  6
CONTINUOUS
 62
     3
100
AcDbLine
 10
77.298273
 20
167.111995
 30
0.0
 11
137.2982729999999
 21
167.111995
 31
0.0
  0
LINE
  5
130
330
1E
100
AcDbEntity
  8
CSLAYER1
  6
CONTINUOUS
 62
     3
100
AcDbLine
 10
74.29827299999998
 20
227.111995
 30
0.0
 11
96.298273
 21
227.111995
 31
0.0
  0
LINE
  5
131
330
1E
100
AcDbEntity
  8
CSLAYER1
  6
CONTINUOUS
 62
     3
100
AcDbLine
 10
137.2982729999999
 20
227.111995
 30
0.0
 11
137.2982729999999
 21
155.111995
 31
0.0
  0
LINE
  5
132
330
1E
100
AcDbEntity
  8
CSLAYER1
  6
CONTINUOUS
 62
     3
100
AcDbLine
 10
96.298273
 20
242.111995
 30
0.0
 11
106.2982729999999
 21
242.111995
 31
0.0
  0
LINE
  5
133
330
1E
100
AcDbEntity
  8
CSLAYER1
  6
CONTINUOUS
 62
     3
100
AcDbLine
 10
108.2982729999999
 20
242.111995
 30
0.0
 11
108.2982729999999
 21
219.5897609999999
 31
0.0
  0
LINE
  5
134
330
1E
100
AcDbEntity
  8
CSLAYER1
  6
CONTINUOUS
 62
     3
100
AcDbLine
 10
106.2982729999999
 20
242.111995
 30
0.0
 11
106.2982729999999
 21
219.5897609999999
 31
0.0
  0
LINE
  5
135
330
1E
100
AcDbEntity
  8
CSLAYER1
  6
CONTINUOUS
 62
     3
100
AcDbLine
 10
118.2982729999999
 20
242.111995
 30
0.0
 11
118.2982729999999
 21
227.111995
 31
0.0
  0
LINE
  5
136
330
1E
100
AcDbEntity
  8
CSLAYER1
  6
CONTINUOUS
 62
     3
100
AcDbLine
 10
96.298273
 20
242.111995
 30
0.0
 11
96.298273
 21
227.111995
 31
0.0
  0
LINE
  5
137
330
1E
100
AcDbEntity
  8
CSLAYER1
  6
CONTINUOUS
 62
     3
100
AcDbLine
 10
108.2982729999999
 20
242.111995
 30
0.0
 11
118.2982729999999
 21
242.111995
 31
0.0
  0
LINE
  5
138
330
1E
100
AcDbEntity
  8
CSLAYER1
  6
CONTINUOUS
 62
     3
100
AcDbLine
 10
118.2982729999999
 20
227.111995
 30
0.0
 11
140.2982729999999
 21
227.111995
 31
0.0
  0
LINE
  5
139
330
1E
100
AcDbEntity
  8
CSLAYER1
  6
CENTER
 62
     4
100
AcDbLine
 10
92.593291
 20
234.611995
 30
0.0
 11
126.4108659999999
 21
234.611995
 31
0.0
  0
LINE
  5
13A
330
1E
100
AcDbEntity
  8
CSLAYER1
  6
DASHED
 62
     4
100
AcDbLine
 10
108.2982729999999
 20
237.311995
 30
0.0
 11
118.2982729999999
 21
237.311995
 31
0.0
  0
LINE
  5
13B
330
1E
100
AcDbEntity
  8
CSLAYER1
  6
DASHED
 62
     4
100
AcDbLine
 10
108.2982729999999
 20
231.911995
 30
0.0
 11
118.2982729999999
 21
231.911995
 31
0.0
  0
LINE
  5
13C
330
1E
100
AcDbEntity
  8
CSLAYER1
  6
DASHED
 62
     4
100
AcDbLine
 10
118.2982729999999
 20
232.1119949999999
 30
0.0
 11
108.2982729999999
 21
232.1119949999999
 31
0.0
  0
LINE
  5
13D
330
1E
100
AcDbEntity
  8
CSLAYER1
  6
DASHED
 62
     4
100
AcDbLine
 10
118.2982729999999
 20
232.511995
 30
0.0
 11
108.2982729999999
 21
232.511995
 31
0.0
  0
LINE
  5
13E
330
1E
100
AcDbEntity
  8
CSLAYER1
  6
DASHED
 62
     4
100
AcDbLine
 10
118.2982729999999
 20
237.111995
 30
0.0
 11
108.2982729999999
 21
237.111995
 31
0.0
  0
LINE
  5
13F
330
1E
100
AcDbEntity
  8
CSLAYER1
  6
DASHED
 62
     4
100
AcDbLine
 10
118.2982729999999
 20
236.711995
 30
0.0
 11
108.2982729999999
 21
236.711995
 31
0.0
  0
LINE
  5
140
330
1E
100
AcDbEntity
  8
CSLAYER1
  6
DASHED
 62
     4
100
AcDbLine
 10
106.2982729999999
 20
237.111995
 30
0.0
 11
96.298273
 21
237.111995
 31
0.0
  0
LINE
  5
141
330
1E
100
AcDbEntity
  8
CSLAYER1
  6
DASHED
 62
     4
100
AcDbLine
 10
106.2982729999999
 20
236.711995
 30
0.0
 11
96.298273
 21
236.711995
 31
0.0
  0
LINE
  5
142
330
1E
100
AcDbEntity
  8
CSLAYER1
  6
DASHED
 62
     4
100
AcDbLine
 10
106.2982729999999
 20
232.511995
 30
0.0
 11
96.298273
 21
232.511995
 31
0.0
  0
LINE
  5
143
330
1E
100
AcDbEntity
  8
CSLAYER1
  6
DASHED
 62
     4
100
AcDbLine
 10
106.2982729999999
 20
232.1119949999999
 30
0.0
 11
96.298273
 21
232.1119949999999
 31
0.0
  0
LINE
  5
144
330
1E
100
AcDbEntity
  8
CSLAYER1
  6
CONTINUOUS
 62
     3
100
AcDbLine
 10
108.2982729999999
 20
232.1119949999999
 30
0.0
 11
106.2982729999999
 21
232.1119949999999
 31
0.0
  0
LINE
  5
145
330
1E
100
AcDbEntity
  8
CSLAYER1
  6
CONTINUOUS
 62
     4
100
AcDbLine
 10
108.2982729999999
 20
232.511995
 30
0.0
 11
106.2982729999999
 21
232.511995
 31
0.0
  0
LINE
  5
146
330
1E
100
AcDbEntity
  8
CSLAYER1
  6
CONTINUOUS
 62
     4
100
AcDbLine
 10
108.2982729999999
 20
236.711995
 30
0.0
 11
106.2982729999999
 21
236.711995
 31
0.0
  0
LINE
  5
147
330
1E
100
AcDbEntity
  8
CSLAYER1
  6
CONTINUOUS
 62
     3
100
AcDbLine
 10
108.2982729999999
 20
237.111995
 30
0.0
 11
106.2982729999999
 21
237.111995
 31
0.0
  0
LINE
  5
148
330
1E
100
AcDbEntity
  8
CSLAYER1
  6
CENTER
 62
     4
100
AcDbLine
 10
119.111811
 20
177.111995
 30
0.0
 11
151.455576
 21
177.111995
 31
0.0
  0
LINE
  5
149
330
1E
100
AcDbEntity
  8
CSLAYER1
  6
CENTER
 62
     4
100
AcDbLine
 10
119.111811
 20
217.111995
 30
0.0
 11
151.455576
 21
217.111995
 31
0.0
  0
LINE
  5
14A
330
1E
100
AcDbEntity
  8
CSLAYER1
  6
CENTER
 62
     4
100
AcDbLine
 10
95.484734
 20
177.111995
 30
0.0
 11
63.14097
 21
177.111995
 31
0.0
  0
LINE
  5
14B
330
1E
100
AcDbEntity
  8
CSLAYER1
  6
CENTER
 62
     4
100
AcDbLine
 10
95.484734
 20
217.111995
 30
0.0
 11
63.14097
 21
217.111995
 31
0.0
  0
LINE
  5
14C
330
1E
100
AcDbEntity
  8
CSLAYER1
  6
DASHED
 62
     4
100
AcDbLine
 10
224.063027
 20
227.111995
 30
0.0
 11
224.063027
 21
180.8801019999999
 31
0.0
  0
LINE
  5
14D
330
1E
100
AcDbEntity
  8
CSLAYER1
  6
DASHED
 62
     4
100
AcDbLine
 10
224.063027
 20
167.111995
 30
0.0
 11
209.063027
 21
167.111995
 31
0.0
  0
LINE
  5
14E
330
1E
100
AcDbEntity
  8
CSLAYER1
  6
CONTINUOUS
 62
     3
100
AcDbLine
 10
224.063027
 20
242.111995
 30
0.0
 11
209.063027
 21
242.111995
 31
0.0
  0
LINE
  5
14F
330
1E
100
AcDbEntity
  8
CSLAYER1
  6
CONTINUOUS
 62
     3
100
AcDbLine
 10
209.063027
 20
227.111995
 30
0.0
 11
238.563027
 21
227.111995
 31
0.0
  0
LINE
  5
150
330
1E
100
AcDbEntity
  8
CSLAYER1
  6
CENTER
 62
     4
100
AcDbLine
 10
229.7069049999999
 20
177.111995
 30
0.0
 11
203.875308
 21
177.111995
 31
0.0
  0
LINE
  5
151
330
1E
100
AcDbEntity
  8
CSLAYER1
  6
CENTER
 62
     4
100
AcDbLine
 10
228.404472
 20
217.111995
 30
0.0
 11
204.3094529999999
 21
217.111995
 31
0.0
  0
LINE
  5
152
330
1E
100
AcDbEntity
  8
CSLAYER1
  6
CENTER
 62
     4
100
AcDbLine
 10
216.563027
 20
162.6200409999999
 30
0.0
 11
216.563027
 21
247.278216
 31
0.0
  0
LINE
  5
153
330
1E
100
AcDbEntity
  8
CSLAYER1
  6
CENTER
 62
     4
100
AcDbLine
 10
227.1020379999999
 20
234.611995
 30
0.0
 11
206.2631029999999
 21
234.611995
 31
0.0
  0
CIRCLE
  5
154
330
1E
100
AcDbEntity
  8
CSLAYER1
  6
CONTINUOUS
 62
     3
100
AcDbCircle
 10
216.563027
 20
234.611995
 30
0.0
 40
4.25
  0
CIRCLE
  5
155
330
1E
100
AcDbEntity
  8
CSLAYER1
  6
CONTINUOUS
 62
     3
100
AcDbCircle
 10
216.563027
 20
234.611995
 30
0.0
 40
3.730385
  0
LINE
  5
156
330
1E
100
AcDbEntity
  8
CSLAYER1
  6
CONTINUOUS
 62
     3
100
AcDbLine
 10
215.4083259999999
 20
232.611995
 30
0.0
 11
217.717727
 21
232.611995
 31
0.0
  0
LINE
  5
157
330
1E
100
AcDbEntity
  8
CSLAYER1
  6
CONTINUOUS
 62
     3
100
AcDbLine
 10
214.2536259999999
 20
234.611995
 30
0.0
 11
215.4083259999999
 21
232.611995
 31
0.0
  0
LINE
  5
158
330
1E
100
AcDbEntity
  8
CSLAYER1
  6
CONTINUOUS
 62
     3
100
AcDbLine
 10
215.4083259999999
 20
236.611995
 30
0.0
 11
214.2536259999999
 21
234.611995
 31
0.0
  0
LINE
  5
159
330
1E
100
AcDbEntity
  8
CSLAYER1
  6
CONTINUOUS
 62
     3
100
AcDbLine
 10
217.717727
 20
236.611995
 30
0.0
 11
215.4083259999999
 21
236.611995
 31
0.0
  0
LINE
  5
15A
330
1E
100
AcDbEntity
  8
CSLAYER1
  6
CONTINUOUS
 62
     3
100
AcDbLine
 10
218.8724279999999
 20
234.611995
 30
0.0
 11
217.717727
 21
236.611995
 31
0.0
  0
LINE
  5
15B
330
1E
100
AcDbEntity
  8
CSLAYER1
  6
CONTINUOUS
 62
     3
100
AcDbLine
 10
217.717727
 20
232.611995
 30
0.0
 11
218.8724279999999
 21
234.611995
 31
0.0
  0
CIRCLE
  5
15C
330
1E
100
AcDbEntity
  8
CSLAYER1
  6
CONTINUOUS
 62
     3
100
AcDbCircle
 10
216.563027
 20
217.111995
 30
0.0
 40
4.25
  0
CIRCLE
  5
15D
330
1E
100
AcDbEntity
  8
CSLAYER1
  6
CONTINUOUS
 62
     3
100
AcDbCircle
 10
216.563027
 20
217.111995
 30
0.0
 40
3.730385
  0
LINE
  5
15E
330
1E
100
AcDbEntity
  8
CSLAYER1
  6
CONTINUOUS
 62
     3
100
AcDbLine
 10
215.4083259999999
 20
215.111995
 30
0.0
 11
217.717727
 21
215.111995
 31
0.0
  0
LINE
  5
15F
330
1E
100
AcDbEntity
  8
CSLAYER1
  6
CONTINUOUS
 62
     3
100
AcDbLine
 10
214.2536259999999
 20
217.111995
 30
0.0
 11
215.4083259999999
 21
215.111995
 31
0.0
  0
LINE
  5
160
330
1E
100
AcDbEntity
  8
CSLAYER1
  6
CONTINUOUS
 62
     3
100
AcDbLine
 10
215.4083259999999
 20
219.111995
 30
0.0
 11
214.2536259999999
 21
217.111995
 31
0.0
  0
LINE
  5
161
330
1E
100
AcDbEntity
  8
CSLAYER1
  6
CONTINUOUS
 62
     3
100
AcDbLine
 10
217.717727
 20
219.111995
 30
0.0
 11
215.4083259999999
 21
219.111995
 31
0.0
  0
LINE
  5
162
330
1E
100
AcDbEntity
  8
CSLAYER1
  6
CONTINUOUS
 62
     3
100
AcDbLine
 10
218.8724279999999
 20
217.111995
 30
0.0
 11
217.717727
 21
219.111995
 31
0.0
  0
LINE
  5
163
330
1E
100
AcDbEntity
  8
CSLAYER1
  6
CONTINUOUS
 62
     3
100
AcDbLine
 10
217.717727
 20
215.111995
 30
0.0
 11
218.8724279999999
 21
217.111995
 31
0.0
  0
CIRCLE
  5
164
330
1E
100
AcDbEntity
  8
CSLAYER1
  6
CONTINUOUS
 62
     3
100
AcDbCircle
 10
216.563027
 20
177.111995
 30
0.0
 40
4.25
  0
CIRCLE
  5
165
330
1E
100
AcDbEntity
  8
CSLAYER1
  6
CONTINUOUS
 62
     3
100
AcDbCircle
 10
216.563027
 20
177.111995
 30
0.0
 40
3.730385
  0
LINE
  5
166
330
1E
100
AcDbEntity
  8
CSLAYER1
  6
CONTINUOUS
 62
     3
100
AcDbLine
 10
215.4083259999999
 20
175.111995
 30
0.0
 11
217.717727
 21
175.111995
 31
0.0
  0
LINE
  5
167
330
1E
100
AcDbEntity
  8
CSLAYER1
  6
CONTINUOUS
 62
     3
100
AcDbLine
 10
214.2536259999999
 20
177.111995
 30
0.0
 11
215.4083259999999
 21
175.111995
 31
0.0
  0
LINE
  5
168
330
1E
100
AcDbEntity
  8
CSLAYER1
  6
CONTINUOUS
 62
     3
100
AcDbLine
 10
215.4083259999999
 20
179.111995
 30
0.0
 11
214.2536259999999
 21
177.111995
 31
0.0
  0
LINE
  5
169
330
1E
100
AcDbEntity
  8
CSLAYER1
  6
CONTINUOUS
 62
     3
100
AcDbLine
 10
217.717727
 20
179.111995
 30
0.0
 11
215.4083259999999
 21
179.111995
 31
0.0
  0
LINE
  5
16A
330
1E
100
AcDbEntity
  8
CSLAYER1
  6
CONTINUOUS
 62
     3
100
AcDbLine
 10
218.8724279999999
 20
177.111995
 30
0.0
 11
217.717727
 21
179.111995
 31
0.0
  0
LINE
  5
16B
330
1E
100
AcDbEntity
  8
CSLAYER1
  6
CONTINUOUS
 62
     3
100
AcDbLine
 10
217.717727
 20
175.111995
 30
0.0
 11
218.8724279999999
 21
177.111995
 31
0.0
  0
LINE
  5
16C
330
1E
100
AcDbEntity
  8
CSLAYER1
  6
CONTINUOUS
 62
     3
100
AcDbLine
 10
140.2982729999999
 20
227.111995
 30
0.0
 11
140.2982729999999
 21
155.111995
 31
0.0
  0
LINE
  5
16D
330
1E
100
AcDbEntity
  8
CSLAYER1
  6
CONTINUOUS
 62
     3
100
AcDbLine
 10
140.2982729999999
 20
152.111995
 30
0.0
 11
162.2982729999999
 21
152.111995
 31
0.0
  0
LINE
  5
16E
330
1E
100
AcDbEntity
  8
CSLAYER1
  6
CONTINUOUS
 62
     3
100
AcDbLine
 10
140.2982729999999
 20
155.111995
 30
0.0
 11
162.2982729999999
 21
155.111995
 31
0.0
  0
LINE
  5
16F
330
1E
100
AcDbEntity
  8
CSLAYER1
  6
CONTINUOUS
 62
     3
100
AcDbLine
 10
162.2982729999999
 20
155.111995
 30
0.0
 11
162.2982729999999
 21
152.111995
 31
0.0
  0
LINE
  5
170
330
1E
100
AcDbEntity
  8
CSLAYER1
  6
CONTINUOUS
 62
     3
100
AcDbLine
 10
198.563027
 20
152.111995
 30
0.0
 11
268.5630269999999
 21
152.111995
 31
0.0
  0
LINE
  5
171
330
1E
100
AcDbEntity
  8
CSLAYER1
  6
CONTINUOUS
 62
     3
100
AcDbLine
 10
198.563027
 20
155.111995
 30
0.0
 11
268.5630269999999
 21
155.111995
 31
0.0
  0
LINE
  5
172
330
1E
100
AcDbEntity
  8
CSLAYER1
  6
CONTINUOUS
 62
     3
100
AcDbLine
 10
198.563027
 20
152.111995
 30
0.0
 11
198.563027
 21
212.111995
 31
0.0
  0
ARC
  5
173
330
1E
100
AcDbEntity
  8
CSLAYER1
  6
CENTER
 62
     4
100
AcDbCircle
 10
216.563027
 20
217.111995
 30
0.0
 40
40.0
100
AcDbArc
 50
270.0
 51
337.1874439999998
  0
LINE
  5
174
330
1E
100
AcDbEntity
  8
CSLAYER1
  6
CENTER
 62
     4
100
AcDbLine
 10
206.7062629999999
 20
222.8028
 30
0.0
 11
262.462799
 21
190.6117489999999
 31
0.0
  0
ARC
  5
175
330
1E
100
AcDbEntity
  8
CSLAYER1
  6
DASHED
 62
     4
100
AcDbCircle
 10
216.563027
 20
217.111995
 30
0.0
 40
37.0
100
AcDbArc
 50
274.4846299999999
 51
278.427266
  0
ARC
  5
176
330
1E
100
AcDbEntity
  8
CSLAYER1
  6
DASHED
 62
     4
100
AcDbCircle
 10
216.563027
 20
217.111995
 30
0.0
 40
43.0
100
AcDbArc
 50
274.159851
 51
277.8162529999999
  0
ARC
  5
177
330
1E
100
AcDbEntity
  8
CSLAYER1
  6
CONTINUOUS
 62
     3
100
AcDbCircle
 10
251.204043
 20
197.111995
 30
0.0
 40
3.0
100
AcDbArc
 50
330.0
 51
150.0
  0
LINE
  5
178
330
1E
100
AcDbEntity
  8
CSLAYER1
  6
CONTINUOUS
 62
     3
100
AcDbLine
 10
268.5630269999999
 20
152.111995
 30
0.0
 11
268.5630269999999
 21
197.111995
 31
0.0
  0
LINE
  5
179
330
1E
100
AcDbEntity
  8
CSLAYER1
  6
CONTINUOUS
 62
     3
100
AcDbLine
 10
209.063027
 20
222.611995
 30
0.0
 11
209.063027
 21
242.111995
 31
0.0
  0
LINE
  5
17A
330
1E
100
AcDbEntity
  8
CSLAYER1
  6
CONTINUOUS
 62
     3
100
AcDbLine
 10
224.063027
 20
227.111995
 30
0.0
 11
224.063027
 21
242.111995
 31
0.0
  0
LINE
  5
17B
330
1E
100
AcDbEntity
  8
CSLAYER1
  6
DASHED
 62
     4
100
AcDbLine
 10
209.063027
 20
167.111995
 30
0.0
 11
209.063027
 21
222.611995
 31
0.0
  0
LINE
  5
17C
330
1E
100
AcDbEntity
  8
CSLAYER1
  6
CONTINUOUS
 62
     3
100
AcDbLine
 10
224.063027
 20
174.7711159999999
 30
0.0
 11
224.063027
 21
180.8801019999999
 31
0.0
  0
LINE
  5
17D
330
1E
100
AcDbEntity
  8
CSLAYER1
  6
CONTINUOUS
 62
     3
100
AcDbLine
 10
74.29827299999998
 20
227.111995
 30
0.0
 11
74.29827299999998
 21
155.111995
 31
0.0
  0
LINE
  5
17E
330
1E
100
AcDbEntity
  8
CSLAYER1
  6
CONTINUOUS
 62
     3
100
AcDbLine
 10
74.29827299999998
 20
152.111995
 30
0.0
 11
52.298273
 21
152.111995
 31
0.0
  0
LINE
  5
17F
330
1E
100
AcDbEntity
  8
CSLAYER1
  6
CONTINUOUS
 62
     3
100
AcDbLine
 10
74.29827299999998
 20
155.111995
 30
0.0
 11
52.298273
 21
155.111995
 31
0.0
  0
LINE
  5
180
330
1E
100
AcDbEntity
  8
CSLAYER1
  6
CONTINUOUS
 62
     3
100
AcDbLine
 10
52.298273
 20
155.111995
 30
0.0
 11
52.298273
 21
152.111995
 31
0.0
  0
LINE
  5
181
330
1E
100
AcDbEntity
  8
CSLAYER1
  6
CONTINUOUS
 62
     3
100
AcDbLine
 10
52.298273
 20
45.90905
 30
0.0
 11
77.298273
 21
45.90905
 31
0.0
  0
LINE
  5
182
330
1E
100
AcDbEntity
  8
CSLAYER1
  6
CONTINUOUS
 62
     3
100
AcDbLine
 10
52.298273
 20
115.90905
 30
0.0
 11
77.298273
 21
115.90905
 31
0.0
  0
LINE
  5
183
330
1E
100
AcDbEntity
  8
CSLAYER1
  6
CONTINUOUS
 62
     3
100
AcDbLine
 10
52.298273
 20
45.90905
 30
0.0
 11
52.298273
 21
115.90905
 31
0.0
  0
LINE
  5
184
330
1E
100
AcDbEntity
  8
CSLAYER1
  6
CONTINUOUS
 62
     3
100
AcDbLine
 10
162.2982729999999
 20
45.90905
 30
0.0
 11
162.2982729999999
 21
115.90905
 31
0.0
  0
LINE
  5
185
330
1E
100
AcDbEntity
  8
CSLAYER1
  6
CONTINUOUS
 62
     3
100
AcDbLine
 10
137.2982729999999
 20
45.90905
 30
0.0
 11
137.2982729999999
 21
115.90905
 31
0.0
  0
LINE
  5
186
330
1E
100
AcDbEntity
  8
CSLAYER1
  6
CONTINUOUS
 62
     3
100
AcDbLine
 10
77.298273
 20
45.90905
 30
0.0
 11
77.298273
 21
115.90905
 31
0.0
  0
LINE
  5
187
330
1E
100
AcDbEntity
  8
CSLAYER1
  6
CONTINUOUS
 62
     3
100
AcDbLine
 10
77.298273
 20
105.40905
 30
0.0
 11
137.2982729999999
 21
105.40905
 31
0.0
  0
LINE
  5
188
330
1E
100
AcDbEntity
  8
CSLAYER1
  6
CONTINUOUS
 62
     3
100
AcDbLine
 10
77.298273
 20
90.40905
 30
0.0
 11
137.2982729999999
 21
90.40905
 31
0.0
  0
LINE
  5
189
330
1E
100
AcDbEntity
  8
CSLAYER1
  6
CONTINUOUS
 62
     3
100
AcDbLine
 10
137.2982729999999
 20
45.90905
 30
0.0
 11
162.2982729999999
 21
45.90905
 31
0.0
  0
LINE
  5
18A
330
1E
100
AcDbEntity
  8
CSLAYER1
  6
CONTINUOUS
 62
     3
100
AcDbLine
 10
137.2982729999999
 20
115.90905
 30
0.0
 11
162.2982729999999
 21
115.90905
 31
0.0
  0
LINE
  5
18B
330
1E
100
AcDbEntity
  8
CSLAYER1
  6
CENTER
 62
     4
100
AcDbLine
 10
107.2982729999999
 20
37.655291
 30
0.0
 11
107.2982729999999
 21
124.646326
 31
0.0
  0
LINE
  5
18C
330
1E
100
AcDbEntity
  8
CSLAYER1
  6
CENTER
 62
     4
100
AcDbLine
 10
153.298273
 20
38.06477499999999
 30
0.0
 11
153.298273
 21
120.792973
 31
0.0
  0
LINE
  5
18D
330
1E
100
AcDbEntity
  8
CSLAYER1
  6
DASHED
 62
     4
100
AcDbLine
 10
140.2982729999999
 20
45.90905
 30
0.0
 11
140.2982729999999
 21
115.90905
 31
0.0
  0
LINE
  5
18E
330
1E
100
AcDbEntity
  8
CSLAYER1
  6
CENTER
 62
     4
100
AcDbLine
 10
153.298273
 20
161.069917
 30
0.0
 11
153.298273
 21
148.866545
 31
0.0
  0
LINE
  5
18F
330
1E
100
AcDbEntity
  8
CSLAYER1
  6
CENTER
 62
     4
100
AcDbLine
 10
208.563027
 20
149.438579
 30
0.0
 11
208.563027
 21
161.4512729999999
 31
0.0
  0
LINE
  5
190
330
1E
100
AcDbEntity
  8
CSLAYER1
  6
CENTER
 62
     4
100
AcDbLine
 10
258.5630269999999
 20
148.866545
 30
0.0
 11
258.5630269999999
 21
161.64195
 31
0.0
  0
LINE
  5
191
330
1E
100
AcDbEntity
  8
CSLAYER1
  6
CENTER
 62
     4
100
AcDbLine
 10
147.5810139999999
 20
105.9090499999999
 30
0.0
 11
158.148322
 21
105.9090499999999
 31
0.0
  0
ARC
  5
192
330
1E
100
AcDbEntity
  8
CSLAYER1
  6
CONTINUOUS
 62
     3
100
AcDbCircle
 10
153.298273
 20
105.9090499999999
 30
0.0
 40
3.0
100
AcDbArc
 50
0.0
 51
180.0
  0
LINE
  5
193
330
1E
100
AcDbEntity
  8
CSLAYER1
  6
CENTER
 62
     4
100
AcDbLine
 10
61.29827299999998
 20
38.06477499999999
 30
0.0
 11
61.29827299999998
 21
120.792973
 31
0.0
  0
LINE
  5
194
330
1E
100
AcDbEntity
  8
CSLAYER1
  6
DASHED
 62
     4
100
AcDbLine
 10
74.29827299999998
 20
45.90905
 30
0.0
 11
74.29827299999998
 21
115.90905
 31
0.0
  0
LINE
  5
195
330
1E
100
AcDbEntity
  8
CSLAYER1
  6
CENTER
 62
     4
100
AcDbLine
 10
61.29827299999998
 20
161.069917
 30
0.0
 11
61.29827299999998
 21
148.866545
 31
0.0
  0
LINE
  5
196
330
1E
100
AcDbEntity
  8
CSLAYER1
  6
CENTER
 62
     4
100
AcDbLine
 10
244.2351949999999
 20
197.111995
 30
0.0
 11
193.8351949999999
 21
197.111995
 31
0.0
  0
LINE
  5
197
330
1E
100
AcDbEntity
  8
CSLAYER1
  6
DASHED
 62
     4
100
AcDbLine
 10
224.063027
 20
174.7711159999999
 30
0.0
 11
224.063027
 21
167.111995
 31
0.0
  0
LINE
  5
198
330
1E
100
AcDbEntity
  8
CSLAYER1
  6
CONTINUOUS
 62
     3
100
AcDbLine
 10
238.563027
 20
227.111995
 30
0.0
 11
268.5630269999999
 21
197.111995
 31
0.0
  0
LINE
  5
199
330
1E
100
AcDbEntity
  8
CSLAYER1
  6
CENTER
 62
     4
100
AcDbLine
 10
71.201486
 20
197.111995
 30
0.0
 11
143.924574
 21
197.111995
 31
0.0
  0
DIMENSION
  5
19A
330
1E
100
AcDbEntity
  8
CSLAYER1
 62
     4
100
AcDbDimension
  2
*D0
 10
162.2982729999999
 20
133.808722
 30
0.0
 11
107.298271
 21
134.308716
 31
0.0
 70
     1
100
AcDbAlignedDimension
 13
52.298273
 23
115.90905
 33
0.0
 14
162.2982729999999
 24
115.90905
 34
0.0
  0
DIMENSION
  5
19B
330
1E
100
AcDbEntity
  8
CSLAYER1
 62
     4
100
AcDbDimension
  2
*D1
 10
61.29827299999998
 20
127.8087219999999
 30
0.0
 11
56.798271
 21
128.308716
 31
0.0
100
AcDbAlignedDimension
 13
52.298273
 23
115.90905
 33
0.0
 14
61.29827299999998
 24
120.792973
 34
0.0
100
AcDbRotatedDimension
  0
DIMENSION
  5
19C
330
1E
100
AcDbEntity
  8
CSLAYER1
 62
     4
100
AcDbDimension
  2
*D2
 10
153.298273
 20
127.8087219999999
 30
0.0
 11
107.298271
 21
128.308716
 31
0.0
 70
     1
100
AcDbAlignedDimension
 13
61.29827299999998
 23
120.792973
 33
0.0
 14
153.298273
 24
120.792973
 34
0.0
  0
DIMENSION
  5
19D
330
1E
100
AcDbEntity
  8
CSLAYER1
 62
     4
100
AcDbDimension
  2
*D3
 10
162.2982729999999
 20
127.8087219999999
 30
0.0
 11
157.798279
 21
128.308716
 31
0.0
100
AcDbAlignedDimension
 13
153.298273
 23
120.792973
 33
0.0
 14
162.2982729999999
 24
115.90905
 34
0.0
100
AcDbRotatedDimension
  0
DIMENSION
  5
19E
330
1E
100
AcDbEntity
  8
CSLAYER1
 62
     4
100
AcDbDimension
  2
*D4
 10
162.2982729999999
 20
258.859337
 30
0.0
 11
107.298271
 21
259.359344
 31
0.0
 70
     1
100
AcDbAlignedDimension
 13
52.298273
 23
155.111995
 33
0.0
 14
162.2982729999999
 24
155.111995
 34
0.0
  0
DIMENSION
  5
19F
330
1E
100
AcDbEntity
  8
CSLAYER1
 62
     4
100
AcDbDimension
  2
*D5
 10
77.298273
 20
252.859337
 30
0.0
 11
64.798271
 21
253.359329
 31
0.0
100
AcDbAlignedDimension
 13
52.298273
 23
155.111995
 33
0.0
 14
77.298273
 24
227.111995
 34
0.0
100
AcDbRotatedDimension
  0
DIMENSION
  5
1A0
330
1E
100
AcDbEntity
  8
CSLAYER1
 62
     4
100
AcDbDimension
  2
*D6
 10
137.2982729999999
 20
252.859337
 30
0.0
 11
107.298271
 21
253.359329
 31
0.0
 70
     1
100
AcDbAlignedDimension
 13
77.298273
 23
227.111995
 33
0.0
 14
137.2982729999999
 24
227.111995
 34
0.0
  0
DIMENSION
  5
1A1
330
1E
100
AcDbEntity
  8
CSLAYER1
 62
     4
100
AcDbDimension
  2
*D7
 10
162.2982729999999
 20
252.859337
 30
0.0
 11
149.798279
 21
253.359329
 31
0.0
100
AcDbAlignedDimension
 13
137.2982729999999
 23
227.111995
 33
0.0
 14
162.2982729999999
 24
155.111995
 34
0.0
100
AcDbRotatedDimension
  0
DIMENSION
  5
1A2
330
1E
100
AcDbEntity
  8
CSLAYER1
 62
     4
100
AcDbDimension
  2
*D8
 10
125.294294
 20
210.617297
 30
0.0
 11
98.00014500000001
 21
190.759262
 31
0.0
 70
     3
100
AcDbDiametricDimension
 15
89.30225099999999
 25
183.606692
 35
0.0
 40
0.0
  0
DIMENSION
  5
1A3
330
1E
100
AcDbEntity
  8
CSLAYER1
 62
     4
100
AcDbDimension
  2
*D9
 10
224.063027
 20
254.803739
 30
0.0
 11
216.563049
 21
255.3037409999999
 31
0.0
 70
     1
100
AcDbAlignedDimension
 13
209.063027
 23
242.111995
 33
0.0
 14
224.063027
 24
242.111995
 34
0.0
  0
DIMENSION
  5
1A4
330
1E
100
AcDbEntity
  8
CSLAYER1
 62
     4
100
AcDbDimension
  2
*D10
 10
268.5630269999999
 20
254.803739
 30
0.0
 11
246.313049
 21
255.3037409999999
 31
0.0
100
AcDbAlignedDimension
 13
224.063027
 23
242.111995
 33
0.0
 14
268.5630269999999
 24
197.111995
 34
0.0
100
AcDbRotatedDimension
  0
DIMENSION
  5
1A5
330
1E
100
AcDbEntity
  8
CSLAYER1
 62
     4
100
AcDbDimension
  2
*D11
 10
209.063027
 20
254.803739
 30
0.0
 11
191.1630399999999
 21
255.3037409999999
 31
0.0
100
AcDbAlignedDimension
 13
198.563027
 23
212.111995
 33
0.0
 14
209.063027
 24
242.111995
 34
0.0
100
AcDbRotatedDimension
  0
LINE
  5
1A7
330
1E
100
AcDbEntity
  8
CSLAYER1
  6
DASHED
 62
     4
100
AcDbLine
 10
300.4395629999998
 20
125.7976709999999
 30
0.0
 11
330.756079
 21
95.48115499999999
 31
0.0
  0
LINE
  5
1A8
330
1E
100
AcDbEntity
  8
CSLAYER1
  6
DASHED
 62
     4
100
AcDbLine
 10
340.4916019999999
 20
85.745632
 30
0.0
 11
329.8849999999998
 21
75.139031
 31
0.0
  0
LINE
  5
1A9
330
1E
100
AcDbEntity
  8
CSLAYER1
  6
CONTINUOUS
 62
     3
100
AcDbLine
 10
287.458593
 20
138.7786409999999
 30
0.0
 11
276.851991
 21
128.1720389999998
 31
0.0
  0
LINE
  5
1AA
330
1E
100
AcDbEntity
  8
CSLAYER1
  6
CONTINUOUS
 62
     3
100
AcDbLine
 10
296.832962
 20
125.7976709999999
 30
0.0
 11
321.832962
 21
125.7976709999999
 31
0.0
  0
LINE
  5
1AB
330
1E
100
AcDbEntity
  8
CSLAYER1
  6
CENTER
 62
     4
100
AcDbLine
 10
337.4113579999999
 20
96.807525
 30
0.0
 11
319.1456609999999
 21
78.54182699999999
 31
0.0
  0
LINE
  5
1AC
330
1E
100
AcDbEntity
  8
CSLAYER1
  6
CENTER
 62
     4
100
AcDbLine
 10
311.6744069999998
 20
115.797671
 30
0.0
 11
287.5793879999998
 21
115.797671
 31
0.0
  0
LINE
  5
1AD
330
1E
100
AcDbEntity
  8
CSLAYER1
  6
CENTER
 62
     4
100
AcDbLine
 10
338.364592
 20
77.26604
 30
0.0
 11
278.502222
 21
137.12841
 31
0.0
  0
LINE
  5
1AE
330
1E
100
AcDbEntity
  8
CSLAYER1
  6
CENTER
 62
     4
100
AcDbLine
 10
294.9107999999998
 20
135.624246
 30
0.0
 11
280.175447
 21
120.888893
 31
0.0
  0
CIRCLE
  5
1AF
330
1E
100
AcDbEntity
  8
CSLAYER1
  6
CONTINUOUS
 62
     3
100
AcDbCircle
 10
287.458593
 20
128.1720389999998
 30
0.0
 40
4.25
  0
CIRCLE
  5
1B0
330
1E
100
AcDbEntity
  8
CSLAYER1
  6
CONTINUOUS
 62
     3
100
AcDbCircle
 10
287.458593
 20
128.1720389999998
 30
0.0
 40
3.730385
  0
LINE
  5
1B1
330
1E
100
AcDbEntity
  8
CSLAYER1
  6
CONTINUOUS
 62
     3
100
AcDbLine
 10
288.0563099999998
 20
125.941329
 30
0.0
 11
289.689303
 21
127.574322
 31
0.0
  0
LINE
  5
1B2
330
1E
100
AcDbEntity
  8
CSLAYER1
  6
CONTINUOUS
 62
     3
100
AcDbLine
 10
285.8256
 20
126.539046
 30
0.0
 11
288.0563099999998
 21
125.941329
 31
0.0
  0
LINE
  5
1B3
330
1E
100
AcDbEntity
  8
CSLAYER1
  6
CONTINUOUS
 62
     3
100
AcDbLine
 10
285.227883
 20
128.769756
 30
0.0
 11
285.8256
 21
126.539046
 31
0.0
  0
LINE
  5
1B4
330
1E
100
AcDbEntity
  8
CSLAYER1
  6
CONTINUOUS
 62
     3
100
AcDbLine
 10
286.8608759999998
 20
130.4027489999999
 30
0.0
 11
285.227883
 21
128.769756
 31
0.0
  0
LINE
  5
1B5
330
1E
100
AcDbEntity
  8
CSLAYER1
  6
CONTINUOUS
 62
     3
100
AcDbLine
 10
289.091586
 20
129.805032
 30
0.0
 11
286.8608759999998
 21
130.4027489999999
 31
0.0
  0
LINE
  5
1B6
330
1E
100
AcDbEntity
  8
CSLAYER1
  6
CONTINUOUS
 62
     3
100
AcDbLine
 10
289.689303
 20
127.574322
 30
0.0
 11
289.091586
 21
129.805032
 31
0.0
  0
CIRCLE
  5
1B7
330
1E
100
AcDbEntity
  8
CSLAYER1
  6
CONTINUOUS
 62
     3
100
AcDbCircle
 10
299.832962
 20
115.797671
 30
0.0
 40
4.25
  0
CIRCLE
  5
1B8
330
1E
100
AcDbEntity
  8
CSLAYER1
  6
CONTINUOUS
 62
     3
100
AcDbCircle
 10
299.832962
 20
115.797671
 30
0.0
 40
3.730385
  0
LINE
  5
1B9
330
1E
100
AcDbEntity
  8
CSLAYER1
  6
CONTINUOUS
 62
     3
100
AcDbLine
 10
298.6782609999999
 20
113.797671
 30
0.0
 11
300.987662
 21
113.797671
 31
0.0
  0
LINE
  5
1BA
330
1E
100
AcDbEntity
  8
CSLAYER1
  6
CONTINUOUS
 62
     3
100
AcDbLine
 10
297.523561
 20
115.797671
 30
0.0
 11
298.6782609999999
 21
113.797671
 31
0.0
  0
LINE
  5
1BB
330
1E
100
AcDbEntity
  8
CSLAYER1
  6
CONTINUOUS
 62
     3
100
AcDbLine
 10
298.6782609999999
 20
117.797671
 30
0.0
 11
297.523561
 21
115.797671
 31
0.0
  0
LINE
  5
1BC
330
1E
100
AcDbEntity
  8
CSLAYER1
  6
CONTINUOUS
 62
     3
100
AcDbLine
 10
300.987662
 20
117.797671
 30
0.0
 11
298.6782609999999
 21
117.797671
 31
0.0
  0
LINE
  5
1BD
330
1E
100
AcDbEntity
  8
CSLAYER1
  6
CONTINUOUS
 62
     3
100
AcDbLine
 10
302.142363
 20
115.797671
 30
0.0
 11
300.987662
 21
117.797671
 31
0.0
  0
LINE
  5
1BE
330
1E
100
AcDbEntity
  8
CSLAYER1
  6
CONTINUOUS
 62
     3
100
AcDbLine
 10
300.987662
 20
113.797671
 30
0.0
 11
302.142363
 21
115.797671
 31
0.0
  0
CIRCLE
  5
1BF
330
1E
100
AcDbEntity
  8
CSLAYER1
  6
CONTINUOUS
 62
     3
100
AcDbCircle
 10
328.1172329999999
 20
87.51339899999997
 30
0.0
 40
4.25
  0
CIRCLE
  5
1C0
330
1E
100
AcDbEntity
  8
CSLAYER1
  6
CONTINUOUS
 62
     3
100
AcDbCircle
 10
328.1172329999999
 20
87.51339899999997
 30
0.0
 40
3.730385
  0
LINE
  5
1C1
330
1E
100
AcDbEntity
  8
CSLAYER1
  6
CONTINUOUS
 62
     3
100
AcDbLine
 10
328.7149499999998
 20
85.282689
 30
0.0
 11
330.347943
 21
86.91568199999997
 31
0.0
  0
LINE
  5
1C2
330
1E
100
AcDbEntity
  8
CSLAYER1
  6
CONTINUOUS
 62
     3
100
AcDbLine
 10
326.48424
 20
85.88040600000002
 30
0.0
 11
328.7149499999998
 21
85.282689
 31
0.0
  0
LINE
  5
1C3
330
1E
100
AcDbEntity
  8
CSLAYER1
  6
CONTINUOUS
 62
     3
100
AcDbLine
 10
325.886523
 20
88.11111600000002
 30
0.0
 11
326.48424
 21
85.88040600000002
 31
0.0
  0
LINE
  5
1C4
330
1E
100
AcDbEntity
  8
CSLAYER1
  6
CONTINUOUS
 62
     3
100
AcDbLine
 10
327.5195159999999
 20
89.744109
 30
0.0
 11
325.886523
 21
88.11111600000002
 31
0.0
  0
LINE
  5
1C5
330
1E
100
AcDbEntity
  8
CSLAYER1
  6
CONTINUOUS
 62
     3
100
AcDbLine
 10
329.7502259999999
 20
89.14639200000001
 30
0.0
 11
327.5195159999999
 21
89.744109
 31
0.0
  0
LINE
  5
1C6
330
1E
100
AcDbEntity
  8
CSLAYER1
  6
CONTINUOUS
 62
     3
100
AcDbLine
 10
330.347943
 20
86.91568199999997
 30
0.0
 11
329.7502259999999
 21
89.14639200000001
 31
0.0
  0
LINE
  5
1C7
330
1E
100
AcDbEntity
  8
CSLAYER1
  6
CONTINUOUS
 62
     3
100
AcDbLine
 10
281.832962
 20
50.797671
 30
0.0
 11
351.832962
 21
50.797671
 31
0.0
  0
LINE
  5
1C8
330
1E
100
AcDbEntity
  8
CSLAYER1
  6
CONTINUOUS
 62
     3
100
AcDbLine
 10
281.832962
 20
53.79767099999998
 30
0.0
 11
351.832962
 21
53.79767099999998
 31
0.0
  0
LINE
  5
1C9
330
1E
100
AcDbEntity
  8
CSLAYER1
  6
CONTINUOUS
 62
     3
100
AcDbLine
 10
281.832962
 20
50.797671
 30
0.0
 11
281.832962
 21
110.7976709999999
 31
0.0
  0
ARC
  5
1CA
330
1E
100
AcDbEntity
  8
CSLAYER1
  6
CENTER
 62
     4
100
AcDbCircle
 10
299.832962
 20
115.797671
 30
0.0
 40
40.0
100
AcDbArc
 50
260.7096879999999
 51
337.1874439999998
  0
LINE
  5
1CB
330
1E
100
AcDbEntity
  8
CSLAYER1
  6
CENTER
 62
     4
100
AcDbLine
 10
289.976198
 20
121.488476
 30
0.0
 11
345.7327339999998
 21
89.29742500000001
 31
0.0
  0
ARC
  5
1CC
330
1E
100
AcDbEntity
  8
CSLAYER1
  6
CONTINUOUS
 62
     3
100
AcDbCircle
 10
299.832962
 20
115.797671
 30
0.0
 40
37.0
100
AcDbArc
 50
270.0
 51
306.5727339999999
  0
ARC
  5
1CD
330
1E
100
AcDbEntity
  8
CSLAYER1
  6
CONTINUOUS
 62
     3
100
AcDbCircle
 10
299.832962
 20
115.797671
 30
0.0
 40
43.0
100
AcDbArc
 50
270.0
 51
307.183747
  0
ARC
  5
1CE
330
1E
100
AcDbEntity
  8
CSLAYER1
  6
CONTINUOUS
 62
     3
100
AcDbCircle
 10
334.4739779999998
 20
95.79767099999999
 30
0.0
 40
3.0
100
AcDbArc
 50
330.0
 51
150.0
  0
LINE
  5
1CF
330
1E
100
AcDbEntity
  8
CSLAYER1
  6
CONTINUOUS
 62
     3
100
AcDbLine
 10
351.832962
 20
50.797671
 30
0.0
 11
351.832962
 21
95.79767099999999
 31
0.0
  0
LINE
  5
1D0
330
1E
100
AcDbEntity
  8
CSLAYER1
  6
CONTINUOUS
 62
     3
100
AcDbLine
 10
288.0296609999998
 20
116.9943699999999
 30
0.0
 11
276.851991
 21
128.1720389999998
 31
0.0
  0
LINE
  5
1D1
330
1E
100
AcDbEntity
  8
CSLAYER1
  6
CONTINUOUS
 62
     3
100
AcDbLine
 10
300.4395629999998
 20
125.7976709999999
 30
0.0
 11
287.458593
 21
138.7786409999999
 31
0.0
  0
LINE
  5
1D2
330
1E
100
AcDbEntity
  8
CSLAYER1
  6
DASHED
 62
     4
100
AcDbLine
 10
329.8849999999998
 20
75.139031
 30
0.0
 11
324.4691829999998
 21
80.55484699999999
 31
0.0
  0
LINE
  5
1D3
330
1E
100
AcDbEntity
  8
CSLAYER1
  6
CONTINUOUS
 62
     3
100
AcDbLine
 10
335.0757849999999
 20
91.161449
 30
0.0
 11
330.756079
 21
95.48115499999999
 31
0.0
  0
LINE
  5
1D4
330
1E
100
AcDbEntity
  8
CSLAYER1
  6
CENTER
 62
     4
100
AcDbLine
 10
291.832962
 20
48.12425499999999
 30
0.0
 11
291.832962
 21
60.136949
 31
0.0
  0
LINE
  5
1D5
330
1E
100
AcDbEntity
  8
CSLAYER1
  6
CENTER
 62
     4
100
AcDbLine
 10
341.832962
 20
47.552221
 30
0.0
 11
341.832962
 21
58.41842800000002
 31
0.0
  0
LINE
  5
1D6
330
1E
100
AcDbEntity
  8
CSLAYER1
  6
CENTER
 62
     4
100
AcDbLine
 10
361.461566
 20
149.142004
 30
0.0
 11
259.653121
 21
47.333558
 31
0.0
  0
LINE
  5
1D7
330
1E
100
AcDbEntity
  8
CSLAYER1
  6
DASHED
 62
     4
100
AcDbLine
 10
335.0757849999999
 20
91.161449
 30
0.0
 11
340.4916019999999
 21
85.745632
 31
0.0
  0
LINE
  5
1D8
330
1E
100
AcDbEntity
  8
CSLAYER1
  6
CONTINUOUS
 62
     3
100
AcDbLine
 10
321.832962
 20
125.7976709999999
 30
0.0
 11
351.832962
 21
95.79767099999999
 31
0.0
  0
LINE
  5
1D9
330
1E
100
AcDbEntity
  8
CSLAYER1
  6
CONTINUOUS
 62
     3
100
AcDbLine
 10
357.276016
 20
113.136648
 30
0.0
 11
325.456211
 21
144.956453
 31
0.0
  0
LINE
  5
1DA
330
1E
100
AcDbEntity
  8
CSLAYER1
  6
CONTINUOUS
 62
     3
100
AcDbLine
 10
328.9917439999998
 20
148.491987
 30
0.0
 11
306.2974279999999
 21
125.7976709999999
 31
0.0
  0
LINE
  5
1DB
330
1E
100
AcDbEntity
  8
CSLAYER1
  6
CONTINUOUS
 62
     3
100
AcDbLine
 10
269.594775
 20
89.09501800000002
 30
0.0
 11
281.832962
 21
76.856831
 31
0.0
  0
LINE
  5
1DC
330
1E
100
AcDbEntity
  8
CSLAYER1
  6
DASHED
 62
     4
100
AcDbLine
 10
301.41458
 20
57.27521199999999
 30
0.0
 11
345.8849999999998
 21
101.7456319999999
 31
0.0
  0
LINE
  5
1DD
330
1E
100
AcDbEntity
  8
CSLAYER1
  6
CONTINUOUS
 62
     3
100
AcDbLine
 10
360.81155
 20
116.672182
 30
0.0
 11
359.043783
 21
118.439949
 31
0.0
  0
ARC
  5
1DE
330
1E
100
AcDbEntity
  8
CSLAYER1
  6
CONTINUOUS
 62
     3
100
AcDbCircle
 10
360.4579959999998
 20
119.8541629999999
 30
0.0
 40
2.0
100
AcDbArc
 50
135.0
 51
225.0
  0
LINE
  5
1DF
330
1E
100
AcDbEntity
  8
CSLAYER1
  6
CONTINUOUS
 62
     3
100
AcDbLine
 10
359.043783
 20
121.2683759999999
 30
0.0
 11
367.1755109999998
 21
129.4001039999999
 31
0.0
  0
LINE
  5
1E0
330
1E
100
AcDbEntity
  8
CSLAYER1
  6
CONTINUOUS
 62
     3
100
AcDbLine
 10
367.1755109999998
 20
129.4001039999999
 30
0.0
 11
341.719667
 21
154.855948
 31
0.0
  0
LINE
  5
1E1
330
1E
100
AcDbEntity
  8
CSLAYER1
  6
CONTINUOUS
 62
     3
100
AcDbLine
 10
341.719667
 20
154.855948
 30
0.0
 11
333.587939
 21
146.72422
 31
0.0
  0
ARC
  5
1E2
330
1E
100
AcDbEntity
  8
CSLAYER1
  6
CONTINUOUS
 62
     3
100
AcDbCircle
 10
332.1737249999998
 20
148.138434
 30
0.0
 40
2.0
100
AcDbArc
 50
225.0
 51
315.0
  0
LINE
  5
1E3
330
1E
100
AcDbEntity
  8
CSLAYER1
  6
CONTINUOUS
 62
     3
100
AcDbLine
 10
330.7595109999998
 20
146.72422
 30
0.0
 11
328.9917439999998
 21
148.491987
 31
0.0
  0
LINE
  5
1E4
330
1E
100
AcDbEntity
  8
CSLAYER1
  6
CONTINUOUS
 62
     3
100
AcDbLine
 10
341.719667
 20
154.855948
 30
0.0
 11
343.840987
 21
154.855948
 31
0.0
  0
LINE
  5
1E5
330
1E
100
AcDbEntity
  8
CSLAYER1
  6
CONTINUOUS
 62
     3
100
AcDbLine
 10
343.840987
 20
154.855948
 30
0.0
 11
367.1755109999998
 21
131.5214239999999
 31
0.0
  0
ARC
  5
1E6
330
1E
100
AcDbEntity
  8
CSLAYER1
  6
CONTINUOUS
 62
     3
100
AcDbCircle
 10
255.312148
 20
81.88345899999999
 30
0.0
 40
16.0
100
AcDbArc
 50
315.0
 51
26.790043
  0
LINE
  5
1E7
330
1E
100
AcDbEntity
  8
CSLAYER1
  6
CONTINUOUS
 62
     3
100
AcDbLine
 10
266.625857
 20
70.56975
 30
0.0
 11
258.63462
 21
62.578513
 31
0.0
  0
LINE
  5
1E8
330
1E
100
AcDbEntity
  8
CSLAYER1
  6
CONTINUOUS
 62
     3
100
AcDbLine
 10
258.63462
 20
62.578513
 30
0.0
 11
258.63462
 21
57.62876600000002
 31
0.0
  0
LINE
  5
1E9
330
1E
100
AcDbEntity
  8
CSLAYER1
  6
CONTINUOUS
 62
     3
100
AcDbLine
 10
258.63462
 20
57.62876600000002
 30
0.0
 11
260.048833
 21
56.214552
 31
0.0
  0
LINE
  5
1EA
330
1E
100
AcDbEntity
  8
CSLAYER1
  6
CONTINUOUS
 62
     3
100
AcDbLine
 10
260.048833
 20
56.214552
 30
0.0
 11
276.312289
 21
72.478008
 31
0.0
  0
LINE
  5
1EB
330
1E
100
AcDbEntity
  8
CSLAYER1
  6
CONTINUOUS
 62
     3
100
AcDbLine
 10
276.312289
 20
72.478008
 30
0.0
 11
281.832962
 21
66.957336
 31
0.0
  0
LINE
  5
1EC
330
1E
100
AcDbEntity
  8
CSLAYER1
  6
DASHED
 62
     4
100
AcDbLine
 10
284.797571
 20
63.992727
 30
0.0
 11
281.832962
 21
61.02811800000001
 31
0.0
  0
LINE
  5
1ED
330
1E
100
AcDbEntity
  8
CSLAYER1
  6
CONTINUOUS
 62
     3
100
AcDbLine
 10
268.5341149999999
 20
47.729271
 30
0.0
 11
269.9483279999999
 21
46.315057
 31
0.0
  0
LINE
  5
1EE
330
1E
100
AcDbEntity
  8
CSLAYER1
  6
CONTINUOUS
 62
     3
100
AcDbLine
 10
269.9483279999999
 20
46.315057
 30
0.0
 11
274.898076
 21
46.315057
 31
0.0
  0
LINE
  5
1EF
330
1E
100
AcDbEntity
  8
CSLAYER1
  6
CONTINUOUS
 62
     3
100
AcDbLine
 10
274.898076
 20
46.315057
 30
0.0
 11
281.832962
 21
53.249943
 31
0.0
  0
ARC
  5
1F0
330
1E
100
AcDbEntity
  8
CSLAYER1
  6
DASHED
 62
     4
100
AcDbCircle
 10
294.203021
 20
42.99258599999999
 30
0.0
 40
16.0
100
AcDbArc
 50
63.209957
 51
135.0
  0
LINE
  5
1F1
330
1E
100
AcDbEntity
  8
CSLAYER1
  6
DASHED
 62
     4
100
AcDbLine
 10
283.0502
 20
53.212219
 30
0.0
 11
282.4227189999998
 21
53.8397
 31
0.0
  0
LINE
  5
1F2
330
1E
100
AcDbEntity
  8
CSLAYER1
  6
DASHED
 62
     4
100
AcDbLine
 10
283.0502
 20
53.212219
 30
0.0
 11
282.8883819999998
 21
52.60830799999999
 31
0.0
  0
LINE
  5
1F3
330
1E
100
AcDbEntity
  8
CSLAYER1
  6
DASHED
 62
     4
100
AcDbLine
 10
282.8883819999998
 20
52.60830799999999
 30
0.0
 11
281.832962
 21
51.55288699999999
 31
0.0
  0
LINE
  5
1F4
330
1E
100
AcDbEntity
  8
CSLAYER1
  6
CONTINUOUS
 62
     3
100
AcDbLine
 10
277.0901069999999
 20
46.810032
 30
0.0
 11
276.486196
 21
46.648215
 31
0.0
  0
LINE
  5
1F5
330
1E
100
AcDbEntity
  8
CSLAYER1
  6
CONTINUOUS
 62
     3
100
AcDbLine
 10
276.486196
 20
46.648215
 30
0.0
 11
275.858714
 21
47.275696
 31
0.0
  0
ARC
  5
1F6
330
1E
100
AcDbEntity
  8
CSLAYER1
  6
CONTINUOUS
 62
     3
100
AcDbCircle
 10
269.1462859999999
 20
52.884217
 30
0.0
 40
10.0
100
AcDbArc
 50
322.5969259999998
 51
331.2679999999998
  0
LINE
  5
1F7
330
1E
100
AcDbEntity
  8
CSLAYER1
  6
CONTINUOUS
 62
     3
100
AcDbLine
 10
277.9150649999999
 20
48.077084
 30
0.0
 11
277.2875829999999
 21
48.704565
 31
0.0
  0
ARC
  5
1F8
330
1E
100
AcDbEntity
  8
CSLAYER1
  6
CONTINUOUS
 62
     3
100
AcDbCircle
 10
272.1109039999999
 20
57.58751
 30
0.0
 40
11.14165599999999
100
AcDbArc
 50
301.395484
 51
328.604516
  0
LINE
  5
1F9
330
1E
100
AcDbEntity
  8
CSLAYER1
  6
CONTINUOUS
 62
     3
100
AcDbLine
 10
281.621331
 20
51.78335
 30
0.0
 11
280.99385
 21
52.410831
 31
0.0
  0
ARC
  5
1FA
330
1E
100
AcDbEntity
  8
CSLAYER1
  6
CONTINUOUS
 62
     3
100
AcDbCircle
 10
276.8141979999999
 20
60.552128
 30
0.0
 40
10.0
100
AcDbArc
 50
298.732
 51
300.12422
  0
LINE
  5
1FB
330
1E
100
AcDbEntity
  8
CSLAYER1
  6
CONTINUOUS
 62
     3
100
AcDbLine
 10
281.4034579999999
 20
51.12338300000001
 30
0.0
 11
285.151124
 21
47.375717
 31
0.0
  0
LINE
  5
1FC
330
1E
100
AcDbEntity
  8
CSLAYER1
  6
CONTINUOUS
 62
     3
100
AcDbLine
 10
285.151124
 20
47.375717
 30
0.0
 11
285.151124
 21
46.668611
 31
0.0
  0
LINE
  5
1FD
330
1E
100
AcDbEntity
  8
CSLAYER1
  6
CONTINUOUS
 62
     3
100
AcDbLine
 10
285.151124
 20
46.668611
 30
0.0
 11
283.029804
 21
44.54729
 31
0.0
  0
LINE
  5
1FE
330
1E
100
AcDbEntity
  8
CSLAYER1
  6
CONTINUOUS
 62
     3
100
AcDbLine
 10
283.029804
 20
44.54729
 30
0.0
 11
282.3226969999998
 21
44.54729
 31
0.0
  0
LINE
  5
1FF
330
1E
100
AcDbEntity
  8
CSLAYER1
  6
CONTINUOUS
 62
     3
100
AcDbLine
 10
282.3226969999998
 20
44.54729
 30
0.0
 11
278.575031
 21
48.294956
 31
0.0
  0
LINE
  5
200
330
1E
100
AcDbEntity
  8
CSLAYER1
  6
CONTINUOUS
 62
     3
100
AcDbLine
 10
273.837416
 20
53.032572
 30
0.0
 11
265.3521339999999
 21
61.517853
 31
0.0
  0
LINE
  5
201
330
1E
100
AcDbEntity
  8
CSLAYER1
  6
CONTINUOUS
 62
     3
100
AcDbLine
 10
268.180561
 20
64.34628
 30
0.0
 11
276.665843
 21
55.860999
 31
0.0
  0
POLYLINE
  5
202
330
1E
100
AcDbEntity
  8
CSLAYER1
  6
CONTINUOUS
 62
     3
100
AcDb2dPolyline
 66
     1
 10
0.0
 20
0.0
 30
0.0
  0
VERTEX
  5
203
330
202
100
AcDbEntity
  8
CSLAYER1
  6
CONTINUOUS
 62
     3
100
AcDbVertex
100
AcDb2dVertex
 10
341.314191
 20
143.2406079999998
 30
0.0
  0
VERTEX
  5
204
330
202
100
AcDbEntity
  8
CSLAYER1
  6
CONTINUOUS
 62
     3
100
AcDbVertex
100
AcDb2dVertex
 10
341.0726419999998
 20
142.9761879999998
 30
0.0
  0
VERTEX
  5
205
330
202
100
AcDbEntity
  8
CSLAYER1
  6
CONTINUOUS
 62
     3
100
AcDbVertex
100
AcDb2dVertex
 10
340.855803
 20
142.690908
 30
0.0
  0
VERTEX
  5
206
330
202
100
AcDbEntity
  8
CSLAYER1
  6
CONTINUOUS
 62
     3
100
AcDbVertex
100
AcDb2dVertex
 10
340.665324
 20
142.3869409999998
 30
0.0
  0
VERTEX
  5
207
330
202
100
AcDbEntity
  8
CSLAYER1
  6
CONTINUOUS
 62
     3
100
AcDbVertex
100
AcDb2dVertex
 10
340.502655
 20
142.066599
 30
0.0
  0
VERTEX
  5
208
330
202
100
AcDbEntity
  8
CSLAYER1
  6
CONTINUOUS
 62
     3
100
AcDbVertex
100
AcDb2dVertex
 10
340.3690329999998
 20
141.7323209999999
 30
0.0
  0
VERTEX
  5
209
330
202
100
AcDbEntity
  8
CSLAYER1
  6
CONTINUOUS
 62
     3
100
AcDbVertex
100
AcDb2dVertex
 10
340.2654759999998
 20
141.38665
 30
0.0
  0
VERTEX
  5
20A
330
202
100
AcDbEntity
  8
CSLAYER1
  6
CONTINUOUS
 62
     3
100
AcDbVertex
100
AcDb2dVertex
 10
340.1927709999998
 20
141.032218
 30
0.0
  0
VERTEX
  5
20B
330
202
100
AcDbEntity
  8
CSLAYER1
  6
CONTINUOUS
 62
     3
100
AcDbVertex
100
AcDb2dVertex
 10
340.151473
 20
140.6717219999999
 30
0.0
  0
VERTEX
  5
20C
330
202
100
AcDbEntity
  8
CSLAYER1
  6
CONTINUOUS
 62
     3
100
AcDbVertex
100
AcDb2dVertex
 10
340.141895
 20
140.307904
 30
0.0
  0
VERTEX
  5
20D
330
202
100
AcDbEntity
  8
CSLAYER1
  6
CONTINUOUS
 62
     3
100
AcDbVertex
100
AcDb2dVertex
 10
340.1641109999999
 20
139.943535
 30
0.0
  0
VERTEX
  5
20E
330
202
100
AcDbEntity
  8
CSLAYER1
  6
CONTINUOUS
 62
     3
100
AcDbVertex
100
AcDb2dVertex
 10
340.2179499999998
 20
139.5813879999999
 30
0.0
  0
VERTEX
  5
20F
330
202
100
AcDbEntity
  8
CSLAYER1
  6
CONTINUOUS
 62
     3
100
AcDbVertex
100
AcDb2dVertex
 10
340.3030039999998
 20
139.2242169999998
 30
0.0
  0
VERTEX
  5
210
330
202
100
AcDbEntity
  8
CSLAYER1
  6
CONTINUOUS
 62
     3
100
AcDbVertex
100
AcDb2dVertex
 10
340.4186259999999
 20
138.874743
 30
0.0
  0
VERTEX
  5
211
330
202
100
AcDbEntity
  8
CSLAYER1
  6
CONTINUOUS
 62
     3
100
AcDbVertex
100
AcDb2dVertex
 10
340.5639339999999
 20
138.535624
 30
0.0
  0
VERTEX
  5
212
330
202
100
AcDbEntity
  8
CSLAYER1
  6
CONTINUOUS
 62
     3
100
AcDbVertex
100
AcDb2dVertex
 10
340.737824
 20
138.209441
 30
0.0
  0
VERTEX
  5
213
330
202
100
AcDbEntity
  8
CSLAYER1
  6
CONTINUOUS
 62
     3
100
AcDbVertex
100
AcDb2dVertex
 10
340.938972
 20
137.898677
 30
0.0
  0
VERTEX
  5
214
330
202
100
AcDbEntity
  8
CSLAYER1
  6
CONTINUOUS
 62
     3
100
AcDbVertex
100
AcDb2dVertex
 10
341.165847
 20
137.605697
 30
0.0
  0
VERTEX
  5
215
330
202
100
AcDbEntity
  8
CSLAYER1
  6
CONTINUOUS
 62
     3
100
AcDbVertex
100
AcDb2dVertex
 10
341.4167219999999
 20
137.332731
 30
0.0
  0
VERTEX
  5
216
330
202
100
AcDbEntity
  8
CSLAYER1
  6
CONTINUOUS
 62
     3
100
AcDbVertex
100
AcDb2dVertex
 10
341.6896879999999
 20
137.081856
 30
0.0
  0
VERTEX
  5
217
330
202
100
AcDbEntity
  8
CSLAYER1
  6
CONTINUOUS
 62
     3
100
AcDbVertex
100
AcDb2dVertex
 10
341.9826679999999
 20
136.854981
 30
0.0
  0
VERTEX
  5
218
330
202
100
AcDbEntity
  8
CSLAYER1
  6
CONTINUOUS
 62
     3
100
AcDbVertex
100
AcDb2dVertex
 10
342.2934319999999
 20
136.653833
 30
0.0
  0
VERTEX
  5
219
330
202
100
AcDbEntity
  8
CSLAYER1
  6
CONTINUOUS
 62
     3
100
AcDbVertex
100
AcDb2dVertex
 10
342.6196149999999
 20
136.4799429999999
 30
0.0
  0
VERTEX
  5
21A
330
202
100
AcDbEntity
  8
CSLAYER1
  6
CONTINUOUS
 62
     3
100
AcDbVertex
100
AcDb2dVertex
 10
342.9587339999998
 20
136.334635
 30
0.0
  0
VERTEX
  5
21B
330
202
100
AcDbEntity
  8
CSLAYER1
  6
CONTINUOUS
 62
     3
100
AcDbVertex
100
AcDb2dVertex
 10
343.3082079999998
 20
136.2190139999998
 30
0.0
  0
VERTEX
  5
21C
330
202
100
AcDbEntity
  8
CSLAYER1
  6
CONTINUOUS
 62
     3
100
AcDbVertex
100
AcDb2dVertex
 10
343.6653779999998
 20
136.133959
 30
0.0
  0
VERTEX
  5
21D
330
202
100
AcDbEntity
  8
CSLAYER1
  6
CONTINUOUS
 62
     3
100
AcDbVertex
100
AcDb2dVertex
 10
344.0275259999998
 20
136.08012
 30
0.0
  0
VERTEX
  5
21E
330
202
100
AcDbEntity
  8
CSLAYER1
  6
CONTINUOUS
 62
     3
100
AcDbVertex
100
AcDb2dVertex
 10
344.391895
 20
136.057904
 30
0.0
  0
VERTEX
  5
21F
330
202
100
AcDbEntity
  8
CSLAYER1
  6
CONTINUOUS
 62
     3
100
AcDbVertex
100
AcDb2dVertex
 10
344.755712
 20
136.067482
 30
0.0
  0
VERTEX
  5
220
330
202
100
AcDbEntity
  8
CSLAYER1
  6
CONTINUOUS
 62
     3
100
AcDbVertex
100
AcDb2dVertex
 10
345.1162089999998
 20
136.1087799999999
 30
0.0
  0
VERTEX
  5
221
330
202
100
AcDbEntity
  8
CSLAYER1
  6
CONTINUOUS
 62
     3
100
AcDbVertex
100
AcDb2dVertex
 10
345.470641
 20
136.181485
 30
0.0
  0
VERTEX
  5
222
330
202
100
AcDbEntity
  8
CSLAYER1
  6
CONTINUOUS
 62
     3
100
AcDbVertex
100
AcDb2dVertex
 10
345.816312
 20
136.285042
 30
0.0
  0
VERTEX
  5
223
330
202
100
AcDbEntity
  8
CSLAYER1
  6
CONTINUOUS
 62
     3
100
AcDbVertex
100
AcDb2dVertex
 10
346.1505899999998
 20
136.4186639999998
 30
0.0
  0
VERTEX
  5
224
330
202
100
AcDbEntity
  8
CSLAYER1
  6
CONTINUOUS
 62
     3
100
AcDbVertex
100
AcDb2dVertex
 10
346.470932
 20
136.5813329999999
 30
0.0
  0
VERTEX
  5
225
330
202
100
AcDbEntity
  8
CSLAYER1
  6
CONTINUOUS
 62
     3
100
AcDbVertex
100
AcDb2dVertex
 10
346.774899
 20
136.771812
 30
0.0
  0
VERTEX
  5
226
330
202
100
AcDbEntity
  8
CSLAYER1
  6
CONTINUOUS
 62
     3
100
AcDbVertex
100
AcDb2dVertex
 10
347.0601789999998
 20
136.988652
 30
0.0
  0
VERTEX
  5
227
330
202
100
AcDbEntity
  8
CSLAYER1
  6
CONTINUOUS
 62
     3
100
AcDbVertex
100
AcDb2dVertex
 10
347.324599
 20
137.2301999999999
 30
0.0
  0
VERTEX
  5
228
330
202
100
AcDbEntity
  8
CSLAYER1
  6
CONTINUOUS
 62
     3
100
AcDbVertex
100
AcDb2dVertex
 10
347.5661479999998
 20
137.494621
 30
0.0
  0
VERTEX
  5
229
330
202
100
AcDbEntity
  8
CSLAYER1
  6
CONTINUOUS
 62
     3
100
AcDbVertex
100
AcDb2dVertex
 10
347.7829869999998
 20
137.7798999999999
 30
0.0
  0
VERTEX
  5
22A
330
202
100
AcDbEntity
  8
CSLAYER1
  6
CONTINUOUS
 62
     3
100
AcDbVertex
100
AcDb2dVertex
 10
347.973466
 20
138.0838669999999
 30
0.0
  0
VERTEX
  5
22B
330
202
100
AcDbEntity
  8
CSLAYER1
  6
CONTINUOUS
 62
     3
100
AcDbVertex
100
AcDb2dVertex
 10
348.1361359999998
 20
138.404209
 30
0.0
  0
VERTEX
  5
22C
330
202
100
AcDbEntity
  8
CSLAYER1
  6
CONTINUOUS
 62
     3
100
AcDbVertex
100
AcDb2dVertex
 10
348.269758
 20
138.738487
 30
0.0
  0
VERTEX
  5
22D
330
202
100
AcDbEntity
  8
CSLAYER1
  6
CONTINUOUS
 62
     3
100
AcDbVertex
100
AcDb2dVertex
 10
348.3733149999998
 20
139.084158
 30
0.0
  0
VERTEX
  5
22E
330
202
100
AcDbEntity
  8
CSLAYER1
  6
CONTINUOUS
 62
     3
100
AcDbVertex
100
AcDb2dVertex
 10
348.446019
 20
139.4385899999998
 30
0.0
  0
VERTEX
  5
22F
330
202
100
AcDbEntity
  8
CSLAYER1
  6
CONTINUOUS
 62
     3
100
AcDbVertex
100
AcDb2dVertex
 10
348.487317
 20
139.799087
 30
0.0
  0
VERTEX
  5
230
330
202
100
AcDbEntity
  8
CSLAYER1
  6
CONTINUOUS
 62
     3
100
AcDbVertex
100
AcDb2dVertex
 10
348.4968949999998
 20
140.1629039999999
 30
0.0
  0
VERTEX
  5
231
330
202
100
AcDbEntity
  8
CSLAYER1
  6
CONTINUOUS
 62
     3
100
AcDbVertex
100
AcDb2dVertex
 10
348.4746799999998
 20
140.527273
 30
0.0
  0
VERTEX
  5
232
330
202
100
AcDbEntity
  8
CSLAYER1
  6
CONTINUOUS
 62
     3
100
AcDbVertex
100
AcDb2dVertex
 10
348.4208399999998
 20
140.8894209999999
 30
0.0
  0
VERTEX
  5
233
330
202
100
AcDbEntity
  8
CSLAYER1
  6
CONTINUOUS
 62
     3
100
AcDbVertex
100
AcDb2dVertex
 10
348.3357859999998
 20
141.2465909999999
 30
0.0
  0
VERTEX
  5
234
330
202
100
AcDbEntity
  8
CSLAYER1
  6
CONTINUOUS
 62
     3
100
AcDbVertex
100
AcDb2dVertex
 10
348.220165
 20
141.5960659999998
 30
0.0
  0
VERTEX
  5
235
330
202
100
AcDbEntity
  8
CSLAYER1
  6
CONTINUOUS
 62
     3
100
AcDbVertex
100
AcDb2dVertex
 10
348.074856
 20
141.935185
 30
0.0
  0
VERTEX
  5
236
330
202
100
AcDbEntity
  8
CSLAYER1
  6
CONTINUOUS
 62
     3
100
AcDbVertex
100
AcDb2dVertex
 10
347.900966
 20
142.2613669999998
 30
0.0
  0
VERTEX
  5
237
330
202
100
AcDbEntity
  8
CSLAYER1
  6
CONTINUOUS
 62
     3
100
AcDbVertex
100
AcDb2dVertex
 10
347.6998189999998
 20
142.572131
 30
0.0
  0
VERTEX
  5
238
330
202
100
AcDbEntity
  8
CSLAYER1
  6
CONTINUOUS
 62
     3
100
AcDbVertex
100
AcDb2dVertex
 10
347.4729439999998
 20
142.865111
 30
0.0
  0
VERTEX
  5
239
330
202
100
AcDbEntity
  8
CSLAYER1
  6
CONTINUOUS
 62
     3
100
AcDbVertex
100
AcDb2dVertex
 10
347.2220689999998
 20
143.138078
 30
0.0
  0
VERTEX
  5
23A
330
202
100
AcDbEntity
  8
CSLAYER1
  6
CONTINUOUS
 62
     3
100
AcDbVertex
100
AcDb2dVertex
 10
346.9491019999998
 20
143.388953
 30
0.0
  0
VERTEX
  5
23B
330
202
100
AcDbEntity
  8
CSLAYER1
  6
CONTINUOUS
 62
     3
100
AcDbVertex
100
AcDb2dVertex
 10
346.656122
 20
143.6158279999999
 30
0.0
  0
VERTEX
  5
23C
330
202
100
AcDbEntity
  8
CSLAYER1
  6
CONTINUOUS
 62
     3
100
AcDbVertex
100
AcDb2dVertex
 10
346.345358
 20
143.816975
 30
0.0
  0
VERTEX
  5
23D
330
202
100
AcDbEntity
  8
CSLAYER1
  6
CONTINUOUS
 62
     3
100
AcDbVertex
100
AcDb2dVertex
 10
346.0191759999998
 20
143.9908649999999
 30
0.0
  0
VERTEX
  5
23E
330
202
100
AcDbEntity
  8
CSLAYER1
  6
CONTINUOUS
 62
     3
100
AcDbVertex
100
AcDb2dVertex
 10
345.6800569999998
 20
144.136174
 30
0.0
  0
VERTEX
  5
23F
330
202
100
AcDbEntity
  8
CSLAYER1
  6
CONTINUOUS
 62
     3
100
AcDbVertex
100
AcDb2dVertex
 10
345.330582
 20
144.2517949999998
 30
0.0
  0
VERTEX
  5
240
330
202
100
AcDbEntity
  8
CSLAYER1
  6
CONTINUOUS
 62
     3
100
AcDbVertex
100
AcDb2dVertex
 10
344.973412
 20
144.336849
 30
0.0
  0
VERTEX
  5
241
330
202
100
AcDbEntity
  8
CSLAYER1
  6
CONTINUOUS
 62
     3
100
AcDbVertex
100
AcDb2dVertex
 10
344.6112639999998
 20
144.3906889999998
 30
0.0
  0
VERTEX
  5
242
330
202
100
AcDbEntity
  8
CSLAYER1
  6
CONTINUOUS
 62
     3
100
AcDbVertex
100
AcDb2dVertex
 10
344.2468949999998
 20
144.4129039999999
 30
0.0
  0
VERTEX
  5
243
330
202
100
AcDbEntity
  8
CSLAYER1
  6
CONTINUOUS
 62
     3
100
AcDbVertex
100
AcDb2dVertex
 10
343.8830779999998
 20
144.4033259999999
 30
0.0
  0
VERTEX
  5
244
330
202
100
AcDbEntity
  8
CSLAYER1
  6
CONTINUOUS
 62
     3
100
AcDbVertex
100
AcDb2dVertex
 10
343.5225809999999
 20
144.362028
 30
0.0
  0
VERTEX
  5
245
330
202
100
AcDbEntity
  8
CSLAYER1
  6
CONTINUOUS
 62
     3
100
AcDbVertex
100
AcDb2dVertex
 10
343.168149
 20
144.2893239999999
 30
0.0
  0
VERTEX
  5
246
330
202
100
AcDbEntity
  8
CSLAYER1
  6
CONTINUOUS
 62
     3
100
AcDbVertex
100
AcDb2dVertex
 10
342.8224779999998
 20
144.185767
 30
0.0
  0
VERTEX
  5
247
330
202
100
AcDbEntity
  8
CSLAYER1
  6
CONTINUOUS
 62
     3
100
AcDbVertex
100
AcDb2dVertex
 10
342.4882
 20
144.052145
 30
0.0
  0
VERTEX
  5
248
330
202
100
AcDbEntity
  8
CSLAYER1
  6
CONTINUOUS
 62
     3
100
AcDbVertex
100
AcDb2dVertex
 10
342.167858
 20
143.889475
 30
0.0
  0
VERTEX
  5
249
330
202
100
AcDbEntity
  8
CSLAYER1
  6
CONTINUOUS
 62
     3
100
AcDbVertex
100
AcDb2dVertex
 10
341.863891
 20
143.698996
 30
0.0
  0
VERTEX
  5
24A
330
202
100
AcDbEntity
  8
CSLAYER1
  6
CONTINUOUS
 62
     3
100
AcDbVertex
100
AcDb2dVertex
 10
341.578612
 20
143.4821569999999
 30
0.0
  0
VERTEX
  5
24B
330
202
100
AcDbEntity
  8
CSLAYER1
  6
CONTINUOUS
 62
     3
100
AcDbVertex
100
AcDb2dVertex
 10
341.314191
 20
143.2406079999998
 30
0.0
  0
SEQEND
  5
24C
330
202
100
AcDbEntity
  8
CSLAYER1
 62
     3
  0
LINE
  5
24D
330
1E
100
AcDbEntity
  8
CSLAYER1
  6
CONTINUOUS
 62
     4
100
AcDbLine
 10
278.8225179999999
 20
48.542444
 30
0.0
 11
282.817672
 21
44.54729
 31
0.0
  0
LINE
  5
24E
330
1E
100
AcDbEntity
  8
CSLAYER1
  6
CONTINUOUS
 62
     4
100
AcDbLine
 10
282.3226969999998
 20
44.54729
 30
0.0
 11
285.151124
 21
47.375717
 31
0.0
  0
LINE
  5
24F
330
1E
100
AcDbEntity
  8
CSLAYER1
  6
CONTINUOUS
 62
     4
100
AcDbLine
 10
285.151124
 20
46.880743
 30
0.0
 11
281.155971
 21
50.87589600000001
 31
0.0
  0
LINE
  5
250
330
1E
100
AcDbEntity
  8
CSLAYER1
  6
CENTER
 62
     4
100
AcDbLine
 10
285.7659789999999
 20
43.93243499999999
 30
0.0
 11
261.419763
 21
68.278651
 31
0.0
  0
LINE
  5
251
330
1E
100
AcDbEntity
  8
CSLAYER1
  6
CENTER
 62
     4
100
AcDbLine
 10
339.1411059999998
 20
135.0571149999999
 30
0.0
 11
349.4587969999998
 21
145.374806
 31
0.0
  0
LINE
  5
252
330
1E
100
AcDbEntity
  8
CSLAYER1
  6
CENTER
 62
     4
100
AcDbLine
 10
339.3867989999999
 20
145.168
 30
0.0
 11
349.3459599999998
 21
135.2088399999999
 31
0.0
  0
POLYLINE
  5
253
330
1E
100
AcDbEntity
  8
CSLAYER1
  6
CONTINUOUS
 62
     4
100
AcDb2dPolyline
 66
     1
 10
0.0
 20
0.0
 30
0.0
  0
VERTEX
  5
254
330
253
100
AcDbEntity
  8
CSLAYER1
  6
CONTINUOUS
 62
     4
100
AcDbVertex
100
AcDb2dVertex
 10
340.960638
 20
143.594162
 30
0.0
  0
VERTEX
  5
255
330
253
100
AcDbEntity
  8
CSLAYER1
  6
CONTINUOUS
 62
     4
100
AcDbVertex
100
AcDb2dVertex
 10
340.6908529999999
 20
143.2988139999999
 30
0.0
  0
VERTEX
  5
256
330
253
100
AcDbEntity
  8
CSLAYER1
  6
CONTINUOUS
 62
     4
100
AcDbVertex
100
AcDb2dVertex
 10
340.448683
 20
142.980152
 30
0.0
  0
VERTEX
  5
257
330
253
100
AcDbEntity
  8
CSLAYER1
  6
CONTINUOUS
 62
     4
100
AcDbVertex
100
AcDb2dVertex
 10
340.235972
 20
142.640601
 30
0.0
  0
VERTEX
  5
258
330
253
100
AcDbEntity
  8
CSLAYER1
  6
CONTINUOUS
 62
     4
100
AcDbVertex
100
AcDb2dVertex
 10
340.0543379999998
 20
142.2827449999998
 30
0.0
  0
VERTEX
  5
259
330
253
100
AcDbEntity
  8
CSLAYER1
  6
CONTINUOUS
 62
     4
100
AcDbVertex
100
AcDb2dVertex
 10
339.905163
 20
141.909308
 30
0.0
  0
VERTEX
  5
25A
330
253
100
AcDbEntity
  8
CSLAYER1
  6
CONTINUOUS
 62
     4
100
AcDbVertex
100
AcDb2dVertex
 10
339.7895839999999
 20
141.523131
 30
0.0
  0
VERTEX
  5
25B
330
253
100
AcDbEntity
  8
CSLAYER1
  6
CONTINUOUS
 62
     4
100
AcDbVertex
100
AcDb2dVertex
 10
339.708479
 20
141.1271539999999
 30
0.0
  0
VERTEX
  5
25C
330
253
100
AcDbEntity
  8
CSLAYER1
  6
CONTINUOUS
 62
     4
100
AcDbVertex
100
AcDb2dVertex
 10
339.662466
 20
140.72439
 30
0.0
  0
VERTEX
  5
25D
330
253
100
AcDbEntity
  8
CSLAYER1
  6
CONTINUOUS
 62
     4
100
AcDbVertex
100
AcDb2dVertex
 10
339.651895
 20
140.3179039999999
 30
0.0
  0
VERTEX
  5
25E
330
253
100
AcDbEntity
  8
CSLAYER1
  6
CONTINUOUS
 62
     4
100
AcDbVertex
100
AcDb2dVertex
 10
339.676847
 20
139.9107909999999
 30
0.0
  0
VERTEX
  5
25F
330
253
100
AcDbEntity
  8
CSLAYER1
  6
CONTINUOUS
 62
     4
100
AcDbVertex
100
AcDb2dVertex
 10
339.737131
 20
139.506148
 30
0.0
  0
VERTEX
  5
260
330
253
100
AcDbEntity
  8
CSLAYER1
  6
CONTINUOUS
 62
     4
100
AcDbVertex
100
AcDb2dVertex
 10
339.832289
 20
139.107055
 30
0.0
  0
VERTEX
  5
261
330
253
100
AcDbEntity
  8
CSLAYER1
  6
CONTINUOUS
 62
     4
100
AcDbVertex
100
AcDb2dVertex
 10
339.961597
 20
138.71655
 30
0.0
  0
VERTEX
  5
262
330
253
100
AcDbEntity
  8
CSLAYER1
  6
CONTINUOUS
 62
     4
100
AcDbVertex
100
AcDb2dVertex
 10
340.12407
 20
138.3376039999999
 30
0.0
  0
VERTEX
  5
263
330
253
100
AcDbEntity
  8
CSLAYER1
  6
CONTINUOUS
 62
     4
100
AcDbVertex
100
AcDb2dVertex
 10
340.318472
 20
137.973101
 30
0.0
  0
VERTEX
  5
264
330
253
100
AcDbEntity
  8
CSLAYER1
  6
CONTINUOUS
 62
     4
100
AcDbVertex
100
AcDb2dVertex
 10
340.5433229999998
 20
137.6258159999999
 30
0.0
  0
VERTEX
  5
265
330
253
100
AcDbEntity
  8
CSLAYER1
  6
CONTINUOUS
 62
     4
100
AcDbVertex
100
AcDb2dVertex
 10
340.7969129999999
 20
137.2983919999998
 30
0.0
  0
VERTEX
  5
266
330
253
100
AcDbEntity
  8
CSLAYER1
  6
CONTINUOUS
 62
     4
100
AcDbVertex
100
AcDb2dVertex
 10
341.077311
 20
136.9933199999999
 30
0.0
  0
VERTEX
  5
267
330
253
100
AcDbEntity
  8
CSLAYER1
  6
CONTINUOUS
 62
     4
100
AcDbVertex
100
AcDb2dVertex
 10
341.382383
 20
136.712922
 30
0.0
  0
VERTEX
  5
268
330
253
100
AcDbEntity
  8
CSLAYER1
  6
CONTINUOUS
 62
     4
100
AcDbVertex
100
AcDb2dVertex
 10
341.7098069999998
 20
136.459332
 30
0.0
  0
VERTEX
  5
269
330
253
100
AcDbEntity
  8
CSLAYER1
  6
CONTINUOUS
 62
     4
100
AcDbVertex
100
AcDb2dVertex
 10
342.057092
 20
136.234481
 30
0.0
  0
VERTEX
  5
26A
330
253
100
AcDbEntity
  8
CSLAYER1
  6
CONTINUOUS
 62
     4
100
AcDbVertex
100
AcDb2dVertex
 10
342.421595
 20
136.0400789999999
 30
0.0
  0
VERTEX
  5
26B
330
253
100
AcDbEntity
  8
CSLAYER1
  6
CONTINUOUS
 62
     4
100
AcDbVertex
100
AcDb2dVertex
 10
342.800541
 20
135.877606
 30
0.0
  0
VERTEX
  5
26C
330
253
100
AcDbEntity
  8
CSLAYER1
  6
CONTINUOUS
 62
     4
100
AcDbVertex
100
AcDb2dVertex
 10
343.1910459999998
 20
135.748298
 30
0.0
  0
VERTEX
  5
26D
330
253
100
AcDbEntity
  8
CSLAYER1
  6
CONTINUOUS
 62
     4
100
AcDbVertex
100
AcDb2dVertex
 10
343.590139
 20
135.6531399999999
 30
0.0
  0
VERTEX
  5
26E
330
253
100
AcDbEntity
  8
CSLAYER1
  6
CONTINUOUS
 62
     4
100
AcDbVertex
100
AcDb2dVertex
 10
343.9947819999998
 20
135.592856
 30
0.0
  0
VERTEX
  5
26F
330
253
100
AcDbEntity
  8
CSLAYER1
  6
CONTINUOUS
 62
     4
100
AcDbVertex
100
AcDb2dVertex
 10
344.401895
 20
135.567904
 30
0.0
  0
VERTEX
  5
270
330
253
100
AcDbEntity
  8
CSLAYER1
  6
CONTINUOUS
 62
     4
100
AcDbVertex
100
AcDb2dVertex
 10
344.8083809999998
 20
135.5784749999999
 30
0.0
  0
VERTEX
  5
271
330
253
100
AcDbEntity
  8
CSLAYER1
  6
CONTINUOUS
 62
     4
100
AcDbVertex
100
AcDb2dVertex
 10
345.211145
 20
135.6244879999999
 30
0.0
  0
VERTEX
  5
272
330
253
100
AcDbEntity
  8
CSLAYER1
  6
CONTINUOUS
 62
     4
100
AcDbVertex
100
AcDb2dVertex
 10
345.607122
 20
135.705593
 30
0.0
  0
VERTEX
  5
273
330
253
100
AcDbEntity
  8
CSLAYER1
  6
CONTINUOUS
 62
     4
100
AcDbVertex
100
AcDb2dVertex
 10
345.993299
 20
135.8211719999999
 30
0.0
  0
VERTEX
  5
274
330
253
100
AcDbEntity
  8
CSLAYER1
  6
CONTINUOUS
 62
     4
100
AcDbVertex
100
AcDb2dVertex
 10
346.366736
 20
135.970347
 30
0.0
  0
VERTEX
  5
275
330
253
100
AcDbEntity
  8
CSLAYER1
  6
CONTINUOUS
 62
     4
100
AcDbVertex
100
AcDb2dVertex
 10
346.7245919999998
 20
136.151981
 30
0.0
  0
VERTEX
  5
276
330
253
100
AcDbEntity
  8
CSLAYER1
  6
CONTINUOUS
 62
     4
100
AcDbVertex
100
AcDb2dVertex
 10
347.064143
 20
136.3646919999998
 30
0.0
  0
VERTEX
  5
277
330
253
100
AcDbEntity
  8
CSLAYER1
  6
CONTINUOUS
 62
     4
100
AcDbVertex
100
AcDb2dVertex
 10
347.3828049999998
 20
136.606862
 30
0.0
  0
VERTEX
  5
278
330
253
100
AcDbEntity
  8
CSLAYER1
  6
CONTINUOUS
 62
     4
100
AcDbVertex
100
AcDb2dVertex
 10
347.678152
 20
136.8766469999999
 30
0.0
  0
VERTEX
  5
279
330
253
100
AcDbEntity
  8
CSLAYER1
  6
CONTINUOUS
 62
     4
100
AcDbVertex
100
AcDb2dVertex
 10
347.9479379999998
 20
137.1719939999999
 30
0.0
  0
VERTEX
  5
27A
330
253
100
AcDbEntity
  8
CSLAYER1
  6
CONTINUOUS
 62
     4
100
AcDbVertex
100
AcDb2dVertex
 10
348.1901069999998
 20
137.490656
 30
0.0
  0
VERTEX
  5
27B
330
253
100
AcDbEntity
  8
CSLAYER1
  6
CONTINUOUS
 62
     4
100
AcDbVertex
100
AcDb2dVertex
 10
348.402819
 20
137.8302069999999
 30
0.0
  0
VERTEX
  5
27C
330
253
100
AcDbEntity
  8
CSLAYER1
  6
CONTINUOUS
 62
     4
100
AcDbVertex
100
AcDb2dVertex
 10
348.584453
 20
138.1880629999999
 30
0.0
  0
VERTEX
  5
27D
330
253
100
AcDbEntity
  8
CSLAYER1
  6
CONTINUOUS
 62
     4
100
AcDbVertex
100
AcDb2dVertex
 10
348.733627
 20
138.5615009999999
 30
0.0
  0
VERTEX
  5
27E
330
253
100
AcDbEntity
  8
CSLAYER1
  6
CONTINUOUS
 62
     4
100
AcDbVertex
100
AcDb2dVertex
 10
348.8492069999998
 20
138.947678
 30
0.0
  0
VERTEX
  5
27F
330
253
100
AcDbEntity
  8
CSLAYER1
  6
CONTINUOUS
 62
     4
100
AcDbVertex
100
AcDb2dVertex
 10
348.9303109999998
 20
139.343655
 30
0.0
  0
VERTEX
  5
280
330
253
100
AcDbEntity
  8
CSLAYER1
  6
CONTINUOUS
 62
     4
100
AcDbVertex
100
AcDb2dVertex
 10
348.976324
 20
139.7464189999999
 30
0.0
  0
VERTEX
  5
281
330
253
100
AcDbEntity
  8
CSLAYER1
  6
CONTINUOUS
 62
     4
100
AcDbVertex
100
AcDb2dVertex
 10
348.9868949999998
 20
140.1529039999998
 30
0.0
  0
VERTEX
  5
282
330
253
100
AcDbEntity
  8
CSLAYER1
  6
CONTINUOUS
 62
     4
100
AcDbVertex
100
AcDb2dVertex
 10
348.961944
 20
140.5600179999999
 30
0.0
  0
VERTEX
  5
283
330
253
100
AcDbEntity
  8
CSLAYER1
  6
CONTINUOUS
 62
     4
100
AcDbVertex
100
AcDb2dVertex
 10
348.9016589999998
 20
140.964661
 30
0.0
  0
VERTEX
  5
284
330
253
100
AcDbEntity
  8
CSLAYER1
  6
CONTINUOUS
 62
     4
100
AcDbVertex
100
AcDb2dVertex
 10
348.8065009999998
 20
141.363753
 30
0.0
  0
VERTEX
  5
285
330
253
100
AcDbEntity
  8
CSLAYER1
  6
CONTINUOUS
 62
     4
100
AcDbVertex
100
AcDb2dVertex
 10
348.677194
 20
141.754259
 30
0.0
  0
VERTEX
  5
286
330
253
100
AcDbEntity
  8
CSLAYER1
  6
CONTINUOUS
 62
     4
100
AcDbVertex
100
AcDb2dVertex
 10
348.514721
 20
142.133205
 30
0.0
  0
VERTEX
  5
287
330
253
100
AcDbEntity
  8
CSLAYER1
  6
CONTINUOUS
 62
     4
100
AcDbVertex
100
AcDb2dVertex
 10
348.3203189999998
 20
142.497707
 30
0.0
  0
VERTEX
  5
288
330
253
100
AcDbEntity
  8
CSLAYER1
  6
CONTINUOUS
 62
     4
100
AcDbVertex
100
AcDb2dVertex
 10
348.095467
 20
142.844992
 30
0.0
  0
VERTEX
  5
289
330
253
100
AcDbEntity
  8
CSLAYER1
  6
CONTINUOUS
 62
     4
100
AcDbVertex
100
AcDb2dVertex
 10
347.8418779999998
 20
143.172417
 30
0.0
  0
VERTEX
  5
28A
330
253
100
AcDbEntity
  8
CSLAYER1
  6
CONTINUOUS
 62
     4
100
AcDbVertex
100
AcDb2dVertex
 10
347.5614799999998
 20
143.4774889999999
 30
0.0
  0
VERTEX
  5
28B
330
253
100
AcDbEntity
  8
CSLAYER1
  6
CONTINUOUS
 62
     4
100
AcDbVertex
100
AcDb2dVertex
 10
347.256408
 20
143.757887
 30
0.0
  0
VERTEX
  5
28C
330
253
100
AcDbEntity
  8
CSLAYER1
  6
CONTINUOUS
 62
     4
100
AcDbVertex
100
AcDb2dVertex
 10
346.928983
 20
144.0114759999999
 30
0.0
  0
VERTEX
  5
28D
330
253
100
AcDbEntity
  8
CSLAYER1
  6
CONTINUOUS
 62
     4
100
AcDbVertex
100
AcDb2dVertex
 10
346.581698
 20
144.236328
 30
0.0
  0
VERTEX
  5
28E
330
253
100
AcDbEntity
  8
CSLAYER1
  6
CONTINUOUS
 62
     4
100
AcDbVertex
100
AcDb2dVertex
 10
346.217196
 20
144.43073
 30
0.0
  0
VERTEX
  5
28F
330
253
100
AcDbEntity
  8
CSLAYER1
  6
CONTINUOUS
 62
     4
100
AcDbVertex
100
AcDb2dVertex
 10
345.83825
 20
144.593203
 30
0.0
  0
VERTEX
  5
290
330
253
100
AcDbEntity
  8
CSLAYER1
  6
CONTINUOUS
 62
     4
100
AcDbVertex
100
AcDb2dVertex
 10
345.447744
 20
144.7225109999999
 30
0.0
  0
VERTEX
  5
291
330
253
100
AcDbEntity
  8
CSLAYER1
  6
CONTINUOUS
 62
     4
100
AcDbVertex
100
AcDb2dVertex
 10
345.0486509999998
 20
144.8176689999999
 30
0.0
  0
VERTEX
  5
292
330
253
100
AcDbEntity
  8
CSLAYER1
  6
CONTINUOUS
 62
     4
100
AcDbVertex
100
AcDb2dVertex
 10
344.6440089999998
 20
144.8779529999999
 30
0.0
  0
VERTEX
  5
293
330
253
100
AcDbEntity
  8
CSLAYER1
  6
CONTINUOUS
 62
     4
100
AcDbVertex
100
AcDb2dVertex
 10
344.236895
 20
144.902904
 30
0.0
  0
VERTEX
  5
294
330
253
100
AcDbEntity
  8
CSLAYER1
  6
CONTINUOUS
 62
     4
100
AcDbVertex
100
AcDb2dVertex
 10
343.83041
 20
144.892333
 30
0.0
  0
VERTEX
  5
295
330
253
100
AcDbEntity
  8
CSLAYER1
  6
CONTINUOUS
 62
     4
100
AcDbVertex
100
AcDb2dVertex
 10
343.4276459999998
 20
144.8463199999999
 30
0.0
  0
VERTEX
  5
296
330
253
100
AcDbEntity
  8
CSLAYER1
  6
CONTINUOUS
 62
     4
100
AcDbVertex
100
AcDb2dVertex
 10
343.031668
 20
144.7652159999998
 30
0.0
  0
VERTEX
  5
297
330
253
100
AcDbEntity
  8
CSLAYER1
  6
CONTINUOUS
 62
     4
100
AcDbVertex
100
AcDb2dVertex
 10
342.6454919999998
 20
144.649636
 30
0.0
  0
VERTEX
  5
298
330
253
100
AcDbEntity
  8
CSLAYER1
  6
CONTINUOUS
 62
     4
100
AcDbVertex
100
AcDb2dVertex
 10
342.272054
 20
144.5004619999999
 30
0.0
  0
VERTEX
  5
299
330
253
100
AcDbEntity
  8
CSLAYER1
  6
CONTINUOUS
 62
     4
100
AcDbVertex
100
AcDb2dVertex
 10
341.914198
 20
144.318828
 30
0.0
  0
VERTEX
  5
29A
330
253
100
AcDbEntity
  8
CSLAYER1
  6
CONTINUOUS
 62
     4
100
AcDbVertex
100
AcDb2dVertex
 10
341.574647
 20
144.1061169999999
 30
0.0
  0
VERTEX
  5
29B
330
253
100
AcDbEntity
  8
CSLAYER1
  6
CONTINUOUS
 62
     4
100
AcDbVertex
100
AcDb2dVertex
 10
341.255985
 20
143.863947
 30
0.0
  0
VERTEX
  5
29C
330
253
100
AcDbEntity
  8
CSLAYER1
  6
CONTINUOUS
 62
     4
100
AcDbVertex
100
AcDb2dVertex
 10
340.960638
 20
143.594162
 30
0.0
  0
SEQEND
  5
29D
330
253
100
AcDbEntity
  8
CSLAYER1
 62
     4
  0
LINE
  5
29E
330
1E
100
AcDbEntity
  8
CSLAYER1
  6
CENTER
 62
     4
100
AcDbLine
 10
299.832962
 20
127.1792809999999
 30
0.0
 11
299.832962
 21
62.79717900000001
 31
0.0
  0
ARC
  5
29F
330
1E
100
AcDbEntity
  8
CSLAYER1
  6
CONTINUOUS
 62
     3
100
AcDbCircle
 10
299.832962
 20
75.79767099999997
 30
0.0
 40
3.0
100
AcDbArc
 50
90.0
 51
270.0
  0
LINE
  5
2A0
330
1E
100
AcDbEntity
  8
CSLAYER1
  6
DASHED
 62
     4
100
AcDbLine
 10
306.2974279999999
 20
125.7976709999999
 30
0.0
 11
281.832962
 21
101.333204
 31
0.0
  0
LINE
  5
2A1
330
1E
100
AcDbEntity
  8
CSLAYER1
  6
CONTINUOUS
 62
     3
100
AcDbLine
 10
281.832962
 20
101.333204
 30
0.0
 11
269.594775
 21
89.09501800000002
 31
0.0
  0
LINE
  5
2A2
330
1E
100
AcDbEntity
  8
CSLAYER1
  6
DASHED
 62
     4
100
AcDbLine
 10
281.832962
 20
76.856831
 30
0.0
 11
301.41458
 21
57.27521199999999
 31
0.0
  0
LINE
  5
2A3
330
1E
100
AcDbEntity
  8
CSLAYER1
  6
CONTINUOUS
 62
     3
100
AcDbLine
 10
345.8849999999998
 20
101.7456319999999
 30
0.0
 11
360.81155
 21
116.672182
 31
0.0
  0
LINE
  5
2A4
330
1E
100
AcDbEntity
  8
CSLAYER1
  6
DASHED
 62
     4
100
AcDbLine
 10
320.149477
 20
84.874553
 30
0.0
 11
288.0296609999998
 21
116.9943699999999
 31
0.0
  0
LINE
  5
2A5
330
1E
100
AcDbEntity
  8
CSLAYER1
  6
CONTINUOUS
 62
     3
100
AcDbLine
 10
324.4691829999998
 20
80.55484699999999
 30
0.0
 11
320.149477
 21
84.874553
 31
0.0
  0
ARC
  5
2A6
330
1E
100
AcDbEntity
  8
CSLAYER1
  6
DASHED
 62
     4
100
AcDbCircle
 10
299.832962
 20
115.797671
 30
0.0
 40
37.0
100
AcDbArc
 50
319.48463
 51
323.427266
  0
ARC
  5
2A7
330
1E
100
AcDbEntity
  8
CSLAYER1
  6
DASHED
 62
     4
100
AcDbCircle
 10
299.832962
 20
115.797671
 30
0.0
 40
43.0
100
AcDbArc
 50
319.1598509999999
 51
322.8162529999999
  0
LINE
  5
2A8
330
1E
100
AcDbEntity
  8
CSLAYER1
  6
DASHED
 62
     4
100
AcDbLine
 10
281.832962
 20
66.957336
 30
0.0
 11
284.797571
 21
63.992727
 31
0.0
  0
LINE
  5
2A9
330
1E
100
AcDbEntity
  8
CSLAYER1
  6
CONTINUOUS
 62
     3
100
AcDbLine
 10
281.832962
 20
61.02811800000001
 30
0.0
 11
268.5341149999999
 21
47.729271
 31
0.0
  0
LINE
  5
2AA
330
1E
100
AcDbEntity
  8
CSLAYER1
  6
DASHED
 62
     4
100
AcDbLine
 10
281.832962
 20
53.249943
 30
0.0
 11
282.889313
 21
54.30629399999999
 31
0.0
  0
ARC
  5
2AB
330
1E
100
AcDbEntity
  8
CSLAYER1
  6
DASHED
 62
     4
100
AcDbCircle
 10
276.8141979999999
 20
60.552128
 30
0.0
 40
10.0
100
AcDbArc
 50
300.12422
 51
307.4030739999999
  0
LINE
  5
2AC
330
1E
100
AcDbEntity
  8
CSLAYER1
  6
CONTINUOUS
 62
     3
100
AcDbLine
 10
281.832962
 20
51.55288699999999
 30
0.0
 11
277.0901069999999
 21
46.810032
 31
0.0
  0
LINE
  5
2AD
330
1E
100
AcDbEntity
  8
CSLAYER1
  6
CONTINUOUS
 62
     3
100
AcDbLine
 10
367.1755109999998
 20
129.4001039999999
 30
0.0
 11
367.1755109999998
 21
131.5214239999999
 31
0.0
  0
LINE
  5
2AE
330
1E
100
AcDbEntity
  8
CSLAYER1
  6
CONTINUOUS
 62
     3
100
AcDbLine
 10
298.065195
 20
128.1720389999998
 30
0.0
 11
287.458593
 21
117.565437
 31
0.0
  0
TEXT
  5
2B0
330
1E
100
AcDbEntity
  8
CSLAYER1
 62
     3
100
AcDbText
 10
355.8999999999998
 20
18.89999999999998
 30
0.0
 40
3.2
  1
NR20ST
 41
1.058823529411773
  7
FX_FONT
 72
     5
 11
375.1
 21
18.89999999999998
 31
0.0
100
AcDbText
  0
LINE
  5
2B1
330
1E
100
AcDbEntity
  8
CSLAYER1
  6
CONTINUOUS
 62
     3
100
AcDbLine
 10
281.832962
 20
110.7976709999999
 30
0.0
 11
296.832962
 21
125.7976709999999
 31
0.0
  0
LINE
  5
2B2
330
1E
100
AcDbEntity
  8
CSLAYER1
  6
CONTINUOUS
 62
     3
100
AcDbLine
 10
198.563027
 20
212.111995
 30
0.0
 11
213.563027
 21
227.111995
 31
0.0
  0
LINE
  5
2B3
330
1E
100
AcDbEntity
  8
CSLAYER1
  6
CONTINUOUS
 62
     3
100
AcDbLine
 10
140.2982729999999
 20
212.111995
 30
0.0
 11
137.2982729999999
 21
212.111995
 31
0.0
  0
LINE
  5
2B4
330
1E
100
AcDbEntity
  8
CSLAYER1
  6
CONTINUOUS
 62
     3
100
AcDbLine
 10
77.298273
 20
212.111995
 30
0.0
 11
74.29827299999998
 21
212.111995
 31
0.0
  0
LINE
  5
2B5
330
1E
100
AcDbEntity
  8
CSLAYER1
  6
CENTER
 62
     4
100
AcDbLine
 10
147.5810139999999
 20
99.90904999999999
 30
0.0
 11
158.690235
 21
99.90904999999999
 31
0.0
  0
ARC
  5
2B6
330
1E
100
AcDbEntity
  8
CSLAYER1
  6
CONTINUOUS
 62
     3
100
AcDbCircle
 10
153.298273
 20
99.90904999999999
 30
0.0
 40
3.0
100
AcDbArc
 50
180.0
 51
0.0
  0
LINE
  5
2B7
330
1E
100
AcDbEntity
  8
CSLAYER1
  6
CONTINUOUS
 62
     3
100
AcDbLine
 10
150.298273
 20
105.9090499999999
 30
0.0
 11
150.298273
 21
99.90904999999999
 31
0.0
  0
LINE
  5
2B8
330
1E
100
AcDbEntity
  8
CSLAYER1
  6
CONTINUOUS
 62
     3
100
AcDbLine
 10
156.2982729999999
 20
105.9090499999999
 30
0.0
 11
156.2982729999999
 21
99.90904999999999
 31
0.0
  0
LINE
  5
2B9
330
1E
100
AcDbEntity
  8
CSLAYER1
  6
CENTER
 62
     4
100
AcDbLine
 10
147.5810139999999
 20
61.90905
 30
0.0
 11
158.148322
 21
61.90905
 31
0.0
  0
ARC
  5
2BA
330
1E
100
AcDbEntity
  8
CSLAYER1
  6
CONTINUOUS
 62
     3
100
AcDbCircle
 10
153.298273
 20
61.90905
 30
0.0
 40
3.0
100
AcDbArc
 50
0.0
 51
180.0
  0
LINE
  5
2BB
330
1E
100
AcDbEntity
  8
CSLAYER1
  6
CENTER
 62
     4
100
AcDbLine
 10
147.5810139999999
 20
55.90905
 30
0.0
 11
158.690235
 21
55.90905
 31
0.0
  0
ARC
  5
2BC
330
1E
100
AcDbEntity
  8
CSLAYER1
  6
CONTINUOUS
 62
     3
100
AcDbCircle
 10
153.298273
 20
55.90905
 30
0.0
 40
3.0
100
AcDbArc
 50
180.0
 51
0.0
  0
LINE
  5
2BD
330
1E
100
AcDbEntity
  8
CSLAYER1
  6
CONTINUOUS
 62
     3
100
AcDbLine
 10
150.298273
 20
61.90905
 30
0.0
 11
150.298273
 21
55.90905
 31
0.0
  0
LINE
  5
2BE
330
1E
100
AcDbEntity
  8
CSLAYER1
  6
CONTINUOUS
 62
     3
100
AcDbLine
 10
156.2982729999999
 20
61.90905
 30
0.0
 11
156.2982729999999
 21
55.90905
 31
0.0
  0
LINE
  5
2BF
330
1E
100
AcDbEntity
  8
CSLAYER1
  6
CENTER
 62
     4
100
AcDbLine
 10
67.01553100000001
 20
105.9090499999999
 30
0.0
 11
56.448223
 21
105.9090499999999
 31
0.0
  0
LINE
  5
2C0
330
1E
100
AcDbEntity
  8
CSLAYER1
  6
CENTER
 62
     4
100
AcDbLine
 10
67.01553100000001
 20
99.90904999999999
 30
0.0
 11
55.90631
 21
99.90904999999999
 31
0.0
  0
ARC
  5
2C1
330
1E
100
AcDbEntity
  8
CSLAYER1
  6
CONTINUOUS
 62
     3
100
AcDbCircle
 10
61.29827299999998
 20
99.90904999999999
 30
0.0
 40
3.0
100
AcDbArc
 50
180.0
 51
0.0
  0
LINE
  5
2C2
330
1E
100
AcDbEntity
  8
CSLAYER1
  6
CONTINUOUS
 62
     3
100
AcDbLine
 10
64.29827299999999
 20
105.9090499999999
 30
0.0
 11
64.29827299999999
 21
99.90904999999999
 31
0.0
  0
LINE
  5
2C3
330
1E
100
AcDbEntity
  8
CSLAYER1
  6
CONTINUOUS
 62
     3
100
AcDbLine
 10
58.29827299999998
 20
105.9090499999999
 30
0.0
 11
58.29827299999998
 21
99.90904999999999
 31
0.0
  0
LINE
  5
2C4
330
1E
100
AcDbEntity
  8
CSLAYER1
  6
CENTER
 62
     4
100
AcDbLine
 10
67.01553100000001
 20
61.90905
 30
0.0
 11
56.448223
 21
61.90905
 31
0.0
  0
ARC
  5
2C5
330
1E
100
AcDbEntity
  8
CSLAYER1
  6
CONTINUOUS
 62
     3
100
AcDbCircle
 10
61.29827299999998
 20
61.90905
 30
0.0
 40
3.0
100
AcDbArc
 50
0.0
 51
180.0
  0
LINE
  5
2C6
330
1E
100
AcDbEntity
  8
CSLAYER1
  6
CENTER
 62
     4
100
AcDbLine
 10
67.01553100000001
 20
55.90905
 30
0.0
 11
55.90631
 21
55.90905
 31
0.0
  0
ARC
  5
2C7
330
1E
100
AcDbEntity
  8
CSLAYER1
  6
CONTINUOUS
 62
     3
100
AcDbCircle
 10
61.29827299999998
 20
55.90905
 30
0.0
 40
3.0
100
AcDbArc
 50
180.0
 51
0.0
  0
LINE
  5
2C8
330
1E
100
AcDbEntity
  8
CSLAYER1
  6
CONTINUOUS
 62
     3
100
AcDbLine
 10
64.29827299999999
 20
61.90905
 30
0.0
 11
64.29827299999999
 21
55.90905
 31
0.0
  0
LINE
  5
2C9
330
1E
100
AcDbEntity
  8
CSLAYER1
  6
CONTINUOUS
 62
     3
100
AcDbLine
 10
58.29827299999998
 20
61.90905
 30
0.0
 11
58.29827299999998
 21
55.90905
 31
0.0
  0
DIMENSION
  5
2CA
330
1E
100
AcDbEntity
  8
CSLAYER1
 62
     4
100
AcDbDimension
  2
*D14
 10
34.214459
 20
115.90905
 30
0.0
 11
33.714458
 21
80.90904999999997
 31
0.0
 70
     1
100
AcDbAlignedDimension
 13
52.298273
 23
45.90905
 33
0.0
 14
52.298273
 24
115.90905
 34
0.0
  0
DIMENSION
  5
2CB
330
1E
100
AcDbEntity
  8
CSLAYER1
 62
     4
100
AcDbDimension
  2
*D15
 10
40.214459
 20
52.90905
 30
0.0
 11
39.714458
 21
49.40905
 31
0.0
100
AcDbAlignedDimension
 13
52.298273
 23
45.90905
 33
0.0
 14
61.29827299999998
 24
52.90905
 34
0.0
 50
90.0
100
AcDbRotatedDimension
  0
DIMENSION
  5
2CC
330
1E
100
AcDbEntity
  8
CSLAYER1
 62
     4
100
AcDbDimension
  2
*D16
 10
40.214459
 20
64.90904999999999
 30
0.0
 11
39.714458
 21
58.90905
 31
0.0
 70
     1
100
AcDbAlignedDimension
 13
61.29827299999998
 23
52.90905
 33
0.0
 14
61.29827299999998
 24
64.90904999999999
 34
0.0
  0
DIMENSION
  5
2CD
330
1E
100
AcDbEntity
  8
CSLAYER1
 62
     4
100
AcDbDimension
  2
*D17
 10
40.214459
 20
96.90905
 30
0.0
 11
39.714458
 21
80.90904999999997
 31
0.0
 70
     1
100
AcDbAlignedDimension
 13
61.29827299999998
 23
64.90904999999999
 33
0.0
 14
61.29827299999998
 24
96.90905
 34
0.0
  0
DIMENSION
  5
2CE
330
1E
100
AcDbEntity
  8
CSLAYER1
 62
     4
100
AcDbDimension
  2
*D18
 10
40.214459
 20
108.9090499999999
 30
0.0
 11
39.714458
 21
102.9090499999999
 31
0.0
 70
     1
100
AcDbAlignedDimension
 13
61.29827299999998
 23
96.90905
 33
0.0
 14
61.29827299999998
 24
108.9090499999999
 34
0.0
  0
DIMENSION
  5
2CF
330
1E
100
AcDbEntity
  8
CSLAYER1
 62
     4
100
AcDbDimension
  2
*D19
 10
40.214459
 20
115.90905
 30
0.0
 11
39.714458
 21
112.4090499999999
 31
0.0
100
AcDbAlignedDimension
 13
61.29827299999998
 23
108.9090499999999
 33
0.0
 14
52.298273
 24
115.90905
 34
0.0
 50
90.0
100
AcDbRotatedDimension
  0
ARC
  5
2D0
330
1E
100
AcDbEntity
  8
CSLAYER1
  6
CONTINUOUS
 62
     3
100
AcDbCircle
 10
61.29827299999998
 20
105.9090499999999
 30
0.0
 40
3.0
100
AcDbArc
 50
0.0
 51
180.0
  0
DIMENSION
  5
2D1
330
1E
100
AcDbEntity
  8
CSLAYER1
 62
     4
100
AcDbDimension
  2
*D20
 10
64.29827299999999
 20
90.6229
 30
0.0
 11
66.768204
 21
91.122902
 31
0.0
 70
     1
 52
270.0
100
AcDbAlignedDimension
 13
58.29827299999998
 23
99.90904999999999
 33
0.0
 14
64.29827299999999
 24
99.90904999999999
 34
0.0
  0
LINE
  5
2D2
330
1E
100
AcDbEntity
  8
CSLAYER1
  6
CENTER
 62
     4
100
AcDbLine
 10
297.832962
 20
48.59950900000001
 30
0.0
 11
297.832962
 21
60.203686
 31
0.0
  0
LINE
  5
2D3
330
1E
100
AcDbEntity
  8
CSLAYER1
  6
CENTER
 62
     4
100
AcDbLine
 10
335.832962
 20
47.558108
 30
0.0
 11
335.832962
 21
58.71597099999998
 31
0.0
  0
INSERT
  5
2D4
330
1E
100
AcDbEntity
  8
CSLAYER1
100
AcDbBlockReference
  2
FXDIM0000
 10
0.0
 20
0.0
 30
0.0
  0
LINE
  5
2D5
330
1E
100
AcDbEntity
  8
CSLAYER1
  6
CENTER
 62
     4
100
AcDbLine
 10
214.563027
 20
149.913833
 30
0.0
 11
214.563027
 21
161.518009
 31
0.0
  0
LINE
  5
2D6
330
1E
100
AcDbEntity
  8
CSLAYER1
  6
CENTER
 62
     4
100
AcDbLine
 10
252.563027
 20
148.872432
 30
0.0
 11
252.563027
 21
160.0302949999999
 31
0.0
  0
ARC
  5
2D7
330
1E
100
AcDbEntity
  8
CSLAYER1
  6
CONTINUOUS
 62
     3
100
AcDbCircle
 10
74.29827299999998
 20
155.111995
 30
0.0
 40
3.0
100
AcDbArc
 50
270.0
 51
0.0
  0
ARC
  5
2D8
330
1E
100
AcDbEntity
  8
CSLAYER1
  6
CONTINUOUS
 62
     3
100
AcDbCircle
 10
140.2982729999999
 20
155.111995
 30
0.0
 40
3.0
100
AcDbArc
 50
180.0
 51
270.0
  0
LINE
  5
2D9
330
1E
100
AcDbEntity
  8
CSLAYER1
  6
CONTINUOUS
 62
     3
100
AcDbLine
 10
145.998273
 20
221.361995
 30
0.0
 11
141.2982729999999
 21
221.361995
 31
0.0
  0
LINE
  5
2DA
330
1E
100
AcDbEntity
  8
CSLAYER1
  6
CONTINUOUS
 62
     3
100
AcDbLine
 10
146.298273
 20
220.8423789999999
 30
0.0
 11
146.298273
 21
213.38161
 31
0.0
  0
LINE
  5
2DB
330
1E
100
AcDbEntity
  8
CSLAYER1
  6
CONTINUOUS
 62
     3
100
AcDbLine
 10
145.998273
 20
212.861995
 30
0.0
 11
141.2982729999999
 21
212.861995
 31
0.0
  0
LINE
  5
2DC
330
1E
100
AcDbEntity
  8
CSLAYER1
  6
CONTINUOUS
 62
     3
100
AcDbLine
 10
145.998273
 20
221.361995
 30
0.0
 11
145.998273
 21
212.861995
 31
0.0
  0
LINE
  5
2DD
330
1E
100
AcDbEntity
  8
CSLAYER1
  6
CONTINUOUS
 62
     3
100
AcDbLine
 10
145.998273
 20
212.861995
 30
0.0
 11
146.298273
 21
213.38161
 31
0.0
  0
LINE
  5
2DE
330
1E
100
AcDbEntity
  8
CSLAYER1
  6
CONTINUOUS
 62
     3
100
AcDbLine
 10
145.998273
 20
221.361995
 30
0.0
 11
146.298273
 21
220.8423789999999
 31
0.0
  0
LINE
  5
2DF
330
1E
100
AcDbEntity
  8
CSLAYER1
  6
CONTINUOUS
 62
     3
100
AcDbLine
 10
141.2982729999999
 20
223.511995
 30
0.0
 11
141.2982729999999
 21
210.711995
 31
0.0
  0
LINE
  5
2E0
330
1E
100
AcDbEntity
  8
CSLAYER1
  6
CONTINUOUS
 62
     3
100
AcDbLine
 10
140.2982729999999
 20
223.511995
 30
0.0
 11
141.2982729999999
 21
223.511995
 31
0.0
  0
LINE
  5
2E1
330
1E
100
AcDbEntity
  8
CSLAYER1
  6
CONTINUOUS
 62
     3
100
AcDbLine
 10
140.2982729999999
 20
210.711995
 30
0.0
 11
141.2982729999999
 21
210.711995
 31
0.0
  0
LINE
  5
2E2
330
1E
100
AcDbEntity
  8
CSLAYER1
  6
CONTINUOUS
 62
     3
100
AcDbLine
 10
145.998273
 20
181.361995
 30
0.0
 11
141.2982729999999
 21
181.361995
 31
0.0
  0
LINE
  5
2E3
330
1E
100
AcDbEntity
  8
CSLAYER1
  6
CONTINUOUS
 62
     3
100
AcDbLine
 10
146.298273
 20
180.8423789999999
 30
0.0
 11
146.298273
 21
173.38161
 31
0.0
  0
LINE
  5
2E4
330
1E
100
AcDbEntity
  8
CSLAYER1
  6
CONTINUOUS
 62
     3
100
AcDbLine
 10
145.998273
 20
172.861995
 30
0.0
 11
141.2982729999999
 21
172.861995
 31
0.0
  0
LINE
  5
2E5
330
1E
100
AcDbEntity
  8
CSLAYER1
  6
CONTINUOUS
 62
     3
100
AcDbLine
 10
145.998273
 20
181.361995
 30
0.0
 11
145.998273
 21
172.861995
 31
0.0
  0
LINE
  5
2E6
330
1E
100
AcDbEntity
  8
CSLAYER1
  6
CONTINUOUS
 62
     3
100
AcDbLine
 10
145.998273
 20
172.861995
 30
0.0
 11
146.298273
 21
173.38161
 31
0.0
  0
LINE
  5
2E7
330
1E
100
AcDbEntity
  8
CSLAYER1
  6
CONTINUOUS
 62
     3
100
AcDbLine
 10
145.998273
 20
181.361995
 30
0.0
 11
146.298273
 21
180.8423789999999
 31
0.0
  0
LINE
  5
2E8
330
1E
100
AcDbEntity
  8
CSLAYER1
  6
CONTINUOUS
 62
     3
100
AcDbLine
 10
141.2982729999999
 20
183.5119949999999
 30
0.0
 11
141.2982729999999
 21
170.711995
 31
0.0
  0
LINE
  5
2E9
330
1E
100
AcDbEntity
  8
CSLAYER1
  6
CONTINUOUS
 62
     3
100
AcDbLine
 10
140.2982729999999
 20
183.5119949999999
 30
0.0
 11
141.2982729999999
 21
183.5119949999999
 31
0.0
  0
LINE
  5
2EA
330
1E
100
AcDbEntity
  8
CSLAYER1
  6
CONTINUOUS
 62
     3
100
AcDbLine
 10
140.2982729999999
 20
170.711995
 30
0.0
 11
141.2982729999999
 21
170.711995
 31
0.0
  0
LINE
  5
2EB
330
1E
100
AcDbEntity
  8
CSLAYER1
  6
CONTINUOUS
 62
     3
100
AcDbLine
 10
68.59827299999999
 20
221.361995
 30
0.0
 11
73.29827299999998
 21
221.361995
 31
0.0
  0
LINE
  5
2EC
330
1E
100
AcDbEntity
  8
CSLAYER1
  6
CONTINUOUS
 62
     3
100
AcDbLine
 10
68.29827299999999
 20
220.8423789999999
 30
0.0
 11
68.29827299999999
 21
213.38161
 31
0.0
  0
LINE
  5
2ED
330
1E
100
AcDbEntity
  8
CSLAYER1
  6
CONTINUOUS
 62
     3
100
AcDbLine
 10
68.59827299999999
 20
212.861995
 30
0.0
 11
73.29827299999998
 21
212.861995
 31
0.0
  0
LINE
  5
2EE
330
1E
100
AcDbEntity
  8
CSLAYER1
  6
CONTINUOUS
 62
     3
100
AcDbLine
 10
68.59827299999999
 20
221.361995
 30
0.0
 11
68.59827299999999
 21
212.861995
 31
0.0
  0
LINE
  5
2EF
330
1E
100
AcDbEntity
  8
CSLAYER1
  6
CONTINUOUS
 62
     3
100
AcDbLine
 10
68.59827299999999
 20
212.861995
 30
0.0
 11
68.29827299999999
 21
213.38161
 31
0.0
  0
LINE
  5
2F0
330
1E
100
AcDbEntity
  8
CSLAYER1
  6
CONTINUOUS
 62
     3
100
AcDbLine
 10
68.59827299999999
 20
221.361995
 30
0.0
 11
68.29827299999999
 21
220.8423789999999
 31
0.0
  0
LINE
  5
2F1
330
1E
100
AcDbEntity
  8
CSLAYER1
  6
CONTINUOUS
 62
     3
100
AcDbLine
 10
73.29827299999998
 20
223.511995
 30
0.0
 11
73.29827299999998
 21
210.711995
 31
0.0
  0
LINE
  5
2F2
330
1E
100
AcDbEntity
  8
CSLAYER1
  6
CONTINUOUS
 62
     3
100
AcDbLine
 10
74.29827299999998
 20
223.511995
 30
0.0
 11
73.29827299999998
 21
223.511995
 31
0.0
  0
LINE
  5
2F3
330
1E
100
AcDbEntity
  8
CSLAYER1
  6
CONTINUOUS
 62
     3
100
AcDbLine
 10
74.29827299999998
 20
210.711995
 30
0.0
 11
73.29827299999998
 21
210.711995
 31
0.0
  0
LINE
  5
2F4
330
1E
100
AcDbEntity
  8
CSLAYER1
  6
CONTINUOUS
 62
     3
100
AcDbLine
 10
68.59827299999999
 20
181.361995
 30
0.0
 11
73.29827299999998
 21
181.361995
 31
0.0
  0
LINE
  5
2F5
330
1E
100
AcDbEntity
  8
CSLAYER1
  6
CONTINUOUS
 62
     3
100
AcDbLine
 10
68.29827299999999
 20
180.8423789999999
 30
0.0
 11
68.29827299999999
 21
173.38161
 31
0.0
  0
LINE
  5
2F6
330
1E
100
AcDbEntity
  8
CSLAYER1
  6
CONTINUOUS
 62
     3
100
AcDbLine
 10
68.59827299999999
 20
172.861995
 30
0.0
 11
73.29827299999998
 21
172.861995
 31
0.0
  0
LINE
  5
2F7
330
1E
100
AcDbEntity
  8
CSLAYER1
  6
CONTINUOUS
 62
     3
100
AcDbLine
 10
68.59827299999999
 20
181.361995
 30
0.0
 11
68.59827299999999
 21
172.861995
 31
0.0
  0
LINE
  5
2F8
330
1E
100
AcDbEntity
  8
CSLAYER1
  6
CONTINUOUS
 62
     3
100
AcDbLine
 10
68.59827299999999
 20
172.861995
 30
0.0
 11
68.29827299999999
 21
173.38161
 31
0.0
  0
LINE
  5
2F9
330
1E
100
AcDbEntity
  8
CSLAYER1
  6
CONTINUOUS
 62
     3
100
AcDbLine
 10
68.59827299999999
 20
181.361995
 30
0.0
 11
68.29827299999999
 21
180.8423789999999
 31
0.0
  0
LINE
  5
2FA
330
1E
100
AcDbEntity
  8
CSLAYER1
  6
CONTINUOUS
 62
     3
100
AcDbLine
 10
73.29827299999998
 20
183.5119949999999
 30
0.0
 11
73.29827299999998
 21
170.711995
 31
0.0
  0
LINE
  5
2FB
330
1E
100
AcDbEntity
  8
CSLAYER1
  6
CONTINUOUS
 62
     3
100
AcDbLine
 10
74.29827299999998
 20
183.5119949999999
 30
0.0
 11
73.29827299999998
 21
183.5119949999999
 31
0.0
  0
LINE
  5
2FC
330
1E
100
AcDbEntity
  8
CSLAYER1
  6
CONTINUOUS
 62
     3
100
AcDbLine
 10
74.29827299999998
 20
170.711995
 30
0.0
 11
73.29827299999998
 21
170.711995
 31
0.0
  0
LINE
  5
2FD
330
1E
100
AcDbEntity
  8
CSLAYER1
  6
CONTINUOUS
 62
     3
100
AcDbLine
 10
124.298273
 20
238.861995
 30
0.0
 11
119.5982729999998
 21
238.861995
 31
0.0
  0
LINE
  5
2FE
330
1E
100
AcDbEntity
  8
CSLAYER1
  6
CONTINUOUS
 62
     3
100
AcDbLine
 10
124.5982729999999
 20
238.342379
 30
0.0
 11
124.5982729999999
 21
230.88161
 31
0.0
  0
LINE
  5
2FF
330
1E
100
AcDbEntity
  8
CSLAYER1
  6
CONTINUOUS
 62
     3
100
AcDbLine
 10
124.298273
 20
230.361995
 30
0.0
 11
119.5982729999998
 21
230.361995
 31
0.0
  0
LINE
  5
300
330
1E
100
AcDbEntity
  8
CSLAYER1
  6
CONTINUOUS
 62
     3
100
AcDbLine
 10
124.298273
 20
238.861995
 30
0.0
 11
124.298273
 21
230.361995
 31
0.0
  0
LINE
  5
301
330
1E
100
AcDbEntity
  8
CSLAYER1
  6
CONTINUOUS
 62
     3
100
AcDbLine
 10
124.298273
 20
230.361995
 30
0.0
 11
124.5982729999999
 21
230.88161
 31
0.0
  0
LINE
  5
302
330
1E
100
AcDbEntity
  8
CSLAYER1
  6
CONTINUOUS
 62
     3
100
AcDbLine
 10
124.298273
 20
238.861995
 30
0.0
 11
124.5982729999999
 21
238.342379
 31
0.0
  0
LINE
  5
303
330
1E
100
AcDbEntity
  8
CSLAYER1
  6
DASHED
 62
     4
100
AcDbLine
 10
99.598273
 20
237.111995
 30
0.0
 11
99.598273
 21
232.1119949999999
 31
0.0
  0
LINE
  5
304
330
1E
100
AcDbEntity
  8
CSLAYER1
  6
CONTINUOUS
 62
     3
100
AcDbLine
 10
119.5982729999998
 20
238.961995
 30
0.0
 11
119.5982729999998
 21
230.2619949999999
 31
0.0
  0
LINE
  5
305
330
1E
100
AcDbEntity
  8
CSLAYER1
  6
CONTINUOUS
 62
     3
100
AcDbLine
 10
118.2982729999999
 20
238.961995
 30
0.0
 11
119.5982729999998
 21
238.961995
 31
0.0
  0
LINE
  5
306
330
1E
100
AcDbEntity
  8
CSLAYER1
  6
CONTINUOUS
 62
     3
100
AcDbLine
 10
118.2982729999999
 20
230.2619949999999
 30
0.0
 11
119.5982729999998
 21
230.2619949999999
 31
0.0
  0
CIRCLE
  5
307
330
1E
100
AcDbEntity
  8
CSLAYER1
  6
CONTINUOUS
 62
     3
100
AcDbCircle
 10
216.563027
 20
217.111995
 30
0.0
 40
6.4
  0
CIRCLE
  5
308
330
1E
100
AcDbEntity
  8
CSLAYER1
  6
CONTINUOUS
 62
     3
100
AcDbCircle
 10
216.563027
 20
177.111995
 30
0.0
 40
6.4
  0
INSERT
  5
309
330
1E
100
AcDbEntity
  8
CSLAYER1
100
AcDbBlockReference
  2
FXDIM0001
 10
0.0
 20
0.0
 30
0.0
  0
TEXT
  5
30A
330
1E
100
AcDbEntity
  8
CSLAYER1
 62
     4
100
AcDbText
 10
171.5916959999999
 20
239.8498079999999
 30
0.0
 40
3.2
  1
M5X0.8
 41
1.05882352941177
 51
15.0
  7
FX_FONT
 72
     5
 11
190.791696
 21
239.8498079999999
 31
0.0
100
AcDbText
  0
CIRCLE
  5
30B
330
1E
100
AcDbEntity
  8
CSLAYER1
  6
CONTINUOUS
 62
     3
100
AcDbCircle
 10
216.563027
 20
234.611995
 30
0.0
 40
4.349999999999998
  0
INSERT
  5
30C
330
1E
100
AcDbEntity
  8
CSLAYER1
100
AcDbBlockReference
  2
FXDIM0002
 10
0.0
 20
0.0
 30
0.0
  0
TEXT
  5
30D
330
1E
100
AcDbEntity
  8
CSLAYER1
 62
     4
100
AcDbText
 10
171.421377
 20
222.054367
 30
0.0
 40
3.2
  1
M5X0.8
 41
1.058823584558819
 51
15.0
  7
FX_FONT
 72
     5
 11
190.6213779999999
 21
222.054367
 31
0.0
100
AcDbText
  0
ARC
  5
30E
330
1E
100
AcDbEntity
  8
CSLAYER1
  6
CONTINUOUS
 62
     3
100
AcDbCircle
 10
216.563027
 20
217.111995
 30
0.0
 40
37.0
100
AcDbArc
 50
278.427266
 51
330.0
  0
ARC
  5
30F
330
1E
100
AcDbEntity
  8
CSLAYER1
  6
CONTINUOUS
 62
     3
100
AcDbCircle
 10
216.563027
 20
217.111995
 30
0.0
 40
43.0
100
AcDbArc
 50
277.8162529999999
 51
330.0
  0
CIRCLE
  5
310
330
1E
100
AcDbEntity
  8
CSLAYER1
  6
CONTINUOUS
 62
     3
100
AcDbCircle
 10
299.832962
 20
115.797671
 30
0.0
 40
6.4
  0
CIRCLE
  5
311
330
1E
100
AcDbEntity
  8
CSLAYER1
  6
CONTINUOUS
 62
     3
100
AcDbCircle
 10
328.1172329999999
 20
87.51339899999997
 30
0.0
 40
6.4
  0
ARC
  5
312
330
1E
100
AcDbEntity
  8
CSLAYER1
  6
CONTINUOUS
 62
     3
100
AcDbCircle
 10
299.832962
 20
115.797671
 30
0.0
 40
37.0
100
AcDbArc
 50
323.427266
 51
330.0
  0
ARC
  5
313
330
1E
100
AcDbEntity
  8
CSLAYER1
  6
DASHED
 62
     4
100
AcDbCircle
 10
299.832962
 20
115.797671
 30
0.0
 40
37.0
100
AcDbArc
 50
306.5727339999999
 51
310.51537
  0
ARC
  5
314
330
1E
100
AcDbEntity
  8
CSLAYER1
  6
DASHED
 62
     4
100
AcDbCircle
 10
299.832962
 20
115.797671
 30
0.0
 40
43.0
100
AcDbArc
 50
307.183747
 51
310.8401489999998
  0
ARC
  5
315
330
1E
100
AcDbEntity
  8
CSLAYER1
  6
CONTINUOUS
 62
     3
100
AcDbCircle
 10
299.832962
 20
115.797671
 30
0.0
 40
43.0
100
AcDbArc
 50
322.8162529999999
 51
330.0
  0
LINE
  5
316
330
1E
100
AcDbEntity
  8
CSLAYER1
  6
DOT
 62
     3
100
AcDbLine
 10
10.0
 20
3.0
 30
0.0
 11
395.0
 21
3.0
 31
0.0
  0
LINE
  5
317
330
1E
100
AcDbEntity
  8
CSLAYER1
  6
DOT
 62
     3
100
AcDbLine
 10
395.0
 20
3.0
 30
0.0
 11
395.0
 21
275.0
 31
0.0
  0
LINE
  5
318
330
1E
100
AcDbEntity
  8
CSLAYER1
  6
DOT
 62
     3
100
AcDbLine
 10
395.0
 20
275.0
 30
0.0
 11
10.0
 21
275.0
 31
0.0
  0
LINE
  5
319
330
1E
100
AcDbEntity
  8
CSLAYER1
  6
DOT
 62
     3
100
AcDbLine
 10
10.0
 20
275.0
 30
0.0
 11
10.0
 21
3.0
 31
0.0
  0
ENDSEC
  0
SECTION
  2
OBJECTS
  0
DICTIONARY
  5
C
330
0
100
AcDbDictionary
  3
ACAD_GROUP
350
D
  3
ACAD_LAYOUT
350
19
  3
ACAD_MLINESTYLE
350
16
  3
ACAD_PLOTSETTINGS
350
18
1001
ACAD
1000
TREAT_AS_HARD
1070
     0
1000
TREAT_AS_HARD
1070
     0
  0
DICTIONARY
  5
323
330
1E
100
AcDbDictionary
  3
ACAD_LAYOUTSELFREF
350
350
1001
ACAD
1000
TREAT_AS_HARD
1070
     0
  0
DICTIONARY
  5
321
330
1A
100
AcDbDictionary
  3
ACAD_LAYOUTSELFREF
350
34F
1001
ACAD
1000
TREAT_AS_HARD
1070
     0
  0
DICTIONARY
  5
D
102
{ACAD_REACTORS
330
C
102
}
330
C
100
AcDbDictionary
1001
ACAD
1000
TREAT_AS_HARD
1070
     0
1000
TREAT_AS_HARD
1070
     0
  0
DICTIONARY
  5
19
102
{ACAD_REACTORS
330
C
102
}
330
C
100
AcDbDictionary
1001
ACAD
1000
TREAT_AS_HARD
1070
     0
1000
TREAT_AS_HARD
1070
     0
  0
DICTIONARY
  5
16
102
{ACAD_REACTORS
330
C
102
}
330
C
100
AcDbDictionary
  3
STANDARD
350
17
1001
ACAD
1000
TREAT_AS_HARD
1070
     0
1000
TREAT_AS_HARD
1070
     0
  0
DICTIONARY
  5
18
102
{ACAD_REACTORS
330
C
102
}
330
C
100
AcDbDictionary
1001
ACAD
1000
TREAT_AS_HARD
1070
     0
1000
TREAT_AS_HARD
1070
     0
  0
XRECORD
  5
350
102
{ACAD_REACTORS
330
323
102
}
330
323
100
AcDbXrecord
340
1E
  0
XRECORD
  5
34F
102
{ACAD_REACTORS
330
321
102
}
330
321
100
AcDbXrecord
340
1A
  0
MLINESTYLE
  5
17
102
{ACAD_REACTORS
330
16
102
}
330
16
100
AcDbMlineStyle
  2
STANDARD
 70
     0
  3

 62
   256
 51
90.0
 52
90.0
 71
     2
 49
0.5
 62
   256
  6
BYLAYER
 49
-0.5
 62
   256
  6
BYLAYER
  0
ENDSEC
  0
EOF
