  0
SECTION
  2
HEADER
  9
$ACADVER
  1
AC1012
  9
$DWGCODEPAGE
  3
dos932
  9
$INSBASE
 10
0.0
 20
0.0
 30
0.0
  9
$EXTMIN
 10
-0.0090630292066862
 20
0.9869389666558276
 30
-0.0015258207003583
  9
$EXTMAX
 10
283.0056159095904
 20
199.0155034058442
 30
0.0000000349246037
  9
$LIMMIN
 10
0.0
 20
0.0
  9
$LIMMAX
 10
297.0
 20
210.0
  9
$ORTHOMODE
 70
     0
  9
$REGENMODE
 70
     1
  9
$FILLMODE
 70
     1
  9
$QTEXTMODE
 70
     0
  9
$MIRRTEXT
 70
     1
  9
$DRAGMODE
 70
     2
  9
$LTSCALE
 40
15.0
  9
$OSMODE
 70
    37
  9
$ATTMODE
 70
     1
  9
$TEXTSIZE
 40
0.2
  9
$TRACEWID
 40
0.05
  9
$TEXTSTYLE
  7
GOTHIC
  9
$CLAYER
  8
CSLAYER1
  9
$CELTYPE
  6
BYLAYER
  9
$CECOLOR
 62
   256
  9
$CELTSCALE
 40
1.0
  9
$DELOBJ
 70
     1
  9
$DISPSILH
 70
     0
  9
$DIMSCALE
 40
1.0
  9
$DIMASZ
 40
0.18
  9
$DIMEXO
 40
0.0625
  9
$DIMDLI
 40
0.38
  9
$DIMRND
 40
0.0
  9
$DIMDLE
 40
0.0
  9
$DIMEXE
 40
0.18
  9
$DIMTP
 40
0.0
  9
$DIMTM
 40
0.0
  9
$DIMTXT
 40
0.18
  9
$DIMCEN
 40
0.09
  9
$DIMTSZ
 40
0.0
  9
$DIMTOL
 70
     0
  9
$DIMLIM
 70
     0
  9
$DIMTIH
 70
     1
  9
$DIMTOH
 70
     1
  9
$DIMSE1
 70
     0
  9
$DIMSE2
 70
     0
  9
$DIMTAD
 70
     0
  9
$DIMZIN
 70
     0
  9
$DIMBLK
  1

  9
$DIMASO
 70
     1
  9
$DIMSHO
 70
     1
  9
$DIMPOST
  1

  9
$DIMAPOST
  1

  9
$DIMALT
 70
     0
  9
$DIMALTD
 70
     2
  9
$DIMALTF
 40
25.4
  9
$DIMLFAC
 40
1.0
  9
$DIMTOFL
 70
     0
  9
$DIMTVP
 40
0.0
  9
$DIMTIX
 70
     0
  9
$DIMSOXD
 70
     0
  9
$DIMSAH
 70
     0
  9
$DIMBLK1
  1

  9
$DIMBLK2
  1

  9
$DIMSTYLE
  2
STANDARD
  9
$DIMCLRD
 70
     0
  9
$DIMCLRE
 70
     0
  9
$DIMCLRT
 70
     0
  9
$DIMTFAC
 40
1.0
  9
$DIMGAP
 40
0.09
  9
$DIMJUST
 70
     0
  9
$DIMSD1
 70
     0
  9
$DIMSD2
 70
     0
  9
$DIMTOLJ
 70
     1
  9
$DIMTZIN
 70
     0
  9
$DIMALTZ
 70
     0
  9
$DIMALTTZ
 70
     0
  9
$DIMFIT
 70
     3
  9
$DIMUPT
 70
     0
  9
$DIMUNIT
 70
     2
  9
$DIMDEC
 70
     4
  9
$DIMTDEC
 70
     4
  9
$DIMALTU
 70
     2
  9
$DIMALTTD
 70
     2
  9
$DIMTXSTY
  7
STANDARD
  9
$DIMAUNIT
 70
     0
  9
$LUNITS
 70
     2
  9
$LUPREC
 70
     4
  9
$SKETCHINC
 40
0.1
  9
$FILLETRAD
 40
0.0
  9
$AUNITS
 70
     0
  9
$AUPREC
 70
     0
  9
$MENU
  1
ACAD
  9
$ELEVATION
 40
0.0
  9
$PELEVATION
 40
0.0
  9
$THICKNESS
 40
0.0
  9
$LIMCHECK
 70
     0
  9
$BLIPMODE
 70
     1
  9
$CHAMFERA
 40
0.0
  9
$CHAMFERB
 40
0.0
  9
$CHAMFERC
 40
0.0
  9
$CHAMFERD
 40
0.0
  9
$SKPOLY
 70
     0
  9
$TDCREATE
 40
2453482.000000000
  9
$TDUPDATE
 40
2453516.575153738
  9
$TDINDWG
 40
0.0003047338
  9
$TDUSRTIMER
 40
0.0003046065
  9
$USRTIMER
 70
     1
  9
$ANGBASE
 50
0.0
  9
$ANGDIR
 70
     0
  9
$PDMODE
 70
     0
  9
$PDSIZE
 40
0.0
  9
$PLINEWID
 40
0.0
  9
$COORDS
 70
     0
  9
$SPLFRAME
 70
     0
  9
$SPLINETYPE
 70
     6
  9
$SPLINESEGS
 70
     8
  9
$ATTDIA
 70
     0
  9
$ATTREQ
 70
     1
  9
$HANDLING
 70
-16383
  9
$HANDSEED
  5
1CD
  9
$SURFTAB1
 70
     6
  9
$SURFTAB2
 70
     6
  9
$SURFTYPE
 70
     6
  9
$SURFU
 70
     6
  9
$SURFV
 70
     6
  9
$UCSNAME
  2

  9
$UCSORG
 10
0.0
 20
0.0
 30
0.0
  9
$UCSXDIR
 10
1.0
 20
0.0
 30
0.0
  9
$UCSYDIR
 10
0.0
 20
1.0
 30
0.0
  9
$PUCSNAME
  2

  9
$PUCSORG
 10
0.0
 20
0.0
 30
0.0
  9
$PUCSXDIR
 10
1.0
 20
0.0
 30
0.0
  9
$PUCSYDIR
 10
0.0
 20
1.0
 30
0.0
  9
$USERI1
 70
     0
  9
$USERI2
 70
     0
  9
$USERI3
 70
     0
  9
$USERI4
 70
     0
  9
$USERI5
 70
     0
  9
$USERR1
 40
0.0
  9
$USERR2
 40
0.0
  9
$USERR3
 40
0.0
  9
$USERR4
 40
0.0
  9
$USERR5
 40
0.0
  9
$WORLDVIEW
 70
     1
  9
$SHADEDGE
 70
     3
  9
$SHADEDIF
 70
    70
  9
$TILEMODE
 70
     1
  9
$MAXACTVP
 70
    64
  9
$PINSBASE
 10
0.0
 20
0.0
 30
0.0
  9
$PLIMCHECK
 70
     0
  9
$PEXTMIN
 10
1.000000000000000E+20
 20
1.000000000000000E+20
 30
1.000000000000000E+20
  9
$PEXTMAX
 10
-1.000000000000000E+20
 20
-1.000000000000000E+20
 30
-1.000000000000000E+20
  9
$PLIMMIN
 10
0.0
 20
0.0
  9
$PLIMMAX
 10
12.0
 20
9.0
  9
$UNITMODE
 70
     0
  9
$VISRETAIN
 70
     1
  9
$PLINEGEN
 70
     0
  9
$PSLTSCALE
 70
     1
  9
$TREEDEPTH
 70
  3020
  9
$PICKSTYLE
 70
     3
  9
$CMLSTYLE
  2
STANDARD
  9
$CMLJUST
 70
     0
  9
$CMLSCALE
 40
1.0
  9
$SAVEIMAGES
 70
     1
  0
ENDSEC
  0
SECTION
  2
CLASSES
  0
CLASS
  1
ACDBDICTIONARYWDFLT
  2
AcDbDictionaryWithDefault
  3
AutoCAD 2000
 90
    32768
280
     0
281
     0
  0
CLASS
  1
ACDBPLACEHOLDER
  2
AcDbPlaceHolder
  3
AutoCAD 2000
 90
    32768
280
     0
281
     0
  0
CLASS
  1
LAYOUT
  2
AcDbLayout
  3
AutoCAD 2000
 90
    32768
280
     0
281
     0
  0
CLASS
  1
DICTIONARYVAR
  2
AcDbDictionaryVar
  3
AutoCAD 2000
 90
    32768
280
     0
281
     0
  0
CLASS
  1
LONG_TRANSACTION
  2
AcDbLongTransaction
  3
AutoCAD 2000
 90
    32768
280
     0
281
     0
  0
CLASS
  1
LWPOLYLINE
  2
AcDbPolyline
  3
AutoCAD 2000
 90
    32768
280
     0
281
     1
  0
CLASS
  1
HATCH
  2
AcDbHatch
  3
AutoCAD 2000
 90
    32768
280
     0
281
     1
  0
CLASS
  1
XRECORD
  2
AcDbXrecord
  3
AutoCAD 2000
 90
    32768
280
     0
281
     0
  0
CLASS
  1
LONG_TRANSACTION
  2
AcDbLongTransaction
  3
AutoCAD 2000
 90
    32768
280
     0
281
     0
  0
CLASS
  1
LWPOLYLINE
  2
AcDbPolyline
  3
AutoCAD 2000
 90
    32768
280
     0
281
     1
  0
CLASS
  1
HATCH
  2
AcDbHatch
  3
AutoCAD 2000
 90
    32768
280
     0
281
     1
  0
CLASS
  1
XRECORD
  2
AcDbXrecord
  3
AutoCAD 2000
 90
    32768
280
     0
281
     0
  0
ENDSEC
  0
SECTION
  2
TABLES
  0
TABLE
  2
VPORT
  5
8
330
0
100
AcDbSymbolTable
 70
     2
  0
VPORT
  5
1CA
330
8
100
AcDbSymbolTableRecord
100
AcDbViewportTableRecord
  2
*ACTIVE
 70
     0
 10
0.0
 20
0.0
 11
1.0
 21
1.0
 12
141.4982764401918
 22
100.00122118625
 13
0.0
 23
0.0
 14
1.0
 24
1.0
 15
0.0
 25
0.0
 16
0.0
 26
0.0
 36
1.0
 17
0.0
 27
0.0
 37
0.0
 40
199.5156375138256
 41
1.510025062656641
 42
50.0
 43
0.0
 44
0.0
 50
0.0
 51
0.0
 71
     0
 72
   100
 73
     1
 74
     1
 75
     0
 76
     0
 77
     0
 78
     0
  0
ENDTAB
  0
TABLE
  2
LTYPE
  5
5
330
0
100
AcDbSymbolTable
 70
     4
  0
LTYPE
  5
13
330
5
100
AcDbSymbolTableRecord
100
AcDbLinetypeTableRecord
  2
BYBLOCK
 70
     0
  3

 72
    65
 73
     0
 40
0.0
  0
LTYPE
  5
14
330
5
100
AcDbSymbolTableRecord
100
AcDbLinetypeTableRecord
  2
BYLAYER
 70
     0
  3

 72
    65
 73
     0
 40
0.0
  0
LTYPE
  5
15
330
5
100
AcDbSymbolTableRecord
100
AcDbLinetypeTableRecord
  2
CONTINUOUS
 70
     0
  3
Solid line
 72
    65
 73
     0
 40
0.0
  0
LTYPE
  5
23
330
5
100
AcDbSymbolTableRecord
100
AcDbLinetypeTableRecord
  2
DASHED
 70
     0
  3
__ __ __ __ __ __ __ __ __ __ __ __ __ __ __
 72
    65
 73
     2
 40
0.75
 49
0.5
 74
     0
 49
-0.25
 74
     0
  0
LTYPE
  5
25
330
5
100
AcDbSymbolTableRecord
100
AcDbLinetypeTableRecord
  2
DOT
 70
     0
  3
...............................................
 72
    65
 73
     2
 40
0.25
 49
0.0
 74
     0
 49
-0.25
 74
     0
  0
LTYPE
  5
28
330
5
100
AcDbSymbolTableRecord
100
AcDbLinetypeTableRecord
  2
CENTER
 70
     0
  3
____ _ ____ _ ____ _ ____ _ ____ _ ____ _ ____ 
 72
    65
 73
     4
 40
2.0
 49
1.25
 74
     0
 49
-0.25
 74
     0
 49
0.25
 74
     0
 49
-0.25
 74
     0
  0
ENDTAB
  0
TABLE
  2
LAYER
  5
2
330
0
100
AcDbSymbolTable
 70
     3
  0
LAYER
  5
10
330
2
100
AcDbSymbolTableRecord
100
AcDbLayerTableRecord
  2
0
 70
     0
 62
     7
  6
CONTINUOUS
  0
LAYER
  5
22
330
2
100
AcDbSymbolTableRecord
100
AcDbLayerTableRecord
  2
CSLAYER1
 70
     0
 62
     7
  6
CONTINUOUS
  0
LAYER
  5
194
330
2
100
AcDbSymbolTableRecord
100
AcDbLayerTableRecord
  2
DEFPOINTS
 70
     0
 62
     7
  6
CONTINUOUS
  0
ENDTAB
  0
TABLE
  2
STYLE
  5
3
330
0
100
AcDbSymbolTable
 70
     3
  0
STYLE
  5
11
330
3
100
AcDbSymbolTableRecord
100
AcDbTextStyleTableRecord
  2
STANDARD
 70
     0
 40
0.0
 41
1.0
 50
0.0
 71
     0
 42
0.2
  3
txt
  4
extfont.shx
  0
STYLE
  5
3A
330
3
100
AcDbSymbolTableRecord
100
AcDbTextStyleTableRecord
  2
FX_FONT
 70
     0
 40
1.0
 41
1.0
 50
0.0
 71
     0
 42
1.0
  3
monotxt
  4
bigfont
  0
STYLE
  5
18C
330
3
100
AcDbSymbolTableRecord
100
AcDbTextStyleTableRecord
  2
GOTHIC
 70
     0
 40
0.0
 41
1.0
 50
0.0
 71
     0
 42
0.2
  3
txt.shx
  4
extfont.shx
  0
ENDTAB
  0
TABLE
  2
VIEW
  5
6
330
0
100
AcDbSymbolTable
 70
     0
  0
ENDTAB
  0
TABLE
  2
UCS
  5
7
330
0
100
AcDbSymbolTable
 70
     0
  0
ENDTAB
  0
TABLE
  2
APPID
  5
9
330
0
100
AcDbSymbolTable
 70
     1
  0
APPID
  5
12
330
9
100
AcDbSymbolTableRecord
100
AcDbRegAppTableRecord
  2
ACAD
 70
     0
  0
ENDTAB
  0
TABLE
  2
DIMSTYLE
  5
A
330
0
100
AcDbSymbolTable
 70
     1
  0
DIMSTYLE
105
189
330
A
100
AcDbSymbolTableRecord
100
AcDbDimStyleTableRecord
  2
STANDARD
 70
     0
  3

  4

  5

  6

  7

 40
1.0
 41
0.18
 42
0.0625
 43
0.38
 44
0.18
 45
0.0
 46
0.0
 47
0.0
 48
0.0
140
0.18
141
0.09
142
0.0
143
25.4
144
1.0
145
0.0
146
1.0
147
0.09
 71
     0
 72
     0
 73
     1
 74
     1
 75
     0
 76
     0
 77
     0
 78
     0
170
     0
171
     2
172
     0
173
     0
174
     0
175
     0
176
     0
177
     0
178
     0
270
     2
271
     4
272
     4
273
     2
274
     2
340
11
275
     0
280
     0
281
     0
282
     0
283
     1
284
     0
285
     0
286
     0
287
     3
288
     0
  0
ENDTAB
  0
TABLE
  2
BLOCK_RECORD
  5
1
330
0
100
AcDbSymbolTable
 70
    17
  0
BLOCK_RECORD
  5
1E
102
{ACAD_XDICTIONARY
360
192
102
}
330
1
100
AcDbSymbolTableRecord
100
AcDbBlockTableRecord
  2
*MODEL_SPACE
  0
BLOCK_RECORD
  5
1A
102
{ACAD_XDICTIONARY
360
190
102
}
330
1
100
AcDbSymbolTableRecord
100
AcDbBlockTableRecord
  2
*PAPER_SPACE
  0
BLOCK_RECORD
  5
3F
330
1
100
AcDbSymbolTableRecord
100
AcDbBlockTableRecord
  2
*D0
  0
BLOCK_RECORD
  5
4A
330
1
100
AcDbSymbolTableRecord
100
AcDbBlockTableRecord
  2
*D1
  0
BLOCK_RECORD
  5
56
330
1
100
AcDbSymbolTableRecord
100
AcDbBlockTableRecord
  2
*D2
  0
BLOCK_RECORD
  5
63
330
1
100
AcDbSymbolTableRecord
100
AcDbBlockTableRecord
  2
FXDIM0000
  0
BLOCK_RECORD
  5
6D
330
1
100
AcDbSymbolTableRecord
100
AcDbBlockTableRecord
  2
FXDIM0001
  0
BLOCK_RECORD
  5
77
330
1
100
AcDbSymbolTableRecord
100
AcDbBlockTableRecord
  2
*D5
  0
BLOCK_RECORD
  5
82
330
1
100
AcDbSymbolTableRecord
100
AcDbBlockTableRecord
  2
*D6
  0
BLOCK_RECORD
  5
8D
330
1
100
AcDbSymbolTableRecord
100
AcDbBlockTableRecord
  2
*D7
  0
BLOCK_RECORD
  5
98
330
1
100
AcDbSymbolTableRecord
100
AcDbBlockTableRecord
  2
*D8
  0
BLOCK_RECORD
  5
A1
330
1
100
AcDbSymbolTableRecord
100
AcDbBlockTableRecord
  2
*D9
  0
BLOCK_RECORD
  5
A8
330
1
100
AcDbSymbolTableRecord
100
AcDbBlockTableRecord
  2
*D10
  0
BLOCK_RECORD
  5
B3
330
1
100
AcDbSymbolTableRecord
100
AcDbBlockTableRecord
  2
*D11
  0
BLOCK_RECORD
  5
BD
330
1
100
AcDbSymbolTableRecord
100
AcDbBlockTableRecord
  2
*D12
  0
BLOCK_RECORD
  5
C7
330
1
100
AcDbSymbolTableRecord
100
AcDbBlockTableRecord
  2
*D13
  0
BLOCK_RECORD
  5
195
330
1
100
AcDbSymbolTableRecord
100
AcDbBlockTableRecord
  2
*D14
  0
BLOCK_RECORD
  5
1A2
330
1
100
AcDbSymbolTableRecord
100
AcDbBlockTableRecord
  2
*D15
  0
BLOCK_RECORD
  5
1B0
330
1
100
AcDbSymbolTableRecord
100
AcDbBlockTableRecord
  2
*D16
  0
ENDTAB
  0
ENDSEC
  0
SECTION
  2
BLOCKS
  0
BLOCK
  5
1F
330
1E
100
AcDbEntity
  8
0
100
AcDbBlockBegin
  2
*MODEL_SPACE
 70
     0
 10
0.0
 20
0.0
 30
0.0
  3
*MODEL_SPACE
  1

  0
ENDBLK
  5
20
330
1E
100
AcDbEntity
  8
0
100
AcDbBlockEnd
  0
BLOCK
  5
1B
330
1A
100
AcDbEntity
 67
     1
  8
0
100
AcDbBlockBegin
  2
*PAPER_SPACE
 70
     0
 10
0.0
 20
0.0
 30
0.0
  3
*PAPER_SPACE
  1

  0
ENDBLK
  5
1C
330
1A
100
AcDbEntity
 67
     1
  8
0
100
AcDbBlockEnd
  0
BLOCK
  5
40
330
3F
100
AcDbEntity
  8
0
100
AcDbBlockBegin
  2
*D0
 70
     1
 10
0.0
 20
0.0
 30
0.0
  3
*D0
  1

  0
TEXT
  5
41
330
3F
100
AcDbEntity
  8
CSLAYER1
 62
     4
100
AcDbText
 10
81.05734299999998
 20
142.088806
 30
0.0
 40
3.2
  1
52~53
 50
90.0
 41
1.071428571428571
 51
15.0
  7
FX_FONT
 72
     5
 11
81.05734299999998
 21
158.088806
 31
0.0
100
AcDbText
  0
LINE
  5
42
330
3F
100
AcDbEntity
  8
CSLAYER1
  6
CONTINUOUS
 62
     4
100
AcDbLine
 10
119.7951879999999
 20
124.0888159999999
 30
0.0
 11
80.557335
 21
124.0888159999999
 31
0.0
  0
LINE
  5
43
330
3F
100
AcDbEntity
  8
CSLAYER1
  6
CONTINUOUS
 62
     4
100
AcDbLine
 10
119.7951879999999
 20
176.0888159999999
 30
0.0
 11
80.557335
 21
176.0888159999999
 31
0.0
  0
LINE
  5
44
330
3F
100
AcDbEntity
  8
CSLAYER1
  6
CONTINUOUS
 62
     4
100
AcDbLine
 10
81.557335
 20
124.0888159999999
 30
0.0
 11
81.557335
 21
176.0888159999999
 31
0.0
  0
LINE
  5
45
330
3F
100
AcDbEntity
  8
CSLAYER1
  6
CONTINUOUS
 62
     4
100
AcDbLine
 10
81.557335
 20
124.0888159999999
 30
0.0
 11
80.780878
 21
126.9865929999999
 31
0.0
  0
LINE
  5
46
330
3F
100
AcDbEntity
  8
CSLAYER1
  6
CONTINUOUS
 62
     4
100
AcDbLine
 10
81.557335
 20
124.0888159999999
 30
0.0
 11
82.33379199999998
 21
126.9865929999999
 31
0.0
  0
LINE
  5
47
330
3F
100
AcDbEntity
  8
CSLAYER1
  6
CONTINUOUS
 62
     4
100
AcDbLine
 10
81.557335
 20
176.0888159999999
 30
0.0
 11
80.780878
 21
173.1910379999999
 31
0.0
  0
LINE
  5
48
330
3F
100
AcDbEntity
  8
CSLAYER1
  6
CONTINUOUS
 62
     4
100
AcDbLine
 10
81.557335
 20
176.0888159999999
 30
0.0
 11
82.33379199999998
 21
173.1910379999999
 31
0.0
  0
ENDBLK
  5
49
330
3F
100
AcDbEntity
  8
0
100
AcDbBlockEnd
  0
BLOCK
  5
4B
330
4A
100
AcDbEntity
  8
0
100
AcDbBlockBegin
  2
*D1
 70
     1
 10
0.0
 20
0.0
 30
0.0
  3
*D1
  1

  0
TEXT
  5
4C
330
4A
100
AcDbEntity
  8
CSLAYER1
 62
     4
100
AcDbText
 10
35.40547399999999
 20
135.896817
 30
0.0
 40
3.2
  1
2
 41
1.500000000000004
 51
15.0
  7
FX_FONT
 72
     5
 11
38.605474
 21
135.896817
 31
0.0
100
AcDbText
  0
LINE
  5
4D
330
4A
100
AcDbEntity
  8
CSLAYER1
  6
CONTINUOUS
 62
     4
100
AcDbLine
 10
43.837914
 20
149.0888159999999
 30
0.0
 11
43.837914
 21
134.1030839999999
 31
0.0
  0
LINE
  5
4E
330
4A
100
AcDbEntity
  8
CSLAYER1
  6
CONTINUOUS
 62
     4
100
AcDbLine
 10
41.837914
 20
135.1030839999999
 30
0.0
 11
43.837914
 21
135.1030839999999
 31
0.0
  0
LINE
  5
4F
330
4A
100
AcDbEntity
  8
CSLAYER1
  6
CONTINUOUS
 62
     4
100
AcDbLine
 10
35.837914
 20
135.1030839999999
 30
0.0
 11
41.837914
 21
135.1030839999999
 31
0.0
  0
LINE
  5
50
330
4A
100
AcDbEntity
  8
CSLAYER1
  6
CONTINUOUS
 62
     4
100
AcDbLine
 10
41.837914
 20
135.1030839999999
 30
0.0
 11
38.940137
 21
135.8795409999999
 31
0.0
  0
LINE
  5
51
330
4A
100
AcDbEntity
  8
CSLAYER1
  6
CONTINUOUS
 62
     4
100
AcDbLine
 10
41.837914
 20
135.1030839999999
 30
0.0
 11
38.940137
 21
134.3266269999999
 31
0.0
  0
LINE
  5
52
330
4A
100
AcDbEntity
  8
CSLAYER1
  6
CONTINUOUS
 62
     4
100
AcDbLine
 10
43.837914
 20
135.1030839999999
 30
0.0
 11
49.83791400000001
 21
135.1030839999999
 31
0.0
  0
LINE
  5
53
330
4A
100
AcDbEntity
  8
CSLAYER1
  6
CONTINUOUS
 62
     4
100
AcDbLine
 10
43.837914
 20
135.1030839999999
 30
0.0
 11
46.735692
 21
135.8795409999999
 31
0.0
  0
LINE
  5
54
330
4A
100
AcDbEntity
  8
CSLAYER1
  6
CONTINUOUS
 62
     4
100
AcDbLine
 10
43.837914
 20
135.1030839999999
 30
0.0
 11
46.735692
 21
134.3266269999999
 31
0.0
  0
ENDBLK
  5
55
330
4A
100
AcDbEntity
  8
0
100
AcDbBlockEnd
  0
BLOCK
  5
57
330
56
100
AcDbEntity
  8
0
100
AcDbBlockBegin
  2
*D2
 70
     1
 10
0.0
 20
0.0
 30
0.0
  3
*D2
  1

  0
TEXT
  5
58
330
56
100
AcDbEntity
  8
CSLAYER1
 62
     4
100
AcDbText
 10
74.97026099999998
 20
96.30400100000001
 30
0.0
 40
3.2
  1
25   
 50
90.0
 41
1.315789473684202
 51
15.0
  7
FX_FONT
 72
     5
 11
74.97026099999998
 21
112.3040009999999
 31
0.0
100
AcDbText
  0
TEXT
  5
59
330
56
100
AcDbEntity
  8
CSLAYER1
 62
     4
100
AcDbText
 10
73.370261
 20
112.3040009999999
 30
0.0
 40
1.6
  1
  0
 50
90.0
 41
1.607142857142889
 51
15.0
  7
FX_FONT
 72
     5
 11
73.370261
 21
117.104001
 31
0.0
100
AcDbText
  0
TEXT
  5
5A
330
56
100
AcDbEntity
  8
CSLAYER1
 62
     4
100
AcDbText
 10
74.97026099999998
 20
112.3040009999999
 30
0.0
 40
1.6
  1
-0.15
 50
90.0
 41
1.071428571428584
 51
15.0
  7
FX_FONT
 72
     5
 11
74.97026099999998
 21
120.304001
 31
0.0
100
AcDbText
  0
LINE
  5
5B
330
56
100
AcDbEntity
  8
CSLAYER1
  6
CONTINUOUS
 62
     4
100
AcDbLine
 10
117.089474
 20
85.36842099999999
 30
0.0
 11
74.47025699999997
 21
85.36842099999999
 31
0.0
  0
LINE
  5
5C
330
56
100
AcDbEntity
  8
CSLAYER1
  6
CONTINUOUS
 62
     4
100
AcDbLine
 10
98.089474
 20
110.3684209999999
 30
0.0
 11
74.47025699999997
 21
110.3684209999999
 31
0.0
  0
LINE
  5
5D
330
56
100
AcDbEntity
  8
CSLAYER1
  6
CONTINUOUS
 62
     4
100
AcDbLine
 10
75.47025699999998
 20
85.36842099999999
 30
0.0
 11
75.47025699999998
 21
110.3684209999999
 31
0.0
  0
LINE
  5
5E
330
56
100
AcDbEntity
  8
CSLAYER1
  6
CONTINUOUS
 62
     4
100
AcDbLine
 10
75.47025699999998
 20
85.36842099999999
 30
0.0
 11
74.69379899999998
 21
88.266199
 31
0.0
  0
LINE
  5
5F
330
56
100
AcDbEntity
  8
CSLAYER1
  6
CONTINUOUS
 62
     4
100
AcDbLine
 10
75.47025699999998
 20
85.36842099999999
 30
0.0
 11
76.246714
 21
88.266199
 31
0.0
  0
LINE
  5
60
330
56
100
AcDbEntity
  8
CSLAYER1
  6
CONTINUOUS
 62
     4
100
AcDbLine
 10
75.47025699999998
 20
110.3684209999999
 30
0.0
 11
74.69379899999998
 21
107.4706439999999
 31
0.0
  0
LINE
  5
61
330
56
100
AcDbEntity
  8
CSLAYER1
  6
CONTINUOUS
 62
     4
100
AcDbLine
 10
75.47025699999998
 20
110.3684209999999
 30
0.0
 11
76.246714
 21
107.4706439999999
 31
0.0
  0
ENDBLK
  5
62
330
56
100
AcDbEntity
  8
0
100
AcDbBlockEnd
  0
BLOCK
  5
64
330
63
100
AcDbEntity
  8
0
100
AcDbBlockBegin
  2
FXDIM0000
 70
     0
 10
0.0
 20
0.0
 30
0.0
  3
FXDIM0000
  1

  0
LINE
  5
65
330
63
100
AcDbEntity
  8
CSLAYER1
  6
CONTINUOUS
 62
     4
100
AcDbLine
 10
163.6894739999999
 20
110.3684209999999
 30
0.0
 11
165.1894739999999
 21
112.966497
 31
0.0
  0
LINE
  5
66
330
63
100
AcDbEntity
  8
CSLAYER1
  6
CONTINUOUS
 62
     4
100
AcDbLine
 10
162.1894739999999
 20
112.966497
 30
0.0
 11
171.1894739999999
 21
112.966497
 31
0.0
  0
LINE
  5
67
330
63
100
AcDbEntity
  8
CSLAYER1
  6
CONTINUOUS
 62
     4
100
AcDbLine
 10
162.1894739999999
 20
112.966497
 30
0.0
 11
163.6894739999999
 21
110.3684209999999
 31
0.0
  0
LINE
  5
68
330
63
100
AcDbEntity
  8
CSLAYER1
  6
CONTINUOUS
 62
     4
100
AcDbLine
 10
166.689474
 20
110.3684209999999
 30
0.0
 11
168.1894739999999
 21
112.966497
 31
0.0
  0
LINE
  5
69
330
63
100
AcDbEntity
  8
CSLAYER1
  6
CONTINUOUS
 62
     4
100
AcDbLine
 10
165.1894739999999
 20
112.966497
 30
0.0
 11
166.689474
 21
110.3684209999999
 31
0.0
  0
LINE
  5
6A
330
63
100
AcDbEntity
  8
CSLAYER1
  6
CONTINUOUS
 62
     4
100
AcDbLine
 10
169.6894739999999
 20
110.3684209999999
 30
0.0
 11
171.1894739999999
 21
112.966497
 31
0.0
  0
LINE
  5
6B
330
63
100
AcDbEntity
  8
CSLAYER1
  6
CONTINUOUS
 62
     4
100
AcDbLine
 10
168.1894739999999
 20
112.966497
 30
0.0
 11
169.6894739999999
 21
110.3684209999999
 31
0.0
  0
ENDBLK
  5
6C
330
63
100
AcDbEntity
  8
0
100
AcDbBlockEnd
  0
BLOCK
  5
6E
330
6D
100
AcDbEntity
  8
0
100
AcDbBlockBegin
  2
FXDIM0001
 70
     0
 10
0.0
 20
0.0
 30
0.0
  3
FXDIM0001
  1

  0
LINE
  5
6F
330
6D
100
AcDbEntity
  8
CSLAYER1
  6
CONTINUOUS
 62
     4
100
AcDbLine
 10
166.0894739999999
 20
85.36842099999999
 30
0.0
 11
164.5894739999999
 21
82.77034499999997
 31
0.0
  0
LINE
  5
70
330
6D
100
AcDbEntity
  8
CSLAYER1
  6
CONTINUOUS
 62
     4
100
AcDbLine
 10
164.5894739999999
 20
82.77034499999997
 30
0.0
 11
173.5894739999999
 21
82.77034499999997
 31
0.0
  0
LINE
  5
71
330
6D
100
AcDbEntity
  8
CSLAYER1
  6
CONTINUOUS
 62
     4
100
AcDbLine
 10
167.5894739999999
 20
82.77034499999997
 30
0.0
 11
166.0894739999999
 21
85.36842099999999
 31
0.0
  0
LINE
  5
72
330
6D
100
AcDbEntity
  8
CSLAYER1
  6
CONTINUOUS
 62
     4
100
AcDbLine
 10
169.089474
 20
85.36842099999999
 30
0.0
 11
167.5894739999999
 21
82.77034499999997
 31
0.0
  0
LINE
  5
73
330
6D
100
AcDbEntity
  8
CSLAYER1
  6
CONTINUOUS
 62
     4
100
AcDbLine
 10
170.5894739999999
 20
82.77034499999997
 30
0.0
 11
169.089474
 21
85.36842099999999
 31
0.0
  0
LINE
  5
74
330
6D
100
AcDbEntity
  8
CSLAYER1
  6
CONTINUOUS
 62
     4
100
AcDbLine
 10
172.089474
 20
85.36842099999999
 30
0.0
 11
170.5894739999999
 21
82.77034499999997
 31
0.0
  0
LINE
  5
75
330
6D
100
AcDbEntity
  8
CSLAYER1
  6
CONTINUOUS
 62
     4
100
AcDbLine
 10
173.5894739999999
 20
82.77034499999997
 30
0.0
 11
172.089474
 21
85.36842099999999
 31
0.0
  0
ENDBLK
  5
76
330
6D
100
AcDbEntity
  8
0
100
AcDbBlockEnd
  0
BLOCK
  5
78
330
77
100
AcDbEntity
  8
0
100
AcDbBlockBegin
  2
*D5
 70
     1
 10
0.0
 20
0.0
 30
0.0
  3
*D5
  1

  0
TEXT
  5
79
330
77
100
AcDbEntity
  8
CSLAYER1
 62
     4
100
AcDbText
 10
87.615189
 20
146.888806
 30
0.0
 40
3.2
  1
24
 50
90.0
 41
1.199999999999979
 51
15.0
  7
FX_FONT
 72
     5
 11
87.615189
 21
153.2888059999999
 31
0.0
100
AcDbText
  0
LINE
  5
7A
330
77
100
AcDbEntity
  8
CSLAYER1
  6
CONTINUOUS
 62
     4
100
AcDbLine
 10
95.089474
 20
138.0888159999998
 30
0.0
 11
87.115188
 21
138.0888159999998
 31
0.0
  0
LINE
  5
7B
330
77
100
AcDbEntity
  8
CSLAYER1
  6
CONTINUOUS
 62
     4
100
AcDbLine
 10
95.089474
 20
162.0888159999998
 30
0.0
 11
87.115188
 21
162.0888159999998
 31
0.0
  0
LINE
  5
7C
330
77
100
AcDbEntity
  8
CSLAYER1
  6
CONTINUOUS
 62
     4
100
AcDbLine
 10
88.11518799999998
 20
138.0888159999998
 30
0.0
 11
88.11518799999998
 21
162.0888159999998
 31
0.0
  0
LINE
  5
7D
330
77
100
AcDbEntity
  8
CSLAYER1
  6
CONTINUOUS
 62
     4
100
AcDbLine
 10
88.11518799999998
 20
138.0888159999998
 30
0.0
 11
87.33873100000002
 21
140.986593
 31
0.0
  0
LINE
  5
7E
330
77
100
AcDbEntity
  8
CSLAYER1
  6
CONTINUOUS
 62
     4
100
AcDbLine
 10
88.11518799999998
 20
138.0888159999998
 30
0.0
 11
88.89164499999997
 21
140.986593
 31
0.0
  0
LINE
  5
7F
330
77
100
AcDbEntity
  8
CSLAYER1
  6
CONTINUOUS
 62
     4
100
AcDbLine
 10
88.11518799999998
 20
162.0888159999998
 30
0.0
 11
87.33873100000002
 21
159.1910379999999
 31
0.0
  0
LINE
  5
80
330
77
100
AcDbEntity
  8
CSLAYER1
  6
CONTINUOUS
 62
     4
100
AcDbLine
 10
88.11518799999998
 20
162.0888159999998
 30
0.0
 11
88.89164499999997
 21
159.1910379999999
 31
0.0
  0
ENDBLK
  5
81
330
77
100
AcDbEntity
  8
0
100
AcDbBlockEnd
  0
BLOCK
  5
83
330
82
100
AcDbEntity
  8
0
100
AcDbBlockBegin
  2
*D6
 70
     1
 10
0.0
 20
0.0
 30
0.0
  3
*D6
  1

  0
TEXT
  5
84
330
82
100
AcDbEntity
  8
CSLAYER1
 62
     4
100
AcDbText
 10
126.8894769999999
 20
75.10526999999997
 30
0.0
 40
3.2
  1
24
 41
1.200000187500003
 51
15.0
  7
FX_FONT
 72
     5
 11
133.2894779999999
 21
75.10526999999997
 31
0.0
100
AcDbText
  0
LINE
  5
85
330
82
100
AcDbEntity
  8
CSLAYER1
  6
CONTINUOUS
 62
     4
100
AcDbLine
 10
118.089474
 20
74.60526299999997
 30
0.0
 11
142.089474
 21
74.60526299999997
 31
0.0
  0
LINE
  5
86
330
82
100
AcDbEntity
  8
CSLAYER1
  6
CONTINUOUS
 62
     4
100
AcDbLine
 10
118.089474
 20
74.60526299999997
 30
0.0
 11
120.987251
 21
75.38172
 31
0.0
  0
LINE
  5
87
330
82
100
AcDbEntity
  8
CSLAYER1
  6
CONTINUOUS
 62
     4
100
AcDbLine
 10
118.089474
 20
74.60526299999997
 30
0.0
 11
120.987251
 21
73.828806
 31
0.0
  0
LINE
  5
88
330
82
100
AcDbEntity
  8
CSLAYER1
  6
CONTINUOUS
 62
     4
100
AcDbLine
 10
142.089474
 20
74.60526299999997
 30
0.0
 11
139.191696
 21
75.38172
 31
0.0
  0
LINE
  5
89
330
82
100
AcDbEntity
  8
CSLAYER1
  6
CONTINUOUS
 62
     4
100
AcDbLine
 10
142.089474
 20
74.60526299999997
 30
0.0
 11
139.191696
 21
73.828806
 31
0.0
  0
LINE
  5
8A
330
82
100
AcDbEntity
  8
CSLAYER1
  6
CONTINUOUS
 62
     4
100
AcDbLine
 10
118.089474
 20
84.36842099999998
 30
0.0
 11
118.089474
 21
73.605263
 31
0.0
  0
LINE
  5
8B
330
82
100
AcDbEntity
  8
CSLAYER1
  6
CONTINUOUS
 62
     4
100
AcDbLine
 10
142.089474
 20
80.633452
 30
0.0
 11
142.089474
 21
73.605263
 31
0.0
  0
ENDBLK
  5
8C
330
82
100
AcDbEntity
  8
0
100
AcDbBlockEnd
  0
BLOCK
  5
8E
330
8D
100
AcDbEntity
  8
0
100
AcDbBlockBegin
  2
*D7
 70
     1
 10
0.0
 20
0.0
 30
0.0
  3
*D7
  1

  0
TEXT
  5
8F
330
8D
100
AcDbEntity
  8
CSLAYER1
 62
     4
100
AcDbText
 10
82.932678
 20
82.345974
 30
0.0
 40
3.180538
  1
切刃部有効19
 50
325.0000004614002
 41
0.6377509287735006
 51
15.0
  7
FX_FONT
 72
     5
 11
95.67131000000001
 21
73.42628799999999
 31
0.0
100
AcDbText
  0
LINE
  5
90
330
8D
100
AcDbEntity
  8
CSLAYER1
  6
CONTINUOUS
 62
     4
100
AcDbLine
 10
81.669212
 20
82.620269
 30
0.0
 11
97.233101
 21
71.722316
 31
0.0
  0
LINE
  5
91
330
8D
100
AcDbEntity
  8
CSLAYER1
  6
CONTINUOUS
 62
     4
100
AcDbLine
 10
81.669212
 20
82.620269
 30
0.0
 11
84.48829000000001
 21
81.59420799999997
 31
0.0
  0
LINE
  5
92
330
8D
100
AcDbEntity
  8
CSLAYER1
  6
CONTINUOUS
 62
     4
100
AcDbLine
 10
81.669212
 20
82.620269
 30
0.0
 11
83.597575
 21
80.32213500000002
 31
0.0
  0
LINE
  5
93
330
8D
100
AcDbEntity
  8
CSLAYER1
  6
CONTINUOUS
 62
     4
100
AcDbLine
 10
97.233101
 20
71.722316
 30
0.0
 11
94.414023
 21
72.748377
 31
0.0
  0
LINE
  5
94
330
8D
100
AcDbEntity
  8
CSLAYER1
  6
CONTINUOUS
 62
     4
100
AcDbLine
 10
97.233101
 20
71.722316
 30
0.0
 11
95.304739
 21
74.02045
 31
0.0
  0
LINE
  5
95
330
8D
100
AcDbEntity
  8
CSLAYER1
  6
CONTINUOUS
 62
     4
100
AcDbLine
 10
95.51589699999999
 20
102.3953839999999
 30
0.0
 11
81.09563599999999
 21
81.80111700000002
 31
0.0
  0
LINE
  5
96
330
8D
100
AcDbEntity
  8
CSLAYER1
  6
CONTINUOUS
 62
     4
100
AcDbLine
 10
109.932633
 20
89.85912799999999
 30
0.0
 11
96.65952500000001
 21
70.903164
 31
0.0
  0
ENDBLK
  5
97
330
8D
100
AcDbEntity
  8
0
100
AcDbBlockEnd
  0
BLOCK
  5
99
330
98
100
AcDbEntity
  8
0
100
AcDbBlockBegin
  2
*D8
 70
     1
 10
0.0
 20
0.0
 30
0.0
  3
*D8
  1

  0
TEXT
  5
9A
330
98
100
AcDbEntity
  8
CSLAYER1
 62
     4
100
AcDbText
 10
96.51531400000001
 20
87.137781
 30
0.0
 40
3.2
  1
35%%d
 50
72.49999684636681
 41
1.285714205910293
 51
15.0
  7
FX_FONT
 72
     5
 11
99.40209000000001
 21
96.29346300000001
 31
0.0
100
AcDbText
  0
ARC
  5
9B
330
98
100
AcDbEntity
  8
CSLAYER1
  6
CONTINUOUS
 62
     4
100
AcDbCircle
 10
118.089474
 20
85.36842099999999
 30
0.0
 40
20.6077
100
AcDbArc
 50
145.0
 51
180.0
  0
LINE
  5
9C
330
98
100
AcDbEntity
  8
CSLAYER1
  6
CONTINUOUS
 62
     4
100
AcDbLine
 10
101.2086339999999
 20
97.18851200000001
 30
0.0
 11
100.182574
 21
94.369434
 31
0.0
  0
LINE
  5
9D
330
98
100
AcDbEntity
  8
CSLAYER1
  6
CONTINUOUS
 62
     4
100
AcDbLine
 10
101.2086339999999
 20
97.18851200000001
 30
0.0
 11
98.91050100000001
 21
95.26014899999999
 31
0.0
  0
LINE
  5
9E
330
98
100
AcDbEntity
  8
CSLAYER1
  6
CONTINUOUS
 62
     4
100
AcDbLine
 10
97.48177400000001
 20
85.36842099999999
 30
0.0
 11
96.705316
 21
88.266199
 31
0.0
  0
LINE
  5
9F
330
98
100
AcDbEntity
  8
CSLAYER1
  6
CONTINUOUS
 62
     4
100
AcDbLine
 10
97.48177400000001
 20
85.36842099999999
 30
0.0
 11
98.258231
 21
88.266199
 31
0.0
  0
ENDBLK
  5
A0
330
98
100
AcDbEntity
  8
0
100
AcDbBlockEnd
  0
BLOCK
  5
A2
330
A1
100
AcDbEntity
  8
0
100
AcDbBlockBegin
  2
*D9
 70
     1
 10
0.0
 20
0.0
 30
0.0
  3
*D9
  1

  0
TEXT
  5
A3
330
A1
100
AcDbEntity
  8
CSLAYER1
 62
     4
100
AcDbText
 10
110.1921149999999
 20
131.281596
 30
0.0
 40
3.2
  1
R35
 50
64.36684808501643
 41
1.125000036862217
 51
15.0
  7
FX_FONT
 72
     5
 11
114.345147
 21
139.936787
 31
0.0
100
AcDbText
  0
LINE
  5
A4
330
A1
100
AcDbEntity
  8
CSLAYER1
  6
CONTINUOUS
 62
     4
100
AcDbLine
 10
108.9482139999999
 20
127.533432
 30
0.0
 11
116.490636
 21
143.2523379999999
 31
0.0
  0
LINE
  5
A5
330
A1
100
AcDbEntity
  8
CSLAYER1
  6
CONTINUOUS
 62
     4
100
AcDbLine
 10
108.9482139999999
 20
127.533432
 30
0.0
 11
109.501774
 21
130.481918
 31
0.0
  0
LINE
  5
A6
330
A1
100
AcDbEntity
  8
CSLAYER1
  6
CONTINUOUS
 62
     4
100
AcDbLine
 10
108.9482139999999
 20
127.533432
 30
0.0
 11
110.901854
 21
129.8101159999999
 31
0.0
  0
ENDBLK
  5
A7
330
A1
100
AcDbEntity
  8
0
100
AcDbBlockEnd
  0
BLOCK
  5
A9
330
A8
100
AcDbEntity
  8
0
100
AcDbBlockBegin
  2
*D10
 70
     1
 10
0.0
 20
0.0
 30
0.0
  3
*D10
  1

  0
TEXT
  5
AA
330
A8
100
AcDbEntity
  8
CSLAYER1
 62
     4
100
AcDbText
 10
115.889477
 20
187.013153
 30
0.0
 40
3.2
  1
46
 41
1.2000001875
 51
15.0
  7
FX_FONT
 72
     5
 11
122.289478
 21
187.013153
 31
0.0
100
AcDbText
  0
LINE
  5
AB
330
A8
100
AcDbEntity
  8
CSLAYER1
  6
CONTINUOUS
 62
     4
100
AcDbLine
 10
96.08947399999999
 20
186.513158
 30
0.0
 11
142.089474
 21
186.513158
 31
0.0
  0
LINE
  5
AC
330
A8
100
AcDbEntity
  8
CSLAYER1
  6
CONTINUOUS
 62
     4
100
AcDbLine
 10
96.08947399999999
 20
186.513158
 30
0.0
 11
98.987251
 21
187.289615
 31
0.0
  0
LINE
  5
AD
330
A8
100
AcDbEntity
  8
CSLAYER1
  6
CONTINUOUS
 62
     4
100
AcDbLine
 10
96.08947399999999
 20
186.513158
 30
0.0
 11
98.987251
 21
185.736701
 31
0.0
  0
LINE
  5
AE
330
A8
100
AcDbEntity
  8
CSLAYER1
  6
CONTINUOUS
 62
     4
100
AcDbLine
 10
142.089474
 20
186.513158
 30
0.0
 11
139.191696
 21
187.289615
 31
0.0
  0
LINE
  5
AF
330
A8
100
AcDbEntity
  8
CSLAYER1
  6
CONTINUOUS
 62
     4
100
AcDbLine
 10
142.089474
 20
186.513158
 30
0.0
 11
139.191696
 21
185.736701
 31
0.0
  0
LINE
  5
B0
330
A8
100
AcDbEntity
  8
CSLAYER1
  6
CONTINUOUS
 62
     4
100
AcDbLine
 10
96.08947399999999
 20
163.0888159999998
 30
0.0
 11
96.08947399999999
 21
187.513158
 31
0.0
  0
LINE
  5
B1
330
A8
100
AcDbEntity
  8
CSLAYER1
  6
CONTINUOUS
 62
     4
100
AcDbLine
 10
142.089474
 20
183.488816
 30
0.0
 11
142.089474
 21
187.513158
 31
0.0
  0
ENDBLK
  5
B2
330
A8
100
AcDbEntity
  8
0
100
AcDbBlockEnd
  0
BLOCK
  5
B4
330
B3
100
AcDbEntity
  8
0
100
AcDbBlockBegin
  2
*D11
 70
     1
 10
0.0
 20
0.0
 30
0.0
  3
*D11
  1

  0
TEXT
  5
B5
330
B3
100
AcDbEntity
  8
CSLAYER1
 62
     4
100
AcDbText
 10
45.403117
 20
169.4216139999998
 30
0.0
 40
3.2
  1
75%%d
 50
341.0433364047313
 41
1.28571432721361
 51
15.0
  7
FX_FONT
 72
     5
 11
54.482457
 21
166.303026
 31
0.0
100
AcDbText
  0
ARC
  5
B6
330
B3
100
AcDbEntity
  8
CSLAYER1
  6
CONTINUOUS
 62
     4
100
AcDbCircle
 10
43.837914
 20
150.0888159999998
 30
0.0
 40
18.292745
100
AcDbArc
 50
45.0
 51
119.9999999999999
  0
LINE
  5
B7
330
B3
100
AcDbEntity
  8
CSLAYER1
  6
CONTINUOUS
 62
     4
100
AcDbLine
 10
56.772839
 20
163.02374
 30
0.0
 11
54.174763
 21
164.52374
 31
0.0
  0
LINE
  5
B8
330
B3
100
AcDbEntity
  8
CSLAYER1
  6
CONTINUOUS
 62
     4
100
AcDbLine
 10
56.772839
 20
163.02374
 30
0.0
 11
55.272839
 21
165.6218159999999
 31
0.0
  0
LINE
  5
B9
330
B3
100
AcDbEntity
  8
CSLAYER1
  6
CONTINUOUS
 62
     4
100
AcDbLine
 10
34.691542
 20
165.930798
 30
0.0
 11
36.812862
 21
168.052118
 31
0.0
  0
LINE
  5
BA
330
B3
100
AcDbEntity
  8
CSLAYER1
  6
CONTINUOUS
 62
     4
100
AcDbLine
 10
34.691542
 20
165.930798
 30
0.0
 11
37.589319
 21
166.707255
 31
0.0
  0
LINE
  5
BB
330
B3
100
AcDbEntity
  8
CSLAYER1
  6
CONTINUOUS
 62
     4
100
AcDbLine
 10
41.337914
 20
154.4189429999998
 30
0.0
 11
34.19154199999999
 21
166.7968229999999
 31
0.0
  0
ENDBLK
  5
BC
330
B3
100
AcDbEntity
  8
0
100
AcDbBlockEnd
  0
BLOCK
  5
BE
330
BD
100
AcDbEntity
  8
0
100
AcDbBlockBegin
  2
*D12
 70
     1
 10
0.0
 20
0.0
 30
0.0
  3
*D12
  1

  0
TEXT
  5
BF
330
BD
100
AcDbEntity
  8
CSLAYER1
 62
     4
100
AcDbText
 10
25.16291999999999
 20
155.328277
 30
0.0
 40
3.2
  1
60%%d
 50
60.0000003690483
 41
1.285714300058136
 51
15.0
  7
FX_FONT
 72
     5
 11
29.96292
 21
163.6421209999999
 31
0.0
100
AcDbText
  0
ARC
  5
C0
330
BD
100
AcDbEntity
  8
CSLAYER1
  6
CONTINUOUS
 62
     4
100
AcDbCircle
 10
43.837914
 20
150.0888159999998
 30
0.0
 40
18.292745
100
AcDbArc
 50
119.9999999999999
 51
180.0
  0
LINE
  5
C1
330
BD
100
AcDbEntity
  8
CSLAYER1
  6
CONTINUOUS
 62
     4
100
AcDbLine
 10
34.691542
 20
165.930798
 30
0.0
 11
32.570221
 21
163.809478
 31
0.0
  0
LINE
  5
C2
330
BD
100
AcDbEntity
  8
CSLAYER1
  6
CONTINUOUS
 62
     4
100
AcDbLine
 10
34.691542
 20
165.930798
 30
0.0
 11
31.793764
 21
165.1543409999999
 31
0.0
  0
LINE
  5
C3
330
BD
100
AcDbEntity
  8
CSLAYER1
  6
CONTINUOUS
 62
     4
100
AcDbLine
 10
25.545169
 20
150.0888159999998
 30
0.0
 11
24.768712
 21
152.9865929999999
 31
0.0
  0
LINE
  5
C4
330
BD
100
AcDbEntity
  8
CSLAYER1
  6
CONTINUOUS
 62
     4
100
AcDbLine
 10
25.545169
 20
150.0888159999998
 30
0.0
 11
26.321626
 21
152.9865929999999
 31
0.0
  0
LINE
  5
C5
330
BD
100
AcDbEntity
  8
CSLAYER1
  6
CONTINUOUS
 62
     4
100
AcDbLine
 10
35.892895
 20
150.0888159999998
 30
0.0
 11
24.545169
 21
150.0888159999998
 31
0.0
  0
ENDBLK
  5
C6
330
BD
100
AcDbEntity
  8
0
100
AcDbBlockEnd
  0
BLOCK
  5
C8
330
C7
100
AcDbEntity
  8
0
100
AcDbBlockBegin
  2
*D13
 70
     1
 10
0.0
 20
0.0
 30
0.0
  3
*D13
  1

  0
TEXT
  5
C9
330
C7
100
AcDbEntity
  8
CSLAYER1
 62
     4
100
AcDbText
 10
85.07211299999999
 20
32.78157999999999
 30
0.0
 40
3.2
  1
9
 50
90.0
 41
1.500000000000004
 51
15.0
  7
FX_FONT
 72
     5
 11
85.07211299999999
 21
35.98158
 31
0.0
100
AcDbText
  0
LINE
  5
CA
330
C7
100
AcDbEntity
  8
CSLAYER1
  6
CONTINUOUS
 62
     4
100
AcDbLine
 10
85.57210899999999
 20
29.881579
 30
0.0
 11
85.57210899999999
 21
38.88157899999999
 31
0.0
  0
LINE
  5
CB
330
C7
100
AcDbEntity
  8
CSLAYER1
  6
CONTINUOUS
 62
     4
100
AcDbLine
 10
85.57210899999999
 20
29.881579
 30
0.0
 11
84.79565200000001
 21
32.779356
 31
0.0
  0
LINE
  5
CC
330
C7
100
AcDbEntity
  8
CSLAYER1
  6
CONTINUOUS
 62
     4
100
AcDbLine
 10
85.57210899999999
 20
29.881579
 30
0.0
 11
86.348566
 21
32.779356
 31
0.0
  0
LINE
  5
CD
330
C7
100
AcDbEntity
  8
CSLAYER1
  6
CONTINUOUS
 62
     4
100
AcDbLine
 10
85.57210899999999
 20
38.88157899999999
 30
0.0
 11
84.79565200000001
 21
35.98380099999999
 31
0.0
  0
LINE
  5
CE
330
C7
100
AcDbEntity
  8
CSLAYER1
  6
CONTINUOUS
 62
     4
100
AcDbLine
 10
85.57210899999999
 20
38.88157899999999
 30
0.0
 11
86.348566
 21
35.98380099999999
 31
0.0
  0
LINE
  5
CF
330
C7
100
AcDbEntity
  8
CSLAYER1
  6
CONTINUOUS
 62
     4
100
AcDbLine
 10
95.310112
 20
29.881579
 30
0.0
 11
84.57210899999997
 21
29.881579
 31
0.0
  0
LINE
  5
D0
330
C7
100
AcDbEntity
  8
CSLAYER1
  6
CONTINUOUS
 62
     4
100
AcDbLine
 10
95.310112
 20
38.88157899999999
 30
0.0
 11
84.57210899999997
 21
38.88157899999999
 31
0.0
  0
ENDBLK
  5
D1
330
C7
100
AcDbEntity
  8
0
100
AcDbBlockEnd
  0
BLOCK
  5
1A0
330
195
100
AcDbEntity
  8
0
100
AcDbBlockBegin
  2
*D14
 70
     1
 10
0.0
 20
0.0
 30
0.0
  3
*D14
  1

  0
ARC
  5
196
330
195
100
AcDbEntity
  8
CSLAYER1
 62
     0
100
AcDbCircle
 10
118.089474
 20
85.36842099999999
 30
0.0
 40
20.607700213818
100
AcDbArc
 50
145.5004569772586
 51
161.9744903019445
  0
ARC
  5
197
330
195
100
AcDbEntity
  8
CSLAYER1
 62
     0
100
AcDbCircle
 10
118.089474
 20
85.36842099999999
 30
0.0
 40
20.607700213818
100
AcDbArc
 50
163.0239940318833
 51
179.4995427442058
  0
SOLID
  5
198
330
195
100
AcDbEntity
  8
CSLAYER1
 62
     0
100
AcDbTrace
 10
101.0813859950962
 20
97.05771527900196
 30
0.0
 11
101.1306849476739
 21
97.02351566972431
 31
0.0
 12
101.208634299218
 22
97.18851233209624
 32
0.0
 13
101.208634299218
 23
97.18851233209624
 33
0.0
  0
SOLID
  5
199
330
195
100
AcDbEntity
  8
CSLAYER1
 62
     0
100
AcDbTrace
 10
97.51255961400122
 20
85.54828826440767
 30
0.0
 11
97.4525601862031
 21
85.54855030238105
 31
0.0
 12
97.48177378618205
 22
85.36842100000001
 32
0.0
 13
97.48177378618205
 23
85.36842100000001
 33
0.0
  0
MTEXT
  5
19A
330
195
100
AcDbEntity
  8
CSLAYER1
 62
     0
100
AcDbMText
 10
98.4355610052065
 20
91.56527601651287
 30
0.0
 40
0.18
 41
0.0
 71
     5
 72
     1
  1
\A1;35°
1001
ACAD
1000
MTEXTBEGIN
1070
    73
1070
     1
1070
    44
1040
1.0
1070
    74
1070
     0
1000
MTEXTEND
  0
POINT
  5
19B
330
195
100
AcDbEntity
  8
DEFPOINTS
 62
     0
100
AcDbPoint
 10
99.16715176436548
 20
93.53071414061956
 30
0.0
  0
POINT
  5
19C
330
195
100
AcDbEntity
  8
DEFPOINTS
 62
     0
100
AcDbPoint
 10
118.089474
 20
85.36842100000001
 30
0.0
  0
POINT
  5
19D
330
195
100
AcDbEntity
  8
DEFPOINTS
 62
     0
100
AcDbPoint
 10
74.47025700000001
 20
85.36842099999999
 30
0.0
  0
POINT
  5
19E
330
195
100
AcDbEntity
  8
DEFPOINTS
 62
     0
100
AcDbPoint
 10
117.089474
 20
85.36842099999999
 30
0.0
  0
POINT
  5
19F
330
195
100
AcDbEntity
  8
DEFPOINTS
 62
     0
100
AcDbPoint
 10
96.08947399999999
 20
100.7729869999999
 30
0.0
  0
ENDBLK
  5
1A1
330
195
100
AcDbEntity
  8
0
100
AcDbBlockEnd
  0
BLOCK
  5
1AE
330
1A2
100
AcDbEntity
  8
0
100
AcDbBlockBegin
  2
*D15
 70
     1
 10
0.0
 20
0.0
 30
0.0
  3
*D15
  1

  0
LINE
  5
1A3
330
1A2
100
AcDbEntity
  8
CSLAYER1
 62
     0
100
AcDbLine
 10
41.80666399583809
 20
153.6070435853336
 30
0.0
 11
34.60154024267862
 21
166.0866817845553
 31
0.0
  0
ARC
  5
1A4
330
1A2
100
AcDbEntity
  8
CSLAYER1
 62
     0
100
AcDbCircle
 10
43.83791399999998
 20
150.0888159999998
 30
0.0
 40
18.29274505441962
100
AcDbArc
 50
45.56379083016695
 51
81.30410004631706
  0
ARC
  5
1A5
330
1A2
100
AcDbEntity
  8
CSLAYER1
 62
     0
100
AcDbCircle
 10
43.83791399999998
 20
150.0888159999998
 30
0.0
 40
18.29274505441962
100
AcDbArc
 50
83.6926265331253
 51
119.4362135754331
  0
SOLID
  5
1A6
330
1A2
100
AcDbEntity
  8
CSLAYER1
 62
     0
100
AcDbTrace
 10
56.66604276081102
 20
163.1717088582815
 30
0.0
 11
56.62382560464759
 21
163.1290742276924
 31
0.0
 12
56.77283807449678
 22
163.0237400744966
 32
0.0
 13
56.77283807449678
 23
163.0237400744966
 33
0.0
  0
SOLID
  5
1A7
330
1A2
100
AcDbEntity
  8
CSLAYER1
 62
     0
100
AcDbTrace
 10
34.86273772782029
 20
165.9939749457655
 30
0.0
 11
34.83299373674021
 21
166.0460834383037
 31
0.0
 12
34.69154025466492
 22
165.9307972187944
 32
0.0
 13
34.69154025466492
 23
165.9307972187944
 33
0.0
  0
MTEXT
  5
1A8
330
1A2
100
AcDbEntity
  8
CSLAYER1
 62
     0
100
AcDbMText
 10
46.22559565993729
 20
168.2250641764226
 30
0.0
 40
0.18
 41
0.0
 71
     5
 72
     1
  1
\A1;75°
1001
ACAD
1000
MTEXTBEGIN
1070
    73
1070
     1
1070
    44
1040
1.0
1070
    74
1070
     0
1000
MTEXTEND
  0
POINT
  5
1A9
330
1A2
100
AcDbEntity
  8
DEFPOINTS
 62
     0
100
AcDbPoint
 10
50.09440084475135
 20
167.2783737019144
 30
0.0
  0
POINT
  5
1AA
330
1A2
100
AcDbEntity
  8
DEFPOINTS
 62
     0
100
AcDbPoint
 10
43.83791399999998
 20
150.0888159999998
 30
0.0
  0
POINT
  5
1AB
330
1A2
100
AcDbEntity
  8
DEFPOINTS
 62
     0
100
AcDbPoint
 10
41.83791399999999
 20
153.5529169999998
 30
0.0
  0
POINT
  5
1AC
330
1A2
100
AcDbEntity
  8
DEFPOINTS
 62
     0
100
AcDbPoint
 10
43.83791399999998
 20
150.0888159999998
 30
0.0
  0
POINT
  5
1AD
330
1A2
100
AcDbEntity
  8
DEFPOINTS
 62
     0
100
AcDbPoint
 10
59.43791399999999
 20
165.6888159999999
 30
0.0
  0
ENDBLK
  5
1AF
330
1A2
100
AcDbEntity
  8
0
100
AcDbBlockEnd
  0
BLOCK
  5
1BD
330
1B0
100
AcDbEntity
  8
0
100
AcDbBlockBegin
  2
*D16
 70
     1
 10
0.0
 20
0.0
 30
0.0
  3
*D16
  1

  0
LINE
  5
1B1
330
1B0
100
AcDbEntity
  8
CSLAYER1
 62
     0
100
AcDbLine
 10
41.8066639958381
 20
153.6070435853336
 30
0.0
 11
34.60154034074049
 21
166.0866816147071
 31
0.0
  0
LINE
  5
1B2
330
1B0
100
AcDbEntity
  8
CSLAYER1
 62
     0
100
AcDbLine
 10
36.830395
 20
150.0888159999998
 30
0.0
 11
25.36516914170418
 21
150.0888159999998
 31
0.0
  0
ARC
  5
1B3
330
1B0
100
AcDbEntity
  8
CSLAYER1
 62
     0
100
AcDbCircle
 10
43.83791400000002
 20
150.0888159999999
 30
0.0
 40
18.29274485829581
100
AcDbArc
 50
120.5637952418116
 51
149.3468316250368
  0
ARC
  5
1B4
330
1B0
100
AcDbEntity
  8
CSLAYER1
 62
     0
100
AcDbCircle
 10
43.83791400000002
 20
150.0888159999999
 30
0.0
 40
18.29274485829581
100
AcDbArc
 50
150.6489015466053
 51
179.4362091637886
  0
SOLID
  5
1B5
330
1B0
100
AcDbEntity
  8
CSLAYER1
 62
     0
100
AcDbTrace
 10
34.52097282686546
 20
165.8659378235304
 30
0.0
 11
34.55122811758744
 21
165.8141245300303
 31
0.0
 12
34.69154035272681
 22
165.9307970489463
 32
0.0
 13
34.69154035272681
 23
165.9307970489463
 33
0.0
  0
SOLID
  5
1B6
330
1B0
100
AcDbEntity
  8
CSLAYER1
 62
     0
100
AcDbTrace
 10
25.57605437561019
 20
150.2686662219251
 30
0.0
 11
25.51605510180165
 21
150.2689614209257
 31
0.0
 12
25.54516914170419
 22
150.0888159999998
 32
0.0
 13
25.54516914170419
 23
150.0888159999998
 33
0.0
  0
MTEXT
  5
1B7
330
1B0
100
AcDbEntity
  8
CSLAYER1
 62
     0
100
AcDbMText
 10
27.99593189612614
 20
159.2351878200851
 30
0.0
 40
0.18
 41
0.0
 71
     5
 72
     1
  1
\A1;60°
1001
ACAD
1000
MTEXTBEGIN
1070
    73
1070
     1
1070
    44
1040
1.0
1070
    74
1070
     0
1000
MTEXTEND
  0
POINT
  5
1B8
330
1B0
100
AcDbEntity
  8
DEFPOINTS
 62
     0
100
AcDbPoint
 10
29.82485784915876
 20
161.8471650237395
 30
0.0
  0
POINT
  5
1B9
330
1B0
100
AcDbEntity
  8
DEFPOINTS
 62
     0
100
AcDbPoint
 10
43.83791400000001
 20
150.0888159999999
 30
0.0
  0
POINT
  5
1BA
330
1B0
100
AcDbEntity
  8
DEFPOINTS
 62
     0
100
AcDbPoint
 10
36.89289499999999
 20
150.0888159999999
 30
0.0
  0
POINT
  5
1BB
330
1B0
100
AcDbEntity
  8
DEFPOINTS
 62
     0
100
AcDbPoint
 10
43.83791400000001
 20
150.0888159999999
 30
0.0
  0
POINT
  5
1BC
330
1B0
100
AcDbEntity
  8
DEFPOINTS
 62
     0
100
AcDbPoint
 10
41.83791400000001
 20
153.5529169999999
 30
0.0
  0
ENDBLK
  5
1BE
330
1B0
100
AcDbEntity
  8
0
100
AcDbBlockEnd
  0
ENDSEC
  0
SECTION
  2
ENTITIES
  0
POINT
  5
D2
330
1E
100
AcDbEntity
  8
CSLAYER1
 62
     3
100
AcDbPoint
 10
250.4999999999999
 20
43.5
 30
0.0
  0
POINT
  5
D3
330
1E
100
AcDbEntity
  8
CSLAYER1
 62
     3
100
AcDbPoint
 10
271.0
 20
43.5
 30
0.0
  0
POINT
  5
D4
330
1E
100
AcDbEntity
  8
CSLAYER1
 62
     3
100
AcDbPoint
 10
271.0
 20
53.5
 30
0.0
  0
POINT
  5
D5
330
1E
100
AcDbEntity
  8
CSLAYER1
 62
     3
100
AcDbPoint
 10
250.4999999999999
 20
53.5
 30
0.0
  0
TEXT
  5
D6
330
1E
100
AcDbEntity
  8
CSLAYER1
 62
     3
100
AcDbText
 10
238.099985
 20
51.00000399999998
 30
0.0
 40
5.0
  1
刃開キハ
 41
1.11044776119403
  7
FX_FONT
 72
     5
 11
262.899985
 21
51.00000399999998
 31
0.0
100
AcDbText
  0
TEXT
  5
D7
330
1E
100
AcDbEntity
  8
CSLAYER1
 62
     3
100
AcDbText
 10
237.999985
 20
41.00000399999998
 30
0.0
 40
5.0
  1
切刃部有効
 41
0.872093023255811
  7
FX_FONT
 72
     5
 11
262.9999849999999
 21
41.00000399999998
 31
0.0
100
AcDbText
  0
TEXT
  5
D8
330
1E
100
AcDbEntity
  8
CSLAYER1
 62
     3
100
AcDbText
 10
268.5
 20
51.00000399999998
 30
0.0
 40
5.0
  1
9
 41
1.499999999999983
  7
FX_FONT
 72
     5
 11
273.4999999999999
 21
51.00000399999998
 31
0.0
100
AcDbText
  0
TEXT
  5
D9
330
1E
100
AcDbEntity
  8
CSLAYER1
 62
     3
100
AcDbText
 10
266.0
 20
41.00000399999998
 30
0.0
 40
5.0
  1
19
 41
1.199999999999999
  7
FX_FONT
 72
     5
 11
276.0
 21
41.00000399999998
 31
0.0
100
AcDbText
  0
TEXT
  5
DA
330
1E
100
AcDbEntity
  8
CSLAYER1
 62
     3
100
AcDbText
 10
240.5
 20
17.25
 30
0.0
 40
3.5
  1
N50BBB
 41
1.159663865546218
  7
FX_FONT
 72
     5
 11
263.5
 21
17.25
 31
0.0
100
AcDbText
  0
POINT
  5
DB
330
1E
100
AcDbEntity
  8
CSLAYER1
 62
     3
100
AcDbPoint
 10
142.089474
 20
150.0888159999998
 30
0.0
  0
DIMENSION
  5
DC
330
1E
100
AcDbEntity
  8
CSLAYER1
 62
     4
100
AcDbDimension
  2
*D0
 10
81.557335
 20
176.0888159999999
 30
0.0
 11
81.05734299999998
 21
150.088806
 31
0.0
 70
     1
100
AcDbAlignedDimension
 13
120.7951879999999
 23
124.0888159999999
 33
0.0
 14
120.7951879999999
 24
176.0888159999999
 34
0.0
  0
DIMENSION
  5
DD
330
1E
100
AcDbEntity
  8
CSLAYER1
 62
     4
100
AcDbDimension
  2
*D1
 10
43.837914
 20
135.1030839999999
 30
0.0
 11
37.005474
 21
139.0968169999998
 31
0.0
 70
     1
 52
270.0
100
AcDbAlignedDimension
 13
41.837914
 23
150.0888159999998
 33
0.0
 14
43.837914
 24
150.0888159999998
 34
0.0
  0
DIMENSION
  5
DE
330
1E
100
AcDbEntity
  8
CSLAYER1
 62
     4
100
AcDbDimension
  2
*D2
 10
75.47025699999998
 20
110.3684209999999
 30
0.0
 11
74.97026099999998
 21
108.3040009999999
 31
0.0
100
AcDbAlignedDimension
 13
118.089474
 23
85.36842099999999
 33
0.0
 14
99.089474
 24
110.3684209999999
 34
0.0
 50
90.0
100
AcDbRotatedDimension
  0
INSERT
  5
DF
330
1E
100
AcDbEntity
  8
CSLAYER1
100
AcDbBlockReference
  2
FXDIM0000
 10
0.0
 20
0.0
 30
0.0
  0
INSERT
  5
E0
330
1E
100
AcDbEntity
  8
CSLAYER1
100
AcDbBlockReference
  2
FXDIM0001
 10
0.0
 20
0.0
 30
0.0
  0
POINT
  5
E1
330
1E
100
AcDbEntity
  8
CSLAYER1
 62
     3
100
AcDbPoint
 10
252.0
 20
19.0
 30
0.0
  0
DIMENSION
  5
E2
330
1E
100
AcDbEntity
  8
CSLAYER1
 62
     4
100
AcDbDimension
  2
*D5
 10
88.11518799999998
 20
162.0888159999998
 30
0.0
 11
87.615189
 21
150.088806
 31
0.0
 70
     1
100
AcDbAlignedDimension
 13
96.08947399999999
 23
138.0888159999998
 33
0.0
 14
96.08947399999999
 24
162.0888159999998
 34
0.0
  0
POINT
  5
E3
330
1E
100
AcDbEntity
  8
CSLAYER1
 62
     3
100
AcDbPoint
 10
242.089474
 20
97.86842100000001
 30
0.0
  0
LINE
  5
E4
330
1E
100
AcDbEntity
  8
CSLAYER1
  6
CONTINUOUS
 62
     3
100
AcDbLine
 10
279.0
 20
40.0
 30
0.0
 11
238.0
 21
40.0
 31
0.0
  0
LINE
  5
E5
330
1E
100
AcDbEntity
  8
CSLAYER1
  6
CONTINUOUS
 62
     3
100
AcDbLine
 10
238.0
 20
50.0
 30
0.0
 11
279.0
 21
50.0
 31
0.0
  0
ARC
  5
E6
330
1E
100
AcDbEntity
  8
CSLAYER1
  6
CONTINUOUS
 62
     3
100
AcDbCircle
 10
257.0894739999999
 20
97.86842100000001
 30
0.0
 40
5.0
100
AcDbArc
 50
342.6873489999998
 51
17.312651
  0
ARC
  5
E7
330
1E
100
AcDbEntity
  8
CSLAYER1
  6
CONTINUOUS
 62
     3
100
AcDbCircle
 10
250.406608
 20
95.785321
 30
0.0
 40
12.0
100
AcDbArc
 50
17.312651
 51
87.917435
  0
LINE
  5
E8
330
1E
100
AcDbEntity
  8
CSLAYER1
  6
CONTINUOUS
 62
     3
100
AcDbLine
 10
250.8426829999999
 20
107.777395
 30
0.0
 11
208.0531339999999
 21
109.333379
 31
0.0
  0
LINE
  5
E9
330
1E
100
AcDbEntity
  8
CSLAYER1
  6
CONTINUOUS
 62
     3
100
AcDbLine
 10
207.0894739999999
 20
110.3327179999999
 30
0.0
 11
207.0894739999999
 21
110.3684209999999
 31
0.0
  0
LINE
  5
EA
330
1E
100
AcDbEntity
  8
CSLAYER1
  6
CONTINUOUS
 62
     3
100
AcDbLine
 10
207.0894739999999
 20
110.3684209999999
 30
0.0
 11
99.089474
 21
110.3684209999999
 31
0.0
  0
ARC
  5
EB
330
1E
100
AcDbEntity
  8
CSLAYER1
  6
CONTINUOUS
 62
     3
100
AcDbCircle
 10
99.089474
 20
107.3684209999999
 30
0.0
 40
3.0
100
AcDbArc
 50
90.0
 51
180.0
  0
LINE
  5
EC
330
1E
100
AcDbEntity
  8
CSLAYER1
  6
CONTINUOUS
 62
     3
100
AcDbLine
 10
96.08947399999999
 20
107.3684209999999
 30
0.0
 11
96.08947399999999
 21
100.7729869999999
 31
0.0
  0
LINE
  5
ED
330
1E
100
AcDbEntity
  8
CSLAYER1
  6
CONTINUOUS
 62
     3
100
AcDbLine
 10
96.08947399999999
 20
100.7729869999999
 30
0.0
 11
118.089474
 21
85.36842099999999
 31
0.0
  0
LINE
  5
EE
330
1E
100
AcDbEntity
  8
CSLAYER1
  6
CONTINUOUS
 62
     3
100
AcDbLine
 10
118.089474
 20
85.36842099999999
 30
0.0
 11
207.0894739999999
 21
85.36842099999999
 31
0.0
  0
LINE
  5
EF
330
1E
100
AcDbEntity
  8
CSLAYER1
  6
CONTINUOUS
 62
     3
100
AcDbLine
 10
207.0894739999999
 20
85.36842099999999
 30
0.0
 11
207.0894739999999
 21
85.40412399999999
 31
0.0
  0
LINE
  5
F0
330
1E
100
AcDbEntity
  8
CSLAYER1
  6
CONTINUOUS
 62
     3
100
AcDbLine
 10
208.0531339999999
 20
86.403463
 30
0.0
 11
250.8426829999999
 21
87.95944699999997
 31
0.0
  0
ARC
  5
F1
330
1E
100
AcDbEntity
  8
CSLAYER1
  6
CONTINUOUS
 62
     3
100
AcDbCircle
 10
250.406608
 20
99.951521
 30
0.0
 40
12.0
100
AcDbArc
 50
272.082565
 51
342.687349
  0
CIRCLE
  5
F2
330
1E
100
AcDbEntity
  8
CSLAYER1
  6
CONTINUOUS
 62
     3
100
AcDbCircle
 10
242.089474
 20
97.86842100000001
 30
0.0
 40
4.0
  0
CIRCLE
  5
F3
330
1E
100
AcDbEntity
  8
CSLAYER1
  6
CONTINUOUS
 62
     3
100
AcDbCircle
 10
242.089474
 20
97.86842100000001
 30
0.0
 40
3.5
  0
LINE
  5
F4
330
1E
100
AcDbEntity
  8
CSLAYER1
  6
CONTINUOUS
 62
     3
100
AcDbLine
 10
244.3988749999999
 20
97.86842100000001
 30
0.0
 11
243.244174
 21
99.868421
 31
0.0
  0
LINE
  5
F5
330
1E
100
AcDbEntity
  8
CSLAYER1
  6
CONTINUOUS
 62
     3
100
AcDbLine
 10
243.244174
 20
99.868421
 30
0.0
 11
240.9347729999999
 21
99.868421
 31
0.0
  0
LINE
  5
F6
330
1E
100
AcDbEntity
  8
CSLAYER1
  6
CONTINUOUS
 62
     3
100
AcDbLine
 10
240.9347729999999
 20
99.868421
 30
0.0
 11
239.7800729999999
 21
97.86842100000001
 31
0.0
  0
LINE
  5
F7
330
1E
100
AcDbEntity
  8
CSLAYER1
  6
CONTINUOUS
 62
     3
100
AcDbLine
 10
239.7800729999999
 20
97.86842100000001
 30
0.0
 11
240.9347729999999
 21
95.868421
 31
0.0
  0
LINE
  5
F8
330
1E
100
AcDbEntity
  8
CSLAYER1
  6
CONTINUOUS
 62
     3
100
AcDbLine
 10
240.9347729999999
 20
95.868421
 30
0.0
 11
243.244174
 21
95.868421
 31
0.0
  0
LINE
  5
F9
330
1E
100
AcDbEntity
  8
CSLAYER1
  6
CONTINUOUS
 62
     3
100
AcDbLine
 10
243.244174
 20
95.868421
 30
0.0
 11
244.3988749999999
 21
97.86842100000001
 31
0.0
  0
ARC
  5
FA
330
1E
100
AcDbEntity
  8
CSLAYER1
  6
CONTINUOUS
 62
     3
100
AcDbCircle
 10
208.089474
 20
85.40412399999999
 30
0.0
 40
1.0
100
AcDbArc
 50
92.082565
 51
180.0
  0
ARC
  5
FB
330
1E
100
AcDbEntity
  8
CSLAYER1
  6
CONTINUOUS
 62
     3
100
AcDbCircle
 10
189.2159739999999
 20
97.168421
 30
0.0
 40
2.0
100
AcDbArc
 50
20.487315
 51
90.0
  0
LINE
  5
FC
330
1E
100
AcDbEntity
  8
CSLAYER1
  6
CONTINUOUS
 62
     3
100
AcDbLine
 10
189.2159739999999
 20
99.168421
 30
0.0
 11
159.962973
 21
99.168421
 31
0.0
  0
ARC
  5
FD
330
1E
100
AcDbEntity
  8
CSLAYER1
  6
CONTINUOUS
 62
     3
100
AcDbCircle
 10
159.962973
 20
97.168421
 30
0.0
 40
2.0
100
AcDbArc
 50
90.0
 51
159.5126849999999
  0
LINE
  5
FE
330
1E
100
AcDbEntity
  8
CSLAYER1
  6
CONTINUOUS
 62
     3
100
AcDbLine
 10
158.0894739999999
 20
97.86842100000001
 30
0.0
 11
129.076611
 21
97.86842100000001
 31
0.0
  0
ARC
  5
FF
330
1E
100
AcDbEntity
  8
CSLAYER1
  6
CONTINUOUS
 62
     3
100
AcDbCircle
 10
129.076611
 20
95.868421
 30
0.0
 40
2.0
100
AcDbArc
 50
90.0
 51
180.0
  0
LINE
  5
100
330
1E
100
AcDbEntity
  8
CSLAYER1
  6
CONTINUOUS
 62
     3
100
AcDbLine
 10
127.076611
 20
95.868421
 30
0.0
 11
127.076611
 21
85.36842099999999
 31
0.0
  0
LINE
  5
101
330
1E
100
AcDbEntity
  8
CSLAYER1
  6
CONTINUOUS
 62
     3
100
AcDbLine
 10
112.8005149999999
 20
93.954888
 30
0.0
 11
96.08947399999999
 21
105.656085
 31
0.0
  0
LINE
  5
102
330
1E
100
AcDbEntity
  8
CSLAYER1
  6
CONTINUOUS
 62
     3
100
AcDbLine
 10
110.50621
 20
90.67828
 30
0.0
 11
112.8005149999999
 21
93.954888
 31
0.0
  0
LINE
  5
103
330
1E
100
AcDbEntity
  8
CSLAYER1
  6
CONTINUOUS
 62
     3
100
AcDbLine
 10
124.0894739999999
 20
124.0888159999999
 30
0.0
 11
132.995675
 21
124.0888159999999
 31
0.0
  0
ARC
  5
104
330
1E
100
AcDbEntity
  8
CSLAYER1
  6
CONTINUOUS
 62
     3
100
AcDbCircle
 10
132.995675
 20
164.0888159999998
 30
0.0
 40
40.0
100
AcDbArc
 50
270.0
 51
295.6164039999998
  0
LINE
  5
105
330
1E
100
AcDbEntity
  8
CSLAYER1
  6
CONTINUOUS
 62
     3
100
AcDbLine
 10
150.289432
 20
128.0204649999999
 30
0.0
 11
192.484285
 21
148.251706
 31
0.0
  0
LINE
  5
106
330
1E
100
AcDbEntity
  8
CSLAYER1
  6
CONTINUOUS
 62
     3
100
AcDbLine
 10
194.7800729999999
 20
146.0888159999998
 30
0.0
 11
191.625372
 21
140.6247139999998
 31
0.0
  0
ARC
  5
107
330
1E
100
AcDbEntity
  8
CSLAYER1
  6
CONTINUOUS
 62
     3
100
AcDbCircle
 10
195.089474
 20
138.6247139999998
 30
0.0
 40
4.0
100
AcDbArc
 50
150.0
 51
180.0
  0
LINE
  5
108
330
1E
100
AcDbEntity
  8
CSLAYER1
  6
CONTINUOUS
 62
     3
100
AcDbLine
 10
191.0894739999999
 20
138.6247139999998
 30
0.0
 11
191.0894739999999
 21
131.1304819999999
 31
0.0
  0
ARC
  5
109
330
1E
100
AcDbEntity
  8
CSLAYER1
  6
CONTINUOUS
 62
     3
100
AcDbCircle
 10
198.2441739999999
 20
144.0888159999999
 30
0.0
 40
4.0
100
AcDbArc
 50
90.0
 51
150.0
  0
LINE
  5
10A
330
1E
100
AcDbEntity
  8
CSLAYER1
  6
CONTINUOUS
 62
     3
100
AcDbLine
 10
198.2441739999999
 20
148.0888159999999
 30
0.0
 11
262.089474
 21
148.0888159999999
 31
0.0
  0
LINE
  5
10B
330
1E
100
AcDbEntity
  8
CSLAYER1
  6
CONTINUOUS
 62
     3
100
AcDbLine
 10
262.089474
 20
152.0888159999999
 30
0.0
 11
209.5794699999999
 21
152.0888159999999
 31
0.0
  0
ARC
  5
10C
330
1E
100
AcDbEntity
  8
CSLAYER1
  6
CONTINUOUS
 62
     3
100
AcDbCircle
 10
209.5794699999999
 20
112.088816
 30
0.0
 40
40.0
100
AcDbArc
 50
90.0
 51
115.301379
  0
ARC
  5
10D
330
1E
100
AcDbEntity
  8
CSLAYER1
  6
CONTINUOUS
 62
     3
100
AcDbCircle
 10
209.5794699999999
 20
188.0888159999999
 30
0.0
 40
40.0
100
AcDbArc
 50
251.8051279999999
 51
270.0
  0
LINE
  5
10E
330
1E
100
AcDbEntity
  8
CSLAYER1
  6
CONTINUOUS
 62
     3
100
AcDbLine
 10
238.089474
 20
148.0888159999999
 30
0.0
 11
238.089474
 21
151.5888159999998
 31
0.0
  0
LINE
  5
10F
330
1E
100
AcDbEntity
  8
CSLAYER1
  6
CONTINUOUS
 62
     3
100
AcDbLine
 10
238.089474
 20
151.5888159999998
 30
0.0
 11
238.589474
 21
152.0888159999999
 31
0.0
  0
LINE
  5
110
330
1E
100
AcDbEntity
  8
CSLAYER1
  6
CONTINUOUS
 62
     3
100
AcDbLine
 10
238.589474
 20
151.5888159999998
 30
0.0
 11
238.589474
 21
148.0888159999999
 31
0.0
  0
LINE
  5
111
330
1E
100
AcDbEntity
  8
CSLAYER1
  6
CONTINUOUS
 62
     3
100
AcDbLine
 10
238.089474
 20
151.5888159999998
 30
0.0
 11
246.089474
 21
151.5888159999998
 31
0.0
  0
LINE
  5
112
330
1E
100
AcDbEntity
  8
CSLAYER1
  6
CONTINUOUS
 62
     3
100
AcDbLine
 10
246.089474
 20
151.5888159999998
 30
0.0
 11
246.089474
 21
148.0888159999999
 31
0.0
  0
LINE
  5
113
330
1E
100
AcDbEntity
  8
CSLAYER1
  6
CONTINUOUS
 62
     3
100
AcDbLine
 10
245.589474
 20
148.0888159999999
 30
0.0
 11
245.589474
 21
151.5888159999998
 31
0.0
  0
LINE
  5
114
330
1E
100
AcDbEntity
  8
CSLAYER1
  6
CONTINUOUS
 62
     3
100
AcDbLine
 10
245.589474
 20
152.0888159999999
 30
0.0
 11
246.089474
 21
151.5888159999998
 31
0.0
  0
LINE
  5
115
330
1E
100
AcDbEntity
  8
CSLAYER1
  6
CONTINUOUS
 62
     3
100
AcDbLine
 10
247.7189569999999
 20
166.687587
 30
0.0
 11
142.089474
 21
171.0888159999998
 31
0.0
  0
ARC
  5
116
330
1E
100
AcDbEntity
  8
CSLAYER1
  6
CONTINUOUS
 62
     3
100
AcDbCircle
 10
142.089474
 20
150.0888159999998
 30
0.0
 40
21.0
100
AcDbArc
 50
85.22811199999997
 51
174.0208429999999
  0
ARC
  5
117
330
1E
100
AcDbEntity
  8
CSLAYER1
  6
CONTINUOUS
 62
     3
100
AcDbCircle
 10
118.220037
 20
147.5888159999998
 30
0.0
 40
3.0
100
AcDbArc
 50
56.44269000000001
 51
90.0
  0
LINE
  5
118
330
1E
100
AcDbEntity
  8
CSLAYER1
  6
CONTINUOUS
 62
     3
100
AcDbLine
 10
118.220037
 20
150.5888159999998
 30
0.0
 11
111.6533629999999
 21
150.5888159999998
 31
0.0
  0
LINE
  5
119
330
1E
100
AcDbEntity
  8
CSLAYER1
  6
CONTINUOUS
 62
     3
100
AcDbLine
 10
111.6533629999999
 20
150.5888159999998
 30
0.0
 11
111.6533629999999
 21
149.5888159999998
 31
0.0
  0
LINE
  5
11A
330
1E
100
AcDbEntity
  8
CSLAYER1
  6
CONTINUOUS
 62
     3
100
AcDbLine
 10
111.6533629999999
 20
149.5888159999998
 30
0.0
 11
118.220037
 21
149.5888159999998
 31
0.0
  0
ARC
  5
11B
330
1E
100
AcDbEntity
  8
CSLAYER1
  6
CONTINUOUS
 62
     3
100
AcDbCircle
 10
118.220037
 20
152.5888159999998
 30
0.0
 40
3.0
100
AcDbArc
 50
270.0
 51
354.020843
  0
LINE
  5
11C
330
1E
100
AcDbEntity
  8
CSLAYER1
  6
CONTINUOUS
 62
     3
100
AcDbLine
 10
117.7953699999999
 20
150.5888159999998
 30
0.0
 11
127.076611
 21
176.0888159999999
 31
0.0
  0
ARC
  5
11D
330
1E
100
AcDbEntity
  8
CSLAYER1
  6
CONTINUOUS
 62
     3
100
AcDbCircle
 10
124.0894739999999
 20
141.0888159999998
 30
0.0
 40
35.0
100
AcDbArc
 50
90.0
 51
143.130102
  0
LINE
  5
11E
330
1E
100
AcDbEntity
  8
CSLAYER1
  6
CONTINUOUS
 62
     3
100
AcDbLine
 10
96.08947399999999
 20
162.0888159999998
 30
0.0
 11
96.08947399999999
 21
138.0888159999998
 31
0.0
  0
ARC
  5
11F
330
1E
100
AcDbEntity
  8
CSLAYER1
  6
CONTINUOUS
 62
     3
100
AcDbCircle
 10
124.0894739999999
 20
159.0888159999998
 30
0.0
 40
35.0
100
AcDbArc
 50
216.869898
 51
270.0
  0
LINE
  5
120
330
1E
100
AcDbEntity
  8
CSLAYER1
  6
CONTINUOUS
 62
     3
100
AcDbLine
 10
106.4189969999999
 20
136.9703829999999
 30
0.0
 11
117.0071199999999
 21
149.5888159999998
 31
0.0
  0
LINE
  5
121
330
1E
100
AcDbEntity
  8
CSLAYER1
  6
CONTINUOUS
 62
     3
100
AcDbLine
 10
117.0071199999999
 20
150.5888159999998
 30
0.0
 11
106.4189969999999
 21
163.2072489999998
 31
0.0
  0
ARC
  5
122
330
1E
100
AcDbEntity
  8
CSLAYER1
  6
CONTINUOUS
 62
     3
100
AcDbCircle
 10
105.6529529999999
 20
162.564461
 30
0.0
 40
1.0
100
AcDbArc
 50
40.0
 51
125.0
  0
LINE
  5
123
330
1E
100
AcDbEntity
  8
CSLAYER1
  6
CONTINUOUS
 62
     3
100
AcDbLine
 10
105.0793759999999
 20
163.3836129999999
 30
0.0
 11
96.08947399999999
 21
157.0888159999999
 31
0.0
  0
LINE
  5
124
330
1E
100
AcDbEntity
  8
CSLAYER1
  6
CONTINUOUS
 62
     3
100
AcDbLine
 10
96.08947399999999
 20
150.0888159999998
 30
0.0
 11
111.6533629999999
 21
150.0888159999998
 31
0.0
  0
ARC
  5
125
330
1E
100
AcDbEntity
  8
CSLAYER1
  6
CONTINUOUS
 62
     3
100
AcDbCircle
 10
105.6529529999999
 20
137.6131699999999
 30
0.0
 40
1.0
100
AcDbArc
 50
235.0
 51
320.0
  0
LINE
  5
126
330
1E
100
AcDbEntity
  8
CSLAYER1
  6
CONTINUOUS
 62
     3
100
AcDbLine
 10
105.0793759999999
 20
136.7940179999999
 30
0.0
 11
96.08947399999999
 21
143.0888159999998
 31
0.0
  0
LINE
  5
127
330
1E
100
AcDbEntity
  8
CSLAYER1
  6
CONTINUOUS
 62
     3
100
AcDbLine
 10
64.037914
 20
129.8888159999999
 30
0.0
 11
43.837914
 21
150.0888159999998
 31
0.0
  0
LINE
  5
128
330
1E
100
AcDbEntity
  8
CSLAYER1
  6
CONTINUOUS
 62
     3
100
AcDbLine
 10
43.837914
 20
150.0888159999998
 30
0.0
 11
64.037914
 21
170.288816
 31
0.0
  0
LINE
  5
129
330
1E
100
AcDbEntity
  8
CSLAYER1
  6
CONTINUOUS
 62
     3
100
AcDbLine
 10
64.037914
 20
176.0888159999999
 30
0.0
 11
41.837914
 21
176.0888159999999
 31
0.0
  0
LINE
  5
12A
330
1E
100
AcDbEntity
  8
CSLAYER1
  6
CONTINUOUS
 62
     3
100
AcDbLine
 10
41.837914
 20
176.0888159999999
 30
0.0
 11
41.837914
 21
153.5529169999998
 31
0.0
  0
LINE
  5
12B
330
1E
100
AcDbEntity
  8
CSLAYER1
  6
CONTINUOUS
 62
     3
100
AcDbLine
 10
41.837914
 20
153.5529169999998
 30
0.0
 11
43.837914
 21
150.0888159999998
 31
0.0
  0
LINE
  5
12C
330
1E
100
AcDbEntity
  8
CSLAYER1
  6
CONTINUOUS
 62
     3
100
AcDbLine
 10
43.837914
 20
150.0888159999998
 30
0.0
 11
41.837914
 21
146.6247139999999
 31
0.0
  0
LINE
  5
12D
330
1E
100
AcDbEntity
  8
CSLAYER1
  6
CONTINUOUS
 62
     3
100
AcDbLine
 10
41.837914
 20
146.6247139999999
 30
0.0
 11
41.837914
 21
124.0888159999999
 31
0.0
  0
LINE
  5
12E
330
1E
100
AcDbEntity
  8
CSLAYER1
  6
CONTINUOUS
 62
     3
100
AcDbLine
 10
41.837914
 20
124.0888159999999
 30
0.0
 11
64.037914
 21
124.0888159999999
 31
0.0
  0
LINE
  5
12F
330
1E
100
AcDbEntity
  8
CSLAYER1
  6
CONTINUOUS
 62
     3
100
AcDbLine
 10
45.837914
 20
124.0888159999999
 30
0.0
 11
45.837914
 21
148.0888159999999
 31
0.0
  0
LINE
  5
130
330
1E
100
AcDbEntity
  8
CSLAYER1
  6
CONTINUOUS
 62
     3
100
AcDbLine
 10
45.837914
 20
152.0888159999999
 30
0.0
 11
45.837914
 21
176.0888159999999
 31
0.0
  0
LINE
  5
131
330
1E
100
AcDbEntity
  8
CSLAYER1
  6
CONTINUOUS
 62
     3
100
AcDbLine
 10
124.0894739999999
 20
176.0888159999999
 30
0.0
 11
132.995675
 21
176.0888159999999
 31
0.0
  0
ARC
  5
132
330
1E
100
AcDbEntity
  8
CSLAYER1
  6
CONTINUOUS
 62
     3
100
AcDbCircle
 10
132.995675
 20
136.0888159999998
 30
0.0
 40
40.0
100
AcDbArc
 50
64.383596
 51
90.0
  0
LINE
  5
133
330
1E
100
AcDbEntity
  8
CSLAYER1
  6
CONTINUOUS
 62
     3
100
AcDbLine
 10
150.289432
 20
172.1571669999999
 30
0.0
 11
153.51008
 21
170.6129569999999
 31
0.0
  0
CIRCLE
  5
134
330
1E
100
AcDbEntity
  8
CSLAYER1
  6
CONTINUOUS
 62
     3
100
AcDbCircle
 10
142.089474
 20
150.0888159999998
 30
0.0
 40
12.0
  0
CIRCLE
  5
135
330
1E
100
AcDbEntity
  8
CSLAYER1
  6
CONTINUOUS
 62
     3
100
AcDbCircle
 10
142.089474
 20
150.0888159999998
 30
0.0
 40
4.049999999999998
  0
LINE
  5
136
330
1E
100
AcDbEntity
  8
CSLAYER1
  6
CONTINUOUS
 62
     3
100
AcDbLine
 10
153.51008
 20
129.564674
 30
0.0
 11
247.7189569999999
 21
133.4900439999999
 31
0.0
  0
ARC
  5
137
330
1E
100
AcDbEntity
  8
CSLAYER1
  6
CONTINUOUS
 62
     3
100
AcDbCircle
 10
247.094498
 20
148.4770399999999
 30
0.0
 40
15.0
100
AcDbArc
 50
272.385944
 51
358.5169259999998
  0
ARC
  5
138
330
1E
100
AcDbEntity
  8
CSLAYER1
  6
CONTINUOUS
 62
     3
100
AcDbCircle
 10
247.094498
 20
151.7005909999999
 30
0.0
 40
15.0
100
AcDbArc
 50
1.483074
 51
87.61405600000001
  0
ARC
  5
139
330
1E
100
AcDbEntity
  8
CSLAYER1
  6
CONTINUOUS
 62
     3
100
AcDbCircle
 10
208.089474
 20
110.3327179999999
 30
0.0
 40
1.0
100
AcDbArc
 50
180.0
 51
267.917435
  0
LINE
  5
13A
330
1E
100
AcDbEntity
  8
CSLAYER1
  6
CONTINUOUS
 62
     3
100
AcDbLine
 10
191.0894739999999
 20
110.3684209999999
 30
0.0
 11
191.0894739999999
 21
97.86842100000001
 31
0.0
  0
LINE
  5
13B
330
1E
100
AcDbEntity
  8
CSLAYER1
  6
CONTINUOUS
 62
     3
100
AcDbLine
 10
189.2159739999999
 20
96.568421
 30
0.0
 11
159.962973
 21
96.568421
 31
0.0
  0
ARC
  5
13C
330
1E
100
AcDbEntity
  8
CSLAYER1
  6
CONTINUOUS
 62
     3
100
AcDbCircle
 10
159.962973
 20
98.56842100000001
 30
0.0
 40
2.0
100
AcDbArc
 50
200.4873149999999
 51
270.0
  0
ARC
  5
13D
330
1E
100
AcDbEntity
  8
CSLAYER1
  6
CONTINUOUS
 62
     3
100
AcDbCircle
 10
189.2159739999999
 20
98.56842100000001
 30
0.0
 40
2.0
100
AcDbArc
 50
270.0
 51
339.512685
  0
LINE
  5
13E
330
1E
100
AcDbEntity
  8
CSLAYER1
  6
CONTINUOUS
 62
     3
100
AcDbLine
 10
158.0894739999999
 20
129.755482
 30
0.0
 11
158.0894739999999
 21
131.7603649999999
 31
0.0
  0
LINE
  5
13F
330
1E
100
AcDbEntity
  8
CSLAYER1
  6
DASHED
 62
     4
100
AcDbLine
 10
117.63097
 20
110.3684209999999
 30
0.0
 11
113.168245
 21
93.713308
 31
0.0
  0
ARC
  5
140
330
1E
100
AcDbEntity
  8
CSLAYER1
  6
DASHED
 62
     4
100
AcDbCircle
 10
111.7193569999999
 20
94.10153599999999
 30
0.0
 40
1.5
100
AcDbArc
 50
235.0
 51
345.0
  0
LINE
  5
141
330
1E
100
AcDbEntity
  8
CSLAYER1
  6
DASHED
 62
     4
100
AcDbLine
 10
110.8589919999999
 20
92.87280800000001
 30
0.0
 11
96.08947399999999
 21
103.2145359999999
 31
0.0
  0
LINE
  5
142
330
1E
100
AcDbEntity
  8
CSLAYER1
  6
CENTER
 62
     4
100
AcDbLine
 10
118.089474
 20
97.86842100000001
 30
0.0
 11
129.076611
 21
97.86842100000001
 31
0.0
  0
LINE
  5
143
330
1E
100
AcDbEntity
  8
CSLAYER1
  6
CENTER
 62
     4
100
AcDbLine
 10
142.089474
 20
81.633452
 30
0.0
 11
142.089474
 21
116.6684209999999
 31
0.0
  0
LINE
  5
144
330
1E
100
AcDbEntity
  8
CSLAYER1
  6
CENTER
 62
     4
100
AcDbLine
 10
158.0894739999999
 20
97.86842100000001
 30
0.0
 11
196.980254
 21
97.86842100000001
 31
0.0
  0
LINE
  5
145
330
1E
100
AcDbEntity
  8
CSLAYER1
  6
CENTER
 62
     4
100
AcDbLine
 10
233.6117589999999
 20
97.86842100000001
 30
0.0
 11
251.385474
 21
97.86842100000001
 31
0.0
  0
LINE
  5
146
330
1E
100
AcDbEntity
  8
CSLAYER1
  6
CENTER
 62
     4
100
AcDbLine
 10
256.435855
 20
97.86842100000001
 30
0.0
 11
267.358513
 21
97.86842100000001
 31
0.0
  0
LINE
  5
147
330
1E
100
AcDbEntity
  8
CSLAYER1
  6
CENTER
 62
     4
100
AcDbLine
 10
242.089474
 20
90.48770799999999
 30
0.0
 11
242.089474
 21
105.022053
 31
0.0
  0
LINE
  5
148
330
1E
100
AcDbEntity
  8
CSLAYER1
  6
CENTER
 62
     4
100
AcDbLine
 10
269.7585649999999
 20
150.0888159999998
 30
0.0
 11
111.6533629999999
 21
150.0888159999998
 31
0.0
  0
LINE
  5
149
330
1E
100
AcDbEntity
  8
CSLAYER1
  6
CENTER
 62
     4
100
AcDbLine
 10
96.08947399999999
 20
150.0888159999998
 30
0.0
 11
91.84292499999999
 21
150.0888159999998
 31
0.0
  0
LINE
  5
14A
330
1E
100
AcDbEntity
  8
CSLAYER1
  6
CENTER
 62
     4
100
AcDbLine
 10
142.089474
 20
120.4888159999998
 30
0.0
 11
142.089474
 21
182.488816
 31
0.0
  0
LINE
  5
14B
330
1E
100
AcDbEntity
  8
CSLAYER1
  6
CENTER
 62
     4
100
AcDbLine
 10
69.50720600000001
 20
150.0888159999998
 30
0.0
 11
36.892895
 21
150.0888159999998
 31
0.0
  0
LINE
  5
14C
330
1E
100
AcDbEntity
  8
CSLAYER1
  6
CENTER
 62
     4
100
AcDbLine
 10
207.0894739999999
 20
161.3242429999999
 30
0.0
 11
207.0894739999999
 21
138.104095
 31
0.0
  0
LINE
  5
14D
330
1E
100
AcDbEntity
  8
CSLAYER1
  6
CENTER
 62
     4
100
AcDbLine
 10
242.089474
 20
130.6073969999999
 30
0.0
 11
242.089474
 21
155.9509849999999
 31
0.0
  0
DIMENSION
  5
14E
330
1E
100
AcDbEntity
  8
CSLAYER1
 62
     4
100
AcDbDimension
  2
*D6
 10
142.089474
 20
74.60526299999997
 30
0.0
 11
130.089478
 21
75.10526999999997
 31
0.0
 52
270.0
100
AcDbAlignedDimension
 13
118.089474
 23
85.36842099999999
 33
0.0
 14
142.089474
 24
81.633452
 34
0.0
100
AcDbRotatedDimension
  0
DIMENSION
  5
14F
330
1E
100
AcDbEntity
  8
CSLAYER1
 62
     4
100
AcDbDimension
  2
*D7
 10
97.233101
 20
71.722316
 30
0.0
 11
89.30199399999997
 21
77.886131
 31
0.0
100
AcDbAlignedDimension
 13
96.08947399999999
 23
103.2145359999999
 33
0.0
 14
110.50621
 24
90.67828
 34
0.0
 50
325.0
100
AcDbRotatedDimension
  0
DIMENSION
  5
151
330
1E
100
AcDbEntity
  8
CSLAYER1
 62
     4
100
AcDbDimension
  2
*D9
 10
124.0894739999999
 20
159.0888159999998
 30
0.0
 11
112.2686309999999
 21
135.6091919999999
 31
0.0
 70
     4
100
AcDbRadialDimension
 15
108.9482139999999
 25
127.533432
 35
0.0
 40
0.0
  0
DIMENSION
  5
152
330
1E
100
AcDbEntity
  8
CSLAYER1
 62
     4
100
AcDbDimension
  2
*D10
 10
142.089474
 20
186.513158
 30
0.0
 11
119.089478
 21
187.013153
 31
0.0
100
AcDbAlignedDimension
 13
96.08947399999999
 23
162.0888159999998
 33
0.0
 14
142.089474
 24
182.488816
 34
0.0
100
AcDbRotatedDimension
  0
LINE
  5
155
330
1E
100
AcDbEntity
  8
CSLAYER1
  6
CONTINUOUS
 62
     3
100
AcDbLine
 10
64.037914
 20
176.0888159999999
 30
0.0
 11
64.037914
 21
170.288816
 31
0.0
  0
LINE
  5
156
330
1E
100
AcDbEntity
  8
CSLAYER1
  6
CONTINUOUS
 62
     3
100
AcDbLine
 10
64.037914
 20
124.0888159999999
 30
0.0
 11
64.037914
 21
129.8888159999999
 31
0.0
  0
POINT
  5
157
330
1E
100
AcDbEntity
  8
CSLAYER1
 62
     3
100
AcDbPoint
 10
142.089474
 20
34.38157899999998
 30
0.0
  0
LINE
  5
158
330
1E
100
AcDbEntity
  8
CSLAYER1
  6
CONTINUOUS
 62
     3
100
AcDbLine
 10
150.8668049999999
 20
55.01585699999999
 30
0.0
 11
143.8364409999999
 21
55.30878900000001
 31
0.0
  0
ARC
  5
159
330
1E
100
AcDbEntity
  8
CSLAYER1
  6
CONTINUOUS
 62
     3
100
AcDbCircle
 10
142.089474
 20
34.38157899999998
 30
0.0
 40
21.0
100
AcDbArc
 50
85.22811199999997
 51
180.0
  0
ARC
  5
15A
330
1E
100
AcDbEntity
  8
CSLAYER1
  6
CONTINUOUS
 62
     3
100
AcDbCircle
 10
118.089961
 20
34.22862399999999
 30
0.0
 40
3.0
100
AcDbArc
 50
2.922496999999999
 51
84.38599899999998
  0
LINE
  5
15B
330
1E
100
AcDbEntity
  8
CSLAYER1
  6
CONTINUOUS
 62
     3
100
AcDbLine
 10
118.3834389999999
 20
37.214234
 30
0.0
 11
111.8482619999999
 21
37.856626
 31
0.0
  0
LINE
  5
15C
330
1E
100
AcDbEntity
  8
CSLAYER1
  6
CONTINUOUS
 62
     3
100
AcDbLine
 10
111.8482619999999
 20
37.856626
 30
0.0
 11
111.7993489999999
 21
37.359025
 31
0.0
  0
LINE
  5
15D
330
1E
100
AcDbEntity
  8
CSLAYER1
  6
CONTINUOUS
 62
     3
100
AcDbLine
 10
117.960809
 20
37.25577799999999
 30
0.0
 11
129.6920979999999
 21
61.72551999999999
 31
0.0
  0
ARC
  5
15E
330
1E
100
AcDbEntity
  8
CSLAYER1
  6
CONTINUOUS
 62
     3
100
AcDbCircle
 10
123.295375
 20
27.18561699999999
 30
0.0
 40
35.0
100
AcDbArc
 50
84.38599899999998
 51
137.5161019999999
  0
LINE
  5
15F
330
1E
100
AcDbEntity
  8
CSLAYER1
  6
CONTINUOUS
 62
     3
100
AcDbLine
 10
97.484025
 20
50.824021
 30
0.0
 11
96.31011200000001
 21
38.88157899999999
 31
0.0
  0
LINE
  5
160
330
1E
100
AcDbEntity
  8
CSLAYER1
  6
CONTINUOUS
 62
     3
100
AcDbLine
 10
117.1763399999999
 20
37.332889
 30
0.0
 11
107.873415
 21
50.926593
 31
0.0
  0
ARC
  5
161
330
1E
100
AcDbEntity
  8
CSLAYER1
  6
CONTINUOUS
 62
     3
100
AcDbCircle
 10
107.0481629999999
 20
50.361828
 30
0.0
 40
1.0
100
AcDbArc
 50
34.38599899999999
 51
119.385999
  0
LINE
  5
162
330
1E
100
AcDbEntity
  8
CSLAYER1
  6
CONTINUOUS
 62
     3
100
AcDbLine
 10
106.557472
 20
51.233161
 30
0.0
 11
96.994894
 21
45.84800399999998
 31
0.0
  0
LINE
  5
163
330
1E
100
AcDbEntity
  8
CSLAYER1
  6
CONTINUOUS
 62
     3
100
AcDbLine
 10
96.31011200000001
 20
38.88157899999999
 30
0.0
 11
111.7993489999999
 21
37.359025
 31
0.0
  0
LINE
  5
164
330
1E
100
AcDbEntity
  8
CSLAYER1
  6
CONTINUOUS
 62
     3
100
AcDbLine
 10
64.037914
 20
9.681578999999999
 30
0.0
 11
43.837914
 21
29.881579
 31
0.0
  0
LINE
  5
165
330
1E
100
AcDbEntity
  8
CSLAYER1
  6
CONTINUOUS
 62
     3
100
AcDbLine
 10
43.837914
 20
38.88157899999999
 30
0.0
 11
64.037914
 21
59.081579
 31
0.0
  0
LINE
  5
166
330
1E
100
AcDbEntity
  8
CSLAYER1
  6
CONTINUOUS
 62
     3
100
AcDbLine
 10
64.037914
 20
64.881579
 30
0.0
 11
41.837914
 21
64.881579
 31
0.0
  0
LINE
  5
167
330
1E
100
AcDbEntity
  8
CSLAYER1
  6
CONTINUOUS
 62
     3
100
AcDbLine
 10
41.837914
 20
64.881579
 30
0.0
 11
41.837914
 21
42.34568099999999
 31
0.0
  0
LINE
  5
168
330
1E
100
AcDbEntity
  8
CSLAYER1
  6
CONTINUOUS
 62
     3
100
AcDbLine
 10
41.837914
 20
42.34568099999999
 30
0.0
 11
43.837914
 21
38.88157899999999
 31
0.0
  0
LINE
  5
169
330
1E
100
AcDbEntity
  8
CSLAYER1
  6
CONTINUOUS
 62
     3
100
AcDbLine
 10
43.837914
 20
29.881579
 30
0.0
 11
41.837914
 21
26.417477
 31
0.0
  0
LINE
  5
16A
330
1E
100
AcDbEntity
  8
CSLAYER1
  6
CONTINUOUS
 62
     3
100
AcDbLine
 10
41.837914
 20
26.417477
 30
0.0
 11
41.837914
 21
3.881578999999998
 31
0.0
  0
LINE
  5
16B
330
1E
100
AcDbEntity
  8
CSLAYER1
  6
CONTINUOUS
 62
     3
100
AcDbLine
 10
41.837914
 20
3.881578999999998
 30
0.0
 11
64.037914
 21
3.881578999999998
 31
0.0
  0
LINE
  5
16C
330
1E
100
AcDbEntity
  8
CSLAYER1
  6
CONTINUOUS
 62
     3
100
AcDbLine
 10
45.837914
 20
3.881578999999998
 30
0.0
 11
45.837914
 21
27.88157899999999
 31
0.0
  0
LINE
  5
16D
330
1E
100
AcDbEntity
  8
CSLAYER1
  6
CONTINUOUS
 62
     3
100
AcDbLine
 10
45.837914
 20
40.88157899999998
 30
0.0
 11
45.837914
 21
64.881579
 31
0.0
  0
LINE
  5
16E
330
1E
100
AcDbEntity
  8
CSLAYER1
  6
CONTINUOUS
 62
     3
100
AcDbLine
 10
126.7192879999999
 20
62.01774
 30
0.0
 11
135.582771
 21
61.14648100000001
 31
0.0
  0
ARC
  5
16F
330
1E
100
AcDbEntity
  8
CSLAYER1
  6
CONTINUOUS
 62
     3
100
AcDbCircle
 10
131.6697279999999
 20
21.33833999999998
 30
0.0
 40
40.0
100
AcDbArc
 50
64.08980699999999
 51
84.38599899999998
  0
CIRCLE
  5
170
330
1E
100
AcDbEntity
  8
CSLAYER1
  6
CONTINUOUS
 62
     3
100
AcDbCircle
 10
142.089474
 20
34.38157899999998
 30
0.0
 40
12.0
  0
CIRCLE
  5
171
330
1E
100
AcDbEntity
  8
CSLAYER1
  6
CONTINUOUS
 62
     3
100
AcDbCircle
 10
142.089474
 20
34.38157899999998
 30
0.0
 40
4.049999999999998
  0
LINE
  5
172
330
1E
100
AcDbEntity
  8
CSLAYER1
  6
CENTER
 62
     4
100
AcDbLine
 10
156.651778
 20
34.38157899999998
 30
0.0
 11
91.54519099999999
 21
34.38157899999998
 31
0.0
  0
LINE
  5
173
330
1E
100
AcDbEntity
  8
CSLAYER1
  6
CENTER
 62
     4
100
AcDbLine
 10
142.089474
 20
4.781578999999998
 30
0.0
 11
142.089474
 21
66.78157900000001
 31
0.0
  0
LINE
  5
174
330
1E
100
AcDbEntity
  8
CSLAYER1
  6
CENTER
 62
     4
100
AcDbLine
 10
69.50720600000001
 20
34.38157899999998
 30
0.0
 11
36.892895
 21
34.38157899999998
 31
0.0
  0
LINE
  5
175
330
1E
100
AcDbEntity
  8
CSLAYER1
  6
CONTINUOUS
 62
     3
100
AcDbLine
 10
64.037914
 20
64.881579
 30
0.0
 11
64.037914
 21
59.081579
 31
0.0
  0
LINE
  5
176
330
1E
100
AcDbEntity
  8
CSLAYER1
  6
CONTINUOUS
 62
     3
100
AcDbLine
 10
64.037914
 20
3.881578999999998
 30
0.0
 11
64.037914
 21
9.681578999999999
 31
0.0
  0
ARC
  5
177
330
1E
100
AcDbEntity
  8
CSLAYER1
  6
CONTINUOUS
 62
     3
100
AcDbCircle
 10
118.089961
 20
34.534534
 30
0.0
 40
3.0
100
AcDbArc
 50
275.6140009999999
 51
359.6348439999998
  0
LINE
  5
178
330
1E
100
AcDbEntity
  8
CSLAYER1
  6
CONTINUOUS
 62
     3
100
AcDbLine
 10
118.3834389999999
 20
31.548924
 30
0.0
 11
111.8482619999999
 21
30.906532
 31
0.0
  0
LINE
  5
179
330
1E
100
AcDbEntity
  8
CSLAYER1
  6
CONTINUOUS
 62
     3
100
AcDbLine
 10
111.8482619999999
 20
30.906532
 30
0.0
 11
111.7993489999999
 21
31.404133
 31
0.0
  0
ARC
  5
17A
330
1E
100
AcDbEntity
  8
CSLAYER1
  6
CONTINUOUS
 62
     3
100
AcDbCircle
 10
123.295375
 20
41.577541
 30
0.0
 40
35.0
100
AcDbArc
 50
222.483898
 51
275.6140009999999
  0
LINE
  5
17B
330
1E
100
AcDbEntity
  8
CSLAYER1
  6
CONTINUOUS
 62
     3
100
AcDbLine
 10
97.484025
 20
17.939137
 30
0.0
 11
96.31011200000001
 21
29.881579
 31
0.0
  0
LINE
  5
17C
330
1E
100
AcDbEntity
  8
CSLAYER1
  6
CONTINUOUS
 62
     3
100
AcDbLine
 10
117.1763399999999
 20
31.430269
 30
0.0
 11
107.873415
 21
17.836565
 31
0.0
  0
ARC
  5
17D
330
1E
100
AcDbEntity
  8
CSLAYER1
  6
CONTINUOUS
 62
     3
100
AcDbCircle
 10
107.0481629999999
 20
18.40132999999998
 30
0.0
 40
1.0
100
AcDbArc
 50
240.6140009999999
 51
325.6140009999998
  0
LINE
  5
17E
330
1E
100
AcDbEntity
  8
CSLAYER1
  6
CONTINUOUS
 62
     3
100
AcDbLine
 10
106.557472
 20
17.529997
 30
0.0
 11
96.994894
 21
22.915154
 31
0.0
  0
LINE
  5
17F
330
1E
100
AcDbEntity
  8
CSLAYER1
  6
CONTINUOUS
 62
     3
100
AcDbLine
 10
96.31011200000001
 20
29.881579
 30
0.0
 11
111.7993489999999
 21
31.404133
 31
0.0
  0
LINE
  5
180
330
1E
100
AcDbEntity
  8
CSLAYER1
  6
CONTINUOUS
 62
     3
100
AcDbLine
 10
126.7192879999999
 20
6.745417999999999
 30
0.0
 11
135.582771
 21
7.616677
 31
0.0
  0
ARC
  5
181
330
1E
100
AcDbEntity
  8
CSLAYER1
  6
CONTINUOUS
 62
     3
100
AcDbCircle
 10
131.6697279999999
 20
47.424818
 30
0.0
 40
40.0
100
AcDbArc
 50
275.6140009999999
 51
301.2304049999999
  0
DIMENSION
  5
182
330
1E
100
AcDbEntity
  8
CSLAYER1
 62
     4
100
AcDbDimension
  2
*D13
 10
85.57210899999999
 20
38.88157899999999
 30
0.0
 11
85.07211299999999
 21
34.38158
 31
0.0
 70
     1
100
AcDbAlignedDimension
 13
96.31011200000001
 23
29.881579
 33
0.0
 14
96.31011200000001
 24
38.88157899999999
 34
0.0
  0
LINE
  5
183
330
1E
100
AcDbEntity
  8
CSLAYER1
  6
DOT
 62
     3
100
AcDbLine
 10
4.0
 20
1.0
 30
0.0
 11
283.0
 21
1.0
 31
0.0
  0
LINE
  5
184
330
1E
100
AcDbEntity
  8
CSLAYER1
  6
DOT
 62
     3
100
AcDbLine
 10
283.0
 20
1.0
 30
0.0
 11
283.0
 21
195.0
 31
0.0
  0
LINE
  5
185
330
1E
100
AcDbEntity
  8
CSLAYER1
  6
DOT
 62
     3
100
AcDbLine
 10
283.0
 20
195.0
 30
0.0
 11
4.0
 21
195.0
 31
0.0
  0
LINE
  5
186
330
1E
100
AcDbEntity
  8
CSLAYER1
  6
DOT
 62
     3
100
AcDbLine
 10
4.0
 20
195.0
 30
0.0
 11
4.0
 21
1.0
 31
0.0
  0
LINE
  5
187
330
1E
100
AcDbEntity
  8
CSLAYER1
  6
DOT
 62
     3
100
AcDbLine
 10
143.5
 20
195.0
 30
0.0
 11
143.5
 21
199.0
 31
0.0
  0
LINE
  5
188
330
1E
100
AcDbEntity
  8
CSLAYER1
  6
DOT
 62
     3
100
AcDbLine
 10
4.0
 20
98.0
 30
0.0
 11
0.0
 21
98.0
 31
0.0
  0
ENDSEC
  0
SECTION
  2
OBJECTS
  0
DICTIONARY
  5
C
330
0
100
AcDbDictionary
  3
ACAD_GROUP
350
D
  3
ACAD_LAYOUT
350
19
  3
ACAD_MLINESTYLE
350
16
  3
ACAD_PLOTSETTINGS
350
18
1001
ACAD
1000
TREAT_AS_HARD
1070
     0
1000
TREAT_AS_HARD
1070
     0
  0
DICTIONARY
  5
192
330
1E
100
AcDbDictionary
  3
ACAD_LAYOUTSELFREF
350
1CC
1001
ACAD
1000
TREAT_AS_HARD
1070
     0
  0
DICTIONARY
  5
190
330
1A
100
AcDbDictionary
  3
ACAD_LAYOUTSELFREF
350
1CB
1001
ACAD
1000
TREAT_AS_HARD
1070
     0
  0
DICTIONARY
  5
D
102
{ACAD_REACTORS
330
C
102
}
330
C
100
AcDbDictionary
1001
ACAD
1000
TREAT_AS_HARD
1070
     0
1000
TREAT_AS_HARD
1070
     0
  0
DICTIONARY
  5
19
102
{ACAD_REACTORS
330
C
102
}
330
C
100
AcDbDictionary
1001
ACAD
1000
TREAT_AS_HARD
1070
     0
1000
TREAT_AS_HARD
1070
     0
  0
DICTIONARY
  5
16
102
{ACAD_REACTORS
330
C
102
}
330
C
100
AcDbDictionary
  3
STANDARD
350
17
1001
ACAD
1000
TREAT_AS_HARD
1070
     0
1000
TREAT_AS_HARD
1070
     0
  0
DICTIONARY
  5
18
102
{ACAD_REACTORS
330
C
102
}
330
C
100
AcDbDictionary
1001
ACAD
1000
TREAT_AS_HARD
1070
     0
1000
TREAT_AS_HARD
1070
     0
  0
XRECORD
  5
1CC
102
{ACAD_REACTORS
330
192
102
}
330
192
100
AcDbXrecord
340
1E
  0
XRECORD
  5
1CB
102
{ACAD_REACTORS
330
190
102
}
330
190
100
AcDbXrecord
340
1A
  0
MLINESTYLE
  5
17
102
{ACAD_REACTORS
330
16
102
}
330
16
100
AcDbMlineStyle
  2
STANDARD
 70
     0
  3

 62
   256
 51
90.0
 52
90.0
 71
     2
 49
0.5
 62
   256
  6
BYLAYER
 49
-0.5
 62
   256
  6
BYLAYER
  0
ENDSEC
  0
EOF
