  0
SECTION
  2
HEADER
  9
$ACADVER
  1
AC1012
  9
$DWGCODEPAGE
  3
dos932
  9
$INSBASE
 10
0.0
 20
0.0
 30
0.0
  9
$EXTMIN
 10
-0.0090630292066862
 20
0.9869389666558276
 30
-0.0015258207003583
  9
$EXTMAX
 10
287.0163123253922
 20
195.010071272275
 30
0.0000000349246037
  9
$LIMMIN
 10
0.0
 20
0.0
  9
$LIMMAX
 10
297.0
 20
210.0
  9
$ORTHOMODE
 70
     0
  9
$REGENMODE
 70
     1
  9
$FILLMODE
 70
     1
  9
$QTEXTMODE
 70
     0
  9
$MIRRTEXT
 70
     1
  9
$DRAGMODE
 70
     2
  9
$LTSCALE
 40
15.0
  9
$OSMODE
 70
    37
  9
$ATTMODE
 70
     1
  9
$TEXTSIZE
 40
0.2
  9
$TRACEWID
 40
0.05
  9
$TEXTSTYLE
  7
GOTHIC
  9
$CLAYER
  8
CSLAYER1
  9
$CELTYPE
  6
BYLAYER
  9
$CECOLOR
 62
   256
  9
$CELTSCALE
 40
1.0
  9
$DELOBJ
 70
     1
  9
$DISPSILH
 70
     0
  9
$DIMSCALE
 40
1.0
  9
$DIMASZ
 40
0.18
  9
$DIMEXO
 40
0.0625
  9
$DIMDLI
 40
0.38
  9
$DIMRND
 40
0.0
  9
$DIMDLE
 40
0.0
  9
$DIMEXE
 40
0.18
  9
$DIMTP
 40
0.0
  9
$DIMTM
 40
0.0
  9
$DIMTXT
 40
0.18
  9
$DIMCEN
 40
0.09
  9
$DIMTSZ
 40
0.0
  9
$DIMTOL
 70
     0
  9
$DIMLIM
 70
     0
  9
$DIMTIH
 70
     1
  9
$DIMTOH
 70
     1
  9
$DIMSE1
 70
     0
  9
$DIMSE2
 70
     0
  9
$DIMTAD
 70
     0
  9
$DIMZIN
 70
     0
  9
$DIMBLK
  1

  9
$DIMASO
 70
     1
  9
$DIMSHO
 70
     1
  9
$DIMPOST
  1

  9
$DIMAPOST
  1

  9
$DIMALT
 70
     0
  9
$DIMALTD
 70
     2
  9
$DIMALTF
 40
25.4
  9
$DIMLFAC
 40
1.0
  9
$DIMTOFL
 70
     0
  9
$DIMTVP
 40
0.0
  9
$DIMTIX
 70
     0
  9
$DIMSOXD
 70
     0
  9
$DIMSAH
 70
     0
  9
$DIMBLK1
  1

  9
$DIMBLK2
  1

  9
$DIMSTYLE
  2
STANDARD
  9
$DIMCLRD
 70
     0
  9
$DIMCLRE
 70
     0
  9
$DIMCLRT
 70
     0
  9
$DIMTFAC
 40
1.0
  9
$DIMGAP
 40
0.09
  9
$DIMJUST
 70
     0
  9
$DIMSD1
 70
     0
  9
$DIMSD2
 70
     0
  9
$DIMTOLJ
 70
     1
  9
$DIMTZIN
 70
     0
  9
$DIMALTZ
 70
     0
  9
$DIMALTTZ
 70
     0
  9
$DIMFIT
 70
     3
  9
$DIMUPT
 70
     0
  9
$DIMUNIT
 70
     2
  9
$DIMDEC
 70
     4
  9
$DIMTDEC
 70
     4
  9
$DIMALTU
 70
     2
  9
$DIMALTTD
 70
     2
  9
$DIMTXSTY
  7
STANDARD
  9
$DIMAUNIT
 70
     0
  9
$LUNITS
 70
     2
  9
$LUPREC
 70
     4
  9
$SKETCHINC
 40
0.1
  9
$FILLETRAD
 40
0.0
  9
$AUNITS
 70
     0
  9
$AUPREC
 70
     0
  9
$MENU
  1
ACAD
  9
$ELEVATION
 40
0.0
  9
$PELEVATION
 40
0.0
  9
$THICKNESS
 40
0.0
  9
$LIMCHECK
 70
     0
  9
$BLIPMODE
 70
     1
  9
$CHAMFERA
 40
0.0
  9
$CHAMFERB
 40
0.0
  9
$CHAMFERC
 40
0.0
  9
$CHAMFERD
 40
0.0
  9
$SKPOLY
 70
     0
  9
$TDCREATE
 40
2453482.000000000
  9
$TDUPDATE
 40
2453516.574028275
  9
$TDINDWG
 40
0.0002328588
  9
$TDUSRTIMER
 40
0.0002328588
  9
$USRTIMER
 70
     1
  9
$ANGBASE
 50
0.0
  9
$ANGDIR
 70
     0
  9
$PDMODE
 70
     0
  9
$PDSIZE
 40
0.0
  9
$PLINEWID
 40
0.0
  9
$COORDS
 70
     0
  9
$SPLFRAME
 70
     0
  9
$SPLINETYPE
 70
     6
  9
$SPLINESEGS
 70
     8
  9
$ATTDIA
 70
     0
  9
$ATTREQ
 70
     1
  9
$HANDLING
 70
-16383
  9
$HANDSEED
  5
1A0
  9
$SURFTAB1
 70
     6
  9
$SURFTAB2
 70
     6
  9
$SURFTYPE
 70
     6
  9
$SURFU
 70
     6
  9
$SURFV
 70
     6
  9
$UCSNAME
  2

  9
$UCSORG
 10
0.0
 20
0.0
 30
0.0
  9
$UCSXDIR
 10
1.0
 20
0.0
 30
0.0
  9
$UCSYDIR
 10
0.0
 20
1.0
 30
0.0
  9
$PUCSNAME
  2

  9
$PUCSORG
 10
0.0
 20
0.0
 30
0.0
  9
$PUCSXDIR
 10
1.0
 20
0.0
 30
0.0
  9
$PUCSYDIR
 10
0.0
 20
1.0
 30
0.0
  9
$USERI1
 70
     0
  9
$USERI2
 70
     0
  9
$USERI3
 70
     0
  9
$USERI4
 70
     0
  9
$USERI5
 70
     0
  9
$USERR1
 40
0.0
  9
$USERR2
 40
0.0
  9
$USERR3
 40
0.0
  9
$USERR4
 40
0.0
  9
$USERR5
 40
0.0
  9
$WORLDVIEW
 70
     1
  9
$SHADEDGE
 70
     3
  9
$SHADEDIF
 70
    70
  9
$TILEMODE
 70
     1
  9
$MAXACTVP
 70
    64
  9
$PINSBASE
 10
0.0
 20
0.0
 30
0.0
  9
$PLIMCHECK
 70
     0
  9
$PEXTMIN
 10
1.000000000000000E+20
 20
1.000000000000000E+20
 30
1.000000000000000E+20
  9
$PEXTMAX
 10
-1.000000000000000E+20
 20
-1.000000000000000E+20
 30
-1.000000000000000E+20
  9
$PLIMMIN
 10
0.0
 20
0.0
  9
$PLIMMAX
 10
12.0
 20
9.0
  9
$UNITMODE
 70
     0
  9
$VISRETAIN
 70
     1
  9
$PLINEGEN
 70
     0
  9
$PSLTSCALE
 70
     1
  9
$TREEDEPTH
 70
  3020
  9
$PICKSTYLE
 70
     3
  9
$CMLSTYLE
  2
STANDARD
  9
$CMLJUST
 70
     0
  9
$CMLSCALE
 40
1.0
  9
$SAVEIMAGES
 70
     1
  0
ENDSEC
  0
SECTION
  2
CLASSES
  0
CLASS
  1
ACDBDICTIONARYWDFLT
  2
AcDbDictionaryWithDefault
  3
AutoCAD 2000
 90
    32768
280
     0
281
     0
  0
CLASS
  1
ACDBPLACEHOLDER
  2
AcDbPlaceHolder
  3
AutoCAD 2000
 90
    32768
280
     0
281
     0
  0
CLASS
  1
LAYOUT
  2
AcDbLayout
  3
AutoCAD 2000
 90
    32768
280
     0
281
     0
  0
CLASS
  1
DICTIONARYVAR
  2
AcDbDictionaryVar
  3
AutoCAD 2000
 90
    32768
280
     0
281
     0
  0
CLASS
  1
LONG_TRANSACTION
  2
AcDbLongTransaction
  3
AutoCAD 2000
 90
    32768
280
     0
281
     0
  0
CLASS
  1
LWPOLYLINE
  2
AcDbPolyline
  3
AutoCAD 2000
 90
    32768
280
     0
281
     1
  0
CLASS
  1
HATCH
  2
AcDbHatch
  3
AutoCAD 2000
 90
    32768
280
     0
281
     1
  0
CLASS
  1
XRECORD
  2
AcDbXrecord
  3
AutoCAD 2000
 90
    32768
280
     0
281
     0
  0
CLASS
  1
LONG_TRANSACTION
  2
AcDbLongTransaction
  3
AutoCAD 2000
 90
    32768
280
     0
281
     0
  0
CLASS
  1
LWPOLYLINE
  2
AcDbPolyline
  3
AutoCAD 2000
 90
    32768
280
     0
281
     1
  0
CLASS
  1
HATCH
  2
AcDbHatch
  3
AutoCAD 2000
 90
    32768
280
     0
281
     1
  0
CLASS
  1
XRECORD
  2
AcDbXrecord
  3
AutoCAD 2000
 90
    32768
280
     0
281
     0
  0
ENDSEC
  0
SECTION
  2
TABLES
  0
TABLE
  2
VPORT
  5
8
330
0
100
AcDbSymbolTable
 70
     2
  0
VPORT
  5
19D
330
8
100
AcDbSymbolTableRecord
100
AcDbViewportTableRecord
  2
*ACTIVE
 70
     0
 10
0.0
 20
0.0
 11
1.0
 21
1.0
 12
143.5036246480928
 22
97.99850511946541
 13
0.0
 23
0.0
 14
1.0
 24
1.0
 15
0.0
 25
0.0
 16
0.0
 26
0.0
 36
1.0
 17
0.0
 27
0.0
 37
0.0
 40
195.4801270413309
 41
1.510025062656641
 42
50.0
 43
0.0
 44
0.0
 50
0.0
 51
0.0
 71
     0
 72
   100
 73
     1
 74
     1
 75
     0
 76
     0
 77
     0
 78
     0
  0
ENDTAB
  0
TABLE
  2
LTYPE
  5
5
330
0
100
AcDbSymbolTable
 70
     4
  0
LTYPE
  5
13
330
5
100
AcDbSymbolTableRecord
100
AcDbLinetypeTableRecord
  2
BYBLOCK
 70
     0
  3

 72
    65
 73
     0
 40
0.0
  0
LTYPE
  5
14
330
5
100
AcDbSymbolTableRecord
100
AcDbLinetypeTableRecord
  2
BYLAYER
 70
     0
  3

 72
    65
 73
     0
 40
0.0
  0
LTYPE
  5
15
330
5
100
AcDbSymbolTableRecord
100
AcDbLinetypeTableRecord
  2
CONTINUOUS
 70
     0
  3
Solid line
 72
    65
 73
     0
 40
0.0
  0
LTYPE
  5
23
330
5
100
AcDbSymbolTableRecord
100
AcDbLinetypeTableRecord
  2
DASHED
 70
     0
  3
__ __ __ __ __ __ __ __ __ __ __ __ __ __ __
 72
    65
 73
     2
 40
0.75
 49
0.5
 74
     0
 49
-0.25
 74
     0
  0
LTYPE
  5
25
330
5
100
AcDbSymbolTableRecord
100
AcDbLinetypeTableRecord
  2
DOT
 70
     0
  3
...............................................
 72
    65
 73
     2
 40
0.25
 49
0.0
 74
     0
 49
-0.25
 74
     0
  0
LTYPE
  5
28
330
5
100
AcDbSymbolTableRecord
100
AcDbLinetypeTableRecord
  2
CENTER
 70
     0
  3
____ _ ____ _ ____ _ ____ _ ____ _ ____ _ ____ 
 72
    65
 73
     4
 40
2.0
 49
1.25
 74
     0
 49
-0.25
 74
     0
 49
0.25
 74
     0
 49
-0.25
 74
     0
  0
ENDTAB
  0
TABLE
  2
LAYER
  5
2
330
0
100
AcDbSymbolTable
 70
     3
  0
LAYER
  5
10
330
2
100
AcDbSymbolTableRecord
100
AcDbLayerTableRecord
  2
0
 70
     0
 62
     7
  6
CONTINUOUS
  0
LAYER
  5
22
330
2
100
AcDbSymbolTableRecord
100
AcDbLayerTableRecord
  2
CSLAYER1
 70
     0
 62
     7
  6
CONTINUOUS
  0
LAYER
  5
182
330
2
100
AcDbSymbolTableRecord
100
AcDbLayerTableRecord
  2
DEFPOINTS
 70
     0
 62
     7
  6
CONTINUOUS
  0
ENDTAB
  0
TABLE
  2
STYLE
  5
3
330
0
100
AcDbSymbolTable
 70
     3
  0
STYLE
  5
11
330
3
100
AcDbSymbolTableRecord
100
AcDbTextStyleTableRecord
  2
STANDARD
 70
     0
 40
0.0
 41
1.0
 50
0.0
 71
     0
 42
0.2
  3
txt
  4
extfont.shx
  0
STYLE
  5
3A
330
3
100
AcDbSymbolTableRecord
100
AcDbTextStyleTableRecord
  2
FX_FONT
 70
     0
 40
1.0
 41
1.0
 50
0.0
 71
     0
 42
1.0
  3
monotxt
  4
bigfont
  0
STYLE
  5
17A
330
3
100
AcDbSymbolTableRecord
100
AcDbTextStyleTableRecord
  2
GOTHIC
 70
     0
 40
0.0
 41
1.0
 50
0.0
 71
     0
 42
0.2
  3
txt.shx
  4
extfont.shx
  0
ENDTAB
  0
TABLE
  2
VIEW
  5
6
330
0
100
AcDbSymbolTable
 70
     0
  0
ENDTAB
  0
TABLE
  2
UCS
  5
7
330
0
100
AcDbSymbolTable
 70
     0
  0
ENDTAB
  0
TABLE
  2
APPID
  5
9
330
0
100
AcDbSymbolTable
 70
     1
  0
APPID
  5
12
330
9
100
AcDbSymbolTableRecord
100
AcDbRegAppTableRecord
  2
ACAD
 70
     0
  0
ENDTAB
  0
TABLE
  2
DIMSTYLE
  5
A
330
0
100
AcDbSymbolTable
 70
     1
  0
DIMSTYLE
105
177
330
A
100
AcDbSymbolTableRecord
100
AcDbDimStyleTableRecord
  2
STANDARD
 70
     0
  3

  4

  5

  6

  7

 40
1.0
 41
0.18
 42
0.0625
 43
0.38
 44
0.18
 45
0.0
 46
0.0
 47
0.0
 48
0.0
140
0.18
141
0.09
142
0.0
143
25.4
144
1.0
145
0.0
146
1.0
147
0.09
 71
     0
 72
     0
 73
     1
 74
     1
 75
     0
 76
     0
 77
     0
 78
     0
170
     0
171
     2
172
     0
173
     0
174
     0
175
     0
176
     0
177
     0
178
     0
270
     2
271
     4
272
     4
273
     2
274
     2
340
11
275
     0
280
     0
281
     0
282
     0
283
     1
284
     0
285
     0
286
     0
287
     3
288
     0
  0
ENDTAB
  0
TABLE
  2
BLOCK_RECORD
  5
1
330
0
100
AcDbSymbolTable
 70
    14
  0
BLOCK_RECORD
  5
1E
102
{ACAD_XDICTIONARY
360
180
102
}
330
1
100
AcDbSymbolTableRecord
100
AcDbBlockTableRecord
  2
*MODEL_SPACE
  0
BLOCK_RECORD
  5
1A
102
{ACAD_XDICTIONARY
360
17E
102
}
330
1
100
AcDbSymbolTableRecord
100
AcDbBlockTableRecord
  2
*PAPER_SPACE
  0
BLOCK_RECORD
  5
3F
330
1
100
AcDbSymbolTableRecord
100
AcDbBlockTableRecord
  2
*D0
  0
BLOCK_RECORD
  5
4A
330
1
100
AcDbSymbolTableRecord
100
AcDbBlockTableRecord
  2
*D1
  0
BLOCK_RECORD
  5
57
330
1
100
AcDbSymbolTableRecord
100
AcDbBlockTableRecord
  2
*D2
  0
BLOCK_RECORD
  5
62
330
1
100
AcDbSymbolTableRecord
100
AcDbBlockTableRecord
  2
*D3
  0
BLOCK_RECORD
  5
69
330
1
100
AcDbSymbolTableRecord
100
AcDbBlockTableRecord
  2
FXDIM0000
  0
BLOCK_RECORD
  5
73
330
1
100
AcDbSymbolTableRecord
100
AcDbBlockTableRecord
  2
FXDIM0001
  0
BLOCK_RECORD
  5
7D
330
1
100
AcDbSymbolTableRecord
100
AcDbBlockTableRecord
  2
*D6
  0
BLOCK_RECORD
  5
88
330
1
100
AcDbSymbolTableRecord
100
AcDbBlockTableRecord
  2
*D7
  0
BLOCK_RECORD
  5
93
330
1
100
AcDbSymbolTableRecord
100
AcDbBlockTableRecord
  2
FXDIM0002
  0
BLOCK_RECORD
  5
9B
330
1
100
AcDbSymbolTableRecord
100
AcDbBlockTableRecord
  2
*D9
  0
BLOCK_RECORD
  5
A2
330
1
100
AcDbSymbolTableRecord
100
AcDbBlockTableRecord
  2
*D10
  0
BLOCK_RECORD
  5
AD
330
1
100
AcDbSymbolTableRecord
100
AcDbBlockTableRecord
  2
*D11
  0
BLOCK_RECORD
  5
B8
330
1
100
AcDbSymbolTableRecord
100
AcDbBlockTableRecord
  2
*D12
  0
BLOCK_RECORD
  5
183
330
1
100
AcDbSymbolTableRecord
100
AcDbBlockTableRecord
  2
*D13
  0
ENDTAB
  0
ENDSEC
  0
SECTION
  2
BLOCKS
  0
BLOCK
  5
1F
330
1E
100
AcDbEntity
  8
0
100
AcDbBlockBegin
  2
*MODEL_SPACE
 70
     0
 10
0.0
 20
0.0
 30
0.0
  3
*MODEL_SPACE
  1

  0
ENDBLK
  5
20
330
1E
100
AcDbEntity
  8
0
100
AcDbBlockEnd
  0
BLOCK
  5
1B
330
1A
100
AcDbEntity
 67
     1
  8
0
100
AcDbBlockBegin
  2
*PAPER_SPACE
 70
     0
 10
0.0
 20
0.0
 30
0.0
  3
*PAPER_SPACE
  1

  0
ENDBLK
  5
1C
330
1A
100
AcDbEntity
 67
     1
  8
0
100
AcDbBlockEnd
  0
BLOCK
  5
40
330
3F
100
AcDbEntity
  8
0
100
AcDbBlockBegin
  2
*D0
 70
     1
 10
0.0
 20
0.0
 30
0.0
  3
*D0
  1

  0
TEXT
  5
41
330
3F
100
AcDbEntity
  8
CSLAYER1
 62
     4
100
AcDbText
 10
71.734871
 20
143.125
 30
0.0
 40
3.2
  1
52~53
 50
90.0
 41
1.071428571428571
 51
15.0
  7
FX_FONT
 72
     5
 11
71.734871
 21
159.125
 31
0.0
100
AcDbText
  0
LINE
  5
42
330
3F
100
AcDbEntity
  8
CSLAYER1
  6
CONTINUOUS
 62
     4
100
AcDbLine
 10
122.457937
 20
125.1249999999999
 30
0.0
 11
71.23486800000002
 21
125.1249999999999
 31
0.0
  0
LINE
  5
43
330
3F
100
AcDbEntity
  8
CSLAYER1
  6
CONTINUOUS
 62
     4
100
AcDbLine
 10
122.457937
 20
177.125
 30
0.0
 11
71.23486800000002
 21
177.125
 31
0.0
  0
LINE
  5
44
330
3F
100
AcDbEntity
  8
CSLAYER1
  6
CONTINUOUS
 62
     4
100
AcDbLine
 10
72.234868
 20
125.1249999999999
 30
0.0
 11
72.234868
 21
177.125
 31
0.0
  0
LINE
  5
45
330
3F
100
AcDbEntity
  8
CSLAYER1
  6
CONTINUOUS
 62
     4
100
AcDbLine
 10
72.234868
 20
125.1249999999999
 30
0.0
 11
71.458411
 21
128.0227769999999
 31
0.0
  0
LINE
  5
46
330
3F
100
AcDbEntity
  8
CSLAYER1
  6
CONTINUOUS
 62
     4
100
AcDbLine
 10
72.234868
 20
125.1249999999999
 30
0.0
 11
73.01132599999998
 21
128.0227769999999
 31
0.0
  0
LINE
  5
47
330
3F
100
AcDbEntity
  8
CSLAYER1
  6
CONTINUOUS
 62
     4
100
AcDbLine
 10
72.234868
 20
177.125
 30
0.0
 11
71.458411
 21
174.227223
 31
0.0
  0
LINE
  5
48
330
3F
100
AcDbEntity
  8
CSLAYER1
  6
CONTINUOUS
 62
     4
100
AcDbLine
 10
72.234868
 20
177.125
 30
0.0
 11
73.01132599999998
 21
174.227223
 31
0.0
  0
ENDBLK
  5
49
330
3F
100
AcDbEntity
  8
0
100
AcDbBlockEnd
  0
BLOCK
  5
4B
330
4A
100
AcDbEntity
  8
0
100
AcDbBlockBegin
  2
*D1
 70
     1
 10
0.0
 20
0.0
 30
0.0
  3
*D1
  1

  0
TEXT
  5
4C
330
4A
100
AcDbEntity
  8
CSLAYER1
 62
     4
100
AcDbText
 10
71.43847700000002
 20
88.01858499999999
 30
0.0
 40
3.2
  1
25   
 50
90.0
 41
1.315789473684211
 51
15.0
  7
FX_FONT
 72
     5
 11
71.43847700000002
 21
104.018585
 31
0.0
100
AcDbText
  0
TEXT
  5
4D
330
4A
100
AcDbEntity
  8
CSLAYER1
 62
     4
100
AcDbText
 10
69.838477
 20
104.018585
 30
0.0
 40
1.6
  1
  0
 50
90.0
 41
1.60714285714286
 51
15.0
  7
FX_FONT
 72
     5
 11
69.838477
 21
108.818585
 31
0.0
100
AcDbText
  0
TEXT
  5
4E
330
4A
100
AcDbEntity
  8
CSLAYER1
 62
     4
100
AcDbText
 10
71.43847700000002
 20
104.018585
 30
0.0
 40
1.6
  1
-0.15
 50
90.0
 41
1.071428571428573
 51
15.0
  7
FX_FONT
 72
     5
 11
71.43847700000002
 21
112.018585
 31
0.0
100
AcDbText
  0
LINE
  5
4F
330
4A
100
AcDbEntity
  8
CSLAYER1
  6
CONTINUOUS
 62
     4
100
AcDbLine
 10
121.634868
 20
78.219559
 30
0.0
 11
70.93847700000002
 21
78.219559
 31
0.0
  0
LINE
  5
50
330
4A
100
AcDbEntity
  8
CSLAYER1
  6
CONTINUOUS
 62
     4
100
AcDbLine
 10
121.634868
 20
103.219559
 30
0.0
 11
70.93847700000002
 21
103.219559
 31
0.0
  0
LINE
  5
51
330
4A
100
AcDbEntity
  8
CSLAYER1
  6
CONTINUOUS
 62
     4
100
AcDbLine
 10
71.938477
 20
78.219559
 30
0.0
 11
71.938477
 21
103.219559
 31
0.0
  0
LINE
  5
52
330
4A
100
AcDbEntity
  8
CSLAYER1
  6
CONTINUOUS
 62
     4
100
AcDbLine
 10
71.938477
 20
78.219559
 30
0.0
 11
71.16202
 21
81.117337
 31
0.0
  0
LINE
  5
53
330
4A
100
AcDbEntity
  8
CSLAYER1
  6
CONTINUOUS
 62
     4
100
AcDbLine
 10
71.938477
 20
78.219559
 30
0.0
 11
72.714934
 21
81.117337
 31
0.0
  0
LINE
  5
54
330
4A
100
AcDbEntity
  8
CSLAYER1
  6
CONTINUOUS
 62
     4
100
AcDbLine
 10
71.938477
 20
103.219559
 30
0.0
 11
71.16202
 21
100.3217819999999
 31
0.0
  0
LINE
  5
55
330
4A
100
AcDbEntity
  8
CSLAYER1
  6
CONTINUOUS
 62
     4
100
AcDbLine
 10
71.938477
 20
103.219559
 30
0.0
 11
72.714934
 21
100.3217819999999
 31
0.0
  0
ENDBLK
  5
56
330
4A
100
AcDbEntity
  8
0
100
AcDbBlockEnd
  0
BLOCK
  5
58
330
57
100
AcDbEntity
  8
0
100
AcDbBlockBegin
  2
*D2
 70
     1
 10
0.0
 20
0.0
 30
0.0
  3
*D2
  1

  0
TEXT
  5
59
330
57
100
AcDbEntity
  8
CSLAYER1
 62
     4
100
AcDbText
 10
77.438484
 20
87.519559
 30
0.0
 40
3.2
  1
10
 50
90.0
 41
1.200000000000001
 51
15.0
  7
FX_FONT
 72
     5
 11
77.438484
 21
93.91955900000001
 31
0.0
100
AcDbText
  0
LINE
  5
5A
330
57
100
AcDbEntity
  8
CSLAYER1
  6
CONTINUOUS
 62
     4
100
AcDbLine
 10
92.828598
 20
85.719559
 30
0.0
 11
76.938477
 21
85.719559
 31
0.0
  0
LINE
  5
5B
330
57
100
AcDbEntity
  8
CSLAYER1
  6
CONTINUOUS
 62
     4
100
AcDbLine
 10
92.828598
 20
95.719559
 30
0.0
 11
76.938477
 21
95.719559
 31
0.0
  0
LINE
  5
5C
330
57
100
AcDbEntity
  8
CSLAYER1
  6
CONTINUOUS
 62
     4
100
AcDbLine
 10
77.938477
 20
85.719559
 30
0.0
 11
77.938477
 21
95.719559
 31
0.0
  0
LINE
  5
5D
330
57
100
AcDbEntity
  8
CSLAYER1
  6
CONTINUOUS
 62
     4
100
AcDbLine
 10
77.938477
 20
85.719559
 30
0.0
 11
77.16202
 21
88.617337
 31
0.0
  0
LINE
  5
5E
330
57
100
AcDbEntity
  8
CSLAYER1
  6
CONTINUOUS
 62
     4
100
AcDbLine
 10
77.938477
 20
85.719559
 30
0.0
 11
78.714934
 21
88.617337
 31
0.0
  0
LINE
  5
5F
330
57
100
AcDbEntity
  8
CSLAYER1
  6
CONTINUOUS
 62
     4
100
AcDbLine
 10
77.938477
 20
95.719559
 30
0.0
 11
77.16202
 21
92.821782
 31
0.0
  0
LINE
  5
60
330
57
100
AcDbEntity
  8
CSLAYER1
  6
CONTINUOUS
 62
     4
100
AcDbLine
 10
77.938477
 20
95.719559
 30
0.0
 11
78.714934
 21
92.821782
 31
0.0
  0
ENDBLK
  5
61
330
57
100
AcDbEntity
  8
0
100
AcDbBlockEnd
  0
BLOCK
  5
63
330
62
100
AcDbEntity
  8
0
100
AcDbBlockBegin
  2
*D3
 70
     1
 10
0.0
 20
0.0
 30
0.0
  3
*D3
  1

  0
TEXT
  5
64
330
62
100
AcDbEntity
  8
CSLAYER1
 62
     4
100
AcDbText
 10
49.679818
 20
145.072035
 30
0.0
 40
3.2
  1
R15
 50
31.78052923350272
 41
1.125000068913138
 51
15.0
  7
FX_FONT
 72
     5
 11
57.84050699999998
 21
150.1280379999999
 31
0.0
100
AcDbText
  0
LINE
  5
65
330
62
100
AcDbEntity
  8
CSLAYER1
  6
CONTINUOUS
 62
     4
100
AcDbLine
 10
47.64796099999998
 20
143.2249939999999
 30
0.0
 11
60.39903599999998
 21
151.1249999999999
 31
0.0
  0
LINE
  5
66
330
62
100
AcDbEntity
  8
CSLAYER1
  6
CONTINUOUS
 62
     4
100
AcDbLine
 10
47.64796099999998
 20
143.2249939999999
 30
0.0
 11
49.702346
 21
145.4112019999999
 31
0.0
  0
LINE
  5
67
330
62
100
AcDbEntity
  8
CSLAYER1
  6
CONTINUOUS
 62
     4
100
AcDbLine
 10
47.64796099999998
 20
143.2249939999999
 30
0.0
 11
50.520214
 21
144.0911139999998
 31
0.0
  0
ENDBLK
  5
68
330
62
100
AcDbEntity
  8
0
100
AcDbBlockEnd
  0
BLOCK
  5
6A
330
69
100
AcDbEntity
  8
0
100
AcDbBlockBegin
  2
FXDIM0000
 70
     0
 10
0.0
 20
0.0
 30
0.0
  3
FXDIM0000
  1

  0
LINE
  5
6B
330
69
100
AcDbEntity
  8
CSLAYER1
  6
CONTINUOUS
 62
     4
100
AcDbLine
 10
173.0348679999999
 20
103.219559
 30
0.0
 11
174.534868
 21
105.817635
 31
0.0
  0
LINE
  5
6C
330
69
100
AcDbEntity
  8
CSLAYER1
  6
CONTINUOUS
 62
     4
100
AcDbLine
 10
171.5348679999999
 20
105.817635
 30
0.0
 11
180.5348679999999
 21
105.817635
 31
0.0
  0
LINE
  5
6D
330
69
100
AcDbEntity
  8
CSLAYER1
  6
CONTINUOUS
 62
     4
100
AcDbLine
 10
171.5348679999999
 20
105.817635
 30
0.0
 11
173.0348679999999
 21
103.219559
 31
0.0
  0
LINE
  5
6E
330
69
100
AcDbEntity
  8
CSLAYER1
  6
CONTINUOUS
 62
     4
100
AcDbLine
 10
176.0348679999999
 20
103.219559
 30
0.0
 11
177.534868
 21
105.817635
 31
0.0
  0
LINE
  5
6F
330
69
100
AcDbEntity
  8
CSLAYER1
  6
CONTINUOUS
 62
     4
100
AcDbLine
 10
174.534868
 20
105.817635
 30
0.0
 11
176.0348679999999
 21
103.219559
 31
0.0
  0
LINE
  5
70
330
69
100
AcDbEntity
  8
CSLAYER1
  6
CONTINUOUS
 62
     4
100
AcDbLine
 10
179.0348679999999
 20
103.219559
 30
0.0
 11
180.5348679999999
 21
105.817635
 31
0.0
  0
LINE
  5
71
330
69
100
AcDbEntity
  8
CSLAYER1
  6
CONTINUOUS
 62
     4
100
AcDbLine
 10
177.534868
 20
105.817635
 30
0.0
 11
179.0348679999999
 21
103.219559
 31
0.0
  0
ENDBLK
  5
72
330
69
100
AcDbEntity
  8
0
100
AcDbBlockEnd
  0
BLOCK
  5
74
330
73
100
AcDbEntity
  8
0
100
AcDbBlockBegin
  2
FXDIM0001
 70
     0
 10
0.0
 20
0.0
 30
0.0
  3
FXDIM0001
  1

  0
LINE
  5
75
330
73
100
AcDbEntity
  8
CSLAYER1
  6
CONTINUOUS
 62
     4
100
AcDbLine
 10
177.234868
 20
78.219559
 30
0.0
 11
175.7348679999999
 21
75.621483
 31
0.0
  0
LINE
  5
76
330
73
100
AcDbEntity
  8
CSLAYER1
  6
CONTINUOUS
 62
     4
100
AcDbLine
 10
175.7348679999999
 20
75.621483
 30
0.0
 11
184.7348679999999
 21
75.621483
 31
0.0
  0
LINE
  5
77
330
73
100
AcDbEntity
  8
CSLAYER1
  6
CONTINUOUS
 62
     4
100
AcDbLine
 10
178.734868
 20
75.621483
 30
0.0
 11
177.234868
 21
78.219559
 31
0.0
  0
LINE
  5
78
330
73
100
AcDbEntity
  8
CSLAYER1
  6
CONTINUOUS
 62
     4
100
AcDbLine
 10
180.234868
 20
78.219559
 30
0.0
 11
178.734868
 21
75.621483
 31
0.0
  0
LINE
  5
79
330
73
100
AcDbEntity
  8
CSLAYER1
  6
CONTINUOUS
 62
     4
100
AcDbLine
 10
181.734868
 20
75.621483
 30
0.0
 11
180.234868
 21
78.219559
 31
0.0
  0
LINE
  5
7A
330
73
100
AcDbEntity
  8
CSLAYER1
  6
CONTINUOUS
 62
     4
100
AcDbLine
 10
183.234868
 20
78.219559
 30
0.0
 11
181.734868
 21
75.621483
 31
0.0
  0
LINE
  5
7B
330
73
100
AcDbEntity
  8
CSLAYER1
  6
CONTINUOUS
 62
     4
100
AcDbLine
 10
184.7348679999999
 20
75.621483
 30
0.0
 11
183.234868
 21
78.219559
 31
0.0
  0
ENDBLK
  5
7C
330
73
100
AcDbEntity
  8
0
100
AcDbBlockEnd
  0
BLOCK
  5
7E
330
7D
100
AcDbEntity
  8
0
100
AcDbBlockBegin
  2
*D6
 70
     1
 10
0.0
 20
0.0
 30
0.0
  3
*D6
  1

  0
TEXT
  5
7F
330
7D
100
AcDbEntity
  8
CSLAYER1
 62
     4
100
AcDbText
 10
132.934857
 20
112.981979
 30
0.0
 40
3.2
  1
27
 41
1.200000000000001
 51
15.0
  7
FX_FONT
 72
     5
 11
139.334857
 21
112.981979
 31
0.0
100
AcDbText
  0
LINE
  5
80
330
7D
100
AcDbEntity
  8
CSLAYER1
  6
CONTINUOUS
 62
     4
100
AcDbLine
 10
122.634868
 20
112.4819769999999
 30
0.0
 11
149.6348679999998
 21
112.4819769999999
 31
0.0
  0
LINE
  5
81
330
7D
100
AcDbEntity
  8
CSLAYER1
  6
CONTINUOUS
 62
     4
100
AcDbLine
 10
122.634868
 20
112.4819769999999
 30
0.0
 11
125.532646
 21
113.258434
 31
0.0
  0
LINE
  5
82
330
7D
100
AcDbEntity
  8
CSLAYER1
  6
CONTINUOUS
 62
     4
100
AcDbLine
 10
122.634868
 20
112.4819769999999
 30
0.0
 11
125.532646
 21
111.70552
 31
0.0
  0
LINE
  5
83
330
7D
100
AcDbEntity
  8
CSLAYER1
  6
CONTINUOUS
 62
     4
100
AcDbLine
 10
149.6348679999998
 20
112.4819769999999
 30
0.0
 11
146.7370909999999
 21
113.258434
 31
0.0
  0
LINE
  5
84
330
7D
100
AcDbEntity
  8
CSLAYER1
  6
CONTINUOUS
 62
     4
100
AcDbLine
 10
149.6348679999998
 20
112.4819769999999
 30
0.0
 11
146.7370909999999
 21
111.70552
 31
0.0
  0
LINE
  5
85
330
7D
100
AcDbEntity
  8
CSLAYER1
  6
CONTINUOUS
 62
     4
100
AcDbLine
 10
122.634868
 20
104.2195589999999
 30
0.0
 11
122.634868
 21
113.481977
 31
0.0
  0
LINE
  5
86
330
7D
100
AcDbEntity
  8
CSLAYER1
  6
CONTINUOUS
 62
     4
100
AcDbLine
 10
149.6348679999998
 20
110.519559
 30
0.0
 11
149.6348679999998
 21
113.481977
 31
0.0
  0
ENDBLK
  5
87
330
7D
100
AcDbEntity
  8
0
100
AcDbBlockEnd
  0
BLOCK
  5
89
330
88
100
AcDbEntity
  8
0
100
AcDbBlockBegin
  2
*D7
 70
     1
 10
0.0
 20
0.0
 30
0.0
  3
*D7
  1

  0
TEXT
  5
8A
330
88
100
AcDbEntity
  8
CSLAYER1
 62
     4
100
AcDbText
 10
93.434872
 20
68.59758000000001
 30
0.0
 40
3.2
  1
切刃部有効30
 41
0.9130435190217353
 51
15.0
  7
FX_FONT
 72
     5
 11
115.8348729999999
 21
68.59758000000001
 31
0.0
100
AcDbText
  0
LINE
  5
8B
330
88
100
AcDbEntity
  8
CSLAYER1
  6
CONTINUOUS
 62
     4
100
AcDbLine
 10
89.63486800000003
 20
68.097577
 30
0.0
 11
119.634868
 21
68.097577
 31
0.0
  0
LINE
  5
8C
330
88
100
AcDbEntity
  8
CSLAYER1
  6
CONTINUOUS
 62
     4
100
AcDbLine
 10
89.63486800000003
 20
68.097577
 30
0.0
 11
92.53264599999999
 21
68.874034
 31
0.0
  0
LINE
  5
8D
330
88
100
AcDbEntity
  8
CSLAYER1
  6
CONTINUOUS
 62
     4
100
AcDbLine
 10
89.63486800000003
 20
68.097577
 30
0.0
 11
92.53264599999999
 21
67.32111999999999
 31
0.0
  0
LINE
  5
8E
330
88
100
AcDbEntity
  8
CSLAYER1
  6
CONTINUOUS
 62
     4
100
AcDbLine
 10
119.634868
 20
68.097577
 30
0.0
 11
116.737091
 21
68.874034
 31
0.0
  0
LINE
  5
8F
330
88
100
AcDbEntity
  8
CSLAYER1
  6
CONTINUOUS
 62
     4
100
AcDbLine
 10
119.634868
 20
68.097577
 30
0.0
 11
116.737091
 21
67.32111999999999
 31
0.0
  0
LINE
  5
90
330
88
100
AcDbEntity
  8
CSLAYER1
  6
CONTINUOUS
 62
     4
100
AcDbLine
 10
89.63486800000003
 20
85.843266
 30
0.0
 11
89.63486800000003
 21
67.097577
 31
0.0
  0
LINE
  5
91
330
88
100
AcDbEntity
  8
CSLAYER1
  6
CONTINUOUS
 62
     4
100
AcDbLine
 10
119.634868
 20
89.71955900000002
 30
0.0
 11
119.634868
 21
67.097577
 31
0.0
  0
ENDBLK
  5
92
330
88
100
AcDbEntity
  8
0
100
AcDbBlockEnd
  0
BLOCK
  5
94
330
93
100
AcDbEntity
  8
0
100
AcDbBlockBegin
  2
FXDIM0002
 70
     0
 10
0.0
 20
0.0
 30
0.0
  3
FXDIM0002
  1

  0
LINE
  5
95
330
93
100
AcDbEntity
  8
CSLAYER1
  6
CONTINUOUS
 62
     4
100
AcDbLine
 10
148.5866509999999
 20
147.2129999999999
 30
0.0
 11
140.7833939999999
 21
118.090847
 31
0.0
  0
LINE
  5
96
330
93
100
AcDbEntity
  8
CSLAYER1
  6
CONTINUOUS
 62
     4
100
AcDbLine
 10
148.5866509999999
 20
147.2129999999999
 30
0.0
 11
148.5866509999999
 21
144.2129999999998
 31
0.0
  0
LINE
  5
97
330
93
100
AcDbEntity
  8
CSLAYER1
  6
CONTINUOUS
 62
     4
100
AcDbLine
 10
148.5866509999999
 20
147.2129999999999
 30
0.0
 11
147.086651
 21
144.614924
 31
0.0
  0
LINE
  5
98
330
93
100
AcDbEntity
  8
CSLAYER1
  6
CONTINUOUS
 62
     4
100
AcDbLine
 10
140.7833939999999
 20
118.090847
 30
0.0
 11
125.9833939999999
 21
118.090847
 31
0.0
  0
TEXT
  5
99
330
93
100
AcDbEntity
  8
CSLAYER1
 62
     4
100
AcDbText
 10
126.9833919999999
 20
118.5908509999999
 30
0.0
 40
3.2
  1
%%c8.1
 41
1.142857142857142
 51
15.0
  7
FX_FONT
 72
     5
 11
139.7833919999999
 21
118.5908509999999
 31
0.0
100
AcDbText
  0
ENDBLK
  5
9A
330
93
100
AcDbEntity
  8
0
100
AcDbBlockEnd
  0
BLOCK
  5
9C
330
9B
100
AcDbEntity
  8
0
100
AcDbBlockBegin
  2
*D9
 70
     1
 10
0.0
 20
0.0
 30
0.0
  3
*D9
  1

  0
TEXT
  5
9D
330
9B
100
AcDbEntity
  8
CSLAYER1
 62
     4
100
AcDbText
 10
111.0546899999999
 20
130.0579999999999
 30
0.0
 40
3.2
  1
R35
 50
68.46368160596536
 41
1.125000047479614
 51
15.0
  7
FX_FONT
 72
     5
 11
114.578763
 21
138.987777
 31
0.0
100
AcDbText
  0
LINE
  5
9E
330
9B
100
AcDbEntity
  8
CSLAYER1
  6
CONTINUOUS
 62
     4
100
AcDbLine
 10
110.609758
 20
127.5685219999999
 30
0.0
 11
123.457937
 21
160.125
 31
0.0
  0
LINE
  5
9F
330
9B
100
AcDbEntity
  8
CSLAYER1
  6
CONTINUOUS
 62
     4
100
AcDbLine
 10
110.609758
 20
127.5685219999999
 30
0.0
 11
110.951257
 21
130.549021
 31
0.0
  0
LINE
  5
A0
330
9B
100
AcDbEntity
  8
CSLAYER1
  6
CONTINUOUS
 62
     4
100
AcDbLine
 10
110.609758
 20
127.5685219999999
 30
0.0
 11
112.395754
 21
129.9789609999999
 31
0.0
  0
ENDBLK
  5
A1
330
9B
100
AcDbEntity
  8
0
100
AcDbBlockEnd
  0
BLOCK
  5
A3
330
A2
100
AcDbEntity
  8
0
100
AcDbBlockBegin
  2
*D10
 70
     1
 10
0.0
 20
0.0
 30
0.0
  3
*D10
  1

  0
TEXT
  5
A4
330
A2
100
AcDbEntity
  8
CSLAYER1
 62
     4
100
AcDbText
 10
116.434872
 20
182.9002689999999
 30
0.0
 40
3.2
  1
60
 41
1.200000000000001
 51
15.0
  7
FX_FONT
 72
     5
 11
122.834872
 21
182.9002689999999
 31
0.0
100
AcDbText
  0
LINE
  5
A5
330
A2
100
AcDbEntity
  8
CSLAYER1
  6
CONTINUOUS
 62
     4
100
AcDbLine
 10
89.63486800000003
 20
182.400278
 30
0.0
 11
149.6348679999998
 21
182.400278
 31
0.0
  0
LINE
  5
A6
330
A2
100
AcDbEntity
  8
CSLAYER1
  6
CONTINUOUS
 62
     4
100
AcDbLine
 10
89.63486800000003
 20
182.400278
 30
0.0
 11
92.53264599999999
 21
183.1767349999999
 31
0.0
  0
LINE
  5
A7
330
A2
100
AcDbEntity
  8
CSLAYER1
  6
CONTINUOUS
 62
     4
100
AcDbLine
 10
89.63486800000003
 20
182.400278
 30
0.0
 11
92.53264599999999
 21
181.6238209999999
 31
0.0
  0
LINE
  5
A8
330
A2
100
AcDbEntity
  8
CSLAYER1
  6
CONTINUOUS
 62
     4
100
AcDbLine
 10
149.6348679999998
 20
182.400278
 30
0.0
 11
146.7370909999999
 21
183.1767349999999
 31
0.0
  0
LINE
  5
A9
330
A2
100
AcDbEntity
  8
CSLAYER1
  6
CONTINUOUS
 62
     4
100
AcDbLine
 10
149.6348679999998
 20
182.400278
 30
0.0
 11
146.7370909999999
 21
181.6238209999999
 31
0.0
  0
LINE
  5
AA
330
A2
100
AcDbEntity
  8
CSLAYER1
  6
CONTINUOUS
 62
     4
100
AcDbLine
 10
89.63486800000003
 20
152.125
 30
0.0
 11
89.63486800000003
 21
183.400278
 31
0.0
  0
LINE
  5
AB
330
A2
100
AcDbEntity
  8
CSLAYER1
  6
CONTINUOUS
 62
     4
100
AcDbLine
 10
149.6348679999998
 20
179.942605
 30
0.0
 11
149.6348679999998
 21
183.400278
 31
0.0
  0
ENDBLK
  5
AC
330
A2
100
AcDbEntity
  8
0
100
AcDbBlockEnd
  0
BLOCK
  5
AE
330
AD
100
AcDbEntity
  8
0
100
AcDbBlockBegin
  2
*D11
 70
     1
 10
0.0
 20
0.0
 30
0.0
  3
*D11
  1

  0
TEXT
  5
AF
330
AD
100
AcDbEntity
  8
CSLAYER1
 62
     4
100
AcDbText
 10
39.09903299999999
 20
183.7726899999999
 30
0.0
 40
3.2
  1
70%%d
 41
1.285714285714286
 51
15.0
  7
FX_FONT
 72
     5
 11
48.699033
 21
183.7726899999999
 31
0.0
100
AcDbText
  0
ARC
  5
B0
330
AD
100
AcDbEntity
  8
CSLAYER1
  6
CONTINUOUS
 62
     4
100
AcDbCircle
 10
43.89903599999999
 20
151.1249999999999
 30
0.0
 40
32.147684
100
AcDbArc
 50
55.0
 51
125.0
  0
LINE
  5
B1
330
AD
100
AcDbEntity
  8
CSLAYER1
  6
CONTINUOUS
 62
     4
100
AcDbLine
 10
62.33819
 20
177.4588409999999
 30
0.0
 11
59.519112
 21
178.484902
 31
0.0
  0
LINE
  5
B2
330
AD
100
AcDbEntity
  8
CSLAYER1
  6
CONTINUOUS
 62
     4
100
AcDbLine
 10
62.33819
 20
177.4588409999999
 30
0.0
 11
60.409827
 21
179.756975
 31
0.0
  0
LINE
  5
B3
330
AD
100
AcDbEntity
  8
CSLAYER1
  6
CONTINUOUS
 62
     4
100
AcDbLine
 10
25.459882
 20
177.4588409999999
 30
0.0
 11
27.388245
 21
179.756975
 31
0.0
  0
LINE
  5
B4
330
AD
100
AcDbEntity
  8
CSLAYER1
  6
CONTINUOUS
 62
     4
100
AcDbLine
 10
25.459882
 20
177.4588409999999
 30
0.0
 11
28.27895999999999
 21
178.484902
 31
0.0
  0
LINE
  5
B5
330
AD
100
AcDbEntity
  8
CSLAYER1
  6
CONTINUOUS
 62
     4
100
AcDbLine
 10
46.169722
 20
154.3678759999998
 30
0.0
 11
62.91176700000001
 21
178.2779929999999
 31
0.0
  0
LINE
  5
B6
330
AD
100
AcDbEntity
  8
CSLAYER1
  6
CONTINUOUS
 62
     4
100
AcDbLine
 10
41.62835
 20
154.3678759999998
 30
0.0
 11
24.886306
 21
178.2779929999999
 31
0.0
  0
ENDBLK
  5
B7
330
AD
100
AcDbEntity
  8
0
100
AcDbBlockEnd
  0
BLOCK
  5
B9
330
B8
100
AcDbEntity
  8
0
100
AcDbBlockBegin
  2
*D12
 70
     1
 10
0.0
 20
0.0
 30
0.0
  3
*D12
  1

  0
TEXT
  5
BA
330
B8
100
AcDbEntity
  8
CSLAYER1
 62
     4
100
AcDbText
 10
65.40772199999999
 20
32.432751
 30
0.0
 40
3.2
  1
11
 50
90.0
 41
1.333333541666664
 51
15.0
  7
FX_FONT
 72
     5
 11
65.40772199999999
 21
38.83275199999999
 31
0.0
100
AcDbText
  0
LINE
  5
BB
330
B8
100
AcDbEntity
  8
CSLAYER1
  6
CONTINUOUS
 62
     4
100
AcDbLine
 10
65.907724
 20
30.13275
 30
0.0
 11
65.907724
 21
41.13275
 31
0.0
  0
LINE
  5
BC
330
B8
100
AcDbEntity
  8
CSLAYER1
  6
CONTINUOUS
 62
     4
100
AcDbLine
 10
65.907724
 20
30.13275
 30
0.0
 11
65.131267
 21
33.030527
 31
0.0
  0
LINE
  5
BD
330
B8
100
AcDbEntity
  8
CSLAYER1
  6
CONTINUOUS
 62
     4
100
AcDbLine
 10
65.907724
 20
30.13275
 30
0.0
 11
66.68418199999999
 21
33.030527
 31
0.0
  0
LINE
  5
BE
330
B8
100
AcDbEntity
  8
CSLAYER1
  6
CONTINUOUS
 62
     4
100
AcDbLine
 10
65.907724
 20
41.13275
 30
0.0
 11
65.131267
 21
38.234972
 31
0.0
  0
LINE
  5
BF
330
B8
100
AcDbEntity
  8
CSLAYER1
  6
CONTINUOUS
 62
     4
100
AcDbLine
 10
65.907724
 20
41.13275
 30
0.0
 11
66.68418199999999
 21
38.234972
 31
0.0
  0
LINE
  5
C0
330
B8
100
AcDbEntity
  8
CSLAYER1
  6
CONTINUOUS
 62
     4
100
AcDbLine
 10
78.162735
 20
30.13275
 30
0.0
 11
64.907724
 21
30.13275
 31
0.0
  0
LINE
  5
C1
330
B8
100
AcDbEntity
  8
CSLAYER1
  6
CONTINUOUS
 62
     4
100
AcDbLine
 10
78.162735
 20
41.13275
 30
0.0
 11
64.907724
 21
41.13275
 31
0.0
  0
ENDBLK
  5
C2
330
B8
100
AcDbEntity
  8
0
100
AcDbBlockEnd
  0
BLOCK
  5
190
330
183
100
AcDbEntity
  8
0
100
AcDbBlockBegin
  2
*D13
 70
     1
 10
0.0
 20
0.0
 30
0.0
  3
*D13
  1

  0
LINE
  5
184
330
183
100
AcDbEntity
  8
CSLAYER1
 62
     0
100
AcDbLine
 10
45.63199452988929
 20
153.5999210009352
 30
0.0
 11
62.44143513801461
 21
177.606287487779
 31
0.0
  0
LINE
  5
185
330
183
100
AcDbEntity
  8
CSLAYER1
 62
     0
100
AcDbLine
 10
42.16607848428464
 20
153.59992101086
 30
0.0
 11
25.35664419335429
 21
177.6062926212579
 31
0.0
  0
ARC
  5
186
330
183
100
AcDbEntity
  8
CSLAYER1
 62
     0
100
AcDbCircle
 10
43.89903599999999
 20
151.1249999999999
 30
0.0
 40
32.147684
100
AcDbArc
 50
55.32080567977722
 51
89.35301513653515
  0
ARC
  5
187
330
183
100
AcDbEntity
  8
CSLAYER1
 62
     0
100
AcDbCircle
 10
43.89903599999999
 20
151.1249999999999
 30
0.0
 40
32.147684
100
AcDbArc
 50
90.64696900006556
 51
124.6791784578348
  0
SOLID
  5
188
330
183
100
AcDbEntity
  8
CSLAYER1
 62
     0
100
AcDbTrace
 10
62.20759397639699
 20
177.5862933332799
 30
0.0
 11
62.17331711944394
 21
177.5370480586088
 31
0.0
 12
62.33819137193342
 22
177.4588401250852
 32
0.0
 13
62.33819137193342
 23
177.4588401250852
 33
0.0
  0
SOLID
  5
189
330
183
100
AcDbEntity
  8
CSLAYER1
 62
     0
100
AcDbTrace
 10
25.62476219275595
 20
177.537053117859
 30
0.0
 11
25.5904853494365
 21
177.5862984020195
 31
0.0
 12
25.45988791861454
 22
177.4588452299809
 32
0.0
 13
25.45988791861454
 23
177.4588452299809
 33
0.0
  0
MTEXT
  5
18A
330
183
100
AcDbEntity
  8
CSLAYER1
 62
     0
100
AcDbMText
 10
43.89904045005756
 20
183.2726839999995
 30
0.0
 40
0.18
 41
0.0
 71
     5
 72
     1
  1
\A1;70°
1001
ACAD
1000
MTEXTBEGIN
1070
    73
1070
     1
1070
    44
1040
1.0
1070
    74
1070
     0
1000
MTEXTEND
  0
POINT
  5
18B
330
183
100
AcDbEntity
  8
DEFPOINTS
 62
     0
100
AcDbPoint
 10
50.39986605650668
 20
182.608532126181
 30
0.0
  0
POINT
  5
18C
330
183
100
AcDbEntity
  8
DEFPOINTS
 62
     0
100
AcDbPoint
 10
43.89903599999999
 20
151.1249999999999
 30
0.0
  0
POINT
  5
18D
330
183
100
AcDbEntity
  8
DEFPOINTS
 62
     0
100
AcDbPoint
 10
42.20192700000001
 20
153.5487239999999
 30
0.0
  0
POINT
  5
18E
330
183
100
AcDbEntity
  8
DEFPOINTS
 62
     0
100
AcDbPoint
 10
43.89903599999999
 20
151.1249999999999
 30
0.0
  0
POINT
  5
18F
330
183
100
AcDbEntity
  8
DEFPOINTS
 62
     0
100
AcDbPoint
 10
45.596146
 20
153.5487239999999
 30
0.0
  0
ENDBLK
  5
191
330
183
100
AcDbEntity
  8
0
100
AcDbBlockEnd
  0
ENDSEC
  0
SECTION
  2
ENTITIES
  0
POINT
  5
C3
330
1E
100
AcDbEntity
  8
CSLAYER1
 62
     3
100
AcDbPoint
 10
250.4999999999999
 20
43.5
 30
0.0
  0
POINT
  5
C4
330
1E
100
AcDbEntity
  8
CSLAYER1
 62
     3
100
AcDbPoint
 10
271.0
 20
43.5
 30
0.0
  0
POINT
  5
C5
330
1E
100
AcDbEntity
  8
CSLAYER1
 62
     3
100
AcDbPoint
 10
271.0
 20
53.5
 30
0.0
  0
POINT
  5
C6
330
1E
100
AcDbEntity
  8
CSLAYER1
 62
     3
100
AcDbPoint
 10
250.4999999999999
 20
53.5
 30
0.0
  0
TEXT
  5
C7
330
1E
100
AcDbEntity
  8
CSLAYER1
 62
     3
100
AcDbText
 10
238.099985
 20
51.00000399999998
 30
0.0
 40
5.0
  1
刃開キハ
 41
1.11044776119403
  7
FX_FONT
 72
     5
 11
262.899985
 21
51.00000399999998
 31
0.0
100
AcDbText
  0
TEXT
  5
C8
330
1E
100
AcDbEntity
  8
CSLAYER1
 62
     3
100
AcDbText
 10
237.999985
 20
41.00000399999998
 30
0.0
 40
5.0
  1
切刃部有効
 41
0.872093023255811
  7
FX_FONT
 72
     5
 11
262.9999849999999
 21
41.00000399999998
 31
0.0
100
AcDbText
  0
TEXT
  5
C9
330
1E
100
AcDbEntity
  8
CSLAYER1
 62
     3
100
AcDbText
 10
266.0
 20
51.00000399999998
 30
0.0
 40
5.0
  1
11
 41
1.333333333333333
  7
FX_FONT
 72
     5
 11
276.0
 21
51.00000399999998
 31
0.0
100
AcDbText
  0
TEXT
  5
CA
330
1E
100
AcDbEntity
  8
CSLAYER1
 62
     3
100
AcDbText
 10
266.0
 20
41.00000399999998
 30
0.0
 40
5.0
  1
30
 41
1.199999999999999
  7
FX_FONT
 72
     5
 11
276.0
 21
41.00000399999998
 31
0.0
100
AcDbText
  0
TEXT
  5
CB
330
1E
100
AcDbEntity
  8
CSLAYER1
 62
     3
100
AcDbText
 10
242.45
 20
17.25
 30
0.0
 40
3.5
  1
N50AS
 41
1.169387755102042
  7
FX_FONT
 72
     5
 11
261.55
 21
17.25
 31
0.0
100
AcDbText
  0
POINT
  5
CC
330
1E
100
AcDbEntity
  8
CSLAYER1
 62
     3
100
AcDbPoint
 10
149.6348679999998
 20
151.1249999999999
 30
0.0
  0
DIMENSION
  5
CD
330
1E
100
AcDbEntity
  8
CSLAYER1
 62
     4
100
AcDbDimension
  2
*D0
 10
72.234868
 20
177.125
 30
0.0
 11
71.734871
 21
151.1249999999999
 31
0.0
 70
     1
100
AcDbAlignedDimension
 13
123.457937
 23
125.1249999999999
 33
0.0
 14
123.457937
 24
177.125
 34
0.0
  0
DIMENSION
  5
CE
330
1E
100
AcDbEntity
  8
CSLAYER1
 62
     4
100
AcDbDimension
  2
*D1
 10
71.938477
 20
103.219559
 30
0.0
 11
71.43847700000002
 21
100.018585
 31
0.0
 70
     1
100
AcDbAlignedDimension
 13
122.634868
 23
78.219559
 33
0.0
 14
122.634868
 24
103.219559
 34
0.0
  0
DIMENSION
  5
CF
330
1E
100
AcDbEntity
  8
CSLAYER1
 62
     4
100
AcDbDimension
  2
*D2
 10
77.938477
 20
95.719559
 30
0.0
 11
77.438484
 21
90.719559
 31
0.0
 70
     1
100
AcDbAlignedDimension
 13
93.828598
 23
85.719559
 33
0.0
 14
93.828598
 24
95.719559
 34
0.0
  0
DIMENSION
  5
D0
330
1E
100
AcDbEntity
  8
CSLAYER1
 62
     4
100
AcDbDimension
  2
*D3
 10
60.39903599999998
 20
151.1249999999999
 30
0.0
 11
53.760162
 21
147.600037
 31
0.0
 70
     4
100
AcDbRadialDimension
 15
47.64796099999998
 25
143.2249939999999
 35
0.0
 40
0.0
  0
INSERT
  5
D1
330
1E
100
AcDbEntity
  8
CSLAYER1
100
AcDbBlockReference
  2
FXDIM0000
 10
0.0
 20
0.0
 30
0.0
  0
INSERT
  5
D2
330
1E
100
AcDbEntity
  8
CSLAYER1
100
AcDbBlockReference
  2
FXDIM0001
 10
0.0
 20
0.0
 30
0.0
  0
POINT
  5
D3
330
1E
100
AcDbEntity
  8
CSLAYER1
 62
     3
100
AcDbPoint
 10
252.0
 20
19.0
 30
0.0
  0
LINE
  5
D4
330
1E
100
AcDbEntity
  8
CSLAYER1
  6
CONTINUOUS
 62
     3
100
AcDbLine
 10
279.0
 20
40.0
 30
0.0
 11
238.0
 21
40.0
 31
0.0
  0
LINE
  5
D5
330
1E
100
AcDbEntity
  8
CSLAYER1
  6
CONTINUOUS
 62
     3
100
AcDbLine
 10
238.0
 20
50.0
 30
0.0
 11
279.0
 21
50.0
 31
0.0
  0
ARC
  5
D6
330
1E
100
AcDbEntity
  8
CSLAYER1
  6
CONTINUOUS
 62
     3
100
AcDbCircle
 10
264.634868
 20
90.719559
 30
0.0
 40
5.0
100
AcDbArc
 50
342.6873489999998
 51
17.312651
  0
ARC
  5
D7
330
1E
100
AcDbEntity
  8
CSLAYER1
  6
CONTINUOUS
 62
     3
100
AcDbCircle
 10
257.9520029999999
 20
88.63645899999999
 30
0.0
 40
12.0
100
AcDbArc
 50
17.312651
 51
87.917435
  0
LINE
  5
D8
330
1E
100
AcDbEntity
  8
CSLAYER1
  6
CONTINUOUS
 62
     3
100
AcDbLine
 10
258.388078
 20
100.6285329999998
 30
0.0
 11
215.598529
 21
102.1845169999999
 31
0.0
  0
LINE
  5
D9
330
1E
100
AcDbEntity
  8
CSLAYER1
  6
CONTINUOUS
 62
     3
100
AcDbLine
 10
214.634868
 20
103.183856
 30
0.0
 11
214.634868
 21
103.219559
 31
0.0
  0
LINE
  5
DA
330
1E
100
AcDbEntity
  8
CSLAYER1
  6
CONTINUOUS
 62
     3
100
AcDbLine
 10
214.634868
 20
103.219559
 30
0.0
 11
122.634868
 21
103.219559
 31
0.0
  0
LINE
  5
DB
330
1E
100
AcDbEntity
  8
CSLAYER1
  6
CONTINUOUS
 62
     3
100
AcDbLine
 10
122.634868
 20
103.219559
 30
0.0
 11
122.634868
 21
98.71955900000001
 31
0.0
  0
LINE
  5
DC
330
1E
100
AcDbEntity
  8
CSLAYER1
  6
CONTINUOUS
 62
     3
100
AcDbLine
 10
119.634868
 20
95.719559
 30
0.0
 11
93.828598
 21
95.719559
 31
0.0
  0
LINE
  5
DD
330
1E
100
AcDbEntity
  8
CSLAYER1
  6
CONTINUOUS
 62
     3
100
AcDbLine
 10
93.828598
 20
95.719559
 30
0.0
 11
89.63486800000003
 21
94.595853
 31
0.0
  0
LINE
  5
DE
330
1E
100
AcDbEntity
  8
CSLAYER1
  6
CONTINUOUS
 62
     3
100
AcDbLine
 10
89.63486800000003
 20
94.595853
 30
0.0
 11
89.63486800000003
 21
86.843266
 31
0.0
  0
LINE
  5
DF
330
1E
100
AcDbEntity
  8
CSLAYER1
  6
CONTINUOUS
 62
     3
100
AcDbLine
 10
89.63486800000003
 20
86.843266
 30
0.0
 11
93.828598
 21
85.719559
 31
0.0
  0
LINE
  5
E0
330
1E
100
AcDbEntity
  8
CSLAYER1
  6
CONTINUOUS
 62
     3
100
AcDbLine
 10
93.828598
 20
85.719559
 30
0.0
 11
119.634868
 21
85.719559
 31
0.0
  0
LINE
  5
E1
330
1E
100
AcDbEntity
  8
CSLAYER1
  6
CONTINUOUS
 62
     3
100
AcDbLine
 10
122.634868
 20
82.719559
 30
0.0
 11
122.634868
 21
78.219559
 31
0.0
  0
LINE
  5
E2
330
1E
100
AcDbEntity
  8
CSLAYER1
  6
CONTINUOUS
 62
     3
100
AcDbLine
 10
122.634868
 20
78.219559
 30
0.0
 11
214.634868
 21
78.219559
 31
0.0
  0
LINE
  5
E3
330
1E
100
AcDbEntity
  8
CSLAYER1
  6
CONTINUOUS
 62
     3
100
AcDbLine
 10
214.634868
 20
78.219559
 30
0.0
 11
214.634868
 21
78.255262
 31
0.0
  0
LINE
  5
E4
330
1E
100
AcDbEntity
  8
CSLAYER1
  6
CONTINUOUS
 62
     3
100
AcDbLine
 10
215.598529
 20
79.25460099999998
 30
0.0
 11
258.388078
 21
80.81058500000002
 31
0.0
  0
ARC
  5
E5
330
1E
100
AcDbEntity
  8
CSLAYER1
  6
CONTINUOUS
 62
     3
100
AcDbCircle
 10
257.9520029999999
 20
92.80265900000001
 30
0.0
 40
12.0
100
AcDbArc
 50
272.082565
 51
342.687349
  0
ARC
  5
E6
330
1E
100
AcDbEntity
  8
CSLAYER1
  6
CONTINUOUS
 62
     3
100
AcDbCircle
 10
215.634868
 20
78.255262
 30
0.0
 40
1.0
100
AcDbArc
 50
92.082565
 51
180.0
  0
ARC
  5
E7
330
1E
100
AcDbEntity
  8
CSLAYER1
  6
CONTINUOUS
 62
     3
100
AcDbCircle
 10
196.761369
 20
90.019559
 30
0.0
 40
2.0
100
AcDbArc
 50
20.487315
 51
90.0
  0
LINE
  5
E8
330
1E
100
AcDbEntity
  8
CSLAYER1
  6
CONTINUOUS
 62
     3
100
AcDbLine
 10
196.761369
 20
92.01955899999999
 30
0.0
 11
167.508368
 21
92.01955899999999
 31
0.0
  0
ARC
  5
E9
330
1E
100
AcDbEntity
  8
CSLAYER1
  6
CONTINUOUS
 62
     3
100
AcDbCircle
 10
167.508368
 20
90.019559
 30
0.0
 40
2.0
100
AcDbArc
 50
90.0
 51
159.5126849999999
  0
LINE
  5
EA
330
1E
100
AcDbEntity
  8
CSLAYER1
  6
CONTINUOUS
 62
     3
100
AcDbLine
 10
165.6348679999998
 20
90.719559
 30
0.0
 11
136.622006
 21
90.719559
 31
0.0
  0
ARC
  5
EB
330
1E
100
AcDbEntity
  8
CSLAYER1
  6
CONTINUOUS
 62
     3
100
AcDbCircle
 10
136.622006
 20
88.71955900000001
 30
0.0
 40
2.0
100
AcDbArc
 50
90.0
 51
180.0
  0
LINE
  5
EC
330
1E
100
AcDbEntity
  8
CSLAYER1
  6
CONTINUOUS
 62
     3
100
AcDbLine
 10
134.622006
 20
88.71955900000001
 30
0.0
 11
134.622006
 21
78.219559
 31
0.0
  0
ARC
  5
ED
330
1E
100
AcDbEntity
  8
CSLAYER1
  6
CONTINUOUS
 62
     3
100
AcDbCircle
 10
119.634868
 20
82.719559
 30
0.0
 40
3.0
100
AcDbArc
 50
0.0
 51
90.0
  0
ARC
  5
EE
330
1E
100
AcDbEntity
  8
CSLAYER1
  6
CONTINUOUS
 62
     3
100
AcDbCircle
 10
119.634868
 20
98.71955900000001
 30
0.0
 40
3.0
100
AcDbArc
 50
270.0
 51
0.0
  0
LINE
  5
EF
330
1E
100
AcDbEntity
  8
CSLAYER1
  6
CONTINUOUS
 62
     3
100
AcDbLine
 10
122.634868
 20
125.1249999999999
 30
0.0
 11
122.634868
 21
150.701276
 31
0.0
  0
LINE
  5
F0
330
1E
100
AcDbEntity
  8
CSLAYER1
  6
CONTINUOUS
 62
     3
100
AcDbLine
 10
123.457937
 20
177.125
 30
0.0
 11
140.54107
 21
177.125
 31
0.0
  0
LINE
  5
F1
330
1E
100
AcDbEntity
  8
CSLAYER1
  6
CONTINUOUS
 62
     3
100
AcDbLine
 10
134.622006
 20
177.125
 30
0.0
 11
125.3407649999999
 21
151.625
 31
0.0
  0
LINE
  5
F2
330
1E
100
AcDbEntity
  8
CSLAYER1
  6
CONTINUOUS
 62
     3
100
AcDbLine
 10
125.765432
 20
151.625
 30
0.0
 11
119.634868
 21
151.625
 31
0.0
  0
ARC
  5
F3
330
1E
100
AcDbEntity
  8
CSLAYER1
  6
CONTINUOUS
 62
     3
100
AcDbCircle
 10
120.634868
 20
151.5487239999998
 30
0.0
 40
2.0
100
AcDbArc
 50
0.0
 51
90.0
  0
LINE
  5
F4
330
1E
100
AcDbEntity
  8
CSLAYER1
  6
CONTINUOUS
 62
     3
100
AcDbLine
 10
120.634868
 20
153.5487239999999
 30
0.0
 11
90.37473099999999
 21
153.5487239999999
 31
0.0
  0
LINE
  5
F5
330
1E
100
AcDbEntity
  8
CSLAYER1
  6
CONTINUOUS
 62
     3
100
AcDbLine
 10
89.63486800000003
 20
151.1249999999999
 30
0.0
 11
119.634868
 21
151.1249999999999
 31
0.0
  0
LINE
  5
F6
330
1E
100
AcDbEntity
  8
CSLAYER1
  6
CONTINUOUS
 62
     3
100
AcDbLine
 10
119.634868
 20
150.625
 30
0.0
 11
125.765432
 21
150.625
 31
0.0
  0
ARC
  5
F7
330
1E
100
AcDbEntity
  8
CSLAYER1
  6
CONTINUOUS
 62
     3
100
AcDbCircle
 10
125.765432
 20
153.625
 30
0.0
 40
3.0
100
AcDbArc
 50
270.0
 51
354.020843
  0
ARC
  5
F8
330
1E
100
AcDbEntity
  8
CSLAYER1
  6
CONTINUOUS
 62
     3
100
AcDbCircle
 10
125.765432
 20
148.625
 30
0.0
 40
3.0
100
AcDbArc
 50
56.44269000000001
 51
90.0
  0
LINE
  5
F9
330
1E
100
AcDbEntity
  8
CSLAYER1
  6
CONTINUOUS
 62
     3
100
AcDbLine
 10
120.634868
 20
148.701276
 30
0.0
 11
90.37473099999999
 21
148.701276
 31
0.0
  0
ARC
  5
FA
330
1E
100
AcDbEntity
  8
CSLAYER1
  6
CONTINUOUS
 62
     3
100
AcDbCircle
 10
123.457937
 20
160.125
 30
0.0
 40
35.0
100
AcDbArc
 50
194.900597
 51
270.0
  0
LINE
  5
FB
330
1E
100
AcDbEntity
  8
CSLAYER1
  6
CONTINUOUS
 62
     3
100
AcDbLine
 10
123.457937
 20
125.1249999999999
 30
0.0
 11
140.54107
 21
125.1249999999999
 31
0.0
  0
ARC
  5
FC
330
1E
100
AcDbEntity
  8
CSLAYER1
  6
CONTINUOUS
 62
     3
100
AcDbCircle
 10
140.54107
 20
165.125
 30
0.0
 40
40.0
100
AcDbArc
 50
270.0
 51
295.6164039999998
  0
LINE
  5
FD
330
1E
100
AcDbEntity
  8
CSLAYER1
  6
CONTINUOUS
 62
     3
100
AcDbLine
 10
157.834827
 20
129.056649
 30
0.0
 11
200.02968
 21
149.2878909999999
 31
0.0
  0
LINE
  5
FE
330
1E
100
AcDbEntity
  8
CSLAYER1
  6
CONTINUOUS
 62
     3
100
AcDbLine
 10
202.325467
 20
147.1249999999999
 30
0.0
 11
199.1707669999999
 21
141.660898
 31
0.0
  0
ARC
  5
FF
330
1E
100
AcDbEntity
  8
CSLAYER1
  6
CONTINUOUS
 62
     3
100
AcDbCircle
 10
202.6348679999999
 20
139.660898
 30
0.0
 40
4.0
100
AcDbArc
 50
150.0
 51
180.0
  0
LINE
  5
100
330
1E
100
AcDbEntity
  8
CSLAYER1
  6
CONTINUOUS
 62
     3
100
AcDbLine
 10
198.6348679999999
 20
139.660898
 30
0.0
 11
198.6348679999999
 21
132.1666669999999
 31
0.0
  0
ARC
  5
101
330
1E
100
AcDbEntity
  8
CSLAYER1
  6
CONTINUOUS
 62
     3
100
AcDbCircle
 10
205.789569
 20
145.1249999999999
 30
0.0
 40
4.0
100
AcDbArc
 50
90.0
 51
150.0
  0
LINE
  5
102
330
1E
100
AcDbEntity
  8
CSLAYER1
  6
CONTINUOUS
 62
     3
100
AcDbLine
 10
205.789569
 20
149.1249999999999
 30
0.0
 11
269.634868
 21
149.1249999999999
 31
0.0
  0
LINE
  5
103
330
1E
100
AcDbEntity
  8
CSLAYER1
  6
CONTINUOUS
 62
     3
100
AcDbLine
 10
269.634868
 20
153.125
 30
0.0
 11
217.1248639999999
 21
153.125
 31
0.0
  0
ARC
  5
104
330
1E
100
AcDbEntity
  8
CSLAYER1
  6
CONTINUOUS
 62
     3
100
AcDbCircle
 10
217.1248639999999
 20
113.125
 30
0.0
 40
40.0
100
AcDbArc
 50
90.0
 51
115.301379
  0
ARC
  5
105
330
1E
100
AcDbEntity
  8
CSLAYER1
  6
CONTINUOUS
 62
     3
100
AcDbCircle
 10
217.1248639999999
 20
189.125
 30
0.0
 40
40.0
100
AcDbArc
 50
251.8051279999999
 51
270.0
  0
LINE
  5
106
330
1E
100
AcDbEntity
  8
CSLAYER1
  6
CONTINUOUS
 62
     3
100
AcDbLine
 10
252.634868
 20
149.1249999999999
 30
0.0
 11
252.634868
 21
153.125
 31
0.0
  0
LINE
  5
107
330
1E
100
AcDbEntity
  8
CSLAYER1
  6
CONTINUOUS
 62
     3
100
AcDbLine
 10
262.634868
 20
153.125
 30
0.0
 11
262.634868
 21
149.1249999999999
 31
0.0
  0
ARC
  5
108
330
1E
100
AcDbEntity
  8
CSLAYER1
  6
CONTINUOUS
 62
     3
100
AcDbCircle
 10
254.639893
 20
152.7367749999999
 30
0.0
 40
15.0
100
AcDbArc
 50
1.483074
 51
87.61405600000001
  0
LINE
  5
109
330
1E
100
AcDbEntity
  8
CSLAYER1
  6
CONTINUOUS
 62
     3
100
AcDbLine
 10
255.2643509999999
 20
167.7237719999999
 30
0.0
 11
149.6348679999998
 21
172.1249999999999
 31
0.0
  0
ARC
  5
10A
330
1E
100
AcDbEntity
  8
CSLAYER1
  6
CONTINUOUS
 62
     3
100
AcDbCircle
 10
149.6348679999998
 20
151.1249999999999
 30
0.0
 40
21.0
100
AcDbArc
 50
85.22811199999997
 51
174.0208429999999
  0
ARC
  5
10B
330
1E
100
AcDbEntity
  8
CSLAYER1
  6
CONTINUOUS
 62
     3
100
AcDbCircle
 10
119.634868
 20
157.75568
 30
0.0
 40
3.0
100
AcDbArc
 50
0.0
 51
90.0
  0
LINE
  5
10C
330
1E
100
AcDbEntity
  8
CSLAYER1
  6
CONTINUOUS
 62
     3
100
AcDbLine
 10
119.634868
 20
160.75568
 30
0.0
 11
93.828598
 21
160.75568
 31
0.0
  0
LINE
  5
10D
330
1E
100
AcDbEntity
  8
CSLAYER1
  6
CONTINUOUS
 62
     3
100
AcDbLine
 10
93.828598
 20
141.4943199999999
 30
0.0
 11
119.634868
 21
141.4943199999999
 31
0.0
  0
ARC
  5
10E
330
1E
100
AcDbEntity
  8
CSLAYER1
  6
CONTINUOUS
 62
     3
100
AcDbCircle
 10
119.634868
 20
144.4943199999999
 30
0.0
 40
3.0
100
AcDbArc
 50
270.0
 51
0.0
  0
ARC
  5
10F
330
1E
100
AcDbEntity
  8
CSLAYER1
  6
CONTINUOUS
 62
     3
100
AcDbCircle
 10
120.634868
 20
150.701276
 30
0.0
 40
2.0
100
AcDbArc
 50
270.0
 51
0.0
  0
ARC
  5
110
330
1E
100
AcDbEntity
  8
CSLAYER1
  6
CONTINUOUS
 62
     3
100
AcDbCircle
 10
123.457937
 20
142.125
 30
0.0
 40
35.0
100
AcDbArc
 50
90.0
 51
165.0994029999999
  0
LINE
  5
111
330
1E
100
AcDbEntity
  8
CSLAYER1
  6
CONTINUOUS
 62
     3
100
AcDbLine
 10
48.899036
 20
160.75568
 30
0.0
 11
48.899036
 21
177.125
 31
0.0
  0
LINE
  5
112
330
1E
100
AcDbEntity
  8
CSLAYER1
  6
CONTINUOUS
 62
     3
100
AcDbLine
 10
48.899036
 20
177.125
 30
0.0
 11
38.89903599999998
 21
177.125
 31
0.0
  0
LINE
  5
113
330
1E
100
AcDbEntity
  8
CSLAYER1
  6
CONTINUOUS
 62
     3
100
AcDbLine
 10
38.89903599999998
 20
177.125
 30
0.0
 11
38.89903599999998
 21
160.75568
 31
0.0
  0
ARC
  5
114
330
1E
100
AcDbEntity
  8
CSLAYER1
  6
CONTINUOUS
 62
     3
100
AcDbCircle
 10
27.39903599999999
 20
151.1249999999999
 30
0.0
 40
15.0
100
AcDbArc
 50
9.298708999999997
 51
39.944505
  0
LINE
  5
115
330
1E
100
AcDbEntity
  8
CSLAYER1
  6
CONTINUOUS
 62
     3
100
AcDbLine
 10
42.20192700000001
 20
153.5487239999999
 30
0.0
 11
45.596146
 21
148.701276
 31
0.0
  0
ARC
  5
116
330
1E
100
AcDbEntity
  8
CSLAYER1
  6
CONTINUOUS
 62
     3
100
AcDbCircle
 10
60.39903599999998
 20
151.1249999999999
 30
0.0
 40
15.0
100
AcDbArc
 50
189.298709
 51
219.944505
  0
LINE
  5
117
330
1E
100
AcDbEntity
  8
CSLAYER1
  6
CONTINUOUS
 62
     3
100
AcDbLine
 10
48.899036
 20
141.4943199999999
 30
0.0
 11
48.899036
 21
125.1249999999999
 31
0.0
  0
LINE
  5
118
330
1E
100
AcDbEntity
  8
CSLAYER1
  6
CONTINUOUS
 62
     3
100
AcDbLine
 10
48.899036
 20
125.1249999999999
 30
0.0
 11
38.89903599999998
 21
125.1249999999999
 31
0.0
  0
LINE
  5
119
330
1E
100
AcDbEntity
  8
CSLAYER1
  6
CONTINUOUS
 62
     3
100
AcDbLine
 10
38.89903599999998
 20
125.1249999999999
 30
0.0
 11
38.89903599999998
 21
141.4943199999999
 31
0.0
  0
ARC
  5
11A
330
1E
100
AcDbEntity
  8
CSLAYER1
  6
CONTINUOUS
 62
     3
100
AcDbCircle
 10
27.39903599999999
 20
151.1249999999999
 30
0.0
 40
15.0
100
AcDbArc
 50
320.055495
 51
350.701291
  0
LINE
  5
11B
330
1E
100
AcDbEntity
  8
CSLAYER1
  6
CONTINUOUS
 62
     3
100
AcDbLine
 10
42.20192700000001
 20
148.701276
 30
0.0
 11
45.596146
 21
153.5487239999999
 31
0.0
  0
ARC
  5
11C
330
1E
100
AcDbEntity
  8
CSLAYER1
  6
CONTINUOUS
 62
     3
100
AcDbCircle
 10
60.39903599999998
 20
151.1249999999999
 30
0.0
 40
15.0
100
AcDbArc
 50
140.055495
 51
170.7012909999999
  0
LINE
  5
11D
330
1E
100
AcDbEntity
  8
CSLAYER1
  6
CONTINUOUS
 62
     3
100
AcDbLine
 10
196.761369
 20
89.41955899999998
 30
0.0
 11
167.508368
 21
89.41955899999998
 31
0.0
  0
ARC
  5
11E
330
1E
100
AcDbEntity
  8
CSLAYER1
  6
CONTINUOUS
 62
     3
100
AcDbCircle
 10
167.508368
 20
91.41955900000001
 30
0.0
 40
2.0
100
AcDbArc
 50
200.4873149999999
 51
270.0
  0
ARC
  5
11F
330
1E
100
AcDbEntity
  8
CSLAYER1
  6
CONTINUOUS
 62
     3
100
AcDbCircle
 10
196.761369
 20
91.41955900000001
 30
0.0
 40
2.0
100
AcDbArc
 50
270.0
 51
339.512685
  0
LINE
  5
120
330
1E
100
AcDbEntity
  8
CSLAYER1
  6
CONTINUOUS
 62
     3
100
AcDbLine
 10
198.6348679999999
 20
90.719559
 30
0.0
 11
198.6348679999999
 21
103.219559
 31
0.0
  0
ARC
  5
121
330
1E
100
AcDbEntity
  8
CSLAYER1
  6
CONTINUOUS
 62
     3
100
AcDbCircle
 10
215.634868
 20
103.183856
 30
0.0
 40
1.0
100
AcDbArc
 50
180.0
 51
267.917435
  0
LINE
  5
122
330
1E
100
AcDbEntity
  8
CSLAYER1
  6
CONTINUOUS
 62
     3
100
AcDbLine
 10
255.2643509999999
 20
134.526228
 30
0.0
 11
161.055475
 21
130.600859
 31
0.0
  0
LINE
  5
123
330
1E
100
AcDbEntity
  8
CSLAYER1
  6
CONTINUOUS
 62
     3
100
AcDbLine
 10
165.6348679999998
 20
130.791667
 30
0.0
 11
165.6348679999998
 21
132.7965489999999
 31
0.0
  0
CIRCLE
  5
124
330
1E
100
AcDbEntity
  8
CSLAYER1
  6
CONTINUOUS
 62
     3
100
AcDbCircle
 10
149.6348679999998
 20
151.1249999999999
 30
0.0
 40
12.0
  0
CIRCLE
  5
125
330
1E
100
AcDbEntity
  8
CSLAYER1
  6
CONTINUOUS
 62
     3
100
AcDbCircle
 10
149.6348679999998
 20
151.1249999999999
 30
0.0
 40
4.049999999999998
  0
LINE
  5
126
330
1E
100
AcDbEntity
  8
CSLAYER1
  6
CONTINUOUS
 62
     3
100
AcDbLine
 10
161.055475
 20
171.6491409999999
 30
0.0
 11
157.834827
 21
173.193351
 31
0.0
  0
ARC
  5
127
330
1E
100
AcDbEntity
  8
CSLAYER1
  6
CONTINUOUS
 62
     3
100
AcDbCircle
 10
140.54107
 20
137.125
 30
0.0
 40
40.0
100
AcDbArc
 50
64.383596
 51
90.0
  0
ARC
  5
128
330
1E
100
AcDbEntity
  8
CSLAYER1
  6
CONTINUOUS
 62
     3
100
AcDbCircle
 10
254.639893
 20
149.513225
 30
0.0
 40
15.0
100
AcDbArc
 50
272.385944
 51
358.5169259999998
  0
LINE
  5
129
330
1E
100
AcDbEntity
  8
CSLAYER1
  6
CENTER
 62
     4
100
AcDbLine
 10
130.318757
 20
90.719559
 30
0.0
 11
136.622006
 21
90.719559
 31
0.0
  0
LINE
  5
12A
330
1E
100
AcDbEntity
  8
CSLAYER1
  6
CENTER
 62
     4
100
AcDbLine
 10
149.6348679999998
 20
74.48458999999998
 30
0.0
 11
149.6348679999998
 21
109.519559
 31
0.0
  0
LINE
  5
12B
330
1E
100
AcDbEntity
  8
CSLAYER1
  6
CENTER
 62
     4
100
AcDbLine
 10
165.6348679999998
 20
90.719559
 30
0.0
 11
205.8747879999998
 21
90.719559
 31
0.0
  0
LINE
  5
12C
330
1E
100
AcDbEntity
  8
CSLAYER1
  6
CENTER
 62
     4
100
AcDbLine
 10
261.580759
 20
90.719559
 30
0.0
 11
274.903908
 21
90.719559
 31
0.0
  0
LINE
  5
12D
330
1E
100
AcDbEntity
  8
CSLAYER1
  6
CENTER
 62
     4
100
AcDbLine
 10
257.634868
 20
156.997653
 30
0.0
 11
257.634868
 21
145.9948779999999
 31
0.0
  0
LINE
  5
12E
330
1E
100
AcDbEntity
  8
CSLAYER1
  6
CENTER
 62
     4
100
AcDbLine
 10
270.9424339999999
 20
151.1249999999999
 30
0.0
 11
119.634868
 21
151.1249999999999
 31
0.0
  0
LINE
  5
12F
330
1E
100
AcDbEntity
  8
CSLAYER1
  6
CENTER
 62
     4
100
AcDbLine
 10
149.6348679999998
 20
122.7554129999999
 30
0.0
 11
149.6348679999998
 21
178.942605
 31
0.0
  0
LINE
  5
130
330
1E
100
AcDbEntity
  8
CSLAYER1
  6
CENTER
 62
     4
100
AcDbLine
 10
89.63486800000003
 20
151.1249999999999
 30
0.0
 11
80.81915399999997
 21
151.1249999999999
 31
0.0
  0
LINE
  5
131
330
1E
100
AcDbEntity
  8
CSLAYER1
  6
CENTER
 62
     4
100
AcDbLine
 10
51.19936599999999
 20
151.1249999999999
 30
0.0
 11
35.809464
 21
151.1249999999999
 31
0.0
  0
LINE
  5
132
330
1E
100
AcDbEntity
  8
CSLAYER1
  6
CENTER
 62
     4
100
AcDbLine
 10
43.89903599999999
 20
181.550632
 30
0.0
 11
43.89903599999999
 21
119.758172
 31
0.0
  0
LINE
  5
133
330
1E
100
AcDbEntity
  8
CSLAYER1
  6
CENTER
 62
     4
100
AcDbLine
 10
214.634868
 20
162.360427
 30
0.0
 11
214.634868
 21
139.1402789999999
 31
0.0
  0
LINE
  5
134
330
1E
100
AcDbEntity
  8
CSLAYER1
  6
DASHED
 62
     4
100
AcDbLine
 10
122.634868
 20
98.71955900000001
 30
0.0
 11
122.634868
 21
92.719559
 31
0.0
  0
LINE
  5
135
330
1E
100
AcDbEntity
  8
CSLAYER1
  6
DASHED
 62
     4
100
AcDbLine
 10
89.63486800000003
 20
90.719559
 30
0.0
 11
120.634868
 21
90.719559
 31
0.0
  0
ARC
  5
136
330
1E
100
AcDbEntity
  8
CSLAYER1
  6
DASHED
 62
     4
100
AcDbCircle
 10
120.634868
 20
92.719559
 30
0.0
 40
2.0
100
AcDbArc
 50
270.0
 51
0.0
  0
LINE
  5
137
330
1E
100
AcDbEntity
  8
CSLAYER1
  6
DASHED
 62
     4
100
AcDbLine
 10
122.634868
 20
82.719559
 30
0.0
 11
122.634868
 21
88.71955900000001
 31
0.0
  0
ARC
  5
138
330
1E
100
AcDbEntity
  8
CSLAYER1
  6
DASHED
 62
     4
100
AcDbCircle
 10
120.634868
 20
88.71955900000001
 30
0.0
 40
2.0
100
AcDbArc
 50
0.0
 51
90.0
  0
DIMENSION
  5
139
330
1E
100
AcDbEntity
  8
CSLAYER1
 62
     4
100
AcDbDimension
  2
*D6
 10
149.6348679999998
 20
112.4819769999999
 30
0.0
 11
136.134857
 21
112.981979
 31
0.0
100
AcDbAlignedDimension
 13
122.634868
 23
103.219559
 33
0.0
 14
149.6348679999998
 24
109.519559
 34
0.0
100
AcDbRotatedDimension
  0
DIMENSION
  5
13A
330
1E
100
AcDbEntity
  8
CSLAYER1
 62
     4
100
AcDbDimension
  2
*D7
 10
119.634868
 20
68.097577
 30
0.0
 11
104.634872
 21
68.59758000000001
 31
0.0
 52
270.0
100
AcDbAlignedDimension
 13
89.63486800000003
 23
86.843266
 33
0.0
 14
119.634868
 24
90.719559
 34
0.0
100
AcDbRotatedDimension
  0
INSERT
  5
13B
330
1E
100
AcDbEntity
  8
CSLAYER1
100
AcDbBlockReference
  2
FXDIM0002
 10
0.0
 20
0.0
 30
0.0
  0
DIMENSION
  5
13C
330
1E
100
AcDbEntity
  8
CSLAYER1
 62
     4
100
AcDbDimension
  2
*D9
 10
123.457937
 20
160.125
 30
0.0
 11
112.816727
 21
134.522888
 31
0.0
 70
     4
100
AcDbRadialDimension
 15
110.609758
 25
127.5685219999999
 35
0.0
 40
0.0
  0
DIMENSION
  5
13D
330
1E
100
AcDbEntity
  8
CSLAYER1
 62
     4
100
AcDbDimension
  2
*D10
 10
149.6348679999998
 20
182.400278
 30
0.0
 11
119.634872
 21
182.9002689999999
 31
0.0
100
AcDbAlignedDimension
 13
89.63486800000003
 23
151.1249999999999
 33
0.0
 14
149.6348679999998
 24
178.942605
 34
0.0
100
AcDbRotatedDimension
  0
POINT
  5
13F
330
1E
100
AcDbEntity
  8
CSLAYER1
 62
     3
100
AcDbPoint
 10
138.91012
 20
35.63275
 30
0.0
  0
LINE
  5
140
330
1E
100
AcDbEntity
  8
CSLAYER1
  6
CONTINUOUS
 62
     3
100
AcDbLine
 10
112.06963
 20
32.659855
 30
0.0
 11
114.405182
 21
7.288375999999998
 31
0.0
  0
LINE
  5
141
330
1E
100
AcDbEntity
  8
CSLAYER1
  6
CONTINUOUS
 62
     3
100
AcDbLine
 10
115.226734
 20
7.342664999999998
 30
0.0
 11
132.2379409999999
 21
8.908617999999997
 31
0.0
  0
LINE
  5
142
330
1E
100
AcDbEntity
  8
CSLAYER1
  6
CONTINUOUS
 62
     3
100
AcDbLine
 10
126.3437979999999
 20
62.899462
 30
0.0
 11
114.764134
 21
38.35760399999998
 31
0.0
  0
LINE
  5
143
330
1E
100
AcDbEntity
  8
CSLAYER1
  6
CONTINUOUS
 62
     3
100
AcDbLine
 10
109.082261
 20
32.384855
 30
0.0
 11
115.187013
 21
32.94682299999998
 31
0.0
  0
ARC
  5
144
330
1E
100
AcDbEntity
  8
CSLAYER1
  6
CONTINUOUS
 62
     3
100
AcDbCircle
 10
110.071058
 20
32.552477
 30
0.0
 40
2.0
100
AcDbArc
 50
275.259496
 51
5.259495999999998
  0
LINE
  5
145
330
1E
100
AcDbEntity
  8
CSLAYER1
  6
CONTINUOUS
 62
     3
100
AcDbLine
 10
110.254392
 20
30.56089699999999
 30
0.0
 11
80.121657
 21
27.787051
 31
0.0
  0
LINE
  5
146
330
1E
100
AcDbEntity
  8
CSLAYER1
  6
CONTINUOUS
 62
     3
100
AcDbLine
 10
79.16273499999999
 20
30.13275
 30
0.0
 11
109.036427
 21
32.88275
 31
0.0
  0
ARC
  5
147
330
1E
100
AcDbEntity
  8
CSLAYER1
  6
CONTINUOUS
 62
     3
100
AcDbCircle
 10
114.9120129999999
 20
35.934193
 30
0.0
 40
3.0
100
AcDbArc
 50
275.259496
 51
359.2803399999998
  0
ARC
  5
148
330
1E
100
AcDbEntity
  8
CSLAYER1
  6
CONTINUOUS
 62
     3
100
AcDbCircle
 10
138.91012
 20
35.63275
 30
0.0
 40
21.0
100
AcDbArc
 50
95.259496
 51
179.2803399999999
  0
ARC
  5
149
330
1E
100
AcDbEntity
  8
CSLAYER1
  6
CONTINUOUS
 62
     3
100
AcDbCircle
 10
109.6442399999999
 20
26.279987
 30
0.0
 40
3.0
100
AcDbArc
 50
275.259496
 51
5.259495999999998
  0
LINE
  5
14A
330
1E
100
AcDbEntity
  8
CSLAYER1
  6
CONTINUOUS
 62
     3
100
AcDbLine
 10
109.9192399999999
 20
23.29261699999999
 30
0.0
 11
84.22162
 21
20.92704299999998
 31
0.0
  0
ARC
  5
14B
330
1E
100
AcDbEntity
  8
CSLAYER1
  6
CONTINUOUS
 62
     3
100
AcDbCircle
 10
112.0184
 20
42.195306
 30
0.0
 40
35.0
100
AcDbArc
 50
200.160093
 51
275.259496
  0
LINE
  5
14C
330
1E
100
AcDbEntity
  8
CSLAYER1
  6
CONTINUOUS
 62
     3
100
AcDbLine
 10
38.174287
 20
50.76343
 30
0.0
 11
38.174287
 21
67.13275
 31
0.0
  0
LINE
  5
14D
330
1E
100
AcDbEntity
  8
CSLAYER1
  6
CONTINUOUS
 62
     3
100
AcDbLine
 10
38.174287
 20
67.13275
 30
0.0
 11
28.174287
 21
67.13275
 31
0.0
  0
LINE
  5
14E
330
1E
100
AcDbEntity
  8
CSLAYER1
  6
CONTINUOUS
 62
     3
100
AcDbLine
 10
28.174287
 20
67.13275
 30
0.0
 11
28.174287
 21
50.76343
 31
0.0
  0
ARC
  5
14F
330
1E
100
AcDbEntity
  8
CSLAYER1
  6
CONTINUOUS
 62
     3
100
AcDbCircle
 10
16.674287
 20
41.13275
 30
0.0
 40
15.0
100
AcDbArc
 50
9.298708999999997
 51
39.944505
  0
LINE
  5
150
330
1E
100
AcDbEntity
  8
CSLAYER1
  6
CONTINUOUS
 62
     3
100
AcDbLine
 10
31.477178
 20
43.556474
 30
0.0
 11
33.174287
 21
41.13275
 31
0.0
  0
LINE
  5
151
330
1E
100
AcDbEntity
  8
CSLAYER1
  6
CONTINUOUS
 62
     3
100
AcDbLine
 10
33.174287
 20
41.13275
 30
0.0
 11
34.87139699999998
 21
43.556474
 31
0.0
  0
ARC
  5
152
330
1E
100
AcDbEntity
  8
CSLAYER1
  6
CONTINUOUS
 62
     3
100
AcDbCircle
 10
49.674287
 20
41.13275
 30
0.0
 40
15.0
100
AcDbArc
 50
140.055495
 51
170.7012909999999
  0
CIRCLE
  5
153
330
1E
100
AcDbEntity
  8
CSLAYER1
  6
CONTINUOUS
 62
     3
100
AcDbCircle
 10
138.91012
 20
35.63275
 30
0.0
 40
12.0
  0
CIRCLE
  5
154
330
1E
100
AcDbEntity
  8
CSLAYER1
  6
CONTINUOUS
 62
     3
100
AcDbCircle
 10
138.91012
 20
35.63275
 30
0.0
 40
4.049999999999998
  0
ARC
  5
155
330
1E
100
AcDbEntity
  8
CSLAYER1
  6
CONTINUOUS
 62
     3
100
AcDbCircle
 10
128.571275
 20
48.740208
 30
0.0
 40
40.0
100
AcDbArc
 50
275.259496
 51
300.8758999999999
  0
LINE
  5
156
330
1E
100
AcDbEntity
  8
CSLAYER1
  6
CENTER
 62
     4
100
AcDbLine
 10
138.91012
 20
7.263163
 30
0.0
 11
138.91012
 21
63.450354
 31
0.0
  0
LINE
  5
157
330
1E
100
AcDbEntity
  8
CSLAYER1
  6
CENTER
 62
     4
100
AcDbLine
 10
40.47461699999998
 20
35.63275
 30
0.0
 11
25.084715
 21
35.63275
 31
0.0
  0
LINE
  5
158
330
1E
100
AcDbEntity
  8
CSLAYER1
  6
CONTINUOUS
 62
     3
100
AcDbLine
 10
38.174287
 20
20.50206999999999
 30
0.0
 11
38.174287
 21
4.132749999999998
 31
0.0
  0
LINE
  5
159
330
1E
100
AcDbEntity
  8
CSLAYER1
  6
CONTINUOUS
 62
     3
100
AcDbLine
 10
38.174287
 20
4.132749999999998
 30
0.0
 11
28.174287
 21
4.132749999999998
 31
0.0
  0
LINE
  5
15A
330
1E
100
AcDbEntity
  8
CSLAYER1
  6
CONTINUOUS
 62
     3
100
AcDbLine
 10
28.174287
 20
4.132749999999998
 30
0.0
 11
28.174287
 21
20.50206999999999
 31
0.0
  0
ARC
  5
15B
330
1E
100
AcDbEntity
  8
CSLAYER1
  6
CONTINUOUS
 62
     3
100
AcDbCircle
 10
16.674287
 20
30.13275
 30
0.0
 40
15.0
100
AcDbArc
 50
320.055495
 51
350.701291
  0
LINE
  5
15C
330
1E
100
AcDbEntity
  8
CSLAYER1
  6
CONTINUOUS
 62
     3
100
AcDbLine
 10
31.477178
 20
27.709026
 30
0.0
 11
33.174287
 21
30.13275
 31
0.0
  0
LINE
  5
15D
330
1E
100
AcDbEntity
  8
CSLAYER1
  6
CONTINUOUS
 62
     3
100
AcDbLine
 10
33.174287
 20
30.13275
 30
0.0
 11
34.87139699999998
 21
27.709026
 31
0.0
  0
ARC
  5
15E
330
1E
100
AcDbEntity
  8
CSLAYER1
  6
CONTINUOUS
 62
     3
100
AcDbCircle
 10
49.674287
 20
30.13275
 30
0.0
 40
15.0
100
AcDbArc
 50
189.298709
 51
219.944505
  0
LINE
  5
15F
330
1E
100
AcDbEntity
  8
CSLAYER1
  6
CONTINUOUS
 62
     3
100
AcDbLine
 10
119.634868
 20
151.625
 30
0.0
 11
119.634868
 21
150.625
 31
0.0
  0
LINE
  5
160
330
1E
100
AcDbEntity
  8
CSLAYER1
  6
CONTINUOUS
 62
     3
100
AcDbLine
 10
122.634868
 20
151.625
 30
0.0
 11
122.634868
 21
177.103751
 31
0.0
  0
LINE
  5
161
330
1E
100
AcDbEntity
  8
CSLAYER1
  6
CONTINUOUS
 62
     3
100
AcDbLine
 10
109.036427
 20
32.88275
 30
0.0
 11
109.082261
 21
32.384855
 31
0.0
  0
LINE
  5
162
330
1E
100
AcDbEntity
  8
CSLAYER1
  6
CENTER
 62
     4
100
AcDbLine
 10
70.86521199999999
 20
35.63275
 30
0.0
 11
154.2485239999999
 21
35.63275
 31
0.0
  0
LINE
  5
163
330
1E
100
AcDbEntity
  8
CSLAYER1
  6
CONTINUOUS
 62
     3
100
AcDbLine
 10
112.06963
 20
38.605645
 30
0.0
 11
114.405182
 21
63.97712399999999
 31
0.0
  0
LINE
  5
164
330
1E
100
AcDbEntity
  8
CSLAYER1
  6
CONTINUOUS
 62
     3
100
AcDbLine
 10
115.226734
 20
63.922835
 30
0.0
 11
132.2379409999999
 21
62.35688199999999
 31
0.0
  0
LINE
  5
165
330
1E
100
AcDbEntity
  8
CSLAYER1
  6
CONTINUOUS
 62
     3
100
AcDbLine
 10
109.082261
 20
38.880645
 30
0.0
 11
115.187013
 21
38.318677
 31
0.0
  0
ARC
  5
166
330
1E
100
AcDbEntity
  8
CSLAYER1
  6
CONTINUOUS
 62
     3
100
AcDbCircle
 10
110.071058
 20
38.71302299999999
 30
0.0
 40
2.0
100
AcDbArc
 50
354.740504
 51
84.74050400000001
  0
LINE
  5
167
330
1E
100
AcDbEntity
  8
CSLAYER1
  6
CONTINUOUS
 62
     3
100
AcDbLine
 10
110.254392
 20
40.704603
 30
0.0
 11
80.121657
 21
43.47844799999999
 31
0.0
  0
LINE
  5
168
330
1E
100
AcDbEntity
  8
CSLAYER1
  6
CONTINUOUS
 62
     3
100
AcDbLine
 10
79.16273499999999
 20
41.13275
 30
0.0
 11
109.036427
 21
38.38275
 31
0.0
  0
ARC
  5
169
330
1E
100
AcDbEntity
  8
CSLAYER1
  6
CONTINUOUS
 62
     3
100
AcDbCircle
 10
114.9120129999999
 20
35.331307
 30
0.0
 40
3.0
100
AcDbArc
 50
10.67037699999999
 51
84.74050400000001
  0
ARC
  5
16A
330
1E
100
AcDbEntity
  8
CSLAYER1
  6
CONTINUOUS
 62
     3
100
AcDbCircle
 10
109.6442399999999
 20
44.98551299999999
 30
0.0
 40
3.0
100
AcDbArc
 50
354.740504
 51
84.74050400000001
  0
LINE
  5
16B
330
1E
100
AcDbEntity
  8
CSLAYER1
  6
CONTINUOUS
 62
     3
100
AcDbLine
 10
109.9192399999999
 20
47.972883
 30
0.0
 11
84.22162
 21
50.338457
 31
0.0
  0
ARC
  5
16C
330
1E
100
AcDbEntity
  8
CSLAYER1
  6
CONTINUOUS
 62
     3
100
AcDbCircle
 10
112.0184
 20
29.070194
 30
0.0
 40
35.0
100
AcDbArc
 50
84.74050400000001
 51
159.839907
  0
ARC
  5
16D
330
1E
100
AcDbEntity
  8
CSLAYER1
  6
CONTINUOUS
 62
     3
100
AcDbCircle
 10
128.571275
 20
22.525292
 30
0.0
 40
40.0
100
AcDbArc
 50
59.893658
 51
84.74050400000001
  0
LINE
  5
16E
330
1E
100
AcDbEntity
  8
CSLAYER1
  6
CONTINUOUS
 62
     3
100
AcDbLine
 10
109.036427
 20
38.38275
 30
0.0
 11
109.082261
 21
38.880645
 31
0.0
  0
LINE
  5
16F
330
1E
100
AcDbEntity
  8
CSLAYER1
  6
CONTINUOUS
 62
     3
100
AcDbLine
 10
149.485082
 20
57.171771
 30
0.0
 11
136.98512
 21
56.54433499999999
 31
0.0
  0
DIMENSION
  5
170
330
1E
100
AcDbEntity
  8
CSLAYER1
 62
     4
100
AcDbDimension
  2
*D12
 10
65.907724
 20
41.13275
 30
0.0
 11
65.40772199999999
 21
35.632751
 31
0.0
 70
     1
100
AcDbAlignedDimension
 13
79.16273499999999
 23
30.13275
 33
0.0
 14
79.16273499999999
 24
41.13275
 34
0.0
  0
LINE
  5
171
330
1E
100
AcDbEntity
  8
CSLAYER1
  6
DOT
 62
     3
100
AcDbLine
 10
4.0
 20
1.0
 30
0.0
 11
283.0
 21
1.0
 31
0.0
  0
LINE
  5
172
330
1E
100
AcDbEntity
  8
CSLAYER1
  6
DOT
 62
     3
100
AcDbLine
 10
283.0
 20
1.0
 30
0.0
 11
283.0
 21
195.0
 31
0.0
  0
LINE
  5
173
330
1E
100
AcDbEntity
  8
CSLAYER1
  6
DOT
 62
     3
100
AcDbLine
 10
283.0
 20
195.0
 30
0.0
 11
4.0
 21
195.0
 31
0.0
  0
LINE
  5
174
330
1E
100
AcDbEntity
  8
CSLAYER1
  6
DOT
 62
     3
100
AcDbLine
 10
4.0
 20
195.0
 30
0.0
 11
4.0
 21
1.0
 31
0.0
  0
LINE
  5
175
330
1E
100
AcDbEntity
  8
CSLAYER1
  6
DOT
 62
     3
100
AcDbLine
 10
4.0
 20
98.0
 30
0.0
 11
0.0
 21
98.0
 31
0.0
  0
LINE
  5
176
330
1E
100
AcDbEntity
  8
CSLAYER1
  6
DOT
 62
     3
100
AcDbLine
 10
283.0
 20
98.0
 30
0.0
 11
287.0
 21
98.0
 31
0.0
  0
ENDSEC
  0
SECTION
  2
OBJECTS
  0
DICTIONARY
  5
C
330
0
100
AcDbDictionary
  3
ACAD_GROUP
350
D
  3
ACAD_LAYOUT
350
19
  3
ACAD_MLINESTYLE
350
16
  3
ACAD_PLOTSETTINGS
350
18
1001
ACAD
1000
TREAT_AS_HARD
1070
     0
1000
TREAT_AS_HARD
1070
     0
  0
DICTIONARY
  5
180
330
1E
100
AcDbDictionary
  3
ACAD_LAYOUTSELFREF
350
19F
1001
ACAD
1000
TREAT_AS_HARD
1070
     0
  0
DICTIONARY
  5
17E
330
1A
100
AcDbDictionary
  3
ACAD_LAYOUTSELFREF
350
19E
1001
ACAD
1000
TREAT_AS_HARD
1070
     0
  0
DICTIONARY
  5
D
102
{ACAD_REACTORS
330
C
102
}
330
C
100
AcDbDictionary
1001
ACAD
1000
TREAT_AS_HARD
1070
     0
1000
TREAT_AS_HARD
1070
     0
  0
DICTIONARY
  5
19
102
{ACAD_REACTORS
330
C
102
}
330
C
100
AcDbDictionary
1001
ACAD
1000
TREAT_AS_HARD
1070
     0
1000
TREAT_AS_HARD
1070
     0
  0
DICTIONARY
  5
16
102
{ACAD_REACTORS
330
C
102
}
330
C
100
AcDbDictionary
  3
STANDARD
350
17
1001
ACAD
1000
TREAT_AS_HARD
1070
     0
1000
TREAT_AS_HARD
1070
     0
  0
DICTIONARY
  5
18
102
{ACAD_REACTORS
330
C
102
}
330
C
100
AcDbDictionary
1001
ACAD
1000
TREAT_AS_HARD
1070
     0
1000
TREAT_AS_HARD
1070
     0
  0
XRECORD
  5
19F
102
{ACAD_REACTORS
330
180
102
}
330
180
100
AcDbXrecord
340
1E
  0
XRECORD
  5
19E
102
{ACAD_REACTORS
330
17E
102
}
330
17E
100
AcDbXrecord
340
1A
  0
MLINESTYLE
  5
17
102
{ACAD_REACTORS
330
16
102
}
330
16
100
AcDbMlineStyle
  2
STANDARD
 70
     0
  3

 62
   256
 51
90.0
 52
90.0
 71
     2
 49
0.5
 62
   256
  6
BYLAYER
 49
-0.5
 62
   256
  6
BYLAYER
  0
ENDSEC
  0
EOF
