  0
SECTION
  2
HEADER
  9
$ACADVER
  1
AC1012
  9
$DWGCODEPAGE
  3
dos932
  9
$INSBASE
 10
0.0
 20
0.0
 30
0.0
  9
$EXTMIN
 10
-0.0090630292066862
 20
0.9869389666558276
 30
-0.0015258207003583
  9
$EXTMAX
 10
283.0056159095904
 20
199.0155034058442
 30
0.0000000349246037
  9
$LIMMIN
 10
0.0
 20
0.0
  9
$LIMMAX
 10
297.0
 20
210.0
  9
$ORTHOMODE
 70
     0
  9
$REGENMODE
 70
     1
  9
$FILLMODE
 70
     1
  9
$QTEXTMODE
 70
     0
  9
$MIRRTEXT
 70
     1
  9
$DRAGMODE
 70
     2
  9
$LTSCALE
 40
15.0
  9
$OSMODE
 70
    37
  9
$ATTMODE
 70
     1
  9
$TEXTSIZE
 40
0.2
  9
$TRACEWID
 40
0.05
  9
$TEXTSTYLE
  7
GOTHIC
  9
$CLAYER
  8
CSLAYER1
  9
$CELTYPE
  6
BYLAYER
  9
$CECOLOR
 62
   256
  9
$CELTSCALE
 40
1.0
  9
$DELOBJ
 70
     1
  9
$DISPSILH
 70
     0
  9
$DIMSCALE
 40
1.0
  9
$DIMASZ
 40
0.18
  9
$DIMEXO
 40
0.0625
  9
$DIMDLI
 40
0.38
  9
$DIMRND
 40
0.0
  9
$DIMDLE
 40
0.0
  9
$DIMEXE
 40
0.18
  9
$DIMTP
 40
0.0
  9
$DIMTM
 40
0.0
  9
$DIMTXT
 40
0.18
  9
$DIMCEN
 40
0.09
  9
$DIMTSZ
 40
0.0
  9
$DIMTOL
 70
     0
  9
$DIMLIM
 70
     0
  9
$DIMTIH
 70
     1
  9
$DIMTOH
 70
     1
  9
$DIMSE1
 70
     0
  9
$DIMSE2
 70
     0
  9
$DIMTAD
 70
     0
  9
$DIMZIN
 70
     0
  9
$DIMBLK
  1

  9
$DIMASO
 70
     1
  9
$DIMSHO
 70
     1
  9
$DIMPOST
  1

  9
$DIMAPOST
  1

  9
$DIMALT
 70
     0
  9
$DIMALTD
 70
     2
  9
$DIMALTF
 40
25.4
  9
$DIMLFAC
 40
1.0
  9
$DIMTOFL
 70
     0
  9
$DIMTVP
 40
0.0
  9
$DIMTIX
 70
     0
  9
$DIMSOXD
 70
     0
  9
$DIMSAH
 70
     0
  9
$DIMBLK1
  1

  9
$DIMBLK2
  1

  9
$DIMSTYLE
  2
STANDARD
  9
$DIMCLRD
 70
     0
  9
$DIMCLRE
 70
     0
  9
$DIMCLRT
 70
     0
  9
$DIMTFAC
 40
1.0
  9
$DIMGAP
 40
0.09
  9
$DIMJUST
 70
     0
  9
$DIMSD1
 70
     0
  9
$DIMSD2
 70
     0
  9
$DIMTOLJ
 70
     1
  9
$DIMTZIN
 70
     0
  9
$DIMALTZ
 70
     0
  9
$DIMALTTZ
 70
     0
  9
$DIMFIT
 70
     3
  9
$DIMUPT
 70
     0
  9
$DIMUNIT
 70
     2
  9
$DIMDEC
 70
     4
  9
$DIMTDEC
 70
     4
  9
$DIMALTU
 70
     2
  9
$DIMALTTD
 70
     2
  9
$DIMTXSTY
  7
STANDARD
  9
$DIMAUNIT
 70
     0
  9
$LUNITS
 70
     2
  9
$LUPREC
 70
     4
  9
$SKETCHINC
 40
0.1
  9
$FILLETRAD
 40
0.0
  9
$AUNITS
 70
     0
  9
$AUPREC
 70
     0
  9
$MENU
  1
ACAD
  9
$ELEVATION
 40
0.0
  9
$PELEVATION
 40
0.0
  9
$THICKNESS
 40
0.0
  9
$LIMCHECK
 70
     0
  9
$BLIPMODE
 70
     1
  9
$CHAMFERA
 40
0.0
  9
$CHAMFERB
 40
0.0
  9
$CHAMFERC
 40
0.0
  9
$CHAMFERD
 40
0.0
  9
$SKPOLY
 70
     0
  9
$TDCREATE
 40
2453481.000000000
  9
$TDUPDATE
 40
2453516.561925336
  9
$TDINDWG
 40
0.0028114468
  9
$TDUSRTIMER
 40
0.0028114468
  9
$USRTIMER
 70
     1
  9
$ANGBASE
 50
0.0
  9
$ANGDIR
 70
     0
  9
$PDMODE
 70
     0
  9
$PDSIZE
 40
0.0
  9
$PLINEWID
 40
0.0
  9
$COORDS
 70
     0
  9
$SPLFRAME
 70
     0
  9
$SPLINETYPE
 70
     6
  9
$SPLINESEGS
 70
     8
  9
$ATTDIA
 70
     0
  9
$ATTREQ
 70
     1
  9
$HANDLING
 70
-16383
  9
$HANDSEED
  5
1D2
  9
$SURFTAB1
 70
     6
  9
$SURFTAB2
 70
     6
  9
$SURFTYPE
 70
     6
  9
$SURFU
 70
     6
  9
$SURFV
 70
     6
  9
$UCSNAME
  2

  9
$UCSORG
 10
0.0
 20
0.0
 30
0.0
  9
$UCSXDIR
 10
1.0
 20
0.0
 30
0.0
  9
$UCSYDIR
 10
0.0
 20
1.0
 30
0.0
  9
$PUCSNAME
  2

  9
$PUCSORG
 10
0.0
 20
0.0
 30
0.0
  9
$PUCSXDIR
 10
1.0
 20
0.0
 30
0.0
  9
$PUCSYDIR
 10
0.0
 20
1.0
 30
0.0
  9
$USERI1
 70
     0
  9
$USERI2
 70
     0
  9
$USERI3
 70
     0
  9
$USERI4
 70
     0
  9
$USERI5
 70
     0
  9
$USERR1
 40
0.0
  9
$USERR2
 40
0.0
  9
$USERR3
 40
0.0
  9
$USERR4
 40
0.0
  9
$USERR5
 40
0.0
  9
$WORLDVIEW
 70
     1
  9
$SHADEDGE
 70
     3
  9
$SHADEDIF
 70
    70
  9
$TILEMODE
 70
     1
  9
$MAXACTVP
 70
    64
  9
$PINSBASE
 10
0.0
 20
0.0
 30
0.0
  9
$PLIMCHECK
 70
     0
  9
$PEXTMIN
 10
1.000000000000000E+20
 20
1.000000000000000E+20
 30
1.000000000000000E+20
  9
$PEXTMAX
 10
-1.000000000000000E+20
 20
-1.000000000000000E+20
 30
-1.000000000000000E+20
  9
$PLIMMIN
 10
0.0
 20
0.0
  9
$PLIMMAX
 10
12.0
 20
9.0
  9
$UNITMODE
 70
     0
  9
$VISRETAIN
 70
     1
  9
$PLINEGEN
 70
     0
  9
$PSLTSCALE
 70
     1
  9
$TREEDEPTH
 70
  3020
  9
$PICKSTYLE
 70
     3
  9
$CMLSTYLE
  2
STANDARD
  9
$CMLJUST
 70
     0
  9
$CMLSCALE
 40
1.0
  9
$SAVEIMAGES
 70
     1
  0
ENDSEC
  0
SECTION
  2
CLASSES
  0
CLASS
  1
ACDBDICTIONARYWDFLT
  2
AcDbDictionaryWithDefault
  3
AutoCAD 2000
 90
    32768
280
     0
281
     0
  0
CLASS
  1
ACDBPLACEHOLDER
  2
AcDbPlaceHolder
  3
AutoCAD 2000
 90
    32768
280
     0
281
     0
  0
CLASS
  1
LAYOUT
  2
AcDbLayout
  3
AutoCAD 2000
 90
    32768
280
     0
281
     0
  0
CLASS
  1
DICTIONARYVAR
  2
AcDbDictionaryVar
  3
AutoCAD 2000
 90
    32768
280
     0
281
     0
  0
CLASS
  1
LONG_TRANSACTION
  2
AcDbLongTransaction
  3
AutoCAD 2000
 90
    32768
280
     0
281
     0
  0
CLASS
  1
LWPOLYLINE
  2
AcDbPolyline
  3
AutoCAD 2000
 90
    32768
280
     0
281
     1
  0
CLASS
  1
HATCH
  2
AcDbHatch
  3
AutoCAD 2000
 90
    32768
280
     0
281
     1
  0
CLASS
  1
XRECORD
  2
AcDbXrecord
  3
AutoCAD 2000
 90
    32768
280
     0
281
     0
  0
CLASS
  1
LONG_TRANSACTION
  2
AcDbLongTransaction
  3
AutoCAD 2000
 90
    32768
280
     0
281
     0
  0
CLASS
  1
LWPOLYLINE
  2
AcDbPolyline
  3
AutoCAD 2000
 90
    32768
280
     0
281
     1
  0
CLASS
  1
HATCH
  2
AcDbHatch
  3
AutoCAD 2000
 90
    32768
280
     0
281
     1
  0
CLASS
  1
XRECORD
  2
AcDbXrecord
  3
AutoCAD 2000
 90
    32768
280
     0
281
     0
  0
ENDSEC
  0
SECTION
  2
TABLES
  0
TABLE
  2
VPORT
  5
8
330
0
100
AcDbSymbolTable
 70
     2
  0
VPORT
  5
1CF
330
8
100
AcDbSymbolTableRecord
100
AcDbViewportTableRecord
  2
*ACTIVE
 70
     0
 10
0.0
 20
0.0
 11
1.0
 21
1.0
 12
141.4982764401918
 22
100.00122118625
 13
0.0
 23
0.0
 14
1.0
 24
1.0
 15
0.0
 25
0.0
 16
0.0
 26
0.0
 36
1.0
 17
0.0
 27
0.0
 37
0.0
 40
199.5156375138256
 41
1.510025062656641
 42
50.0
 43
0.0
 44
0.0
 50
0.0
 51
0.0
 71
     0
 72
   100
 73
     1
 74
     1
 75
     0
 76
     0
 77
     0
 78
     0
  0
ENDTAB
  0
TABLE
  2
LTYPE
  5
5
330
0
100
AcDbSymbolTable
 70
     4
  0
LTYPE
  5
13
330
5
100
AcDbSymbolTableRecord
100
AcDbLinetypeTableRecord
  2
BYBLOCK
 70
     0
  3

 72
    65
 73
     0
 40
0.0
  0
LTYPE
  5
14
330
5
100
AcDbSymbolTableRecord
100
AcDbLinetypeTableRecord
  2
BYLAYER
 70
     0
  3

 72
    65
 73
     0
 40
0.0
  0
LTYPE
  5
15
330
5
100
AcDbSymbolTableRecord
100
AcDbLinetypeTableRecord
  2
CONTINUOUS
 70
     0
  3
Solid line
 72
    65
 73
     0
 40
0.0
  0
LTYPE
  5
23
330
5
100
AcDbSymbolTableRecord
100
AcDbLinetypeTableRecord
  2
DASHED
 70
     0
  3
__ __ __ __ __ __ __ __ __ __ __ __ __ __ __
 72
    65
 73
     2
 40
0.75
 49
0.5
 74
     0
 49
-0.25
 74
     0
  0
LTYPE
  5
25
330
5
100
AcDbSymbolTableRecord
100
AcDbLinetypeTableRecord
  2
DOT
 70
     0
  3
...............................................
 72
    65
 73
     2
 40
0.25
 49
0.0
 74
     0
 49
-0.25
 74
     0
  0
LTYPE
  5
28
330
5
100
AcDbSymbolTableRecord
100
AcDbLinetypeTableRecord
  2
CENTER
 70
     0
  3
____ _ ____ _ ____ _ ____ _ ____ _ ____ _ ____ 
 72
    65
 73
     4
 40
2.0
 49
1.25
 74
     0
 49
-0.25
 74
     0
 49
0.25
 74
     0
 49
-0.25
 74
     0
  0
ENDTAB
  0
TABLE
  2
LAYER
  5
2
330
0
100
AcDbSymbolTable
 70
     3
  0
LAYER
  5
10
330
2
100
AcDbSymbolTableRecord
100
AcDbLayerTableRecord
  2
0
 70
     0
 62
     7
  6
CONTINUOUS
  0
LAYER
  5
22
330
2
100
AcDbSymbolTableRecord
100
AcDbLayerTableRecord
  2
CSLAYER1
 70
     0
 62
     7
  6
CONTINUOUS
  0
LAYER
  5
18A
330
2
100
AcDbSymbolTableRecord
100
AcDbLayerTableRecord
  2
DEFPOINTS
 70
     0
 62
     7
  6
CONTINUOUS
  0
ENDTAB
  0
TABLE
  2
STYLE
  5
3
330
0
100
AcDbSymbolTable
 70
     3
  0
STYLE
  5
11
330
3
100
AcDbSymbolTableRecord
100
AcDbTextStyleTableRecord
  2
STANDARD
 70
     0
 40
0.0
 41
1.0
 50
0.0
 71
     0
 42
0.2
  3
txt
  4
extfont.shx
  0
STYLE
  5
3A
330
3
100
AcDbSymbolTableRecord
100
AcDbTextStyleTableRecord
  2
FX_FONT
 70
     0
 40
1.0
 41
1.0
 50
0.0
 71
     0
 42
1.0
  3
monotxt
  4
bigfont
  0
STYLE
  5
182
330
3
100
AcDbSymbolTableRecord
100
AcDbTextStyleTableRecord
  2
GOTHIC
 70
     0
 40
0.0
 41
1.0
 50
0.0
 71
     0
 42
0.2
  3
txt.shx
  4
extfont.shx
  0
ENDTAB
  0
TABLE
  2
VIEW
  5
6
330
0
100
AcDbSymbolTable
 70
     0
  0
ENDTAB
  0
TABLE
  2
UCS
  5
7
330
0
100
AcDbSymbolTable
 70
     0
  0
ENDTAB
  0
TABLE
  2
APPID
  5
9
330
0
100
AcDbSymbolTable
 70
     1
  0
APPID
  5
12
330
9
100
AcDbSymbolTableRecord
100
AcDbRegAppTableRecord
  2
ACAD
 70
     0
  0
ENDTAB
  0
TABLE
  2
DIMSTYLE
  5
A
330
0
100
AcDbSymbolTable
 70
     1
  0
DIMSTYLE
105
17F
330
A
100
AcDbSymbolTableRecord
100
AcDbDimStyleTableRecord
  2
STANDARD
 70
     0
  3

  4

  5

  6

  7

 40
1.0
 41
0.18
 42
0.0625
 43
0.38
 44
0.18
 45
0.0
 46
0.0
 47
0.0
 48
0.0
140
0.18
141
0.09
142
0.0
143
25.4
144
1.0
145
0.0
146
1.0
147
0.09
 71
     0
 72
     0
 73
     1
 74
     1
 75
     0
 76
     0
 77
     0
 78
     0
170
     0
171
     2
172
     0
173
     0
174
     0
175
     0
176
     0
177
     0
178
     0
270
     2
271
     4
272
     4
273
     2
274
     2
340
11
275
     0
280
     0
281
     0
282
     0
283
     1
284
     0
285
     0
286
     0
287
     3
288
     0
  0
ENDTAB
  0
TABLE
  2
BLOCK_RECORD
  5
1
330
0
100
AcDbSymbolTable
 70
    19
  0
BLOCK_RECORD
  5
1E
102
{ACAD_XDICTIONARY
360
188
102
}
330
1
100
AcDbSymbolTableRecord
100
AcDbBlockTableRecord
  2
*MODEL_SPACE
  0
BLOCK_RECORD
  5
1A
102
{ACAD_XDICTIONARY
360
186
102
}
330
1
100
AcDbSymbolTableRecord
100
AcDbBlockTableRecord
  2
*PAPER_SPACE
  0
BLOCK_RECORD
  5
3F
330
1
100
AcDbSymbolTableRecord
100
AcDbBlockTableRecord
  2
*D0
  0
BLOCK_RECORD
  5
48
330
1
100
AcDbSymbolTableRecord
100
AcDbBlockTableRecord
  2
*D1
  0
BLOCK_RECORD
  5
4F
330
1
100
AcDbSymbolTableRecord
100
AcDbBlockTableRecord
  2
*D2
  0
BLOCK_RECORD
  5
5A
330
1
100
AcDbSymbolTableRecord
100
AcDbBlockTableRecord
  2
*D3
  0
BLOCK_RECORD
  5
67
330
1
100
AcDbSymbolTableRecord
100
AcDbBlockTableRecord
  2
*D4
  0
BLOCK_RECORD
  5
72
330
1
100
AcDbSymbolTableRecord
100
AcDbBlockTableRecord
  2
FXDIM0000
  0
BLOCK_RECORD
  5
7A
330
1
100
AcDbSymbolTableRecord
100
AcDbBlockTableRecord
  2
FXDIM0001
  0
BLOCK_RECORD
  5
84
330
1
100
AcDbSymbolTableRecord
100
AcDbBlockTableRecord
  2
FXDIM0002
  0
BLOCK_RECORD
  5
8E
330
1
100
AcDbSymbolTableRecord
100
AcDbBlockTableRecord
  2
*D8
  0
BLOCK_RECORD
  5
99
330
1
100
AcDbSymbolTableRecord
100
AcDbBlockTableRecord
  2
*D9
  0
BLOCK_RECORD
  5
A4
330
1
100
AcDbSymbolTableRecord
100
AcDbBlockTableRecord
  2
*D10
  0
BLOCK_RECORD
  5
AE
330
1
100
AcDbSymbolTableRecord
100
AcDbBlockTableRecord
  2
*D11
  0
BLOCK_RECORD
  5
B9
330
1
100
AcDbSymbolTableRecord
100
AcDbBlockTableRecord
  2
*D12
  0
BLOCK_RECORD
  5
C3
330
1
100
AcDbSymbolTableRecord
100
AcDbBlockTableRecord
  2
*D13
  0
BLOCK_RECORD
  5
D0
330
1
100
AcDbSymbolTableRecord
100
AcDbBlockTableRecord
  2
*D14
  0
BLOCK_RECORD
  5
18B
330
1
100
AcDbSymbolTableRecord
100
AcDbBlockTableRecord
  2
*D15
  0
BLOCK_RECORD
  5
198
330
1
100
AcDbSymbolTableRecord
100
AcDbBlockTableRecord
  2
*D16
  0
BLOCK_RECORD
  5
1A6
330
1
100
AcDbSymbolTableRecord
100
AcDbBlockTableRecord
  2
*D17
  0
BLOCK_RECORD
  5
1B5
330
1
100
AcDbSymbolTableRecord
100
AcDbBlockTableRecord
  2
*D18
  0
ENDTAB
  0
ENDSEC
  0
SECTION
  2
BLOCKS
  0
BLOCK
  5
1F
330
1E
100
AcDbEntity
  8
0
100
AcDbBlockBegin
  2
*MODEL_SPACE
 70
     0
 10
0.0
 20
0.0
 30
0.0
  3
*MODEL_SPACE
  1

  0
ENDBLK
  5
20
330
1E
100
AcDbEntity
  8
0
100
AcDbBlockEnd
  0
BLOCK
  5
1B
330
1A
100
AcDbEntity
 67
     1
  8
0
100
AcDbBlockBegin
  2
*PAPER_SPACE
 70
     0
 10
0.0
 20
0.0
 30
0.0
  3
*PAPER_SPACE
  1

  0
ENDBLK
  5
1C
330
1A
100
AcDbEntity
 67
     1
  8
0
100
AcDbBlockEnd
  0
BLOCK
  5
40
330
3F
100
AcDbEntity
  8
0
100
AcDbBlockBegin
  2
*D0
 70
     1
 10
0.0
 20
0.0
 30
0.0
  3
*D0
  1

  0
TEXT
  5
41
330
3F
100
AcDbEntity
  8
CSLAYER1
 62
     4
100
AcDbText
 10
123.9504249999999
 20
77.07022099999997
 30
0.0
 40
3.2
  1
30%%d
 50
74.99999914162373
 41
1.285714300251909
 51
15.0
  7
FX_FONT
 72
     5
 11
126.435088
 21
86.343109
 31
0.0
100
AcDbText
  0
ARC
  5
42
330
3F
100
AcDbEntity
  8
CSLAYER1
  6
CONTINUOUS
 62
     4
100
AcDbCircle
 10
143.615132
 20
76.77039499999998
 30
0.0
 40
18.57225
100
AcDbArc
 50
150.0
 51
180.0
  0
LINE
  5
43
330
3F
100
AcDbEntity
  8
CSLAYER1
  6
CONTINUOUS
 62
     4
100
AcDbLine
 10
127.5310909999999
 20
86.05651999999997
 30
0.0
 11
126.754634
 21
83.15874200000001
 31
0.0
  0
LINE
  5
44
330
3F
100
AcDbEntity
  8
CSLAYER1
  6
CONTINUOUS
 62
     4
100
AcDbLine
 10
127.5310909999999
 20
86.05651999999997
 30
0.0
 11
125.4097709999999
 21
83.93519899999999
 31
0.0
  0
LINE
  5
45
330
3F
100
AcDbEntity
  8
CSLAYER1
  6
CONTINUOUS
 62
     4
100
AcDbLine
 10
125.042881
 20
76.77039499999998
 30
0.0
 11
124.266424
 21
79.668172
 31
0.0
  0
LINE
  5
46
330
3F
100
AcDbEntity
  8
CSLAYER1
  6
CONTINUOUS
 62
     4
100
AcDbLine
 10
125.042881
 20
76.77039499999998
 30
0.0
 11
125.8193389999999
 21
79.668172
 31
0.0
  0
ENDBLK
  5
47
330
3F
100
AcDbEntity
  8
0
100
AcDbBlockEnd
  0
BLOCK
  5
49
330
48
100
AcDbEntity
  8
0
100
AcDbBlockBegin
  2
*D1
 70
     1
 10
0.0
 20
0.0
 30
0.0
  3
*D1
  1

  0
TEXT
  5
4A
330
48
100
AcDbEntity
  8
CSLAYER1
 62
     4
100
AcDbText
 10
135.742186
 20
135.554425
 30
0.0
 40
3.2
  1
R35
 50
58.49225990855009
 41
1.12500001468925
 51
15.0
  7
FX_FONT
 72
     5
 11
140.7592779999999
 21
143.739093
 31
0.0
100
AcDbText
  0
LINE
  5
4B
330
48
100
AcDbEntity
  8
CSLAYER1
  6
CONTINUOUS
 62
     4
100
AcDbLine
 10
129.7175269999998
 20
134.63046
 30
0.0
 11
142.594244
 21
155.6369809999999
 31
0.0
  0
LINE
  5
4C
330
48
100
AcDbEntity
  8
CSLAYER1
  6
CONTINUOUS
 62
     4
100
AcDbLine
 10
129.7175269999998
 20
134.63046
 30
0.0
 11
130.569962
 21
137.506804
 31
0.0
  0
LINE
  5
4D
330
48
100
AcDbEntity
  8
CSLAYER1
  6
CONTINUOUS
 62
     4
100
AcDbLine
 10
129.7175269999998
 20
134.63046
 30
0.0
 11
131.89393
 21
136.695229
 31
0.0
  0
ENDBLK
  5
4E
330
48
100
AcDbEntity
  8
0
100
AcDbBlockEnd
  0
BLOCK
  5
50
330
4F
100
AcDbEntity
  8
0
100
AcDbBlockBegin
  2
*D2
 70
     1
 10
0.0
 20
0.0
 30
0.0
  3
*D2
  1

  0
TEXT
  5
51
330
4F
100
AcDbEntity
  8
CSLAYER1
 62
     4
100
AcDbText
 10
107.239136
 20
134.270398
 30
0.0
 40
3.2
  1
31.5~33
 50
90.0
 41
1.049999999999994
 51
15.0
  7
FX_FONT
 72
     5
 11
107.239136
 21
156.6703979999998
 31
0.0
100
AcDbText
  0
LINE
  5
52
330
4F
100
AcDbEntity
  8
CSLAYER1
  6
CONTINUOUS
 62
     4
100
AcDbLine
 10
147.009008
 20
129.4703949999999
 30
0.0
 11
106.739132
 21
129.4703949999999
 31
0.0
  0
LINE
  5
53
330
4F
100
AcDbEntity
  8
CSLAYER1
  6
CONTINUOUS
 62
     4
100
AcDbLine
 10
147.009008
 20
161.4703949999999
 30
0.0
 11
106.739132
 21
161.4703949999999
 31
0.0
  0
LINE
  5
54
330
4F
100
AcDbEntity
  8
CSLAYER1
  6
CONTINUOUS
 62
     4
100
AcDbLine
 10
107.739132
 20
129.4703949999999
 30
0.0
 11
107.739132
 21
161.4703949999999
 31
0.0
  0
LINE
  5
55
330
4F
100
AcDbEntity
  8
CSLAYER1
  6
CONTINUOUS
 62
     4
100
AcDbLine
 10
107.739132
 20
129.4703949999999
 30
0.0
 11
106.9626739999999
 21
132.3681719999999
 31
0.0
  0
LINE
  5
56
330
4F
100
AcDbEntity
  8
CSLAYER1
  6
CONTINUOUS
 62
     4
100
AcDbLine
 10
107.739132
 20
129.4703949999999
 30
0.0
 11
108.515589
 21
132.3681719999999
 31
0.0
  0
LINE
  5
57
330
4F
100
AcDbEntity
  8
CSLAYER1
  6
CONTINUOUS
 62
     4
100
AcDbLine
 10
107.739132
 20
161.4703949999999
 30
0.0
 11
106.9626739999999
 21
158.5726169999998
 31
0.0
  0
LINE
  5
58
330
4F
100
AcDbEntity
  8
CSLAYER1
  6
CONTINUOUS
 62
     4
100
AcDbLine
 10
107.739132
 20
161.4703949999999
 30
0.0
 11
108.515589
 21
158.5726169999998
 31
0.0
  0
ENDBLK
  5
59
330
4F
100
AcDbEntity
  8
0
100
AcDbBlockEnd
  0
BLOCK
  5
5B
330
5A
100
AcDbEntity
  8
0
100
AcDbBlockBegin
  2
*D3
 70
     1
 10
0.0
 20
0.0
 30
0.0
  3
*D3
  1

  0
TEXT
  5
5C
330
5A
100
AcDbEntity
  8
CSLAYER1
 62
     4
100
AcDbText
 10
102.671135
 20
83.494401
 30
0.0
 40
3.2
  1
17  
 50
90.0
 41
1.250000097656251
 51
15.0
  7
FX_FONT
 72
     5
 11
102.671135
 21
96.29440200000001
 31
0.0
100
AcDbText
  0
TEXT
  5
5D
330
5A
100
AcDbEntity
  8
CSLAYER1
 62
     4
100
AcDbText
 10
101.071135
 20
96.29440200000001
 30
0.0
 40
1.6
  1
  0
 50
90.0
 41
1.607142857142822
 51
15.0
  7
FX_FONT
 72
     5
 11
101.071135
 21
101.0944019999999
 31
0.0
100
AcDbText
  0
TEXT
  5
5E
330
5A
100
AcDbEntity
  8
CSLAYER1
 62
     4
100
AcDbText
 10
102.671135
 20
96.29440200000001
 30
0.0
 40
1.6
  1
-0.15
 50
90.0
 41
1.071428571428558
 51
15.0
  7
FX_FONT
 72
     5
 11
102.671135
 21
104.2944019999999
 31
0.0
100
AcDbText
  0
LINE
  5
5F
330
5A
100
AcDbEntity
  8
CSLAYER1
  6
CONTINUOUS
 62
     4
100
AcDbLine
 10
142.615132
 20
76.77039499999998
 30
0.0
 11
103.7751319999999
 21
76.77039499999998
 31
0.0
  0
LINE
  5
60
330
5A
100
AcDbEntity
  8
CSLAYER1
  6
CONTINUOUS
 62
     4
100
AcDbLine
 10
117.6636159999999
 20
93.770395
 30
0.0
 11
103.7751319999999
 21
93.770395
 31
0.0
  0
LINE
  5
61
330
5A
100
AcDbEntity
  8
CSLAYER1
  6
CONTINUOUS
 62
     4
100
AcDbLine
 10
104.7751319999999
 20
76.77039499999998
 30
0.0
 11
104.7751319999999
 21
93.770395
 31
0.0
  0
LINE
  5
62
330
5A
100
AcDbEntity
  8
CSLAYER1
  6
CONTINUOUS
 62
     4
100
AcDbLine
 10
104.7751319999999
 20
76.77039499999998
 30
0.0
 11
103.998674
 21
79.668172
 31
0.0
  0
LINE
  5
63
330
5A
100
AcDbEntity
  8
CSLAYER1
  6
CONTINUOUS
 62
     4
100
AcDbLine
 10
104.7751319999999
 20
76.77039499999998
 30
0.0
 11
105.5515889999999
 21
79.668172
 31
0.0
  0
LINE
  5
64
330
5A
100
AcDbEntity
  8
CSLAYER1
  6
CONTINUOUS
 62
     4
100
AcDbLine
 10
104.7751319999999
 20
93.770395
 30
0.0
 11
103.998674
 21
90.872617
 31
0.0
  0
LINE
  5
65
330
5A
100
AcDbEntity
  8
CSLAYER1
  6
CONTINUOUS
 62
     4
100
AcDbLine
 10
104.7751319999999
 20
93.770395
 30
0.0
 11
105.5515889999999
 21
90.872617
 31
0.0
  0
ENDBLK
  5
66
330
5A
100
AcDbEntity
  8
0
100
AcDbBlockEnd
  0
BLOCK
  5
68
330
67
100
AcDbEntity
  8
0
100
AcDbBlockBegin
  2
*D4
 70
     1
 10
0.0
 20
0.0
 30
0.0
  3
*D4
  1

  0
TEXT
  5
69
330
67
100
AcDbEntity
  8
CSLAYER1
 62
     4
100
AcDbText
 10
149.415128
 20
65.395851
 30
0.0
 40
3.2
  1
18
 41
1.200000000000001
 51
15.0
  7
FX_FONT
 72
     5
 11
155.815128
 21
65.395851
 31
0.0
100
AcDbText
  0
LINE
  5
6A
330
67
100
AcDbEntity
  8
CSLAYER1
  6
CONTINUOUS
 62
     4
100
AcDbLine
 10
143.615132
 20
75.77039499999997
 30
0.0
 11
143.615132
 21
63.895849
 31
0.0
  0
LINE
  5
6B
330
67
100
AcDbEntity
  8
CSLAYER1
  6
CONTINUOUS
 62
     4
100
AcDbLine
 10
161.615132
 20
72.48857700000002
 30
0.0
 11
161.615132
 21
63.895849
 31
0.0
  0
LINE
  5
6C
330
67
100
AcDbEntity
  8
CSLAYER1
  6
CONTINUOUS
 62
     4
100
AcDbLine
 10
143.615132
 20
64.895849
 30
0.0
 11
161.615132
 21
64.895849
 31
0.0
  0
LINE
  5
6D
330
67
100
AcDbEntity
  8
CSLAYER1
  6
CONTINUOUS
 62
     4
100
AcDbLine
 10
143.615132
 20
64.895849
 30
0.0
 11
146.512909
 21
65.67230600000001
 31
0.0
  0
LINE
  5
6E
330
67
100
AcDbEntity
  8
CSLAYER1
  6
CONTINUOUS
 62
     4
100
AcDbLine
 10
143.615132
 20
64.895849
 30
0.0
 11
146.512909
 21
64.119392
 31
0.0
  0
LINE
  5
6F
330
67
100
AcDbEntity
  8
CSLAYER1
  6
CONTINUOUS
 62
     4
100
AcDbLine
 10
161.615132
 20
64.895849
 30
0.0
 11
158.717354
 21
65.67230600000001
 31
0.0
  0
LINE
  5
70
330
67
100
AcDbEntity
  8
CSLAYER1
  6
CONTINUOUS
 62
     4
100
AcDbLine
 10
161.615132
 20
64.895849
 30
0.0
 11
158.717354
 21
64.119392
 31
0.0
  0
ENDBLK
  5
71
330
67
100
AcDbEntity
  8
0
100
AcDbBlockEnd
  0
BLOCK
  5
73
330
72
100
AcDbEntity
  8
0
100
AcDbBlockBegin
  2
FXDIM0000
 70
     0
 10
0.0
 20
0.0
 30
0.0
  3
FXDIM0000
  1

  0
LINE
  5
74
330
72
100
AcDbEntity
  8
CSLAYER1
  6
CONTINUOUS
 62
     4
100
AcDbLine
 10
160.9551429999999
 20
143.007284
 30
0.0
 11
154.244749
 21
117.963754
 31
0.0
  0
LINE
  5
75
330
72
100
AcDbEntity
  8
CSLAYER1
  6
CONTINUOUS
 62
     4
100
AcDbLine
 10
160.9551429999999
 20
143.007284
 30
0.0
 11
160.9551429999999
 21
140.0072839999999
 31
0.0
  0
LINE
  5
76
330
72
100
AcDbEntity
  8
CSLAYER1
  6
CONTINUOUS
 62
     4
100
AcDbLine
 10
160.9551429999999
 20
143.007284
 30
0.0
 11
159.4551429999999
 21
140.409208
 31
0.0
  0
LINE
  5
77
330
72
100
AcDbEntity
  8
CSLAYER1
  6
CONTINUOUS
 62
     4
100
AcDbLine
 10
154.244749
 20
117.963754
 30
0.0
 11
133.344749
 21
117.963754
 31
0.0
  0
TEXT
  5
78
330
72
100
AcDbEntity
  8
CSLAYER1
 62
     4
100
AcDbText
 10
134.0447509999999
 20
118.46376
 30
0.0
 40
3.2
  1
%%c5．１キリ
 41
0.9473684210526366
 51
15.0
  7
FX_FONT
 72
     5
 11
153.244751
 21
118.46376
 31
0.0
100
AcDbText
  0
ENDBLK
  5
79
330
72
100
AcDbEntity
  8
0
100
AcDbBlockEnd
  0
BLOCK
  5
7B
330
7A
100
AcDbEntity
  8
0
100
AcDbBlockBegin
  2
FXDIM0001
 70
     0
 10
0.0
 20
0.0
 30
0.0
  3
FXDIM0001
  1

  0
LINE
  5
7C
330
7A
100
AcDbEntity
  8
CSLAYER1
  6
CONTINUOUS
 62
     4
100
AcDbLine
 10
169.415132
 20
93.770395
 30
0.0
 11
170.915132
 21
96.368471
 31
0.0
  0
LINE
  5
7D
330
7A
100
AcDbEntity
  8
CSLAYER1
  6
CONTINUOUS
 62
     4
100
AcDbLine
 10
167.915132
 20
96.368471
 30
0.0
 11
176.9151319999999
 21
96.368471
 31
0.0
  0
LINE
  5
7E
330
7A
100
AcDbEntity
  8
CSLAYER1
  6
CONTINUOUS
 62
     4
100
AcDbLine
 10
167.915132
 20
96.368471
 30
0.0
 11
169.415132
 21
93.770395
 31
0.0
  0
LINE
  5
7F
330
7A
100
AcDbEntity
  8
CSLAYER1
  6
CONTINUOUS
 62
     4
100
AcDbLine
 10
172.4151319999999
 20
93.770395
 30
0.0
 11
173.9151319999999
 21
96.368471
 31
0.0
  0
LINE
  5
80
330
7A
100
AcDbEntity
  8
CSLAYER1
  6
CONTINUOUS
 62
     4
100
AcDbLine
 10
170.915132
 20
96.368471
 30
0.0
 11
172.4151319999999
 21
93.770395
 31
0.0
  0
LINE
  5
81
330
7A
100
AcDbEntity
  8
CSLAYER1
  6
CONTINUOUS
 62
     4
100
AcDbLine
 10
175.415132
 20
93.770395
 30
0.0
 11
176.9151319999999
 21
96.368471
 31
0.0
  0
LINE
  5
82
330
7A
100
AcDbEntity
  8
CSLAYER1
  6
CONTINUOUS
 62
     4
100
AcDbLine
 10
173.9151319999999
 20
96.368471
 30
0.0
 11
175.415132
 21
93.770395
 31
0.0
  0
ENDBLK
  5
83
330
7A
100
AcDbEntity
  8
0
100
AcDbBlockEnd
  0
BLOCK
  5
85
330
84
100
AcDbEntity
  8
0
100
AcDbBlockBegin
  2
FXDIM0002
 70
     0
 10
0.0
 20
0.0
 30
0.0
  3
FXDIM0002
  1

  0
LINE
  5
86
330
84
100
AcDbEntity
  8
CSLAYER1
  6
CONTINUOUS
 62
     4
100
AcDbLine
 10
171.215132
 20
76.77039499999998
 30
0.0
 11
169.715132
 21
74.17231899999999
 31
0.0
  0
LINE
  5
87
330
84
100
AcDbEntity
  8
CSLAYER1
  6
CONTINUOUS
 62
     4
100
AcDbLine
 10
169.715132
 20
74.17231899999999
 30
0.0
 11
178.715132
 21
74.17231899999999
 31
0.0
  0
LINE
  5
88
330
84
100
AcDbEntity
  8
CSLAYER1
  6
CONTINUOUS
 62
     4
100
AcDbLine
 10
172.715132
 20
74.17231899999999
 30
0.0
 11
171.215132
 21
76.77039499999998
 31
0.0
  0
LINE
  5
89
330
84
100
AcDbEntity
  8
CSLAYER1
  6
CONTINUOUS
 62
     4
100
AcDbLine
 10
174.215132
 20
76.77039499999998
 30
0.0
 11
172.715132
 21
74.17231899999999
 31
0.0
  0
LINE
  5
8A
330
84
100
AcDbEntity
  8
CSLAYER1
  6
CONTINUOUS
 62
     4
100
AcDbLine
 10
175.715132
 20
74.17231899999999
 30
0.0
 11
174.215132
 21
76.77039499999998
 31
0.0
  0
LINE
  5
8B
330
84
100
AcDbEntity
  8
CSLAYER1
  6
CONTINUOUS
 62
     4
100
AcDbLine
 10
177.215132
 20
76.77039499999998
 30
0.0
 11
175.715132
 21
74.17231899999999
 31
0.0
  0
LINE
  5
8C
330
84
100
AcDbEntity
  8
CSLAYER1
  6
CONTINUOUS
 62
     4
100
AcDbLine
 10
178.715132
 20
74.17231899999999
 30
0.0
 11
177.215132
 21
76.77039499999998
 31
0.0
  0
ENDBLK
  5
8D
330
84
100
AcDbEntity
  8
0
100
AcDbBlockEnd
  0
BLOCK
  5
8F
330
8E
100
AcDbEntity
  8
0
100
AcDbBlockBegin
  2
*D8
 70
     1
 10
0.0
 20
0.0
 30
0.0
  3
*D8
  1

  0
TEXT
  5
90
330
8E
100
AcDbEntity
  8
CSLAYER1
 62
     4
100
AcDbText
 10
136.915128
 20
179.124451
 30
0.0
 40
3.2
  1
43
 41
1.200000000000001
 51
15.0
  7
FX_FONT
 72
     5
 11
143.315128
 21
179.124451
 31
0.0
100
AcDbText
  0
LINE
  5
91
330
8E
100
AcDbEntity
  8
CSLAYER1
  6
CONTINUOUS
 62
     4
100
AcDbLine
 10
118.615132
 20
178.624445
 30
0.0
 11
161.615132
 21
178.624445
 31
0.0
  0
LINE
  5
92
330
8E
100
AcDbEntity
  8
CSLAYER1
  6
CONTINUOUS
 62
     4
100
AcDbLine
 10
118.615132
 20
178.624445
 30
0.0
 11
121.512909
 21
179.400902
 31
0.0
  0
LINE
  5
93
330
8E
100
AcDbEntity
  8
CSLAYER1
  6
CONTINUOUS
 62
     4
100
AcDbLine
 10
118.615132
 20
178.624445
 30
0.0
 11
121.512909
 21
177.8479879999999
 31
0.0
  0
LINE
  5
94
330
8E
100
AcDbEntity
  8
CSLAYER1
  6
CONTINUOUS
 62
     4
100
AcDbLine
 10
161.615132
 20
178.624445
 30
0.0
 11
158.717354
 21
179.400902
 31
0.0
  0
LINE
  5
95
330
8E
100
AcDbEntity
  8
CSLAYER1
  6
CONTINUOUS
 62
     4
100
AcDbLine
 10
161.615132
 20
178.624445
 30
0.0
 11
158.717354
 21
177.8479879999999
 31
0.0
  0
LINE
  5
96
330
8E
100
AcDbEntity
  8
CSLAYER1
  6
CONTINUOUS
 62
     4
100
AcDbLine
 10
118.615132
 20
146.470395
 30
0.0
 11
118.615132
 21
179.624445
 31
0.0
  0
LINE
  5
97
330
8E
100
AcDbEntity
  8
CSLAYER1
  6
CONTINUOUS
 62
     4
100
AcDbLine
 10
161.615132
 20
165.661304
 30
0.0
 11
161.615132
 21
179.624445
 31
0.0
  0
ENDBLK
  5
98
330
8E
100
AcDbEntity
  8
0
100
AcDbBlockEnd
  0
BLOCK
  5
9A
330
99
100
AcDbEntity
  8
0
100
AcDbBlockBegin
  2
*D9
 70
     1
 10
0.0
 20
0.0
 30
0.0
  3
*D9
  1

  0
TEXT
  5
9B
330
99
100
AcDbEntity
  8
CSLAYER1
 62
     4
100
AcDbText
 10
109.075608
 20
72.08120100000002
 30
0.0
 40
3.2
  1
切刃部有効25
 50
330.0000012216643
 41
0.9130435119803898
 51
15.0
  7
FX_FONT
 72
     5
 11
128.474578
 21
60.88120100000001
 31
0.0
100
AcDbText
  0
LINE
  5
9C
330
99
100
AcDbEntity
  8
CSLAYER1
  6
CONTINUOUS
 62
     4
100
AcDbLine
 10
107.699769
 20
72.298188
 30
0.0
 11
129.3504039999999
 21
59.798188
 31
0.0
  0
LINE
  5
9D
330
99
100
AcDbEntity
  8
CSLAYER1
  6
CONTINUOUS
 62
     4
100
AcDbLine
 10
107.699769
 20
72.298188
 30
0.0
 11
110.597546
 21
71.521731
 31
0.0
  0
LINE
  5
9E
330
99
100
AcDbEntity
  8
CSLAYER1
  6
CONTINUOUS
 62
     4
100
AcDbLine
 10
107.699769
 20
72.298188
 30
0.0
 11
109.8210889999998
 21
70.17686799999999
 31
0.0
  0
LINE
  5
9F
330
99
100
AcDbEntity
  8
CSLAYER1
  6
CONTINUOUS
 62
     4
100
AcDbLine
 10
129.3504039999999
 20
59.798188
 30
0.0
 11
126.452626
 21
60.574645
 31
0.0
  0
LINE
  5
A0
330
99
100
AcDbEntity
  8
CSLAYER1
  6
CONTINUOUS
 62
     4
100
AcDbLine
 10
129.3504039999999
 20
59.798188
 30
0.0
 11
127.2290829999999
 21
61.919509
 31
0.0
  0
LINE
  5
A1
330
99
100
AcDbEntity
  8
CSLAYER1
  6
CONTINUOUS
 62
     4
100
AcDbLine
 10
118.115132
 20
90.338126
 30
0.0
 11
107.1997689999999
 21
71.432163
 31
0.0
  0
LINE
  5
A2
330
99
100
AcDbEntity
  8
CSLAYER1
  6
CONTINUOUS
 62
     4
100
AcDbLine
 10
139.7657669999998
 20
77.838126
 30
0.0
 11
128.850404
 21
58.932163
 31
0.0
  0
ENDBLK
  5
A3
330
99
100
AcDbEntity
  8
0
100
AcDbBlockEnd
  0
BLOCK
  5
A5
330
A4
100
AcDbEntity
  8
0
100
AcDbBlockBegin
  2
*D10
 70
     1
 10
0.0
 20
0.0
 30
0.0
  3
*D10
  1

  0
TEXT
  5
A6
330
A4
100
AcDbEntity
  8
CSLAYER1
 62
     4
100
AcDbText
 10
66.885729
 20
170.907361
 30
0.0
 40
3.2
  1
45%%d
 50
337.4999985585446
 41
1.285714224875626
 51
15.0
  7
FX_FONT
 72
     5
 11
75.754972
 21
167.2336
 31
0.0
100
AcDbText
  0
ARC
  5
A7
330
A4
100
AcDbEntity
  8
CSLAYER1
  6
CONTINUOUS
 62
     4
100
AcDbCircle
 10
61.130658
 20
144.470395
 30
0.0
 40
26.12694199999999
100
AcDbArc
 50
45.0
 51
90.0
  0
LINE
  5
A8
330
A4
100
AcDbEntity
  8
CSLAYER1
  6
CONTINUOUS
 62
     4
100
AcDbLine
 10
79.605195
 20
162.9449319999999
 30
0.0
 11
77.00711899999998
 21
164.4449319999999
 31
0.0
  0
LINE
  5
A9
330
A4
100
AcDbEntity
  8
CSLAYER1
  6
CONTINUOUS
 62
     4
100
AcDbLine
 10
79.605195
 20
162.9449319999999
 30
0.0
 11
78.10519499999998
 21
165.543009
 31
0.0
  0
LINE
  5
AA
330
A4
100
AcDbEntity
  8
CSLAYER1
  6
CONTINUOUS
 62
     4
100
AcDbLine
 10
61.130658
 20
170.597337
 30
0.0
 11
64.028435
 21
171.373794
 31
0.0
  0
LINE
  5
AB
330
A4
100
AcDbEntity
  8
CSLAYER1
  6
CONTINUOUS
 62
     4
100
AcDbLine
 10
61.130658
 20
170.597337
 30
0.0
 11
64.028435
 21
169.8208789999999
 31
0.0
  0
LINE
  5
AC
330
A4
100
AcDbEntity
  8
CSLAYER1
  6
CONTINUOUS
 62
     4
100
AcDbLine
 10
76.83776400000002
 20
160.177502
 30
0.0
 11
80.31230200000001
 21
163.652039
 31
0.0
  0
ENDBLK
  5
AD
330
A4
100
AcDbEntity
  8
0
100
AcDbBlockEnd
  0
BLOCK
  5
AF
330
AE
100
AcDbEntity
  8
0
100
AcDbBlockBegin
  2
*D11
 70
     1
 10
0.0
 20
0.0
 30
0.0
  3
*D11
  1

  0
TEXT
  5
B0
330
AE
100
AcDbEntity
  8
CSLAYER1
 62
     4
100
AcDbText
 10
36.185037
 20
136.321931
 30
0.0
 40
3.2
  1
60%%d
 50
299.9999996309513
 41
1.285714300058145
 51
15.0
  7
FX_FONT
 72
     5
 11
40.985037
 21
128.008087
 31
0.0
100
AcDbText
  0
ARC
  5
B1
330
AE
100
AcDbEntity
  8
CSLAYER1
  6
CONTINUOUS
 62
     4
100
AcDbCircle
 10
61.630658
 20
145.470395
 30
0.0
 40
27.11079
100
AcDbArc
 50
180.0
 51
239.9999999999999
  0
LINE
  5
B2
330
AE
100
AcDbEntity
  8
CSLAYER1
  6
CONTINUOUS
 62
     4
100
AcDbLine
 10
34.519868
 20
145.470395
 30
0.0
 11
33.743411
 21
142.5726169999999
 31
0.0
  0
LINE
  5
B3
330
AE
100
AcDbEntity
  8
CSLAYER1
  6
CONTINUOUS
 62
     4
100
AcDbLine
 10
34.519868
 20
145.470395
 30
0.0
 11
35.296325
 21
142.5726169999999
 31
0.0
  0
LINE
  5
B4
330
AE
100
AcDbEntity
  8
CSLAYER1
  6
CONTINUOUS
 62
     4
100
AcDbLine
 10
48.075263
 20
121.991762
 30
0.0
 11
45.17748499999998
 21
122.7682189999999
 31
0.0
  0
LINE
  5
B5
330
AE
100
AcDbEntity
  8
CSLAYER1
  6
CONTINUOUS
 62
     4
100
AcDbLine
 10
48.075263
 20
121.991762
 30
0.0
 11
45.953942
 21
124.113083
 31
0.0
  0
LINE
  5
B6
330
AE
100
AcDbEntity
  8
CSLAYER1
  6
CONTINUOUS
 62
     4
100
AcDbLine
 10
56.70071
 20
145.470395
 30
0.0
 11
33.519868
 21
145.470395
 31
0.0
  0
LINE
  5
B7
330
AE
100
AcDbEntity
  8
CSLAYER1
  6
CONTINUOUS
 62
     4
100
AcDbLine
 10
60.63499300000001
 20
143.745854
 30
0.0
 11
47.575263
 21
121.125737
 31
0.0
  0
ENDBLK
  5
B8
330
AE
100
AcDbEntity
  8
0
100
AcDbBlockEnd
  0
BLOCK
  5
BA
330
B9
100
AcDbEntity
  8
0
100
AcDbBlockBegin
  2
*D12
 70
     1
 10
0.0
 20
0.0
 30
0.0
  3
*D12
  1

  0
TEXT
  5
BB
330
B9
100
AcDbEntity
  8
CSLAYER1
 62
     4
100
AcDbText
 10
60.34513
 20
118.4607389999999
 30
0.0
 40
3.2
  1
75%%d
 50
7.500003803537064
 41
1.285714206554152
 51
15.0
  7
FX_FONT
 72
     5
 11
69.86299999999999
 21
119.7137909999999
 31
0.0
100
AcDbText
  0
ARC
  5
BC
330
B9
100
AcDbEntity
  8
CSLAYER1
  6
CONTINUOUS
 62
     4
100
AcDbCircle
 10
61.630658
 20
145.470395
 30
0.0
 40
27.11079
100
AcDbArc
 50
239.9999999999999
 51
315.0
  0
LINE
  5
BD
330
B9
100
AcDbEntity
  8
CSLAYER1
  6
CONTINUOUS
 62
     4
100
AcDbLine
 10
48.075263
 20
121.991762
 30
0.0
 11
50.97304000000001
 21
121.2153049999999
 31
0.0
  0
LINE
  5
BE
330
B9
100
AcDbEntity
  8
CSLAYER1
  6
CONTINUOUS
 62
     4
100
AcDbLine
 10
48.075263
 20
121.991762
 30
0.0
 11
50.196583
 21
119.870442
 31
0.0
  0
LINE
  5
BF
330
B9
100
AcDbEntity
  8
CSLAYER1
  6
CONTINUOUS
 62
     4
100
AcDbLine
 10
80.80088100000002
 20
126.300172
 30
0.0
 11
79.300881
 21
123.702095
 31
0.0
  0
LINE
  5
C0
330
B9
100
AcDbEntity
  8
CSLAYER1
  6
CONTINUOUS
 62
     4
100
AcDbLine
 10
80.80088100000002
 20
126.300172
 30
0.0
 11
78.20280499999999
 21
124.8001719999999
 31
0.0
  0
LINE
  5
C1
330
B9
100
AcDbEntity
  8
CSLAYER1
  6
CONTINUOUS
 62
     4
100
AcDbLine
 10
76.83776400000002
 20
130.2632879999999
 30
0.0
 11
81.507988
 21
125.593065
 31
0.0
  0
ENDBLK
  5
C2
330
B9
100
AcDbEntity
  8
0
100
AcDbBlockEnd
  0
BLOCK
  5
C4
330
C3
100
AcDbEntity
  8
0
100
AcDbBlockBegin
  2
*D13
 70
     1
 10
0.0
 20
0.0
 30
0.0
  3
*D13
  1

  0
TEXT
  5
C5
330
C3
100
AcDbEntity
  8
CSLAYER1
 62
     4
100
AcDbText
 10
45.55715099999999
 20
153.5166629999999
 30
0.0
 40
3.2
  1
(1)
 41
1.285714285714286
 51
15.0
  7
FX_FONT
 72
     5
 11
55.157151
 21
153.5166629999999
 31
0.0
100
AcDbText
  0
LINE
  5
C6
330
C3
100
AcDbEntity
  8
CSLAYER1
  6
CONTINUOUS
 62
     4
100
AcDbLine
 10
53.584386
 20
153.0166659999999
 30
0.0
 11
54.584386
 21
153.0166659999999
 31
0.0
  0
LINE
  5
C7
330
C3
100
AcDbEntity
  8
CSLAYER1
  6
CONTINUOUS
 62
     4
100
AcDbLine
 10
60.423551
 20
146.177502
 30
0.0
 11
52.87728000000001
 21
153.723773
 31
0.0
  0
LINE
  5
C8
330
C3
100
AcDbEntity
  8
CSLAYER1
  6
CONTINUOUS
 62
     4
100
AcDbLine
 10
61.423551
 20
146.177502
 30
0.0
 11
53.87728
 21
153.723773
 31
0.0
  0
LINE
  5
C9
330
C3
100
AcDbEntity
  8
CSLAYER1
  6
CONTINUOUS
 62
     4
100
AcDbLine
 10
47.12991699999999
 20
153.0166659999999
 30
0.0
 11
53.584386
 21
153.0166659999999
 31
0.0
  0
LINE
  5
CA
330
C3
100
AcDbEntity
  8
CSLAYER1
  6
CONTINUOUS
 62
     4
100
AcDbLine
 10
53.584386
 20
153.0166659999999
 30
0.0
 11
50.68660900000001
 21
153.793123
 31
0.0
  0
LINE
  5
CB
330
C3
100
AcDbEntity
  8
CSLAYER1
  6
CONTINUOUS
 62
     4
100
AcDbLine
 10
53.584386
 20
153.0166659999999
 30
0.0
 11
50.68660900000001
 21
152.240209
 31
0.0
  0
LINE
  5
CC
330
C3
100
AcDbEntity
  8
CSLAYER1
  6
CONTINUOUS
 62
     4
100
AcDbLine
 10
54.584386
 20
153.0166659999999
 30
0.0
 11
58.487781
 21
153.0166659999999
 31
0.0
  0
LINE
  5
CD
330
C3
100
AcDbEntity
  8
CSLAYER1
  6
CONTINUOUS
 62
     4
100
AcDbLine
 10
54.584386
 20
153.0166659999999
 30
0.0
 11
57.482164
 21
153.793123
 31
0.0
  0
LINE
  5
CE
330
C3
100
AcDbEntity
  8
CSLAYER1
  6
CONTINUOUS
 62
     4
100
AcDbLine
 10
54.584386
 20
153.0166659999999
 30
0.0
 11
57.482164
 21
152.240209
 31
0.0
  0
ENDBLK
  5
CF
330
C3
100
AcDbEntity
  8
0
100
AcDbBlockEnd
  0
BLOCK
  5
D1
330
D0
100
AcDbEntity
  8
0
100
AcDbBlockBegin
  2
*D14
 70
     1
 10
0.0
 20
0.0
 30
0.0
  3
*D14
  1

  0
TEXT
  5
D2
330
D0
100
AcDbEntity
  8
CSLAYER1
 62
     4
100
AcDbText
 10
62.03248199999999
 20
28.669197
 30
0.0
 40
3.2
  1
9
 50
90.0
 41
1.499999999999996
 51
15.0
  7
FX_FONT
 72
     5
 11
62.03248199999999
 21
31.86919699999998
 31
0.0
100
AcDbText
  0
LINE
  5
D3
330
D0
100
AcDbEntity
  8
CSLAYER1
  6
CONTINUOUS
 62
     4
100
AcDbLine
 10
62.53248000000001
 20
25.769198
 30
0.0
 11
62.53248000000001
 21
34.76919799999999
 31
0.0
  0
LINE
  5
D4
330
D0
100
AcDbEntity
  8
CSLAYER1
  6
CONTINUOUS
 62
     4
100
AcDbLine
 10
62.53248000000001
 20
25.769198
 30
0.0
 11
61.756022
 21
28.666975
 31
0.0
  0
LINE
  5
D5
330
D0
100
AcDbEntity
  8
CSLAYER1
  6
CONTINUOUS
 62
     4
100
AcDbLine
 10
62.53248000000001
 20
25.769198
 30
0.0
 11
63.308937
 21
28.666975
 31
0.0
  0
LINE
  5
D6
330
D0
100
AcDbEntity
  8
CSLAYER1
  6
CONTINUOUS
 62
     4
100
AcDbLine
 10
62.53248000000001
 20
34.76919799999999
 30
0.0
 11
61.756022
 21
31.87142
 31
0.0
  0
LINE
  5
D7
330
D0
100
AcDbEntity
  8
CSLAYER1
  6
CONTINUOUS
 62
     4
100
AcDbLine
 10
62.53248000000001
 20
34.76919799999999
 30
0.0
 11
63.308937
 21
31.87142
 31
0.0
  0
LINE
  5
D8
330
D0
100
AcDbEntity
  8
CSLAYER1
  6
CONTINUOUS
 62
     4
100
AcDbLine
 10
73.53629599999997
 20
25.769198
 30
0.0
 11
61.53248000000001
 21
25.769198
 31
0.0
  0
LINE
  5
D9
330
D0
100
AcDbEntity
  8
CSLAYER1
  6
CONTINUOUS
 62
     4
100
AcDbLine
 10
73.53629599999997
 20
34.76919799999999
 30
0.0
 11
61.53248000000001
 21
34.76919799999999
 31
0.0
  0
ENDBLK
  5
DA
330
D0
100
AcDbEntity
  8
0
100
AcDbBlockEnd
  0
BLOCK
  5
196
330
18B
100
AcDbEntity
  8
0
100
AcDbBlockBegin
  2
*D15
 70
     1
 10
0.0
 20
0.0
 30
0.0
  3
*D15
  1

  0
ARC
  5
18C
330
18B
100
AcDbEntity
  8
CSLAYER1
 62
     0
100
AcDbCircle
 10
143.615132
 20
76.77039500000002
 30
0.0
 40
18.57225006753251
100
AcDbArc
 50
150.5553070057539
 51
164.424323178938
  0
ARC
  5
18D
330
18B
100
AcDbEntity
  8
CSLAYER1
 62
     0
100
AcDbCircle
 10
143.615132
 20
76.77039500000002
 30
0.0
 40
18.57225006753251
100
AcDbArc
 50
165.5741321390936
 51
179.444694065619
  0
SOLID
  5
18E
330
18B
100
AcDbEntity
  8
CSLAYER1
 62
     0
100
AcDbTrace
 10
127.4157947828875
 20
85.91507477663382
 30
0.0
 11
127.4679010757423
 21
85.88532693225934
 31
0.0
 12
127.5310914624385
 22
86.056519733011
 32
0.0
 13
127.5310914624385
 23
86.056519733011
 33
0.0
  0
SOLID
  5
18F
330
18B
100
AcDbEntity
  8
CSLAYER1
 62
     0
100
AcDbTrace
 10
125.0737538493263
 20
76.95024750832124
 30
0.0
 11
125.0137545538245
 21
76.95053826469059
 31
0.0
 12
125.0428819324674
 22
76.77039499999998
 32
0.0
 13
125.0428819324674
 23
76.77039499999998
 33
0.0
  0
MTEXT
  5
190
330
18B
100
AcDbEntity
  8
CSLAYER1
 62
     0
100
AcDbMText
 10
125.6757159625297
 20
81.57724686015953
 30
0.0
 40
0.18
 41
0.0
 71
     5
 72
     1
  1
\A1;30°
1001
ACAD
1000
MTEXTBEGIN
1070
    73
1070
     1
1070
    44
1040
1.0
1070
    74
1070
     0
1000
MTEXTEND
  0
POINT
  5
191
330
18B
100
AcDbEntity
  8
DEFPOINTS
 62
     0
100
AcDbPoint
 10
126.162925580964
 20
83.12247841241859
 30
0.0
  0
POINT
  5
192
330
18B
100
AcDbEntity
  8
DEFPOINTS
 62
     0
100
AcDbPoint
 10
143.615132
 20
76.77039500000002
 30
0.0
  0
POINT
  5
193
330
18B
100
AcDbEntity
  8
DEFPOINTS
 62
     0
100
AcDbPoint
 10
125.042881
 20
76.77039499999998
 30
0.0
  0
POINT
  5
194
330
18B
100
AcDbEntity
  8
DEFPOINTS
 62
     0
100
AcDbPoint
 10
143.615132
 20
76.77039500000002
 30
0.0
  0
POINT
  5
195
330
18B
100
AcDbEntity
  8
DEFPOINTS
 62
     0
100
AcDbPoint
 10
127.5310909999999
 20
86.05651999999997
 30
0.0
  0
ENDBLK
  5
197
330
18B
100
AcDbEntity
  8
0
100
AcDbBlockEnd
  0
BLOCK
  5
1A4
330
198
100
AcDbEntity
  8
0
100
AcDbBlockBegin
  2
*D16
 70
     1
 10
0.0
 20
0.0
 30
0.0
  3
*D16
  1

  0
LINE
  5
199
330
198
100
AcDbEntity
  8
CSLAYER1
 62
     0
100
AcDbLine
 10
76.17485217382416
 20
159.5145891738241
 30
0.0
 11
79.7324748782387
 21
163.0722118782386
 31
0.0
  0
ARC
  5
19A
330
198
100
AcDbEntity
  8
CSLAYER1
 62
     0
100
AcDbCircle
 10
61.13065800000001
 20
144.470395
 30
0.0
 40
26.12694171398591
100
AcDbArc
 50
45.39473662174779
 51
66.59978986253822
  0
ARC
  5
19B
330
198
100
AcDbEntity
  8
CSLAYER1
 62
     0
100
AcDbCircle
 10
61.13065800000001
 20
144.470395
 30
0.0
 40
26.12694171398591
100
AcDbArc
 50
68.39438876429834
 51
89.6052633782522
  0
SOLID
  5
19C
330
198
100
AcDbEntity
  8
CSLAYER1
 62
     0
100
AcDbTrace
 10
79.49861875491318
 20
163.0930588329228
 30
0.0
 11
79.45633874685511
 21
163.0504865306758
 31
0.0
 12
79.60519565762509
 22
162.9449326576249
 32
0.0
 13
79.60519565762509
 23
162.9449326576249
 33
0.0
  0
SOLID
  5
19D
330
198
100
AcDbEntity
  8
CSLAYER1
 62
     0
100
AcDbTrace
 10
61.31055359044665
 20
170.5667168423686
 30
0.0
 11
61.31076027364972
 21
170.6267164863847
 31
0.0
 12
61.13065800000001
 22
170.5973367139858
 32
0.0
 13
61.13065800000001
 23
170.5973367139858
 33
0.0
  0
MTEXT
  5
19E
330
198
100
AcDbEntity
  8
CSLAYER1
 62
     0
100
AcDbMText
 10
71.12900573231076
 20
168.6085416966669
 30
0.0
 40
0.18
 41
0.0
 71
     5
 72
     1
  1
\A1;45°
1001
ACAD
1000
MTEXTBEGIN
1070
    73
1070
     1
1070
    44
1040
1.0
1070
    74
1070
     0
1000
MTEXTEND
  0
POINT
  5
19F
330
198
100
AcDbEntity
  8
DEFPOINTS
 62
     0
100
AcDbPoint
 10
74.19412885699299
 20
167.0969902475071
 30
0.0
  0
POINT
  5
1A0
330
198
100
AcDbEntity
  8
DEFPOINTS
 62
     0
100
AcDbPoint
 10
62.13065799999998
 20
145.4703949999999
 30
0.0
  0
POINT
  5
1A1
330
198
100
AcDbEntity
  8
DEFPOINTS
 62
     0
100
AcDbPoint
 10
61.13065799999998
 20
171.5715929999998
 30
0.0
  0
POINT
  5
1A2
330
198
100
AcDbEntity
  8
DEFPOINTS
 62
     0
100
AcDbPoint
 10
61.13065800000001
 20
145.470395
 30
0.0
  0
POINT
  5
1A3
330
198
100
AcDbEntity
  8
DEFPOINTS
 62
     0
100
AcDbPoint
 10
76.13065800000002
 20
159.4703949999999
 30
0.0
  0
ENDBLK
  5
1A5
330
198
100
AcDbEntity
  8
0
100
AcDbBlockEnd
  0
BLOCK
  5
1B3
330
1A6
100
AcDbEntity
  8
0
100
AcDbBlockBegin
  2
*D17
 70
     1
 10
0.0
 20
0.0
 30
0.0
  3
*D17
  1

  0
LINE
  5
1A7
330
1A6
100
AcDbEntity
  8
CSLAYER1
 62
     0
100
AcDbLine
 10
57.63821
 20
145.470395
 30
0.0
 11
34.33986787586835
 21
145.4703949999999
 31
0.0
  0
LINE
  5
1A8
330
1A6
100
AcDbEntity
  8
CSLAYER1
 62
     0
100
AcDbLine
 10
61.10374297369554
 20
144.5577524274503
 30
0.0
 11
47.98525145201695
 21
121.8358840945535
 31
0.0
  0
ARC
  5
1A9
330
1A6
100
AcDbEntity
  8
CSLAYER1
 62
     0
100
AcDbCircle
 10
61.630658
 20
145.470395
 30
0.0
 40
27.11079012413164
100
AcDbArc
 50
180.380411607631
 51
209.5616890630203
  0
ARC
  5
1AA
330
1A6
100
AcDbEntity
  8
CSLAYER1
 62
     0
100
AcDbCircle
 10
61.630658
 20
145.470395
 30
0.0
 40
27.11079012413164
100
AcDbArc
 50
210.4402275156469
 51
239.6195605477273
  0
SOLID
  5
1AB
330
1A6
100
AcDbEntity
  8
CSLAYER1
 62
     0
100
AcDbTrace
 10
34.49046558923444
 20
145.2902964005031
 30
0.0
 11
34.55046525861902
 21
145.2904955831891
 31
0.0
 12
34.51986787586835
 22
145.4703949999999
 32
0.0
 13
34.51986787586835
 23
145.4703949999999
 33
0.0
  0
SOLID
  5
1AC
330
1A6
100
AcDbEntity
  8
CSLAYER1
 62
     0
100
AcDbTrace
 10
47.93475281065656
 20
122.1082165109329
 30
0.0
 11
47.90458045349434
 21
122.0563548790335
 31
0.0
 12
48.07525152777383
 22
121.9917686234965
 32
0.0
 13
48.07525152777383
 23
121.9917686234965
 33
0.0
  0
MTEXT
  5
1AD
330
1A6
100
AcDbEntity
  8
CSLAYER1
 62
     0
100
AcDbMText
 10
38.15202174200442
 20
131.9150056430155
 30
0.0
 40
0.18
 41
0.0
 71
     5
 72
     1
  1
\A1;60°
1001
ACAD
1000
MTEXTBEGIN
1070
    73
1070
     1
1070
    44
1040
1.0
1070
    74
1070
     0
1000
MTEXTEND
  0
POINT
  5
1AE
330
1A6
100
AcDbEntity
  8
DEFPOINTS
 62
     0
100
AcDbPoint
 10
36.1548470746034
 20
136.1979628029895
 30
0.0
  0
POINT
  5
1AF
330
1A6
100
AcDbEntity
  8
DEFPOINTS
 62
     0
100
AcDbPoint
 10
61.13065799999998
 20
145.470395
 30
0.0
  0
POINT
  5
1B0
330
1A6
100
AcDbEntity
  8
DEFPOINTS
 62
     0
100
AcDbPoint
 10
61.134993
 20
144.611879
 30
0.0
  0
POINT
  5
1B1
330
1A6
100
AcDbEntity
  8
DEFPOINTS
 62
     0
100
AcDbPoint
 10
61.630658
 20
145.470395
 30
0.0
  0
POINT
  5
1B2
330
1A6
100
AcDbEntity
  8
DEFPOINTS
 62
     0
100
AcDbPoint
 10
57.70071
 20
145.470395
 30
0.0
  0
ENDBLK
  5
1B4
330
1A6
100
AcDbEntity
  8
0
100
AcDbBlockEnd
  0
BLOCK
  5
1C2
330
1B5
100
AcDbEntity
  8
0
100
AcDbBlockBegin
  2
*D18
 70
     1
 10
0.0
 20
0.0
 30
0.0
  3
*D18
  1

  0
LINE
  5
1B6
330
1B5
100
AcDbEntity
  8
CSLAYER1
 62
     0
100
AcDbLine
 10
61.10374297369553
 20
144.5577524274503
 30
0.0
 11
47.98525174106141
 21
121.835884595193
 31
0.0
  0
LINE
  5
1B7
330
1B5
100
AcDbEntity
  8
CSLAYER1
 62
     0
100
AcDbLine
 10
76.17485217382416
 20
130.9262008261758
 30
0.0
 11
80.92816035194195
 21
126.1728926480579
 31
0.0
  0
ARC
  5
1B8
330
1B5
100
AcDbEntity
  8
CSLAYER1
 62
     0
100
AcDbCircle
 10
61.63065799999998
 20
145.470395
 30
0.0
 40
27.11078954604298
100
AcDbArc
 50
240.3803837711005
 51
276.6949478960857
  0
ARC
  5
1B9
330
1B5
100
AcDbEntity
  8
CSLAYER1
 62
     0
100
AcDbCircle
 10
61.63065799999998
 20
145.470395
 30
0.0
 40
27.11078954604298
100
AcDbArc
 50
278.30651629531
 51
314.6195883842573
  0
SOLID
  5
1BA
330
1B5
100
AcDbEntity
  8
CSLAYER1
 62
     0
100
AcDbTrace
 10
48.2165205797229
 20
121.8762566285892
 30
0.0
 11
48.24634794244587
 21
121.9283174433447
 31
0.0
 12
48.07525181681828
 22
121.9917691241359
 32
0.0
 13
48.07525181681828
 23
121.9917691241359
 33
0.0
  0
SOLID
  5
1BB
330
1B5
100
AcDbEntity
  8
CSLAYER1
 62
     0
100
AcDbTrace
 10
80.652037416933
 20
126.1945993879534
 30
0.0
 11
80.69432274659272
 21
126.1520323714315
 31
0.0
 12
80.80088113132836
 22
126.3001718686715
 32
0.0
 13
80.80088113132836
 23
126.3001718686715
 33
0.0
  0
MTEXT
  5
1BC
330
1B5
100
AcDbEntity
  8
CSLAYER1
 62
     0
100
AcDbMText
 10
65.16931959622242
 20
118.5915411569275
 30
0.0
 40
0.18
 41
0.0
 71
     5
 72
     1
  1
\A1;75°
1001
ACAD
1000
MTEXTBEGIN
1070
    73
1070
     1
1070
    44
1040
1.0
1070
    74
1070
     0
1000
MTEXTEND
  0
POINT
  5
1BD
330
1B5
100
AcDbEntity
  8
DEFPOINTS
 62
     0
100
AcDbPoint
 10
59.26778825051665
 20
118.4627709586888
 30
0.0
  0
POINT
  5
1BE
330
1B5
100
AcDbEntity
  8
DEFPOINTS
 62
     0
100
AcDbPoint
 10
61.630658
 20
145.470395
 30
0.0
  0
POINT
  5
1BF
330
1B5
100
AcDbEntity
  8
DEFPOINTS
 62
     0
100
AcDbPoint
 10
76.130658
 20
130.970395
 30
0.0
  0
POINT
  5
1C0
330
1B5
100
AcDbEntity
  8
DEFPOINTS
 62
     0
100
AcDbPoint
 10
61.630658
 20
145.470395
 30
0.0
  0
POINT
  5
1C1
330
1B5
100
AcDbEntity
  8
DEFPOINTS
 62
     0
100
AcDbPoint
 10
61.134993
 20
144.611879
 30
0.0
  0
ENDBLK
  5
1C3
330
1B5
100
AcDbEntity
  8
0
100
AcDbBlockEnd
  0
ENDSEC
  0
SECTION
  2
ENTITIES
  0
POINT
  5
DB
330
1E
100
AcDbEntity
  8
CSLAYER1
 62
     3
100
AcDbPoint
 10
161.615132
 20
85.27039499999998
 30
0.0
  0
POINT
  5
DC
330
1E
100
AcDbEntity
  8
CSLAYER1
 62
     3
100
AcDbPoint
 10
161.615132
 20
145.470395
 30
0.0
  0
DIMENSION
  5
DE
330
1E
100
AcDbEntity
  8
CSLAYER1
 62
     4
100
AcDbDimension
  2
*D1
 10
148.0090079999999
 20
164.470395
 30
0.0
 11
138.2507319999999
 21
139.646759
 31
0.0
 70
     4
100
AcDbRadialDimension
 15
129.7175269999998
 25
134.63046
 35
0.0
 40
0.0
  0
DIMENSION
  5
DF
330
1E
100
AcDbEntity
  8
CSLAYER1
 62
     4
100
AcDbDimension
  2
*D2
 10
107.739132
 20
161.4703949999999
 30
0.0
 11
107.239136
 21
145.4703979999998
 31
0.0
 70
     1
100
AcDbAlignedDimension
 13
148.0090079999999
 23
129.4703949999999
 33
0.0
 14
148.0090079999999
 24
161.4703949999999
 34
0.0
  0
DIMENSION
  5
E0
330
1E
100
AcDbEntity
  8
CSLAYER1
 62
     4
100
AcDbDimension
  2
*D3
 10
104.7751319999999
 20
93.770395
 30
0.0
 11
102.671135
 21
93.89440200000001
 31
0.0
100
AcDbAlignedDimension
 13
143.615132
 23
76.77039499999998
 33
0.0
 14
118.6636159999999
 24
93.770395
 34
0.0
 50
90.0
100
AcDbRotatedDimension
  0
DIMENSION
  5
E1
330
1E
100
AcDbEntity
  8
CSLAYER1
 62
     4
100
AcDbDimension
  2
*D4
 10
161.615132
 20
64.895849
 30
0.0
 11
152.615128
 21
65.395851
 31
0.0
 52
270.0
100
AcDbAlignedDimension
 13
143.615132
 23
76.77039499999998
 33
0.0
 14
161.615132
 24
73.488577
 34
0.0
100
AcDbRotatedDimension
  0
INSERT
  5
E2
330
1E
100
AcDbEntity
  8
CSLAYER1
100
AcDbBlockReference
  2
FXDIM0000
 10
0.0
 20
0.0
 30
0.0
  0
POINT
  5
E3
330
1E
100
AcDbEntity
  8
CSLAYER1
 62
     3
100
AcDbPoint
 10
171.615132
 20
145.470395
 30
0.0
  0
POINT
  5
E4
330
1E
100
AcDbEntity
  8
CSLAYER1
 62
     3
100
AcDbPoint
 10
171.615132
 20
85.27039499999998
 30
0.0
  0
POINT
  5
E5
330
1E
100
AcDbEntity
  8
CSLAYER1
 62
     3
100
AcDbPoint
 10
250.4999999999999
 20
43.5
 30
0.0
  0
POINT
  5
E6
330
1E
100
AcDbEntity
  8
CSLAYER1
 62
     3
100
AcDbPoint
 10
271.0
 20
43.5
 30
0.0
  0
POINT
  5
E7
330
1E
100
AcDbEntity
  8
CSLAYER1
 62
     3
100
AcDbPoint
 10
271.0
 20
53.5
 30
0.0
  0
POINT
  5
E8
330
1E
100
AcDbEntity
  8
CSLAYER1
 62
     3
100
AcDbPoint
 10
250.4999999999999
 20
53.5
 30
0.0
  0
TEXT
  5
E9
330
1E
100
AcDbEntity
  8
CSLAYER1
 62
     3
100
AcDbText
 10
238.099985
 20
51.00000399999998
 30
0.0
 40
5.0
  1
刃開キハ
 41
1.11044776119403
  7
FX_FONT
 72
     5
 11
262.899985
 21
51.00000399999998
 31
0.0
100
AcDbText
  0
TEXT
  5
EA
330
1E
100
AcDbEntity
  8
CSLAYER1
 62
     3
100
AcDbText
 10
237.999985
 20
41.00000399999998
 30
0.0
 40
5.0
  1
切刃部有効
 41
0.872093023255811
  7
FX_FONT
 72
     5
 11
262.9999849999999
 21
41.00000399999998
 31
0.0
100
AcDbText
  0
TEXT
  5
EB
330
1E
100
AcDbEntity
  8
CSLAYER1
 62
     3
100
AcDbText
 10
268.5
 20
51.00000399999998
 30
0.0
 40
5.0
  1
9
 41
1.499999999999983
  7
FX_FONT
 72
     5
 11
273.4999999999999
 21
51.00000399999998
 31
0.0
100
AcDbText
  0
TEXT
  5
EC
330
1E
100
AcDbEntity
  8
CSLAYER1
 62
     3
100
AcDbText
 10
266.0
 20
41.00000399999998
 30
0.0
 40
5.0
  1
25
 41
1.199999999999999
  7
FX_FONT
 72
     5
 11
276.0
 21
41.00000399999998
 31
0.0
100
AcDbText
  0
TEXT
  5
ED
330
1E
100
AcDbEntity
  8
CSLAYER1
 62
     3
100
AcDbText
 10
242.45
 20
17.25
 30
0.0
 40
3.5
  1
N30AS
 41
1.169387755102042
  7
FX_FONT
 72
     5
 11
261.55
 21
17.25
 31
0.0
100
AcDbText
  0
INSERT
  5
EE
330
1E
100
AcDbEntity
  8
CSLAYER1
100
AcDbBlockReference
  2
FXDIM0001
 10
0.0
 20
0.0
 30
0.0
  0
INSERT
  5
EF
330
1E
100
AcDbEntity
  8
CSLAYER1
100
AcDbBlockReference
  2
FXDIM0002
 10
0.0
 20
0.0
 30
0.0
  0
POINT
  5
F0
330
1E
100
AcDbEntity
  8
CSLAYER1
 62
     3
100
AcDbPoint
 10
252.0
 20
19.0
 30
0.0
  0
LINE
  5
F1
330
1E
100
AcDbEntity
  8
CSLAYER1
  6
CONTINUOUS
 62
     3
100
AcDbLine
 10
238.0
 20
40.0
 30
0.0
 11
279.0
 21
40.0
 31
0.0
  0
LINE
  5
F2
330
1E
100
AcDbEntity
  8
CSLAYER1
  6
CONTINUOUS
 62
     3
100
AcDbLine
 10
76.130658
 20
159.4703949999999
 30
0.0
 11
62.13065799999998
 21
145.470395
 31
0.0
  0
LINE
  5
F3
330
1E
100
AcDbEntity
  8
CSLAYER1
  6
CONTINUOUS
 62
     3
100
AcDbLine
 10
62.13065799999998
 20
145.470395
 30
0.0
 11
61.130658
 21
145.470395
 31
0.0
  0
LINE
  5
F4
330
1E
100
AcDbEntity
  8
CSLAYER1
  6
CONTINUOUS
 62
     3
100
AcDbLine
 10
61.630658
 20
145.470395
 30
0.0
 11
61.134993
 21
144.611879
 31
0.0
  0
LINE
  5
F5
330
1E
100
AcDbEntity
  8
CSLAYER1
  6
CONTINUOUS
 62
     3
100
AcDbLine
 10
61.630658
 20
145.470395
 30
0.0
 11
76.130658
 21
130.970395
 31
0.0
  0
ARC
  5
F6
330
1E
100
AcDbEntity
  8
CSLAYER1
  6
CONTINUOUS
 62
     3
100
AcDbCircle
 10
143.357457
 20
148.454907
 30
0.0
 40
3.5
100
AcDbArc
 50
270.0
 51
350.71619
  0
ARC
  5
F7
330
1E
100
AcDbEntity
  8
CSLAYER1
  6
CONTINUOUS
 62
     3
100
AcDbCircle
 10
143.362547
 20
142.454907
 30
0.0
 40
3.5
100
AcDbArc
 50
58.997281
 51
90.0
  0
LINE
  5
F8
330
1E
100
AcDbEntity
  8
CSLAYER1
  6
CONTINUOUS
 62
     3
100
AcDbLine
 10
143.362547
 20
145.954907
 30
0.0
 11
140.2657669999999
 21
145.954907
 31
0.0
  0
LINE
  5
F9
330
1E
100
AcDbEntity
  8
CSLAYER1
  6
CONTINUOUS
 62
     3
100
AcDbLine
 10
140.2657669999999
 20
144.954907
 30
0.0
 11
143.357457
 21
144.954907
 31
0.0
  0
ARC
  5
FA
330
1E
100
AcDbEntity
  8
CSLAYER1
  6
CONTINUOUS
 62
     3
100
AcDbCircle
 10
148.0090079999999
 20
164.470395
 30
0.0
 40
35.0
100
AcDbArc
 50
212.8783499999999
 51
270.0
  0
LINE
  5
FB
330
1E
100
AcDbEntity
  8
CSLAYER1
  6
CONTINUOUS
 62
     3
100
AcDbLine
 10
148.0090079999999
 20
129.4703949999999
 30
0.0
 11
155.615132
 21
129.4703949999999
 31
0.0
  0
ARC
  5
FC
330
1E
100
AcDbEntity
  8
CSLAYER1
  6
CONTINUOUS
 62
     3
100
AcDbCircle
 10
157.549862
 20
128.9636209999999
 30
0.0
 40
2.0
100
AcDbArc
 50
76.164594
 51
165.321979
  0
ARC
  5
FD
330
1E
100
AcDbEntity
  8
CSLAYER1
  6
CONTINUOUS
 62
     3
100
AcDbCircle
 10
161.615132
 20
145.470395
 30
0.0
 40
15.0
100
AcDbArc
 50
256.164594
 51
0.0
  0
ARC
  5
FE
330
1E
100
AcDbEntity
  8
CSLAYER1
  6
CONTINUOUS
 62
     3
100
AcDbCircle
 10
177.415132
 20
144.770395
 30
0.0
 40
0.8
100
AcDbArc
 50
180.0
 51
270.0
  0
LINE
  5
FF
330
1E
100
AcDbEntity
  8
CSLAYER1
  6
CONTINUOUS
 62
     3
100
AcDbLine
 10
177.3399429999999
 20
143.9703949999999
 30
0.0
 11
245.615132
 21
143.9703949999999
 31
0.0
  0
LINE
  5
100
330
1E
100
AcDbEntity
  8
CSLAYER1
  6
CONTINUOUS
 62
     3
100
AcDbLine
 10
245.615132
 20
146.9703949999999
 30
0.0
 11
177.3399429999999
 21
146.9703949999999
 31
0.0
  0
ARC
  5
101
330
1E
100
AcDbEntity
  8
CSLAYER1
  6
CONTINUOUS
 62
     3
100
AcDbCircle
 10
177.415132
 20
146.1703949999999
 30
0.0
 40
0.8
100
AcDbArc
 50
90.0
 51
180.0
  0
LINE
  5
102
330
1E
100
AcDbEntity
  8
CSLAYER1
  6
CONTINUOUS
 62
     3
100
AcDbLine
 10
176.615132
 20
146.1703949999999
 30
0.0
 11
176.615132
 21
144.770395
 31
0.0
  0
LINE
  5
103
330
1E
100
AcDbEntity
  8
CSLAYER1
  6
CONTINUOUS
 62
     3
100
AcDbLine
 10
177.887604
 20
143.9703949999999
 30
0.0
 11
173.454509
 21
129.4703949999999
 31
0.0
  0
LINE
  5
104
330
1E
100
AcDbEntity
  8
CSLAYER1
  6
CONTINUOUS
 62
     3
100
AcDbLine
 10
167.615132
 20
129.4703949999999
 30
0.0
 11
181.615132
 21
129.4703949999999
 31
0.0
  0
LINE
  5
105
330
1E
100
AcDbEntity
  8
CSLAYER1
  6
CONTINUOUS
 62
     3
100
AcDbLine
 10
181.615132
 20
129.4703949999999
 30
0.0
 11
234.1771159999999
 21
131.9342379999999
 31
0.0
  0
ARC
  5
106
330
1E
100
AcDbEntity
  8
CSLAYER1
  6
CONTINUOUS
 62
     3
100
AcDbCircle
 10
233.615233
 20
143.9210759999999
 30
0.0
 40
12.0
100
AcDbArc
 50
272.6837749999999
 51
0.235481
  0
ARC
  5
107
330
1E
100
AcDbEntity
  8
CSLAYER1
  6
CONTINUOUS
 62
     3
100
AcDbCircle
 10
233.615233
 20
147.0197139999999
 30
0.0
 40
12.0
100
AcDbArc
 50
359.764519
 51
87.31622500000002
  0
LINE
  5
108
330
1E
100
AcDbEntity
  8
CSLAYER1
  6
CONTINUOUS
 62
     3
100
AcDbLine
 10
234.1771159999999
 20
159.006552
 30
0.0
 11
181.615132
 21
161.4703949999999
 31
0.0
  0
LINE
  5
109
330
1E
100
AcDbEntity
  8
CSLAYER1
  6
CONTINUOUS
 62
     3
100
AcDbLine
 10
181.615132
 20
161.4703949999999
 30
0.0
 11
167.615132
 21
161.4703949999999
 31
0.0
  0
ARC
  5
10A
330
1E
100
AcDbEntity
  8
CSLAYER1
  6
CONTINUOUS
 62
     3
100
AcDbCircle
 10
165.680402
 20
161.977169
 30
0.0
 40
2.0
100
AcDbArc
 50
256.164594
 51
345.3219789999998
  0
ARC
  5
10B
330
1E
100
AcDbEntity
  8
CSLAYER1
  6
CONTINUOUS
 62
     3
100
AcDbCircle
 10
161.615132
 20
145.470395
 30
0.0
 40
15.0
100
AcDbArc
 50
76.164594
 51
170.7161899999999
  0
LINE
  5
10C
330
1E
100
AcDbEntity
  8
CSLAYER1
  6
CONTINUOUS
 62
     3
100
AcDbLine
 10
144.920358
 20
145.589109
 30
0.0
 11
149.775754
 21
161.4703949999999
 31
0.0
  0
ARC
  5
10D
330
1E
100
AcDbEntity
  8
CSLAYER1
  6
CONTINUOUS
 62
     3
100
AcDbCircle
 10
148.0090079999999
 20
126.4703949999999
 30
0.0
 40
35.0
100
AcDbArc
 50
90.0
 51
147.1216499999999
  0
LINE
  5
10E
330
1E
100
AcDbEntity
  8
CSLAYER1
  6
CONTINUOUS
 62
     3
100
AcDbLine
 10
118.615132
 20
145.470395
 30
0.0
 11
140.2657669999999
 21
145.470395
 31
0.0
  0
LINE
  5
10F
330
1E
100
AcDbEntity
  8
CSLAYER1
  6
CONTINUOUS
 62
     3
100
AcDbLine
 10
148.0090079999999
 20
161.4703949999999
 30
0.0
 11
155.615132
 21
161.4703949999999
 31
0.0
  0
ARC
  5
110
330
1E
100
AcDbEntity
  8
CSLAYER1
  6
CONTINUOUS
 62
     3
100
AcDbCircle
 10
157.549862
 20
161.977169
 30
0.0
 40
2.0
100
AcDbArc
 50
194.678021
 51
283.8354059999998
  0
CIRCLE
  5
111
330
1E
100
AcDbEntity
  8
CSLAYER1
  6
CONTINUOUS
 62
     3
100
AcDbCircle
 10
161.615132
 20
145.470395
 30
0.0
 40
2.549999999999998
  0
CIRCLE
  5
112
330
1E
100
AcDbEntity
  8
CSLAYER1
  6
CONTINUOUS
 62
     3
100
AcDbCircle
 10
161.615132
 20
145.470395
 30
0.0
 40
9.55
  0
ARC
  5
113
330
1E
100
AcDbEntity
  8
CSLAYER1
  6
CONTINUOUS
 62
     3
100
AcDbCircle
 10
165.680402
 20
128.9636209999999
 30
0.0
 40
2.0
100
AcDbArc
 50
14.678021
 51
103.835406
  0
LINE
  5
114
330
1E
100
AcDbEntity
  8
CSLAYER1
  6
CONTINUOUS
 62
     3
100
AcDbLine
 10
173.454509
 20
93.770395
 30
0.0
 11
173.454509
 21
86.270395
 31
0.0
  0
ARC
  5
115
330
1E
100
AcDbEntity
  8
CSLAYER1
  6
CONTINUOUS
 62
     3
100
AcDbCircle
 10
172.454509
 20
86.270395
 30
0.0
 40
1.0
100
AcDbArc
 50
270.0
 51
0.0
  0
LINE
  5
116
330
1E
100
AcDbEntity
  8
CSLAYER1
  6
CONTINUOUS
 62
     3
100
AcDbLine
 10
172.454509
 20
85.27039499999998
 30
0.0
 11
150.775754
 21
85.27039499999998
 31
0.0
  0
ARC
  5
117
330
1E
100
AcDbEntity
  8
CSLAYER1
  6
CONTINUOUS
 62
     3
100
AcDbCircle
 10
150.775754
 20
84.27039499999997
 30
0.0
 40
1.0
100
AcDbArc
 50
90.0
 51
180.0
  0
LINE
  5
118
330
1E
100
AcDbEntity
  8
CSLAYER1
  6
CONTINUOUS
 62
     3
100
AcDbLine
 10
149.775754
 20
84.27039499999997
 30
0.0
 11
149.775754
 21
76.77039499999998
 31
0.0
  0
LINE
  5
119
330
1E
100
AcDbEntity
  8
CSLAYER1
  6
CONTINUOUS
 62
     3
100
AcDbLine
 10
143.615132
 20
76.77039499999998
 30
0.0
 11
118.615132
 21
91.204151
 31
0.0
  0
LINE
  5
11A
330
1E
100
AcDbEntity
  8
CSLAYER1
  6
CONTINUOUS
 62
     3
100
AcDbLine
 10
118.615132
 20
91.204151
 30
0.0
 11
118.615132
 21
93.770395
 31
0.0
  0
LINE
  5
11B
330
1E
100
AcDbEntity
  8
CSLAYER1
  6
CONTINUOUS
 62
     3
100
AcDbLine
 10
118.615132
 20
93.770395
 30
0.0
 11
191.655132
 21
93.770395
 31
0.0
  0
LINE
  5
11C
330
1E
100
AcDbEntity
  8
CSLAYER1
  6
CONTINUOUS
 62
     3
100
AcDbLine
 10
191.615132
 20
93.770395
 30
0.0
 11
235.48471
 21
92.551795
 31
0.0
  0
ARC
  5
11D
330
1E
100
AcDbEntity
  8
CSLAYER1
  6
CONTINUOUS
 62
     3
100
AcDbCircle
 10
235.1515049999999
 20
80.55642199999999
 30
0.0
 40
12.0
100
AcDbArc
 50
36.10355999999999
 51
88.40886000000002
  0
ARC
  5
11E
330
1E
100
AcDbEntity
  8
CSLAYER1
  6
CONTINUOUS
 62
     3
100
AcDbCircle
 10
241.6151319999999
 20
85.27039499999998
 30
0.0
 40
4.0
100
AcDbArc
 50
323.8964399999999
 51
36.10355999999999
  0
LINE
  5
11F
330
1E
100
AcDbEntity
  8
CSLAYER1
  6
CONTINUOUS
 62
     3
100
AcDbLine
 10
235.48471
 20
77.98899399999998
 30
0.0
 11
191.615132
 21
76.77039499999998
 31
0.0
  0
LINE
  5
120
330
1E
100
AcDbEntity
  8
CSLAYER1
  6
CONTINUOUS
 62
     3
100
AcDbLine
 10
191.615132
 20
76.77039499999998
 30
0.0
 11
143.615132
 21
76.77039499999998
 31
0.0
  0
ARC
  5
121
330
1E
100
AcDbEntity
  8
CSLAYER1
  6
CONTINUOUS
 62
     3
100
AcDbCircle
 10
155.115132
 20
85.77039499999997
 30
0.0
 40
0.5
100
AcDbArc
 50
270.0
 51
0.0
  0
LINE
  5
122
330
1E
100
AcDbEntity
  8
CSLAYER1
  6
CONTINUOUS
 62
     3
100
AcDbLine
 10
155.615132
 20
85.77039499999997
 30
0.0
 11
155.615132
 21
93.770395
 31
0.0
  0
LINE
  5
123
330
1E
100
AcDbEntity
  8
CSLAYER1
  6
CONTINUOUS
 62
     3
100
AcDbLine
 10
167.615132
 20
84.770395
 30
0.0
 11
167.615132
 21
76.77039499999998
 31
0.0
  0
ARC
  5
124
330
1E
100
AcDbEntity
  8
CSLAYER1
  6
CONTINUOUS
 62
     3
100
AcDbCircle
 10
168.115132
 20
84.770395
 30
0.0
 40
0.5
100
AcDbArc
 50
90.0
 51
180.0
  0
ARC
  5
125
330
1E
100
AcDbEntity
  8
CSLAYER1
  6
CONTINUOUS
 62
     3
100
AcDbCircle
 10
235.1515049999999
 20
89.984367
 30
0.0
 40
12.0
100
AcDbArc
 50
271.5911399999999
 51
323.8964399999998
  0
LINE
  5
126
330
1E
100
AcDbEntity
  8
CSLAYER1
  6
CONTINUOUS
 62
     3
100
AcDbLine
 10
238.0
 20
50.0
 30
0.0
 11
279.0
 21
50.0
 31
0.0
  0
LINE
  5
127
330
1E
100
AcDbEntity
  8
CSLAYER1
  6
CONTINUOUS
 62
     3
100
AcDbLine
 10
239.6151319999999
 20
143.9703949999999
 30
0.0
 11
239.6151319999999
 21
146.9703949999999
 31
0.0
  0
LINE
  5
128
330
1E
100
AcDbEntity
  8
CSLAYER1
  6
CONTINUOUS
 62
     3
100
AcDbLine
 10
231.6151319999999
 20
146.9703949999999
 30
0.0
 11
231.6151319999999
 21
143.9703949999999
 31
0.0
  0
LINE
  5
129
330
1E
100
AcDbEntity
  8
CSLAYER1
  6
CENTER
 62
     4
100
AcDbLine
 10
61.130658
 20
145.470395
 30
0.0
 11
57.70071
 21
145.470395
 31
0.0
  0
LINE
  5
12A
330
1E
100
AcDbEntity
  8
CSLAYER1
  6
CENTER
 62
     4
100
AcDbLine
 10
62.13065799999998
 20
145.470395
 30
0.0
 11
79.38014799999997
 21
145.470395
 31
0.0
  0
LINE
  5
12B
330
1E
100
AcDbEntity
  8
CSLAYER1
  6
CENTER
 62
     4
100
AcDbLine
 10
111.9533129999999
 20
145.470395
 30
0.0
 11
118.765435
 21
145.470395
 31
0.0
  0
LINE
  5
12C
330
1E
100
AcDbEntity
  8
CSLAYER1
  6
CENTER
 62
     4
100
AcDbLine
 10
161.615132
 20
126.8431219999999
 30
0.0
 11
161.615132
 21
164.661304
 31
0.0
  0
LINE
  5
12D
330
1E
100
AcDbEntity
  8
CSLAYER1
  6
CENTER
 62
     4
100
AcDbLine
 10
140.2657669999999
 20
145.470395
 30
0.0
 11
253.8151319999999
 21
145.470395
 31
0.0
  0
LINE
  5
12E
330
1E
100
AcDbEntity
  8
CSLAYER1
  6
CENTER
 62
     4
100
AcDbLine
 10
235.6151319999999
 20
140.1322129999998
 30
0.0
 11
235.6151319999999
 21
150.910395
 31
0.0
  0
LINE
  5
12F
330
1E
100
AcDbEntity
  8
CSLAYER1
  6
CENTER
 62
     4
100
AcDbLine
 10
184.615132
 20
155.4703949999999
 30
0.0
 11
184.615132
 21
135.4703949999999
 31
0.0
  0
LINE
  5
130
330
1E
100
AcDbEntity
  8
CSLAYER1
  6
CENTER
 62
     4
100
AcDbLine
 10
161.615132
 20
96.402516
 30
0.0
 11
161.615132
 21
73.488577
 31
0.0
  0
LINE
  5
131
330
1E
100
AcDbEntity
  8
CSLAYER1
  6
CENTER
 62
     4
100
AcDbLine
 10
172.454509
 20
85.27039499999998
 30
0.0
 11
179.0857279999999
 21
85.27039499999998
 31
0.0
  0
LINE
  5
132
330
1E
100
AcDbEntity
  8
CSLAYER1
  6
CENTER
 62
     4
100
AcDbLine
 10
150.775754
 20
85.27039499999998
 30
0.0
 11
145.0875649999999
 21
85.27039499999998
 31
0.0
  0
LINE
  5
133
330
1E
100
AcDbEntity
  8
CSLAYER1
  6
CENTER
 62
     4
100
AcDbLine
 10
238.2128419999999
 20
85.08975600000002
 30
0.0
 11
245.6100109999999
 21
85.068064
 31
0.0
  0
LINE
  5
134
330
1E
100
AcDbEntity
  8
CSLAYER1
  6
CENTER
 62
     4
100
AcDbLine
 10
245.6100109999999
 20
85.068064
 30
0.0
 11
251.9302829999999
 21
85.068064
 31
0.0
  0
LINE
  5
135
330
1E
100
AcDbEntity
  8
CSLAYER1
  6
DASHED
 62
     4
100
AcDbLine
 10
144.115132
 20
93.770395
 30
0.0
 11
141.596333
 21
79.48558
 31
0.0
  0
LINE
  5
136
330
1E
100
AcDbEntity
  8
CSLAYER1
  6
CONTINUOUS
 62
     3
100
AcDbLine
 10
118.615132
 20
145.470395
 30
0.0
 11
136.874106
 21
134.9285709999998
 31
0.0
  0
LINE
  5
137
330
1E
100
AcDbEntity
  8
CSLAYER1
  6
CONTINUOUS
 62
     3
100
AcDbLine
 10
143.836534
 20
144.987849
 30
0.0
 11
138.240132
 21
135.2945959999999
 31
0.0
  0
ARC
  5
138
330
1E
100
AcDbEntity
  8
CSLAYER1
  6
CONTINUOUS
 62
     3
100
AcDbCircle
 10
137.374106
 20
135.7945959999999
 30
0.0
 40
1.0
100
AcDbArc
 50
239.9999999999999
 51
330.0
  0
LINE
  5
139
330
1E
100
AcDbEntity
  8
CSLAYER1
  6
CONTINUOUS
 62
     3
100
AcDbLine
 10
141.179889
 20
144.954907
 30
0.0
 11
137.910787
 21
134.950811
 31
0.0
  0
LINE
  5
13A
330
1E
100
AcDbEntity
  8
CSLAYER1
  6
CONTINUOUS
 62
     3
100
AcDbLine
 10
118.615132
 20
145.470395
 30
0.0
 11
136.874106
 21
156.0122189999999
 31
0.0
  0
LINE
  5
13B
330
1E
100
AcDbEntity
  8
CSLAYER1
  6
CONTINUOUS
 62
     3
100
AcDbLine
 10
143.836534
 20
145.9529399999999
 30
0.0
 11
138.240132
 21
155.6461929999999
 31
0.0
  0
ARC
  5
13C
330
1E
100
AcDbEntity
  8
CSLAYER1
  6
CONTINUOUS
 62
     3
100
AcDbCircle
 10
137.374106
 20
155.1461929999998
 30
0.0
 40
1.0
100
AcDbArc
 50
30.0
 51
119.9999999999999
  0
LINE
  5
13D
330
1E
100
AcDbEntity
  8
CSLAYER1
  6
CONTINUOUS
 62
     3
100
AcDbLine
 10
141.1881939999998
 20
145.9604659999999
 30
0.0
 11
137.910787
 21
155.989978
 31
0.0
  0
ARC
  5
13E
330
1E
100
AcDbEntity
  8
CSLAYER1
  6
DASHED
 62
     4
100
AcDbCircle
 10
140.6115259999999
 20
79.659228
 30
0.0
 40
1.0
100
AcDbArc
 50
239.9999999999999
 51
350.0
  0
DIMENSION
  5
13F
330
1E
100
AcDbEntity
  8
CSLAYER1
 62
     4
100
AcDbDimension
  2
*D8
 10
161.615132
 20
178.624445
 30
0.0
 11
140.115128
 21
179.124451
 31
0.0
100
AcDbAlignedDimension
 13
118.615132
 23
145.470395
 33
0.0
 14
161.615132
 24
164.661304
 34
0.0
100
AcDbRotatedDimension
  0
DIMENSION
  5
140
330
1E
100
AcDbEntity
  8
CSLAYER1
 62
     4
100
AcDbDimension
  2
*D9
 10
129.3504039999999
 20
59.798188
 30
0.0
 11
118.7750929999999
 21
66.48120099999998
 31
0.0
 70
     1
100
AcDbAlignedDimension
 13
118.615132
 23
91.204151
 33
0.0
 14
140.2657669999999
 24
78.70415099999998
 34
0.0
  0
LINE
  5
141
330
1E
100
AcDbEntity
  8
CSLAYER1
  6
CONTINUOUS
 62
     3
100
AcDbLine
 10
140.2657669999999
 20
145.954907
 30
0.0
 11
140.2657669999999
 21
144.954907
 31
0.0
  0
LINE
  5
142
330
1E
100
AcDbEntity
  8
CSLAYER1
  6
CONTINUOUS
 62
     3
100
AcDbLine
 10
76.130658
 20
161.4703949999999
 30
0.0
 11
62.65012099999999
 21
161.4703949999999
 31
0.0
  0
ARC
  5
143
330
1E
100
AcDbEntity
  8
CSLAYER1
  6
CONTINUOUS
 62
     3
100
AcDbCircle
 10
146.130658
 20
145.470395
 30
0.0
 40
85.0
100
AcDbArc
 50
169.1501839999999
 51
180.0
  0
LINE
  5
145
330
1E
100
AcDbEntity
  8
CSLAYER1
  6
CONTINUOUS
 62
     3
100
AcDbLine
 10
76.130658
 20
161.4703949999999
 30
0.0
 11
76.130658
 21
159.4703949999999
 31
0.0
  0
LINE
  5
146
330
1E
100
AcDbEntity
  8
CSLAYER1
  6
CONTINUOUS
 62
     3
100
AcDbLine
 10
76.130658
 20
129.4703949999999
 30
0.0
 11
62.65012099999999
 21
129.4703949999999
 31
0.0
  0
LINE
  5
147
330
1E
100
AcDbEntity
  8
CSLAYER1
  6
CONTINUOUS
 62
     3
100
AcDbLine
 10
76.130658
 20
129.4703949999999
 30
0.0
 11
76.130658
 21
130.970395
 31
0.0
  0
ARC
  5
148
330
1E
100
AcDbEntity
  8
CSLAYER1
  6
CONTINUOUS
 62
     3
100
AcDbCircle
 10
146.130658
 20
145.470395
 30
0.0
 40
85.0
100
AcDbArc
 50
180.5787079999999
 51
190.8498159999999
  0
DIMENSION
  5
14C
330
1E
100
AcDbEntity
  8
CSLAYER1
 62
     4
100
AcDbDimension
  2
*D13
 10
54.584386
 20
153.0166659999999
 30
0.0
 11
50.357151
 21
153.5166629999999
 31
0.0
 70
     1
 52
135.0
100
AcDbAlignedDimension
 13
61.130658
 23
145.470395
 33
0.0
 14
62.13065799999998
 24
145.470395
 34
0.0
  0
POINT
  5
14D
330
1E
100
AcDbEntity
  8
CSLAYER1
 62
     3
100
AcDbPoint
 10
117.300183
 20
30.26919799999999
 30
0.0
  0
LINE
  5
14E
330
1E
100
AcDbEntity
  8
CSLAYER1
  6
CONTINUOUS
 62
     3
100
AcDbLine
 10
38.72360399999998
 20
48.76919799999999
 30
0.0
 11
24.723604
 21
34.76919799999999
 31
0.0
  0
LINE
  5
14F
330
1E
100
AcDbEntity
  8
CSLAYER1
  6
CONTINUOUS
 62
     3
100
AcDbLine
 10
24.723604
 20
34.76919799999999
 30
0.0
 11
23.723604
 21
34.76919799999999
 31
0.0
  0
LINE
  5
150
330
1E
100
AcDbEntity
  8
CSLAYER1
  6
CONTINUOUS
 62
     3
100
AcDbLine
 10
24.223604
 20
25.769198
 30
0.0
 11
23.727939
 21
24.910682
 31
0.0
  0
LINE
  5
151
330
1E
100
AcDbEntity
  8
CSLAYER1
  6
CONTINUOUS
 62
     3
100
AcDbLine
 10
24.223604
 20
25.769198
 30
0.0
 11
38.72360399999998
 21
11.269198
 31
0.0
  0
ARC
  5
152
330
1E
100
AcDbEntity
  8
CSLAYER1
  6
CONTINUOUS
 62
     3
100
AcDbCircle
 10
98.83224900000001
 20
29.180422
 30
0.0
 40
3.5
100
AcDbArc
 50
18.124259
 51
83.99293099999999
  0
LINE
  5
153
330
1E
100
AcDbEntity
  8
CSLAYER1
  6
CONTINUOUS
 62
     3
100
AcDbLine
 10
99.19852900000002
 20
32.661203
 30
0.0
 11
96.118752
 21
32.98528499999999
 31
0.0
  0
ARC
  5
154
330
1E
100
AcDbEntity
  8
CSLAYER1
  6
CONTINUOUS
 62
     3
100
AcDbCircle
 10
117.300183
 20
30.26919799999999
 30
0.0
 40
15.0
100
AcDbArc
 50
262.1716629999998
 51
316.755641
  0
ARC
  5
155
330
1E
100
AcDbEntity
  8
CSLAYER1
  6
CONTINUOUS
 62
     3
100
AcDbCircle
 10
117.300183
 20
30.26919799999999
 30
0.0
 40
15.0
100
AcDbArc
 50
82.171663
 51
176.6260359999999
  0
LINE
  5
156
330
1E
100
AcDbEntity
  8
CSLAYER1
  6
CONTINUOUS
 62
     3
100
AcDbLine
 10
100.709504
 20
32.134388
 30
0.0
 11
107.200234
 21
47.420346
 31
0.0
  0
ARC
  5
157
330
1E
100
AcDbEntity
  8
CSLAYER1
  6
CONTINUOUS
 62
     3
100
AcDbCircle
 10
101.7803989999999
 20
12.797423
 30
0.0
 40
35.0
100
AcDbArc
 50
83.99293099999999
 51
141.114582
  0
LINE
  5
158
330
1E
100
AcDbEntity
  8
CSLAYER1
  6
CONTINUOUS
 62
     3
100
AcDbLine
 10
74.53629599999998
 20
34.76919799999999
 30
0.0
 11
96.068048
 21
32.503433
 31
0.0
  0
LINE
  5
159
330
1E
100
AcDbEntity
  8
CSLAYER1
  6
CONTINUOUS
 62
     3
100
AcDbLine
 10
105.4431899999999
 20
47.605238
 30
0.0
 11
113.007548
 21
46.80924799999998
 31
0.0
  0
ARC
  5
15A
330
1E
100
AcDbEntity
  8
CSLAYER1
  6
CONTINUOUS
 62
     3
100
AcDbCircle
 10
114.9846879999999
 20
47.11076799999999
 30
0.0
 40
2.0
100
AcDbArc
 50
188.670952
 51
277.828337
  0
CIRCLE
  5
15B
330
1E
100
AcDbEntity
  8
CSLAYER1
  6
CONTINUOUS
 62
     3
100
AcDbCircle
 10
117.300183
 20
30.26919799999999
 30
0.0
 40
2.549999999999998
  0
CIRCLE
  5
15C
330
1E
100
AcDbEntity
  8
CSLAYER1
  6
CONTINUOUS
 62
     3
100
AcDbCircle
 10
117.300183
 20
30.26919799999999
 30
0.0
 40
9.55
  0
LINE
  5
15D
330
1E
100
AcDbEntity
  8
CSLAYER1
  6
CENTER
 62
     4
100
AcDbLine
 10
18.94735199999998
 20
30.26919799999999
 30
0.0
 11
41.973094
 21
30.26919799999999
 31
0.0
  0
LINE
  5
15E
330
1E
100
AcDbEntity
  8
CSLAYER1
  6
CENTER
 62
     4
100
AcDbLine
 10
117.300183
 20
11.641925
 30
0.0
 11
117.300183
 21
49.460107
 31
0.0
  0
LINE
  5
15F
330
1E
100
AcDbEntity
  8
CSLAYER1
  6
CENTER
 62
     4
100
AcDbLine
 10
70.443584
 20
30.26919799999999
 30
0.0
 11
129.803414
 21
30.26919799999999
 31
0.0
  0
LINE
  5
160
330
1E
100
AcDbEntity
  8
CSLAYER1
  6
CONTINUOUS
 62
     3
100
AcDbLine
 10
74.53629599999998
 20
34.76919799999999
 30
0.0
 11
93.79822500000001
 21
43.34231299999999
 31
0.0
  0
LINE
  5
161
330
1E
100
AcDbEntity
  8
CSLAYER1
  6
CONTINUOUS
 62
     3
100
AcDbLine
 10
99.669707
 20
32.609644
 30
0.0
 11
95.11844399999999
 21
42.835342
 31
0.0
  0
ARC
  5
162
330
1E
100
AcDbEntity
  8
CSLAYER1
  6
CONTINUOUS
 62
     3
100
AcDbCircle
 10
94.20484899999999
 20
42.42871799999998
 30
0.0
 40
1.0
100
AcDbArc
 50
23.99293099999999
 51
113.992931
  0
LINE
  5
163
330
1E
100
AcDbEntity
  8
CSLAYER1
  6
CONTINUOUS
 62
     3
100
AcDbLine
 10
97.036697
 20
32.894281
 30
0.0
 11
94.82688600000001
 21
43.211705
 31
0.0
  0
LINE
  5
164
330
1E
100
AcDbEntity
  8
CSLAYER1
  6
CONTINUOUS
 62
     3
100
AcDbLine
 10
96.118752
 20
32.98528499999999
 30
0.0
 11
96.068048
 21
32.503433
 31
0.0
  0
LINE
  5
165
330
1E
100
AcDbEntity
  8
CSLAYER1
  6
CONTINUOUS
 62
     3
100
AcDbLine
 10
38.72360399999998
 20
50.76919799999998
 30
0.0
 11
25.243067
 21
50.76919799999998
 31
0.0
  0
ARC
  5
166
330
1E
100
AcDbEntity
  8
CSLAYER1
  6
CONTINUOUS
 62
     3
100
AcDbCircle
 10
108.723604
 20
34.76919799999999
 30
0.0
 40
85.0
100
AcDbArc
 50
169.1501839999999
 51
180.0
  0
LINE
  5
167
330
1E
100
AcDbEntity
  8
CSLAYER1
  6
CONTINUOUS
 62
     3
100
AcDbLine
 10
38.72360399999998
 20
50.76919799999998
 30
0.0
 11
38.72360399999998
 21
48.76919799999999
 31
0.0
  0
LINE
  5
168
330
1E
100
AcDbEntity
  8
CSLAYER1
  6
CONTINUOUS
 62
     3
100
AcDbLine
 10
38.72360399999998
 20
9.769197999999999
 30
0.0
 11
25.243067
 21
9.769197999999999
 31
0.0
  0
LINE
  5
169
330
1E
100
AcDbEntity
  8
CSLAYER1
  6
CONTINUOUS
 62
     3
100
AcDbLine
 10
38.72360399999998
 20
9.769197999999999
 30
0.0
 11
38.72360399999998
 21
11.269198
 31
0.0
  0
ARC
  5
16A
330
1E
100
AcDbEntity
  8
CSLAYER1
  6
CONTINUOUS
 62
     3
100
AcDbCircle
 10
108.723604
 20
25.769198
 30
0.0
 40
85.0
100
AcDbArc
 50
180.5787079999999
 51
190.8498159999999
  0
ARC
  5
16B
330
1E
100
AcDbEntity
  8
CSLAYER1
  6
CONTINUOUS
 62
     3
100
AcDbCircle
 10
98.83224900000001
 20
31.35797399999999
 30
0.0
 40
3.5
100
AcDbArc
 50
276.007069
 51
356.626036
  0
LINE
  5
16C
330
1E
100
AcDbEntity
  8
CSLAYER1
  6
CONTINUOUS
 62
     3
100
AcDbLine
 10
99.19852900000002
 20
27.87719199999999
 30
0.0
 11
96.118752
 21
27.55310999999998
 31
0.0
  0
ARC
  5
16D
330
1E
100
AcDbEntity
  8
CSLAYER1
  6
CONTINUOUS
 62
     3
100
AcDbCircle
 10
101.7803989999999
 20
47.74097199999999
 30
0.0
 40
35.0
100
AcDbArc
 50
218.885418
 51
276.007069
  0
LINE
  5
16E
330
1E
100
AcDbEntity
  8
CSLAYER1
  6
CONTINUOUS
 62
     3
100
AcDbLine
 10
74.53629599999998
 20
25.769198
 30
0.0
 11
96.068048
 21
28.034962
 31
0.0
  0
LINE
  5
16F
330
1E
100
AcDbEntity
  8
CSLAYER1
  6
CONTINUOUS
 62
     3
100
AcDbLine
 10
105.4431899999999
 20
12.933157
 30
0.0
 11
113.007548
 21
13.72914699999999
 31
0.0
  0
ARC
  5
170
330
1E
100
AcDbEntity
  8
CSLAYER1
  6
CONTINUOUS
 62
     3
100
AcDbCircle
 10
114.9846879999999
 20
13.42762699999999
 30
0.0
 40
2.0
100
AcDbArc
 50
82.171663
 51
171.3290479999999
  0
LINE
  5
171
330
1E
100
AcDbEntity
  8
CSLAYER1
  6
CONTINUOUS
 62
     3
100
AcDbLine
 10
74.53629599999998
 20
25.769198
 30
0.0
 11
93.79822500000001
 21
17.196082
 31
0.0
  0
LINE
  5
172
330
1E
100
AcDbEntity
  8
CSLAYER1
  6
CONTINUOUS
 62
     3
100
AcDbLine
 10
99.669707
 20
27.928751
 30
0.0
 11
95.11844399999999
 21
17.703054
 31
0.0
  0
ARC
  5
173
330
1E
100
AcDbEntity
  8
CSLAYER1
  6
CONTINUOUS
 62
     3
100
AcDbCircle
 10
94.20484899999999
 20
18.109678
 30
0.0
 40
1.0
100
AcDbArc
 50
246.007069
 51
336.007069
  0
LINE
  5
174
330
1E
100
AcDbEntity
  8
CSLAYER1
  6
CONTINUOUS
 62
     3
100
AcDbLine
 10
97.036697
 20
27.644114
 30
0.0
 11
94.82688600000001
 21
17.32669
 31
0.0
  0
LINE
  5
175
330
1E
100
AcDbEntity
  8
CSLAYER1
  6
CONTINUOUS
 62
     3
100
AcDbLine
 10
96.118752
 20
27.55310999999998
 30
0.0
 11
96.068048
 21
28.034962
 31
0.0
  0
LINE
  5
176
330
1E
100
AcDbEntity
  8
CSLAYER1
  6
CONTINUOUS
 62
     3
100
AcDbLine
 10
124.843762
 20
47.151342
 30
0.0
 11
121.5928179999999
 21
46.80924799999998
 31
0.0
  0
ARC
  5
177
330
1E
100
AcDbEntity
  8
CSLAYER1
  6
CONTINUOUS
 62
     3
100
AcDbCircle
 10
119.6156769999999
 20
47.11076799999999
 30
0.0
 40
2.0
100
AcDbArc
 50
262.1716629999998
 51
351.329048
  0
DIMENSION
  5
178
330
1E
100
AcDbEntity
  8
CSLAYER1
 62
     4
100
AcDbDimension
  2
*D14
 10
62.53248000000001
 20
34.76919799999999
 30
0.0
 11
62.03248199999999
 21
30.269197
 31
0.0
 70
     1
100
AcDbAlignedDimension
 13
74.53629599999998
 23
25.769198
 33
0.0
 14
74.53629599999998
 24
34.76919799999999
 34
0.0
  0
LINE
  5
179
330
1E
100
AcDbEntity
  8
CSLAYER1
  6
DOT
 62
     3
100
AcDbLine
 10
4.0
 20
1.0
 30
0.0
 11
283.0
 21
1.0
 31
0.0
  0
LINE
  5
17A
330
1E
100
AcDbEntity
  8
CSLAYER1
  6
DOT
 62
     3
100
AcDbLine
 10
283.0
 20
1.0
 30
0.0
 11
283.0
 21
195.0
 31
0.0
  0
LINE
  5
17B
330
1E
100
AcDbEntity
  8
CSLAYER1
  6
DOT
 62
     3
100
AcDbLine
 10
283.0
 20
195.0
 30
0.0
 11
4.0
 21
195.0
 31
0.0
  0
LINE
  5
17C
330
1E
100
AcDbEntity
  8
CSLAYER1
  6
DOT
 62
     3
100
AcDbLine
 10
4.0
 20
195.0
 30
0.0
 11
4.0
 21
1.0
 31
0.0
  0
LINE
  5
17D
330
1E
100
AcDbEntity
  8
CSLAYER1
  6
DOT
 62
     3
100
AcDbLine
 10
4.0
 20
98.0
 30
0.0
 11
0.0
 21
98.0
 31
0.0
  0
LINE
  5
17E
330
1E
100
AcDbEntity
  8
CSLAYER1
  6
DOT
 62
     3
100
AcDbLine
 10
143.5
 20
195.0
 30
0.0
 11
143.5
 21
199.0
 31
0.0
  0
ENDSEC
  0
SECTION
  2
OBJECTS
  0
DICTIONARY
  5
C
330
0
100
AcDbDictionary
  3
ACAD_GROUP
350
D
  3
ACAD_LAYOUT
350
19
  3
ACAD_MLINESTYLE
350
16
  3
ACAD_PLOTSETTINGS
350
18
1001
ACAD
1000
TREAT_AS_HARD
1070
     0
1000
TREAT_AS_HARD
1070
     0
  0
DICTIONARY
  5
188
330
1E
100
AcDbDictionary
  3
ACAD_LAYOUTSELFREF
350
1D1
1001
ACAD
1000
TREAT_AS_HARD
1070
     0
  0
DICTIONARY
  5
186
330
1A
100
AcDbDictionary
  3
ACAD_LAYOUTSELFREF
350
1D0
1001
ACAD
1000
TREAT_AS_HARD
1070
     0
  0
DICTIONARY
  5
D
102
{ACAD_REACTORS
330
C
102
}
330
C
100
AcDbDictionary
1001
ACAD
1000
TREAT_AS_HARD
1070
     0
1000
TREAT_AS_HARD
1070
     0
  0
DICTIONARY
  5
19
102
{ACAD_REACTORS
330
C
102
}
330
C
100
AcDbDictionary
1001
ACAD
1000
TREAT_AS_HARD
1070
     0
1000
TREAT_AS_HARD
1070
     0
  0
DICTIONARY
  5
16
102
{ACAD_REACTORS
330
C
102
}
330
C
100
AcDbDictionary
  3
STANDARD
350
17
1001
ACAD
1000
TREAT_AS_HARD
1070
     0
1000
TREAT_AS_HARD
1070
     0
  0
DICTIONARY
  5
18
102
{ACAD_REACTORS
330
C
102
}
330
C
100
AcDbDictionary
1001
ACAD
1000
TREAT_AS_HARD
1070
     0
1000
TREAT_AS_HARD
1070
     0
  0
XRECORD
  5
1D1
102
{ACAD_REACTORS
330
188
102
}
330
188
100
AcDbXrecord
340
1E
  0
XRECORD
  5
1D0
102
{ACAD_REACTORS
330
186
102
}
330
186
100
AcDbXrecord
340
1A
  0
MLINESTYLE
  5
17
102
{ACAD_REACTORS
330
16
102
}
330
16
100
AcDbMlineStyle
  2
STANDARD
 70
     0
  3

 62
   256
 51
90.0
 52
90.0
 71
     2
 49
0.5
 62
   256
  6
BYLAYER
 49
-0.5
 62
   256
  6
BYLAYER
  0
ENDSEC
  0
EOF
