  0
SECTION
  2
HEADER
  9
$ACADVER
  1
AC1012
  9
$DWGCODEPAGE
  3
dos932
  9
$INSBASE
 10
0.0
 20
0.0
 30
0.0
  9
$EXTMIN
 10
3.978974084811056
 20
0.9869389666558276
 30
-0.0015258207003583
  9
$EXTMAX
 10
283.0056159095904
 20
199.0155034058442
 30
0.0000000349246037
  9
$LIMMIN
 10
0.0
 20
0.0
  9
$LIMMAX
 10
297.0
 20
210.0
  9
$ORTHOMODE
 70
     0
  9
$REGENMODE
 70
     1
  9
$FILLMODE
 70
     1
  9
$QTEXTMODE
 70
     0
  9
$MIRRTEXT
 70
     1
  9
$DRAGMODE
 70
     2
  9
$LTSCALE
 40
15.0
  9
$OSMODE
 70
    37
  9
$ATTMODE
 70
     1
  9
$TEXTSIZE
 40
0.2
  9
$TRACEWID
 40
0.05
  9
$TEXTSTYLE
  7
GOTHIC
  9
$CLAYER
  8
CSLAYER1
  9
$CELTYPE
  6
BYLAYER
  9
$CECOLOR
 62
   256
  9
$CELTSCALE
 40
1.0
  9
$DELOBJ
 70
     1
  9
$DISPSILH
 70
     0
  9
$DIMSCALE
 40
1.0
  9
$DIMASZ
 40
0.18
  9
$DIMEXO
 40
0.0625
  9
$DIMDLI
 40
0.38
  9
$DIMRND
 40
0.0
  9
$DIMDLE
 40
0.0
  9
$DIMEXE
 40
0.18
  9
$DIMTP
 40
0.0
  9
$DIMTM
 40
0.0
  9
$DIMTXT
 40
0.18
  9
$DIMCEN
 40
0.09
  9
$DIMTSZ
 40
0.0
  9
$DIMTOL
 70
     0
  9
$DIMLIM
 70
     0
  9
$DIMTIH
 70
     1
  9
$DIMTOH
 70
     1
  9
$DIMSE1
 70
     0
  9
$DIMSE2
 70
     0
  9
$DIMTAD
 70
     0
  9
$DIMZIN
 70
     0
  9
$DIMBLK
  1

  9
$DIMASO
 70
     1
  9
$DIMSHO
 70
     1
  9
$DIMPOST
  1

  9
$DIMAPOST
  1

  9
$DIMALT
 70
     0
  9
$DIMALTD
 70
     2
  9
$DIMALTF
 40
25.4
  9
$DIMLFAC
 40
1.0
  9
$DIMTOFL
 70
     0
  9
$DIMTVP
 40
0.0
  9
$DIMTIX
 70
     0
  9
$DIMSOXD
 70
     0
  9
$DIMSAH
 70
     0
  9
$DIMBLK1
  1

  9
$DIMBLK2
  1

  9
$DIMSTYLE
  2
STANDARD
  9
$DIMCLRD
 70
     0
  9
$DIMCLRE
 70
     0
  9
$DIMCLRT
 70
     0
  9
$DIMTFAC
 40
1.0
  9
$DIMGAP
 40
0.09
  9
$DIMJUST
 70
     0
  9
$DIMSD1
 70
     0
  9
$DIMSD2
 70
     0
  9
$DIMTOLJ
 70
     1
  9
$DIMTZIN
 70
     0
  9
$DIMALTZ
 70
     0
  9
$DIMALTTZ
 70
     0
  9
$DIMFIT
 70
     3
  9
$DIMUPT
 70
     0
  9
$DIMUNIT
 70
     2
  9
$DIMDEC
 70
     4
  9
$DIMTDEC
 70
     4
  9
$DIMALTU
 70
     2
  9
$DIMALTTD
 70
     2
  9
$DIMTXSTY
  7
STANDARD
  9
$DIMAUNIT
 70
     0
  9
$LUNITS
 70
     2
  9
$LUPREC
 70
     4
  9
$SKETCHINC
 40
0.1
  9
$FILLETRAD
 40
0.0
  9
$AUNITS
 70
     0
  9
$AUPREC
 70
     0
  9
$MENU
  1
ACAD
  9
$ELEVATION
 40
0.0
  9
$PELEVATION
 40
0.0
  9
$THICKNESS
 40
0.0
  9
$LIMCHECK
 70
     0
  9
$BLIPMODE
 70
     1
  9
$CHAMFERA
 40
0.0
  9
$CHAMFERB
 40
0.0
  9
$CHAMFERC
 40
0.0
  9
$CHAMFERD
 40
0.0
  9
$SKPOLY
 70
     0
  9
$TDCREATE
 40
2453481.000000000
  9
$TDUPDATE
 40
2453516.556433299
  9
$TDINDWG
 40
0.0003090046
  9
$TDUSRTIMER
 40
0.0003088889
  9
$USRTIMER
 70
     1
  9
$ANGBASE
 50
0.0
  9
$ANGDIR
 70
     0
  9
$PDMODE
 70
     0
  9
$PDSIZE
 40
0.0
  9
$PLINEWID
 40
0.0
  9
$COORDS
 70
     0
  9
$SPLFRAME
 70
     0
  9
$SPLINETYPE
 70
     6
  9
$SPLINESEGS
 70
     8
  9
$ATTDIA
 70
     0
  9
$ATTREQ
 70
     1
  9
$HANDLING
 70
-16383
  9
$HANDSEED
  5
1B5
  9
$SURFTAB1
 70
     6
  9
$SURFTAB2
 70
     6
  9
$SURFTYPE
 70
     6
  9
$SURFU
 70
     6
  9
$SURFV
 70
     6
  9
$UCSNAME
  2

  9
$UCSORG
 10
0.0
 20
0.0
 30
0.0
  9
$UCSXDIR
 10
1.0
 20
0.0
 30
0.0
  9
$UCSYDIR
 10
0.0
 20
1.0
 30
0.0
  9
$PUCSNAME
  2

  9
$PUCSORG
 10
0.0
 20
0.0
 30
0.0
  9
$PUCSXDIR
 10
1.0
 20
0.0
 30
0.0
  9
$PUCSYDIR
 10
0.0
 20
1.0
 30
0.0
  9
$USERI1
 70
     0
  9
$USERI2
 70
     0
  9
$USERI3
 70
     0
  9
$USERI4
 70
     0
  9
$USERI5
 70
     0
  9
$USERR1
 40
0.0
  9
$USERR2
 40
0.0
  9
$USERR3
 40
0.0
  9
$USERR4
 40
0.0
  9
$USERR5
 40
0.0
  9
$WORLDVIEW
 70
     1
  9
$SHADEDGE
 70
     3
  9
$SHADEDIF
 70
    70
  9
$TILEMODE
 70
     1
  9
$MAXACTVP
 70
    64
  9
$PINSBASE
 10
0.0
 20
0.0
 30
0.0
  9
$PLIMCHECK
 70
     0
  9
$PEXTMIN
 10
1.000000000000000E+20
 20
1.000000000000000E+20
 30
1.000000000000000E+20
  9
$PEXTMAX
 10
-1.000000000000000E+20
 20
-1.000000000000000E+20
 30
-1.000000000000000E+20
  9
$PLIMMIN
 10
0.0
 20
0.0
  9
$PLIMMAX
 10
12.0
 20
9.0
  9
$UNITMODE
 70
     0
  9
$VISRETAIN
 70
     1
  9
$PLINEGEN
 70
     0
  9
$PSLTSCALE
 70
     1
  9
$TREEDEPTH
 70
  3020
  9
$PICKSTYLE
 70
     3
  9
$CMLSTYLE
  2
STANDARD
  9
$CMLJUST
 70
     0
  9
$CMLSCALE
 40
1.0
  9
$SAVEIMAGES
 70
     1
  0
ENDSEC
  0
SECTION
  2
CLASSES
  0
CLASS
  1
ACDBDICTIONARYWDFLT
  2
AcDbDictionaryWithDefault
  3
AutoCAD 2000
 90
    32768
280
     0
281
     0
  0
CLASS
  1
ACDBPLACEHOLDER
  2
AcDbPlaceHolder
  3
AutoCAD 2000
 90
    32768
280
     0
281
     0
  0
CLASS
  1
LAYOUT
  2
AcDbLayout
  3
AutoCAD 2000
 90
    32768
280
     0
281
     0
  0
CLASS
  1
DICTIONARYVAR
  2
AcDbDictionaryVar
  3
AutoCAD 2000
 90
    32768
280
     0
281
     0
  0
CLASS
  1
LONG_TRANSACTION
  2
AcDbLongTransaction
  3
AutoCAD 2000
 90
    32768
280
     0
281
     0
  0
CLASS
  1
LWPOLYLINE
  2
AcDbPolyline
  3
AutoCAD 2000
 90
    32768
280
     0
281
     1
  0
CLASS
  1
HATCH
  2
AcDbHatch
  3
AutoCAD 2000
 90
    32768
280
     0
281
     1
  0
CLASS
  1
XRECORD
  2
AcDbXrecord
  3
AutoCAD 2000
 90
    32768
280
     0
281
     0
  0
CLASS
  1
LONG_TRANSACTION
  2
AcDbLongTransaction
  3
AutoCAD 2000
 90
    32768
280
     0
281
     0
  0
CLASS
  1
LWPOLYLINE
  2
AcDbPolyline
  3
AutoCAD 2000
 90
    32768
280
     0
281
     1
  0
CLASS
  1
HATCH
  2
AcDbHatch
  3
AutoCAD 2000
 90
    32768
280
     0
281
     1
  0
CLASS
  1
XRECORD
  2
AcDbXrecord
  3
AutoCAD 2000
 90
    32768
280
     0
281
     0
  0
ENDSEC
  0
SECTION
  2
TABLES
  0
TABLE
  2
VPORT
  5
8
330
0
100
AcDbSymbolTable
 70
     2
  0
VPORT
  5
1B2
330
8
100
AcDbSymbolTableRecord
100
AcDbViewportTableRecord
  2
*ACTIVE
 70
     0
 10
0.0
 20
0.0
 11
1.0
 21
1.0
 12
143.4922949972007
 22
100.00122118625
 13
0.0
 23
0.0
 14
1.0
 24
1.0
 15
0.0
 25
0.0
 16
0.0
 26
0.0
 36
1.0
 17
0.0
 27
0.0
 37
0.0
 40
199.5156375138256
 41
1.510025062656641
 42
50.0
 43
0.0
 44
0.0
 50
0.0
 51
0.0
 71
     0
 72
   100
 73
     1
 74
     1
 75
     0
 76
     0
 77
     0
 78
     0
  0
ENDTAB
  0
TABLE
  2
LTYPE
  5
5
330
0
100
AcDbSymbolTable
 70
     4
  0
LTYPE
  5
13
330
5
100
AcDbSymbolTableRecord
100
AcDbLinetypeTableRecord
  2
BYBLOCK
 70
     0
  3

 72
    65
 73
     0
 40
0.0
  0
LTYPE
  5
14
330
5
100
AcDbSymbolTableRecord
100
AcDbLinetypeTableRecord
  2
BYLAYER
 70
     0
  3

 72
    65
 73
     0
 40
0.0
  0
LTYPE
  5
15
330
5
100
AcDbSymbolTableRecord
100
AcDbLinetypeTableRecord
  2
CONTINUOUS
 70
     0
  3
Solid line
 72
    65
 73
     0
 40
0.0
  0
LTYPE
  5
23
330
5
100
AcDbSymbolTableRecord
100
AcDbLinetypeTableRecord
  2
DASHED
 70
     0
  3
__ __ __ __ __ __ __ __ __ __ __ __ __ __ __
 72
    65
 73
     2
 40
0.75
 49
0.5
 74
     0
 49
-0.25
 74
     0
  0
LTYPE
  5
25
330
5
100
AcDbSymbolTableRecord
100
AcDbLinetypeTableRecord
  2
DOT
 70
     0
  3
...............................................
 72
    65
 73
     2
 40
0.25
 49
0.0
 74
     0
 49
-0.25
 74
     0
  0
LTYPE
  5
28
330
5
100
AcDbSymbolTableRecord
100
AcDbLinetypeTableRecord
  2
CENTER
 70
     0
  3
____ _ ____ _ ____ _ ____ _ ____ _ ____ _ ____ 
 72
    65
 73
     4
 40
2.0
 49
1.25
 74
     0
 49
-0.25
 74
     0
 49
0.25
 74
     0
 49
-0.25
 74
     0
  0
ENDTAB
  0
TABLE
  2
LAYER
  5
2
330
0
100
AcDbSymbolTable
 70
     3
  0
LAYER
  5
10
330
2
100
AcDbSymbolTableRecord
100
AcDbLayerTableRecord
  2
0
 70
     0
 62
     7
  6
CONTINUOUS
  0
LAYER
  5
22
330
2
100
AcDbSymbolTableRecord
100
AcDbLayerTableRecord
  2
CSLAYER1
 70
     0
 62
     7
  6
CONTINUOUS
  0
LAYER
  5
197
330
2
100
AcDbSymbolTableRecord
100
AcDbLayerTableRecord
  2
DEFPOINTS
 70
     0
 62
     7
  6
CONTINUOUS
  0
ENDTAB
  0
TABLE
  2
STYLE
  5
3
330
0
100
AcDbSymbolTable
 70
     3
  0
STYLE
  5
11
330
3
100
AcDbSymbolTableRecord
100
AcDbTextStyleTableRecord
  2
STANDARD
 70
     0
 40
0.0
 41
1.0
 50
0.0
 71
     0
 42
0.2
  3
txt
  4
extfont.shx
  0
STYLE
  5
3A
330
3
100
AcDbSymbolTableRecord
100
AcDbTextStyleTableRecord
  2
FX_FONT
 70
     0
 40
1.0
 41
1.0
 50
0.0
 71
     0
 42
1.0
  3
monotxt
  4
bigfont
  0
STYLE
  5
18F
330
3
100
AcDbSymbolTableRecord
100
AcDbTextStyleTableRecord
  2
GOTHIC
 70
     0
 40
0.0
 41
1.0
 50
0.0
 71
     0
 42
0.2
  3
txt.shx
  4
extfont.shx
  0
ENDTAB
  0
TABLE
  2
VIEW
  5
6
330
0
100
AcDbSymbolTable
 70
     0
  0
ENDTAB
  0
TABLE
  2
UCS
  5
7
330
0
100
AcDbSymbolTable
 70
     0
  0
ENDTAB
  0
TABLE
  2
APPID
  5
9
330
0
100
AcDbSymbolTable
 70
     1
  0
APPID
  5
12
330
9
100
AcDbSymbolTableRecord
100
AcDbRegAppTableRecord
  2
ACAD
 70
     0
  0
ENDTAB
  0
TABLE
  2
DIMSTYLE
  5
A
330
0
100
AcDbSymbolTable
 70
     1
  0
DIMSTYLE
105
18C
330
A
100
AcDbSymbolTableRecord
100
AcDbDimStyleTableRecord
  2
STANDARD
 70
     0
  3

  4

  5

  6

  7

 40
1.0
 41
0.18
 42
0.0625
 43
0.38
 44
0.18
 45
0.0
 46
0.0
 47
0.0
 48
0.0
140
0.18
141
0.09
142
0.0
143
25.4
144
1.0
145
0.0
146
1.0
147
0.09
 71
     0
 72
     0
 73
     1
 74
     1
 75
     0
 76
     0
 77
     0
 78
     0
170
     0
171
     2
172
     0
173
     0
174
     0
175
     0
176
     0
177
     0
178
     0
270
     2
271
     4
272
     4
273
     2
274
     2
340
11
275
     0
280
     0
281
     0
282
     0
283
     1
284
     0
285
     0
286
     0
287
     3
288
     0
  0
ENDTAB
  0
TABLE
  2
BLOCK_RECORD
  5
1
330
0
100
AcDbSymbolTable
 70
    17
  0
BLOCK_RECORD
  5
1E
102
{ACAD_XDICTIONARY
360
195
102
}
330
1
100
AcDbSymbolTableRecord
100
AcDbBlockTableRecord
  2
*MODEL_SPACE
  0
BLOCK_RECORD
  5
1A
102
{ACAD_XDICTIONARY
360
193
102
}
330
1
100
AcDbSymbolTableRecord
100
AcDbBlockTableRecord
  2
*PAPER_SPACE
  0
BLOCK_RECORD
  5
3F
330
1
100
AcDbSymbolTableRecord
100
AcDbBlockTableRecord
  2
*D0
  0
BLOCK_RECORD
  5
4A
330
1
100
AcDbSymbolTableRecord
100
AcDbBlockTableRecord
  2
*D1
  0
BLOCK_RECORD
  5
57
330
1
100
AcDbSymbolTableRecord
100
AcDbBlockTableRecord
  2
*D2
  0
BLOCK_RECORD
  5
5E
330
1
100
AcDbSymbolTableRecord
100
AcDbBlockTableRecord
  2
FXDIM0000
  0
BLOCK_RECORD
  5
68
330
1
100
AcDbSymbolTableRecord
100
AcDbBlockTableRecord
  2
FXDIM0001
  0
BLOCK_RECORD
  5
72
330
1
100
AcDbSymbolTableRecord
100
AcDbBlockTableRecord
  2
*D5
  0
BLOCK_RECORD
  5
79
330
1
100
AcDbSymbolTableRecord
100
AcDbBlockTableRecord
  2
*D6
  0
BLOCK_RECORD
  5
83
330
1
100
AcDbSymbolTableRecord
100
AcDbBlockTableRecord
  2
*D7
  0
BLOCK_RECORD
  5
8E
330
1
100
AcDbSymbolTableRecord
100
AcDbBlockTableRecord
  2
FXDIM0002
  0
BLOCK_RECORD
  5
96
330
1
100
AcDbSymbolTableRecord
100
AcDbBlockTableRecord
  2
*D9
  0
BLOCK_RECORD
  5
A1
330
1
100
AcDbSymbolTableRecord
100
AcDbBlockTableRecord
  2
*D10
  0
BLOCK_RECORD
  5
AC
330
1
100
AcDbSymbolTableRecord
100
AcDbBlockTableRecord
  2
*D11
  0
BLOCK_RECORD
  5
B6
330
1
100
AcDbSymbolTableRecord
100
AcDbBlockTableRecord
  2
*D12
  0
BLOCK_RECORD
  5
C1
330
1
100
AcDbSymbolTableRecord
100
AcDbBlockTableRecord
  2
*D13
  0
BLOCK_RECORD
  5
CC
330
1
100
AcDbSymbolTableRecord
100
AcDbBlockTableRecord
  2
*D14
  0
BLOCK_RECORD
  5
D9
330
1
100
AcDbSymbolTableRecord
100
AcDbBlockTableRecord
  2
*D15
  0
BLOCK_RECORD
  5
198
330
1
100
AcDbSymbolTableRecord
100
AcDbBlockTableRecord
  2
*D16
  0
ENDTAB
  0
ENDSEC
  0
SECTION
  2
BLOCKS
  0
BLOCK
  5
1F
330
1E
100
AcDbEntity
  8
0
100
AcDbBlockBegin
  2
*MODEL_SPACE
 70
     0
 10
0.0
 20
0.0
 30
0.0
  3
*MODEL_SPACE
  1

  0
ENDBLK
  5
20
330
1E
100
AcDbEntity
  8
0
100
AcDbBlockEnd
  0
BLOCK
  5
1B
330
1A
100
AcDbEntity
 67
     1
  8
0
100
AcDbBlockBegin
  2
*PAPER_SPACE
 70
     0
 10
0.0
 20
0.0
 30
0.0
  3
*PAPER_SPACE
  1

  0
ENDBLK
  5
1C
330
1A
100
AcDbEntity
 67
     1
  8
0
100
AcDbBlockEnd
  0
BLOCK
  5
40
330
3F
100
AcDbEntity
  8
0
100
AcDbBlockBegin
  2
*D0
 70
     1
 10
0.0
 20
0.0
 30
0.0
  3
*D0
  1

  0
TEXT
  5
41
330
3F
100
AcDbEntity
  8
CSLAYER1
 62
     4
100
AcDbText
 10
95.05297099999999
 20
127.835171
 30
0.0
 40
3.2
  1
31.5~33
 50
90.0
 41
1.050000046874999
 51
15.0
  7
FX_FONT
 72
     5
 11
95.05297099999999
 21
150.235172
 31
0.0
100
AcDbText
  0
LINE
  5
42
330
3F
100
AcDbEntity
  8
CSLAYER1
  6
CONTINUOUS
 62
     4
100
AcDbLine
 10
123.039803
 20
123.035176
 30
0.0
 11
94.55297100000001
 21
123.035176
 31
0.0
  0
LINE
  5
43
330
3F
100
AcDbEntity
  8
CSLAYER1
  6
CONTINUOUS
 62
     4
100
AcDbLine
 10
123.039803
 20
155.035176
 30
0.0
 11
94.55297100000001
 21
155.035176
 31
0.0
  0
LINE
  5
44
330
3F
100
AcDbEntity
  8
CSLAYER1
  6
CONTINUOUS
 62
     4
100
AcDbLine
 10
95.552971
 20
123.035176
 30
0.0
 11
95.552971
 21
155.035176
 31
0.0
  0
LINE
  5
45
330
3F
100
AcDbEntity
  8
CSLAYER1
  6
CONTINUOUS
 62
     4
100
AcDbLine
 10
95.552971
 20
123.035176
 30
0.0
 11
94.776514
 21
125.932953
 31
0.0
  0
LINE
  5
46
330
3F
100
AcDbEntity
  8
CSLAYER1
  6
CONTINUOUS
 62
     4
100
AcDbLine
 10
95.552971
 20
123.035176
 30
0.0
 11
96.32942800000002
 21
125.932953
 31
0.0
  0
LINE
  5
47
330
3F
100
AcDbEntity
  8
CSLAYER1
  6
CONTINUOUS
 62
     4
100
AcDbLine
 10
95.552971
 20
155.035176
 30
0.0
 11
94.776514
 21
152.1373979999999
 31
0.0
  0
LINE
  5
48
330
3F
100
AcDbEntity
  8
CSLAYER1
  6
CONTINUOUS
 62
     4
100
AcDbLine
 10
95.552971
 20
155.035176
 30
0.0
 11
96.32942800000002
 21
152.1373979999999
 31
0.0
  0
ENDBLK
  5
49
330
3F
100
AcDbEntity
  8
0
100
AcDbBlockEnd
  0
BLOCK
  5
4B
330
4A
100
AcDbEntity
  8
0
100
AcDbBlockBegin
  2
*D1
 70
     1
 10
0.0
 20
0.0
 30
0.0
  3
*D1
  1

  0
TEXT
  5
4C
330
4A
100
AcDbEntity
  8
CSLAYER1
 62
     4
100
AcDbText
 10
89.052971
 20
86.20553000000002
 30
0.0
 40
3.2
  1
17  
 50
90.0
 41
1.249999999999999
 51
15.0
  7
FX_FONT
 72
     5
 11
89.052971
 21
99.00553000000002
 31
0.0
100
AcDbText
  0
TEXT
  5
4D
330
4A
100
AcDbEntity
  8
CSLAYER1
 62
     4
100
AcDbText
 10
87.452971
 20
99.00553000000002
 30
0.0
 40
1.6
  1
  0
 50
90.0
 41
1.607142857142851
 51
15.0
  7
FX_FONT
 72
     5
 11
87.452971
 21
103.80553
 31
0.0
100
AcDbText
  0
TEXT
  5
4E
330
4A
100
AcDbEntity
  8
CSLAYER1
 62
     4
100
AcDbText
 10
89.052971
 20
99.00553000000002
 30
0.0
 40
1.6
  1
-0.15
 50
90.0
 41
1.071428571428569
 51
15.0
  7
FX_FONT
 72
     5
 11
89.052971
 21
107.00553
 31
0.0
100
AcDbText
  0
LINE
  5
4F
330
4A
100
AcDbEntity
  8
CSLAYER1
  6
CONTINUOUS
 62
     4
100
AcDbLine
 10
89.55297100000001
 20
79.60552800000002
 30
0.0
 11
89.55297100000001
 21
96.60552800000001
 31
0.0
  0
LINE
  5
50
330
4A
100
AcDbEntity
  8
CSLAYER1
  6
CONTINUOUS
 62
     4
100
AcDbLine
 10
89.55297100000001
 20
79.60552800000002
 30
0.0
 11
88.77651400000003
 21
82.50330500000002
 31
0.0
  0
LINE
  5
51
330
4A
100
AcDbEntity
  8
CSLAYER1
  6
CONTINUOUS
 62
     4
100
AcDbLine
 10
89.55297100000001
 20
79.60552800000002
 30
0.0
 11
90.329428
 21
82.50330500000002
 31
0.0
  0
LINE
  5
52
330
4A
100
AcDbEntity
  8
CSLAYER1
  6
CONTINUOUS
 62
     4
100
AcDbLine
 10
89.55297100000001
 20
96.60552800000001
 30
0.0
 11
88.77651400000003
 21
93.70775
 31
0.0
  0
LINE
  5
53
330
4A
100
AcDbEntity
  8
CSLAYER1
  6
CONTINUOUS
 62
     4
100
AcDbLine
 10
89.55297100000001
 20
96.60552800000001
 30
0.0
 11
90.329428
 21
93.70775
 31
0.0
  0
LINE
  5
54
330
4A
100
AcDbEntity
  8
CSLAYER1
  6
CONTINUOUS
 62
     4
100
AcDbLine
 10
107.039803
 20
79.60552800000002
 30
0.0
 11
88.55297099999999
 21
79.60552800000002
 31
0.0
  0
LINE
  5
55
330
4A
100
AcDbEntity
  8
CSLAYER1
  6
CONTINUOUS
 62
     4
100
AcDbLine
 10
133.039803
 20
96.60552800000001
 30
0.0
 11
88.55297099999999
 21
96.60552800000001
 31
0.0
  0
ENDBLK
  5
56
330
4A
100
AcDbEntity
  8
0
100
AcDbBlockEnd
  0
BLOCK
  5
58
330
57
100
AcDbEntity
  8
0
100
AcDbBlockBegin
  2
*D2
 70
     1
 10
0.0
 20
0.0
 30
0.0
  3
*D2
  1

  0
TEXT
  5
59
330
57
100
AcDbEntity
  8
CSLAYER1
 62
     4
100
AcDbText
 10
114.3791039999999
 20
127.59693
 30
0.0
 40
3.2
  1
R16
 50
51.72948920054711
 41
1.124999930684786
 51
15.0
  7
FX_FONT
 72
     5
 11
120.325104
 21
135.1338439999999
 31
0.0
100
AcDbText
  0
LINE
  5
5A
330
57
100
AcDbEntity
  8
CSLAYER1
  6
CONTINUOUS
 62
     4
100
AcDbLine
 10
114.129803
 20
126.473651
 30
0.0
 11
124.039803
 21
139.035176
 31
0.0
  0
LINE
  5
5B
330
57
100
AcDbEntity
  8
CSLAYER1
  6
CONTINUOUS
 62
     4
100
AcDbLine
 10
114.129803
 20
126.473651
 30
0.0
 11
115.3150209999999
 21
129.229601
 31
0.0
  0
LINE
  5
5C
330
57
100
AcDbEntity
  8
CSLAYER1
  6
CONTINUOUS
 62
     4
100
AcDbLine
 10
114.129803
 20
126.473651
 30
0.0
 11
116.534206
 21
128.2677649999999
 31
0.0
  0
ENDBLK
  5
5D
330
57
100
AcDbEntity
  8
0
100
AcDbBlockEnd
  0
BLOCK
  5
5F
330
5E
100
AcDbEntity
  8
0
100
AcDbBlockBegin
  2
FXDIM0000
 70
     0
 10
0.0
 20
0.0
 30
0.0
  3
FXDIM0000
  1

  0
LINE
  5
60
330
5E
100
AcDbEntity
  8
CSLAYER1
  6
CONTINUOUS
 62
     4
100
AcDbLine
 10
191.7569379999999
 20
96.60552800000001
 30
0.0
 11
193.2569379999999
 21
99.20360399999999
 31
0.0
  0
LINE
  5
61
330
5E
100
AcDbEntity
  8
CSLAYER1
  6
CONTINUOUS
 62
     4
100
AcDbLine
 10
190.2569379999999
 20
99.20360399999999
 30
0.0
 11
199.2569379999999
 21
99.20360399999999
 31
0.0
  0
LINE
  5
62
330
5E
100
AcDbEntity
  8
CSLAYER1
  6
CONTINUOUS
 62
     4
100
AcDbLine
 10
190.2569379999999
 20
99.20360399999999
 30
0.0
 11
191.7569379999999
 21
96.60552800000001
 31
0.0
  0
LINE
  5
63
330
5E
100
AcDbEntity
  8
CSLAYER1
  6
CONTINUOUS
 62
     4
100
AcDbLine
 10
194.756938
 20
96.60552800000001
 30
0.0
 11
196.2569379999999
 21
99.20360399999999
 31
0.0
  0
LINE
  5
64
330
5E
100
AcDbEntity
  8
CSLAYER1
  6
CONTINUOUS
 62
     4
100
AcDbLine
 10
193.2569379999999
 20
99.20360399999999
 30
0.0
 11
194.756938
 21
96.60552800000001
 31
0.0
  0
LINE
  5
65
330
5E
100
AcDbEntity
  8
CSLAYER1
  6
CONTINUOUS
 62
     4
100
AcDbLine
 10
197.756938
 20
96.60552800000001
 30
0.0
 11
199.2569379999999
 21
99.20360399999999
 31
0.0
  0
LINE
  5
66
330
5E
100
AcDbEntity
  8
CSLAYER1
  6
CONTINUOUS
 62
     4
100
AcDbLine
 10
196.2569379999999
 20
99.20360399999999
 30
0.0
 11
197.756938
 21
96.60552800000001
 31
0.0
  0
ENDBLK
  5
67
330
5E
100
AcDbEntity
  8
0
100
AcDbBlockEnd
  0
BLOCK
  5
69
330
68
100
AcDbEntity
  8
0
100
AcDbBlockBegin
  2
FXDIM0001
 70
     0
 10
0.0
 20
0.0
 30
0.0
  3
FXDIM0001
  1

  0
LINE
  5
6A
330
68
100
AcDbEntity
  8
CSLAYER1
  6
CONTINUOUS
 62
     4
100
AcDbLine
 10
193.914954
 20
79.60552800000002
 30
0.0
 11
192.4149539999999
 21
77.007451
 31
0.0
  0
LINE
  5
6B
330
68
100
AcDbEntity
  8
CSLAYER1
  6
CONTINUOUS
 62
     4
100
AcDbLine
 10
192.4149539999999
 20
77.007451
 30
0.0
 11
201.414954
 21
77.007451
 31
0.0
  0
LINE
  5
6C
330
68
100
AcDbEntity
  8
CSLAYER1
  6
CONTINUOUS
 62
     4
100
AcDbLine
 10
195.4149539999999
 20
77.007451
 30
0.0
 11
193.914954
 21
79.60552800000002
 31
0.0
  0
LINE
  5
6D
330
68
100
AcDbEntity
  8
CSLAYER1
  6
CONTINUOUS
 62
     4
100
AcDbLine
 10
196.914954
 20
79.60552800000002
 30
0.0
 11
195.4149539999999
 21
77.007451
 31
0.0
  0
LINE
  5
6E
330
68
100
AcDbEntity
  8
CSLAYER1
  6
CONTINUOUS
 62
     4
100
AcDbLine
 10
198.4149539999999
 20
77.007451
 30
0.0
 11
196.914954
 21
79.60552800000002
 31
0.0
  0
LINE
  5
6F
330
68
100
AcDbEntity
  8
CSLAYER1
  6
CONTINUOUS
 62
     4
100
AcDbLine
 10
199.9149539999999
 20
79.60552800000002
 30
0.0
 11
198.4149539999999
 21
77.007451
 31
0.0
  0
LINE
  5
70
330
68
100
AcDbEntity
  8
CSLAYER1
  6
CONTINUOUS
 62
     4
100
AcDbLine
 10
201.414954
 20
77.007451
 30
0.0
 11
199.9149539999999
 21
79.60552800000002
 31
0.0
  0
ENDBLK
  5
71
330
68
100
AcDbEntity
  8
0
100
AcDbBlockEnd
  0
BLOCK
  5
73
330
72
100
AcDbEntity
  8
0
100
AcDbBlockBegin
  2
*D5
 70
     1
 10
0.0
 20
0.0
 30
0.0
  3
*D5
  1

  0
TEXT
  5
74
330
72
100
AcDbEntity
  8
CSLAYER1
 62
     4
100
AcDbText
 10
67.43395799999999
 20
131.032428
 30
0.0
 40
3.2
  1
R14
 50
25.327328911941
 41
1.125000049718322
 51
15.0
  7
FX_FONT
 72
     5
 11
76.111193
 21
135.139203
 31
0.0
100
AcDbText
  0
LINE
  5
75
330
72
100
AcDbEntity
  8
CSLAYER1
  6
CONTINUOUS
 62
     4
100
AcDbLine
 10
62.998009
 20
133.046129
 30
0.0
 11
75.65231
 21
139.035176
 31
0.0
  0
LINE
  5
76
330
72
100
AcDbEntity
  8
CSLAYER1
  6
CONTINUOUS
 62
     4
100
AcDbLine
 10
62.998009
 20
133.046129
 30
0.0
 11
65.285088
 21
134.9875899999998
 31
0.0
  0
LINE
  5
77
330
72
100
AcDbEntity
  8
CSLAYER1
  6
CONTINUOUS
 62
     4
100
AcDbLine
 10
62.998009
 20
133.046129
 30
0.0
 11
65.94940799999999
 21
133.5839439999999
 31
0.0
  0
ENDBLK
  5
78
330
72
100
AcDbEntity
  8
0
100
AcDbBlockEnd
  0
BLOCK
  5
7A
330
79
100
AcDbEntity
  8
0
100
AcDbBlockBegin
  2
*D6
 70
     1
 10
0.0
 20
0.0
 30
0.0
  3
*D6
  1

  0
TEXT
  5
7B
330
79
100
AcDbEntity
  8
CSLAYER1
 62
     4
100
AcDbText
 10
94.88715400000002
 20
82.00553000000002
 30
0.0
 40
3.2
  1
8
 50
90.0
 41
1.500000000000001
 51
15.0
  7
FX_FONT
 72
     5
 11
94.88715400000002
 21
85.20553000000003
 31
0.0
100
AcDbText
  0
LINE
  5
7C
330
79
100
AcDbEntity
  8
CSLAYER1
  6
CONTINUOUS
 62
     4
100
AcDbLine
 10
122.238487
 20
87.60552800000002
 30
0.0
 11
94.38714899999999
 21
87.60552800000002
 31
0.0
  0
LINE
  5
7D
330
79
100
AcDbEntity
  8
CSLAYER1
  6
CONTINUOUS
 62
     4
100
AcDbLine
 10
95.387149
 20
79.60552800000002
 30
0.0
 11
95.387149
 21
87.60552800000002
 31
0.0
  0
LINE
  5
7E
330
79
100
AcDbEntity
  8
CSLAYER1
  6
CONTINUOUS
 62
     4
100
AcDbLine
 10
95.387149
 20
79.60552800000002
 30
0.0
 11
94.61069100000001
 21
82.50330500000002
 31
0.0
  0
LINE
  5
7F
330
79
100
AcDbEntity
  8
CSLAYER1
  6
CONTINUOUS
 62
     4
100
AcDbLine
 10
95.387149
 20
79.60552800000002
 30
0.0
 11
96.163606
 21
82.50330500000002
 31
0.0
  0
LINE
  5
80
330
79
100
AcDbEntity
  8
CSLAYER1
  6
CONTINUOUS
 62
     4
100
AcDbLine
 10
95.387149
 20
87.60552800000002
 30
0.0
 11
94.61069100000001
 21
84.70775000000001
 31
0.0
  0
LINE
  5
81
330
79
100
AcDbEntity
  8
CSLAYER1
  6
CONTINUOUS
 62
     4
100
AcDbLine
 10
95.387149
 20
87.60552800000002
 30
0.0
 11
96.163606
 21
84.70775000000001
 31
0.0
  0
ENDBLK
  5
82
330
79
100
AcDbEntity
  8
0
100
AcDbBlockEnd
  0
BLOCK
  5
84
330
83
100
AcDbEntity
  8
0
100
AcDbBlockBegin
  2
*D7
 70
     1
 10
0.0
 20
0.0
 30
0.0
  3
*D7
  1

  0
TEXT
  5
85
330
83
100
AcDbEntity
  8
CSLAYER1
 62
     4
100
AcDbText
 10
155.339795
 20
105.6009219999999
 30
0.0
 40
3.2
  1
49
 41
1.199999999999979
 51
15.0
  7
FX_FONT
 72
     5
 11
161.7397949999999
 21
105.6009219999999
 31
0.0
100
AcDbText
  0
LINE
  5
86
330
83
100
AcDbEntity
  8
CSLAYER1
  6
CONTINUOUS
 62
     4
100
AcDbLine
 10
134.039803
 20
105.1009239999999
 30
0.0
 11
183.0398029999999
 21
105.1009239999999
 31
0.0
  0
LINE
  5
87
330
83
100
AcDbEntity
  8
CSLAYER1
  6
CONTINUOUS
 62
     4
100
AcDbLine
 10
134.039803
 20
105.1009239999999
 30
0.0
 11
136.93758
 21
105.8773809999999
 31
0.0
  0
LINE
  5
88
330
83
100
AcDbEntity
  8
CSLAYER1
  6
CONTINUOUS
 62
     4
100
AcDbLine
 10
134.039803
 20
105.1009239999999
 30
0.0
 11
136.93758
 21
104.3244669999999
 31
0.0
  0
LINE
  5
89
330
83
100
AcDbEntity
  8
CSLAYER1
  6
CONTINUOUS
 62
     4
100
AcDbLine
 10
183.0398029999999
 20
105.1009239999999
 30
0.0
 11
180.1420249999999
 21
105.8773809999999
 31
0.0
  0
LINE
  5
8A
330
83
100
AcDbEntity
  8
CSLAYER1
  6
CONTINUOUS
 62
     4
100
AcDbLine
 10
183.0398029999999
 20
105.1009239999999
 30
0.0
 11
180.1420249999999
 21
104.3244669999999
 31
0.0
  0
LINE
  5
8B
330
83
100
AcDbEntity
  8
CSLAYER1
  6
CONTINUOUS
 62
     4
100
AcDbLine
 10
134.039803
 20
97.60552800000001
 30
0.0
 11
134.039803
 21
106.1009239999999
 31
0.0
  0
LINE
  5
8C
330
83
100
AcDbEntity
  8
CSLAYER1
  6
CONTINUOUS
 62
     4
100
AcDbLine
 10
183.0398029999999
 20
101.057474
 30
0.0
 11
183.0398029999999
 21
106.1009239999999
 31
0.0
  0
ENDBLK
  5
8D
330
83
100
AcDbEntity
  8
0
100
AcDbBlockEnd
  0
BLOCK
  5
8F
330
8E
100
AcDbEntity
  8
0
100
AcDbBlockBegin
  2
FXDIM0002
 70
     0
 10
0.0
 20
0.0
 30
0.0
  3
FXDIM0002
  1

  0
LINE
  5
90
330
8E
100
AcDbEntity
  8
CSLAYER1
  6
CONTINUOUS
 62
     4
100
AcDbLine
 10
182.3280499999999
 20
136.37888
 30
0.0
 11
176.2468649999999
 21
113.683586
 31
0.0
  0
LINE
  5
91
330
8E
100
AcDbEntity
  8
CSLAYER1
  6
CONTINUOUS
 62
     4
100
AcDbLine
 10
182.3280499999999
 20
136.37888
 30
0.0
 11
182.3280499999999
 21
133.37888
 31
0.0
  0
LINE
  5
92
330
8E
100
AcDbEntity
  8
CSLAYER1
  6
CONTINUOUS
 62
     4
100
AcDbLine
 10
182.3280499999999
 20
136.37888
 30
0.0
 11
180.82805
 21
133.780804
 31
0.0
  0
LINE
  5
93
330
8E
100
AcDbEntity
  8
CSLAYER1
  6
CONTINUOUS
 62
     4
100
AcDbLine
 10
176.2468649999999
 20
113.683586
 30
0.0
 11
161.4468639999999
 21
113.683586
 31
0.0
  0
TEXT
  5
94
330
8E
100
AcDbEntity
  8
CSLAYER1
 62
     4
100
AcDbText
 10
162.4468629999999
 20
114.183586
 30
0.0
 40
3.2
  1
%%c5.1
 41
1.142857142857146
 51
15.0
  7
FX_FONT
 72
     5
 11
175.2468629999999
 21
114.183586
 31
0.0
100
AcDbText
  0
ENDBLK
  5
95
330
8E
100
AcDbEntity
  8
0
100
AcDbBlockEnd
  0
BLOCK
  5
97
330
96
100
AcDbEntity
  8
0
100
AcDbBlockBegin
  2
*D9
 70
     1
 10
0.0
 20
0.0
 30
0.0
  3
*D9
  1

  0
TEXT
  5
98
330
96
100
AcDbEntity
  8
CSLAYER1
 62
     4
100
AcDbText
 10
142.339795
 20
173.1676329999999
 30
0.0
 40
3.2
  1
75
 41
1.199999999999979
 51
15.0
  7
FX_FONT
 72
     5
 11
148.7397949999999
 21
173.1676329999999
 31
0.0
100
AcDbText
  0
LINE
  5
99
330
96
100
AcDbEntity
  8
CSLAYER1
  6
CONTINUOUS
 62
     4
100
AcDbLine
 10
108.039803
 20
172.667633
 30
0.0
 11
183.0398029999999
 21
172.667633
 31
0.0
  0
LINE
  5
9A
330
96
100
AcDbEntity
  8
CSLAYER1
  6
CONTINUOUS
 62
     4
100
AcDbLine
 10
108.039803
 20
172.667633
 30
0.0
 11
110.93758
 21
173.4440899999999
 31
0.0
  0
LINE
  5
9B
330
96
100
AcDbEntity
  8
CSLAYER1
  6
CONTINUOUS
 62
     4
100
AcDbLine
 10
108.039803
 20
172.667633
 30
0.0
 11
110.93758
 21
171.891175
 31
0.0
  0
LINE
  5
9C
330
96
100
AcDbEntity
  8
CSLAYER1
  6
CONTINUOUS
 62
     4
100
AcDbLine
 10
183.0398029999999
 20
172.667633
 30
0.0
 11
180.1420249999999
 21
173.4440899999999
 31
0.0
  0
LINE
  5
9D
330
96
100
AcDbEntity
  8
CSLAYER1
  6
CONTINUOUS
 62
     4
100
AcDbLine
 10
183.0398029999999
 20
172.667633
 30
0.0
 11
180.1420249999999
 21
171.891175
 31
0.0
  0
LINE
  5
9E
330
96
100
AcDbEntity
  8
CSLAYER1
  6
CONTINUOUS
 62
     4
100
AcDbLine
 10
108.039803
 20
140.035176
 30
0.0
 11
108.039803
 21
173.6676329999999
 31
0.0
  0
LINE
  5
9F
330
96
100
AcDbEntity
  8
CSLAYER1
  6
CONTINUOUS
 62
     4
100
AcDbLine
 10
183.0398029999999
 20
161.910327
 30
0.0
 11
183.0398029999999
 21
173.6676329999999
 31
0.0
  0
ENDBLK
  5
A0
330
96
100
AcDbEntity
  8
0
100
AcDbBlockEnd
  0
BLOCK
  5
A2
330
A1
100
AcDbEntity
  8
0
100
AcDbBlockBegin
  2
*D10
 70
     1
 10
0.0
 20
0.0
 30
0.0
  3
*D10
  1

  0
TEXT
  5
A3
330
A1
100
AcDbEntity
  8
CSLAYER1
 62
     4
100
AcDbText
 10
117.639802
 20
63.50304000000001
 30
0.0
 40
3.2
  1
(32)
 41
1.20000009375
 51
15.0
  7
FX_FONT
 72
     5
 11
130.439803
 21
63.50304000000001
 31
0.0
100
AcDbText
  0
LINE
  5
A4
330
A1
100
AcDbEntity
  8
CSLAYER1
  6
CONTINUOUS
 62
     4
100
AcDbLine
 10
108.039803
 20
63.003041
 30
0.0
 11
140.039803
 21
63.003041
 31
0.0
  0
LINE
  5
A5
330
A1
100
AcDbEntity
  8
CSLAYER1
  6
CONTINUOUS
 62
     4
100
AcDbLine
 10
108.039803
 20
63.003041
 30
0.0
 11
110.93758
 21
63.77949799999999
 31
0.0
  0
LINE
  5
A6
330
A1
100
AcDbEntity
  8
CSLAYER1
  6
CONTINUOUS
 62
     4
100
AcDbLine
 10
108.039803
 20
63.003041
 30
0.0
 11
110.93758
 21
62.226584
 31
0.0
  0
LINE
  5
A7
330
A1
100
AcDbEntity
  8
CSLAYER1
  6
CONTINUOUS
 62
     4
100
AcDbLine
 10
140.039803
 20
63.003041
 30
0.0
 11
137.1420249999999
 21
63.77949799999999
 31
0.0
  0
LINE
  5
A8
330
A1
100
AcDbEntity
  8
CSLAYER1
  6
CONTINUOUS
 62
     4
100
AcDbLine
 10
140.039803
 20
63.003041
 30
0.0
 11
137.1420249999999
 21
62.226584
 31
0.0
  0
LINE
  5
A9
330
A1
100
AcDbEntity
  8
CSLAYER1
  6
CONTINUOUS
 62
     4
100
AcDbLine
 10
108.039803
 20
78.605528
 30
0.0
 11
108.039803
 21
62.003041
 31
0.0
  0
LINE
  5
AA
330
A1
100
AcDbEntity
  8
CSLAYER1
  6
CONTINUOUS
 62
     4
100
AcDbLine
 10
140.039803
 20
78.605528
 30
0.0
 11
140.039803
 21
62.003041
 31
0.0
  0
ENDBLK
  5
AB
330
A1
100
AcDbEntity
  8
0
100
AcDbBlockEnd
  0
BLOCK
  5
AD
330
AC
100
AcDbEntity
  8
0
100
AcDbBlockBegin
  2
*D11
 70
     1
 10
0.0
 20
0.0
 30
0.0
  3
*D11
  1

  0
TEXT
  5
AE
330
AC
100
AcDbEntity
  8
CSLAYER1
 62
     4
100
AcDbText
 10
109.339802
 20
69.50304399999999
 30
0.0
 40
3.2
  1
切刃部有効25
 41
0.9130435190217349
 51
15.0
  7
FX_FONT
 72
     5
 11
131.7398029999999
 21
69.50304399999999
 31
0.0
100
AcDbText
  0
LINE
  5
AF
330
AC
100
AcDbEntity
  8
CSLAYER1
  6
CONTINUOUS
 62
     4
100
AcDbLine
 10
108.039803
 20
69.00304100000001
 30
0.0
 11
133.039803
 21
69.00304100000001
 31
0.0
  0
LINE
  5
B0
330
AC
100
AcDbEntity
  8
CSLAYER1
  6
CONTINUOUS
 62
     4
100
AcDbLine
 10
108.039803
 20
69.00304100000001
 30
0.0
 11
110.93758
 21
69.77949800000001
 31
0.0
  0
LINE
  5
B1
330
AC
100
AcDbEntity
  8
CSLAYER1
  6
CONTINUOUS
 62
     4
100
AcDbLine
 10
108.039803
 20
69.00304100000001
 30
0.0
 11
110.93758
 21
68.226584
 31
0.0
  0
LINE
  5
B2
330
AC
100
AcDbEntity
  8
CSLAYER1
  6
CONTINUOUS
 62
     4
100
AcDbLine
 10
133.039803
 20
69.00304100000001
 30
0.0
 11
130.1420249999999
 21
69.77949800000001
 31
0.0
  0
LINE
  5
B3
330
AC
100
AcDbEntity
  8
CSLAYER1
  6
CONTINUOUS
 62
     4
100
AcDbLine
 10
133.039803
 20
69.00304100000001
 30
0.0
 11
130.1420249999999
 21
68.226584
 31
0.0
  0
LINE
  5
B4
330
AC
100
AcDbEntity
  8
CSLAYER1
  6
CONTINUOUS
 62
     4
100
AcDbLine
 10
133.039803
 20
78.605528
 30
0.0
 11
133.039803
 21
68.00304100000001
 31
0.0
  0
ENDBLK
  5
B5
330
AC
100
AcDbEntity
  8
0
100
AcDbBlockEnd
  0
BLOCK
  5
B7
330
B6
100
AcDbEntity
  8
0
100
AcDbBlockBegin
  2
*D12
 70
     1
 10
0.0
 20
0.0
 30
0.0
  3
*D12
  1

  0
TEXT
  5
B8
330
B6
100
AcDbEntity
  8
CSLAYER1
 62
     4
100
AcDbText
 10
52.995018
 20
134.235171
 30
0.0
 40
3.2
  1
(6)
 50
90.0
 41
1.285714419642856
 51
15.0
  7
FX_FONT
 72
     5
 11
52.995018
 21
143.835172
 31
0.0
100
AcDbText
  0
LINE
  5
B9
330
B6
100
AcDbEntity
  8
CSLAYER1
  6
CONTINUOUS
 62
     4
100
AcDbLine
 10
53.49501899999999
 20
136.035176
 30
0.0
 11
53.49501899999999
 21
142.035176
 31
0.0
  0
LINE
  5
BA
330
B6
100
AcDbEntity
  8
CSLAYER1
  6
CONTINUOUS
 62
     4
100
AcDbLine
 10
53.49501899999999
 20
136.035176
 30
0.0
 11
52.718562
 21
138.9329529999999
 31
0.0
  0
LINE
  5
BB
330
B6
100
AcDbEntity
  8
CSLAYER1
  6
CONTINUOUS
 62
     4
100
AcDbLine
 10
53.49501899999999
 20
136.035176
 30
0.0
 11
54.271476
 21
138.9329529999999
 31
0.0
  0
LINE
  5
BC
330
B6
100
AcDbEntity
  8
CSLAYER1
  6
CONTINUOUS
 62
     4
100
AcDbLine
 10
53.49501899999999
 20
142.035176
 30
0.0
 11
52.718562
 21
139.137398
 31
0.0
  0
LINE
  5
BD
330
B6
100
AcDbEntity
  8
CSLAYER1
  6
CONTINUOUS
 62
     4
100
AcDbLine
 10
53.49501899999999
 20
142.035176
 30
0.0
 11
54.271476
 21
139.137398
 31
0.0
  0
LINE
  5
BE
330
B6
100
AcDbEntity
  8
CSLAYER1
  6
CONTINUOUS
 62
     4
100
AcDbLine
 10
59.15231
 20
136.035176
 30
0.0
 11
52.49501899999999
 21
136.035176
 31
0.0
  0
LINE
  5
BF
330
B6
100
AcDbEntity
  8
CSLAYER1
  6
CONTINUOUS
 62
     4
100
AcDbLine
 10
59.15231
 20
142.035176
 30
0.0
 11
52.49501899999999
 21
142.035176
 31
0.0
  0
ENDBLK
  5
C0
330
B6
100
AcDbEntity
  8
0
100
AcDbBlockEnd
  0
BLOCK
  5
C2
330
C1
100
AcDbEntity
  8
0
100
AcDbBlockBegin
  2
*D13
 70
     1
 10
0.0
 20
0.0
 30
0.0
  3
*D13
  1

  0
TEXT
  5
C3
330
C1
100
AcDbEntity
  8
CSLAYER1
 62
     4
100
AcDbText
 10
63.702623
 20
166.25778
 30
0.0
 40
3.2
  1
35%%d
 50
342.4999986410721
 41
1.285714333640244
 51
15.0
  7
FX_FONT
 72
     5
 11
72.858306
 21
163.3710039999999
 31
0.0
100
AcDbText
  0
ARC
  5
C4
330
C1
100
AcDbEntity
  8
CSLAYER1
  6
CONTINUOUS
 62
     4
100
AcDbCircle
 10
60.15230999999999
 20
139.035176
 30
0.0
 40
26.53026
100
AcDbArc
 50
55.0
 51
90.0
  0
LINE
  5
C5
330
C1
100
AcDbEntity
  8
CSLAYER1
  6
CONTINUOUS
 62
     4
100
AcDbLine
 10
75.369442
 20
160.7674929999999
 30
0.0
 11
72.550364
 21
161.793553
 31
0.0
  0
LINE
  5
C6
330
C1
100
AcDbEntity
  8
CSLAYER1
  6
CONTINUOUS
 62
     4
100
AcDbLine
 10
75.369442
 20
160.7674929999999
 30
0.0
 11
73.441079
 21
163.065626
 31
0.0
  0
LINE
  5
C7
330
C1
100
AcDbEntity
  8
CSLAYER1
  6
CONTINUOUS
 62
     4
100
AcDbLine
 10
60.15230999999999
 20
165.5654359999998
 30
0.0
 11
63.050087
 21
166.3418929999999
 31
0.0
  0
LINE
  5
C8
330
C1
100
AcDbEntity
  8
CSLAYER1
  6
CONTINUOUS
 62
     4
100
AcDbLine
 10
60.15230999999999
 20
165.5654359999998
 30
0.0
 11
63.050087
 21
164.788979
 31
0.0
  0
LINE
  5
C9
330
C1
100
AcDbEntity
  8
CSLAYER1
  6
CONTINUOUS
 62
     4
100
AcDbLine
 10
62.44210899999998
 20
142.305349
 30
0.0
 11
75.94301800000002
 21
161.586645
 31
0.0
  0
LINE
  5
CA
330
C1
100
AcDbEntity
  8
CSLAYER1
  6
CONTINUOUS
 62
     4
100
AcDbLine
 10
60.15230999999999
 20
143.035176
 30
0.0
 11
60.15230999999999
 21
166.565436
 31
0.0
  0
ENDBLK
  5
CB
330
C1
100
AcDbEntity
  8
0
100
AcDbBlockEnd
  0
BLOCK
  5
CD
330
CC
100
AcDbEntity
  8
0
100
AcDbBlockBegin
  2
*D14
 70
     1
 10
0.0
 20
0.0
 30
0.0
  3
*D14
  1

  0
TEXT
  5
CE
330
CC
100
AcDbEntity
  8
CSLAYER1
 62
     4
100
AcDbText
 10
40.888473
 20
115.88855
 30
0.0
 40
3.2
  1
(0.5)
 41
1.153846225961538
 51
15.0
  7
FX_FONT
 72
     5
 11
56.888474
 21
115.88855
 31
0.0
100
AcDbText
  0
LINE
  5
CF
330
CC
100
AcDbEntity
  8
CSLAYER1
  6
CONTINUOUS
 62
     4
100
AcDbLine
 10
60.15230999999999
 20
115.3885529999999
 30
0.0
 11
60.65231
 21
115.3885529999999
 31
0.0
  0
LINE
  5
D0
330
CC
100
AcDbEntity
  8
CSLAYER1
  6
CONTINUOUS
 62
     4
100
AcDbLine
 10
60.15230999999999
 20
135.035176
 30
0.0
 11
60.15230999999999
 21
114.388553
 31
0.0
  0
LINE
  5
D1
330
CC
100
AcDbEntity
  8
CSLAYER1
  6
CONTINUOUS
 62
     4
100
AcDbLine
 10
60.65231
 20
122.035176
 30
0.0
 11
60.65231
 21
114.388553
 31
0.0
  0
LINE
  5
D2
330
CC
100
AcDbEntity
  8
CSLAYER1
  6
CONTINUOUS
 62
     4
100
AcDbLine
 10
56.78430699999999
 20
115.3885529999999
 30
0.0
 11
60.15230999999999
 21
115.3885529999999
 31
0.0
  0
LINE
  5
D3
330
CC
100
AcDbEntity
  8
CSLAYER1
  6
CONTINUOUS
 62
     4
100
AcDbLine
 10
60.15230999999999
 20
115.3885529999999
 30
0.0
 11
57.254532
 21
116.16501
 31
0.0
  0
LINE
  5
D4
330
CC
100
AcDbEntity
  8
CSLAYER1
  6
CONTINUOUS
 62
     4
100
AcDbLine
 10
60.15230999999999
 20
115.3885529999999
 30
0.0
 11
57.254532
 21
114.6120959999999
 31
0.0
  0
LINE
  5
D5
330
CC
100
AcDbEntity
  8
CSLAYER1
  6
CONTINUOUS
 62
     4
100
AcDbLine
 10
60.65231
 20
115.3885529999999
 30
0.0
 11
63.65231
 21
115.3885529999999
 31
0.0
  0
LINE
  5
D6
330
CC
100
AcDbEntity
  8
CSLAYER1
  6
CONTINUOUS
 62
     4
100
AcDbLine
 10
60.65231
 20
115.3885529999999
 30
0.0
 11
63.55008699999999
 21
116.16501
 31
0.0
  0
LINE
  5
D7
330
CC
100
AcDbEntity
  8
CSLAYER1
  6
CONTINUOUS
 62
     4
100
AcDbLine
 10
60.65231
 20
115.3885529999999
 30
0.0
 11
63.55008699999999
 21
114.6120959999999
 31
0.0
  0
ENDBLK
  5
D8
330
CC
100
AcDbEntity
  8
0
100
AcDbBlockEnd
  0
BLOCK
  5
DA
330
D9
100
AcDbEntity
  8
0
100
AcDbBlockBegin
  2
*D15
 70
     1
 10
0.0
 20
0.0
 30
0.0
  3
*D15
  1

  0
TEXT
  5
DB
330
D9
100
AcDbEntity
  8
CSLAYER1
 62
     4
100
AcDbText
 10
37.571632
 20
30.835175
 30
0.0
 40
3.2
  1
19
 50
90.0
 41
1.199999999999998
 51
15.0
  7
FX_FONT
 72
     5
 11
37.571632
 21
37.23517499999999
 31
0.0
100
AcDbText
  0
LINE
  5
DC
330
D9
100
AcDbEntity
  8
CSLAYER1
  6
CONTINUOUS
 62
     4
100
AcDbLine
 10
38.071633
 20
24.535176
 30
0.0
 11
38.071633
 21
43.53517599999999
 31
0.0
  0
LINE
  5
DD
330
D9
100
AcDbEntity
  8
CSLAYER1
  6
CONTINUOUS
 62
     4
100
AcDbLine
 10
38.071633
 20
24.535176
 30
0.0
 11
37.29517599999999
 21
27.432953
 31
0.0
  0
LINE
  5
DE
330
D9
100
AcDbEntity
  8
CSLAYER1
  6
CONTINUOUS
 62
     4
100
AcDbLine
 10
38.071633
 20
24.535176
 30
0.0
 11
38.84809
 21
27.432953
 31
0.0
  0
LINE
  5
DF
330
D9
100
AcDbEntity
  8
CSLAYER1
  6
CONTINUOUS
 62
     4
100
AcDbLine
 10
38.071633
 20
43.53517599999999
 30
0.0
 11
37.29517599999999
 21
40.63739799999999
 31
0.0
  0
LINE
  5
E0
330
D9
100
AcDbEntity
  8
CSLAYER1
  6
CONTINUOUS
 62
     4
100
AcDbLine
 10
38.071633
 20
43.53517599999999
 30
0.0
 11
38.84809
 21
40.63739799999999
 31
0.0
  0
LINE
  5
E1
330
D9
100
AcDbEntity
  8
CSLAYER1
  6
CONTINUOUS
 62
     4
100
AcDbLine
 10
48.975004
 20
24.535176
 30
0.0
 11
37.07163299999999
 21
24.535176
 31
0.0
  0
LINE
  5
E2
330
D9
100
AcDbEntity
  8
CSLAYER1
  6
CONTINUOUS
 62
     4
100
AcDbLine
 10
48.975004
 20
43.53517599999999
 30
0.0
 11
37.07163299999999
 21
43.53517599999999
 31
0.0
  0
ENDBLK
  5
E3
330
D9
100
AcDbEntity
  8
0
100
AcDbBlockEnd
  0
BLOCK
  5
1A5
330
198
100
AcDbEntity
  8
0
100
AcDbBlockBegin
  2
*D16
 70
     1
 10
0.0
 20
0.0
 30
0.0
  3
*D16
  1

  0
LINE
  5
199
330
198
100
AcDbEntity
  8
CSLAYER1
 62
     0
100
AcDbLine
 10
61.90438152193869
 20
141.5373940065023
 30
0.0
 11
75.47268363856616
 21
160.9149419255075
 31
0.0
  0
LINE
  5
19A
330
198
100
AcDbEntity
  8
CSLAYER1
 62
     0
100
AcDbLine
 10
60.15230999999999
 20
142.097676
 30
0.0
 11
60.15230999999999
 21
165.7454363016194
 31
0.0
  0
ARC
  5
19B
330
198
100
AcDbEntity
  8
CSLAYER1
 62
     0
100
AcDbCircle
 10
60.15230999999999
 20
139.035176
 30
0.0
 40
26.53026030161953
100
AcDbArc
 50
55.3887416981254
 51
71.64198542805651
  0
ARC
  5
19C
330
198
100
AcDbEntity
  8
CSLAYER1
 62
     0
100
AcDbCircle
 10
60.15230999999999
 20
139.035176
 30
0.0
 40
26.53026030161953
100
AcDbArc
 50
73.35398788460068
 51
89.61126427045572
  0
SOLID
  5
19D
330
198
100
AcDbEntity
  8
CSLAYER1
 62
     0
100
AcDbTrace
 10
75.23876695181789
 20
160.8948702972986
 30
0.0
 11
75.20451929995059
 21
160.8456047074658
 31
0.0
 12
75.36943989538277
 22
160.7674945467804
 32
0.0
 13
75.36943989538277
 23
160.7674945467804
 33
0.0
  0
SOLID
  5
19E
330
198
100
AcDbEntity
  8
CSLAYER1
 62
     0
100
AcDbTrace
 10
60.3322071936911
 20
165.534825850756
 30
0.0
 11
60.33241073485272
 21
165.5948255055133
 31
0.0
 12
60.15230999999999
 22
165.5654363016194
 32
0.0
 13
60.15230999999999
 23
165.5654363016194
 33
0.0
  0
MTEXT
  5
19F
330
198
100
AcDbEntity
  8
CSLAYER1
 62
     0
100
AcDbMText
 10
68.13011181716399
 20
164.3375353729466
 30
0.0
 40
0.18
 41
0.0
 71
     5
 72
     1
  1
\A1;35°
1001
ACAD
1000
MTEXTBEGIN
1070
    73
1070
     1
1070
    44
1040
1.0
1070
    74
1070
     0
1000
MTEXTEND
  0
POINT
  5
1A0
330
198
100
AcDbEntity
  8
DEFPOINTS
 62
     0
100
AcDbPoint
 10
70.66040760144438
 20
163.3956890584354
 30
0.0
  0
POINT
  5
1A1
330
198
100
AcDbEntity
  8
DEFPOINTS
 62
     0
100
AcDbPoint
 10
60.15230999999999
 20
139.035176
 30
0.0
  0
POINT
  5
1A2
330
198
100
AcDbEntity
  8
DEFPOINTS
 62
     0
100
AcDbPoint
 10
60.15230999999999
 20
142.0351759999998
 30
0.0
  0
POINT
  5
1A3
330
198
100
AcDbEntity
  8
DEFPOINTS
 62
     0
100
AcDbPoint
 10
60.15230999999999
 20
139.035176
 30
0.0
  0
POINT
  5
1A4
330
198
100
AcDbEntity
  8
DEFPOINTS
 62
     0
100
AcDbPoint
 10
61.868533
 20
141.486197
 30
0.0
  0
ENDBLK
  5
1A6
330
198
100
AcDbEntity
  8
0
100
AcDbBlockEnd
  0
ENDSEC
  0
SECTION
  2
ENTITIES
  0
LINE
  5
E4
330
1E
100
AcDbEntity
  8
CSLAYER1
  6
CONTINUOUS
 62
     3
100
AcDbLine
 10
169.1090419999999
 20
79.60552800000002
 30
0.0
 11
169.1090419999999
 21
87.105528
 31
0.0
  0
ARC
  5
E5
330
1E
100
AcDbEntity
  8
CSLAYER1
  6
CONTINUOUS
 62
     3
100
AcDbCircle
 10
170.1090419999998
 20
87.105528
 30
0.0
 40
1.0
100
AcDbArc
 50
90.0
 51
180.0
  0
LINE
  5
E6
330
1E
100
AcDbEntity
  8
CSLAYER1
  6
CONTINUOUS
 62
     3
100
AcDbLine
 10
170.1090419999998
 20
88.10552800000001
 30
0.0
 11
195.970563
 21
88.10552800000001
 31
0.0
  0
ARC
  5
E7
330
1E
100
AcDbEntity
  8
CSLAYER1
  6
CONTINUOUS
 62
     3
100
AcDbCircle
 10
195.970563
 20
89.10552800000003
 30
0.0
 40
1.0
100
AcDbArc
 50
270.0
 51
0.0
  0
LINE
  5
E8
330
1E
100
AcDbEntity
  8
CSLAYER1
  6
CONTINUOUS
 62
     3
100
AcDbLine
 10
196.9705629999999
 20
89.10552800000003
 30
0.0
 11
196.9705629999999
 21
96.60552800000001
 31
0.0
  0
LINE
  5
E9
330
1E
100
AcDbEntity
  8
CSLAYER1
  6
CONTINUOUS
 62
     3
100
AcDbLine
 10
188.7843649999999
 20
96.60552800000001
 30
0.0
 11
188.7843649999999
 21
88.605528
 31
0.0
  0
LINE
  5
EA
330
1E
100
AcDbEntity
  8
CSLAYER1
  6
CONTINUOUS
 62
     3
100
AcDbLine
 10
188.7843649999999
 20
88.605528
 30
0.0
 11
188.2843649999999
 21
88.10552800000001
 31
0.0
  0
LINE
  5
EB
330
1E
100
AcDbEntity
  8
CSLAYER1
  6
CONTINUOUS
 62
     3
100
AcDbLine
 10
209.039803
 20
96.60552800000001
 30
0.0
 11
260.0421419999999
 21
95.28650199999999
 31
0.0
  0
ARC
  5
EC
330
1E
100
AcDbEntity
  8
CSLAYER1
  6
CONTINUOUS
 62
     3
100
AcDbCircle
 10
259.856428
 20
88.10552800000001
 30
0.0
 40
7.183374999999998
100
AcDbArc
 50
270.0
 51
90.0
  0
LINE
  5
ED
330
1E
100
AcDbEntity
  8
CSLAYER1
  6
CONTINUOUS
 62
     3
100
AcDbLine
 10
260.0421419999999
 20
80.924554
 30
0.0
 11
209.039803
 21
79.60552800000002
 31
0.0
  0
LINE
  5
EE
330
1E
100
AcDbEntity
  8
CSLAYER1
  6
CONTINUOUS
 62
     3
100
AcDbLine
 10
209.039803
 20
79.60552800000002
 30
0.0
 11
108.039803
 21
79.60552800000002
 31
0.0
  0
LINE
  5
EF
330
1E
100
AcDbEntity
  8
CSLAYER1
  6
CONTINUOUS
 62
     3
100
AcDbLine
 10
108.039803
 20
79.60552800000002
 30
0.0
 11
108.039803
 21
80.60552800000001
 31
0.0
  0
ARC
  5
F0
330
1E
100
AcDbEntity
  8
CSLAYER1
  6
CONTINUOUS
 62
     3
100
AcDbCircle
 10
123.238487
 20
67.60552800000001
 30
0.0
 40
20.0
100
AcDbArc
 50
90.0
 51
139.458398
  0
LINE
  5
F1
330
1E
100
AcDbEntity
  8
CSLAYER1
  6
CONTINUOUS
 62
     3
100
AcDbLine
 10
123.238487
 20
87.60552800000002
 30
0.0
 11
132.039803
 21
87.60552800000002
 31
0.0
  0
ARC
  5
F2
330
1E
100
AcDbEntity
  8
CSLAYER1
  6
CONTINUOUS
 62
     3
100
AcDbCircle
 10
132.039803
 20
89.605528
 30
0.0
 40
2.0
100
AcDbArc
 50
270.0
 51
0.0
  0
LINE
  5
F3
330
1E
100
AcDbEntity
  8
CSLAYER1
  6
CONTINUOUS
 62
     3
100
AcDbLine
 10
134.039803
 20
89.605528
 30
0.0
 11
134.039803
 21
96.60552800000001
 31
0.0
  0
LINE
  5
F4
330
1E
100
AcDbEntity
  8
CSLAYER1
  6
CONTINUOUS
 62
     3
100
AcDbLine
 10
134.039803
 20
96.60552800000001
 30
0.0
 11
209.039803
 21
96.60552800000001
 31
0.0
  0
LINE
  5
F5
330
1E
100
AcDbEntity
  8
CSLAYER1
  6
CONTINUOUS
 62
     3
100
AcDbLine
 10
203.039803
 20
123.035176
 30
0.0
 11
257.9917149999999
 21
128.1869179999999
 31
0.0
  0
ARC
  5
F6
330
1E
100
AcDbEntity
  8
CSLAYER1
  6
CONTINUOUS
 62
     3
100
AcDbCircle
 10
257.058308
 20
138.1432599999999
 30
0.0
 40
10.0
100
AcDbArc
 50
275.3558249999999
 51
356.5137839999998
  0
LINE
  5
F7
330
1E
100
AcDbEntity
  8
CSLAYER1
  6
CONTINUOUS
 62
     3
100
AcDbLine
 10
267.039803
 20
137.535176
 30
0.0
 11
200.826033
 21
137.535176
 31
0.0
  0
ARC
  5
F8
330
1E
100
AcDbEntity
  8
CSLAYER1
  6
CONTINUOUS
 62
     3
100
AcDbCircle
 10
200.826033
 20
138.3351759999999
 30
0.0
 40
0.8
100
AcDbArc
 50
177.7462139999999
 51
270.0
  0
ARC
  5
F9
330
1E
100
AcDbEntity
  8
CSLAYER1
  6
CONTINUOUS
 62
     3
100
AcDbCircle
 10
183.0398029999999
 20
139.035176
 30
0.0
 40
17.0
100
AcDbArc
 50
289.7499229999999
 51
2.253785999999998
  0
LINE
  5
FA
330
1E
100
AcDbEntity
  8
CSLAYER1
  6
CONTINUOUS
 62
     3
100
AcDbLine
 10
196.9705629999999
 20
123.035176
 30
0.0
 11
201.4036579999999
 21
137.535176
 31
0.0
  0
ARC
  5
FB
330
1E
100
AcDbEntity
  8
CSLAYER1
  6
CONTINUOUS
 62
     3
100
AcDbCircle
 10
200.826033
 20
139.735176
 30
0.0
 40
0.8
100
AcDbArc
 50
90.0
 51
182.253786
  0
LINE
  5
FC
330
1E
100
AcDbEntity
  8
CSLAYER1
  6
CONTINUOUS
 62
     3
100
AcDbLine
 10
200.826033
 20
140.535176
 30
0.0
 11
267.039803
 21
140.535176
 31
0.0
  0
ARC
  5
FD
330
1E
100
AcDbEntity
  8
CSLAYER1
  6
CONTINUOUS
 62
     3
100
AcDbCircle
 10
257.058308
 20
139.9270919999999
 30
0.0
 40
10.0
100
AcDbArc
 50
3.486216
 51
84.64417500000001
  0
LINE
  5
FE
330
1E
100
AcDbEntity
  8
CSLAYER1
  6
CONTINUOUS
 62
     3
100
AcDbLine
 10
257.9917149999999
 20
149.883434
 30
0.0
 11
203.039803
 21
155.035176
 31
0.0
  0
LINE
  5
FF
330
1E
100
AcDbEntity
  8
CSLAYER1
  6
CONTINUOUS
 62
     3
100
AcDbLine
 10
203.039803
 20
155.035176
 30
0.0
 11
124.039803
 21
155.035176
 31
0.0
  0
ARC
  5
100
330
1E
100
AcDbEntity
  8
CSLAYER1
  6
CONTINUOUS
 62
     3
100
AcDbCircle
 10
124.039803
 20
139.035176
 30
0.0
 40
16.0
100
AcDbArc
 50
90.0
 51
270.0
  0
LINE
  5
101
330
1E
100
AcDbEntity
  8
CSLAYER1
  6
CONTINUOUS
 62
     3
100
AcDbLine
 10
124.039803
 20
123.035176
 30
0.0
 11
203.039803
 21
123.035176
 31
0.0
  0
LINE
  5
102
330
1E
100
AcDbEntity
  8
CSLAYER1
  6
CONTINUOUS
 62
     3
100
AcDbLine
 10
253.0398029999999
 20
137.535176
 30
0.0
 11
253.0398029999999
 21
140.535176
 31
0.0
  0
LINE
  5
103
330
1E
100
AcDbEntity
  8
CSLAYER1
  6
CONTINUOUS
 62
     3
100
AcDbLine
 10
261.039803
 20
140.535176
 30
0.0
 11
261.039803
 21
137.535176
 31
0.0
  0
CIRCLE
  5
104
330
1E
100
AcDbEntity
  8
CSLAYER1
  6
CONTINUOUS
 62
     3
100
AcDbCircle
 10
183.0398029999999
 20
139.035176
 30
0.0
 40
9.55
  0
CIRCLE
  5
105
330
1E
100
AcDbEntity
  8
CSLAYER1
  6
CONTINUOUS
 62
     3
100
AcDbCircle
 10
183.0398029999999
 20
139.035176
 30
0.0
 40
2.75
  0
ARC
  5
106
330
1E
100
AcDbEntity
  8
CSLAYER1
  6
CONTINUOUS
 62
     3
100
AcDbCircle
 10
183.0398029999999
 20
139.035176
 30
0.0
 40
17.0
100
AcDbArc
 50
109.7499229999999
 51
171.585032
  0
LINE
  5
107
330
1E
100
AcDbEntity
  8
CSLAYER1
  6
CONTINUOUS
 62
     3
100
AcDbLine
 10
169.1090419999999
 20
155.035176
 30
0.0
 11
164.4833919999999
 21
139.905357
 31
0.0
  0
LINE
  5
108
330
1E
100
AcDbEntity
  8
CSLAYER1
  6
CONTINUOUS
 62
     3
100
AcDbLine
 10
164.4833919999999
 20
139.905357
 30
0.0
 11
163.916719
 21
139.338684
 31
0.0
  0
ARC
  5
109
330
1E
100
AcDbEntity
  8
CSLAYER1
  6
CONTINUOUS
 62
     3
100
AcDbCircle
 10
162.7605029999999
 20
136.035176
 30
0.0
 40
3.5
100
AcDbArc
 50
58.997281
 51
90.0
  0
LINE
  5
10A
330
1E
100
AcDbEntity
  8
CSLAYER1
  6
CONTINUOUS
 62
     3
100
AcDbLine
 10
162.7605029999999
 20
139.535176
 30
0.0
 11
133.039803
 21
139.535176
 31
0.0
  0
LINE
  5
10B
330
1E
100
AcDbEntity
  8
CSLAYER1
  6
CONTINUOUS
 62
     3
100
AcDbLine
 10
133.039803
 20
139.035176
 30
0.0
 11
108.039803
 21
139.035176
 31
0.0
  0
LINE
  5
10C
330
1E
100
AcDbEntity
  8
CSLAYER1
  6
CONTINUOUS
 62
     3
100
AcDbLine
 10
108.228652
 20
141.486197
 30
0.0
 11
133.039803
 21
141.486197
 31
0.0
  0
ARC
  5
10D
330
1E
100
AcDbEntity
  8
CSLAYER1
  6
CONTINUOUS
 62
     3
100
AcDbCircle
 10
133.039803
 20
140.4861969999998
 30
0.0
 40
1.0
100
AcDbArc
 50
0.0
 51
90.0
  0
LINE
  5
10E
330
1E
100
AcDbEntity
  8
CSLAYER1
  6
CONTINUOUS
 62
     3
100
AcDbLine
 10
133.039803
 20
138.535176
 30
0.0
 11
162.7605029999999
 21
138.535176
 31
0.0
  0
ARC
  5
10F
330
1E
100
AcDbEntity
  8
CSLAYER1
  6
CONTINUOUS
 62
     3
100
AcDbCircle
 10
162.7605029999999
 20
142.035176
 30
0.0
 40
3.5
100
AcDbArc
 50
270.0
 51
351.5850319999998
  0
ARC
  5
110
330
1E
100
AcDbEntity
  8
CSLAYER1
  6
CONTINUOUS
 62
     3
100
AcDbCircle
 10
133.039803
 20
137.584155
 30
0.0
 40
1.0
100
AcDbArc
 50
270.0
 51
0.0
  0
LINE
  5
111
330
1E
100
AcDbEntity
  8
CSLAYER1
  6
CONTINUOUS
 62
     3
100
AcDbLine
 10
133.039803
 20
136.584155
 30
0.0
 11
108.228652
 21
136.584155
 31
0.0
  0
LINE
  5
112
330
1E
100
AcDbEntity
  8
CSLAYER1
  6
CONTINUOUS
 62
     3
100
AcDbLine
 10
68.15231
 20
127.213585
 30
0.0
 11
68.15231
 21
123.035176
 31
0.0
  0
LINE
  5
113
330
1E
100
AcDbEntity
  8
CSLAYER1
  6
CONTINUOUS
 62
     3
100
AcDbLine
 10
68.15231
 20
123.035176
 30
0.0
 11
60.65231
 21
123.035176
 31
0.0
  0
LINE
  5
114
330
1E
100
AcDbEntity
  8
CSLAYER1
  6
CONTINUOUS
 62
     3
100
AcDbLine
 10
60.65231
 20
123.035176
 30
0.0
 11
60.65231
 21
135.735176
 31
0.0
  0
ARC
  5
115
330
1E
100
AcDbEntity
  8
CSLAYER1
  6
CONTINUOUS
 62
     3
100
AcDbCircle
 10
60.35230999999999
 20
135.735176
 30
0.0
 40
0.3
100
AcDbArc
 50
0.0
 51
90.0
  0
LINE
  5
116
330
1E
100
AcDbEntity
  8
CSLAYER1
  6
CONTINUOUS
 62
     3
100
AcDbLine
 10
60.35230999999999
 20
136.035176
 30
0.0
 11
60.15230999999999
 21
136.035176
 31
0.0
  0
LINE
  5
117
330
1E
100
AcDbEntity
  8
CSLAYER1
  6
CONTINUOUS
 62
     3
100
AcDbLine
 10
60.15230999999999
 20
136.035176
 30
0.0
 11
60.15230999999999
 21
142.035176
 31
0.0
  0
LINE
  5
118
330
1E
100
AcDbEntity
  8
CSLAYER1
  6
CONTINUOUS
 62
     3
100
AcDbLine
 10
60.15230999999999
 20
142.035176
 30
0.0
 11
60.35230999999999
 21
142.035176
 31
0.0
  0
ARC
  5
119
330
1E
100
AcDbEntity
  8
CSLAYER1
  6
CONTINUOUS
 62
     3
100
AcDbCircle
 10
60.35230999999999
 20
142.3351759999999
 30
0.0
 40
0.3
100
AcDbArc
 50
270.0
 51
0.0
  0
LINE
  5
11A
330
1E
100
AcDbEntity
  8
CSLAYER1
  6
CONTINUOUS
 62
     3
100
AcDbLine
 10
60.65231
 20
142.3351759999999
 30
0.0
 11
60.65231
 21
155.035176
 31
0.0
  0
LINE
  5
11B
330
1E
100
AcDbEntity
  8
CSLAYER1
  6
CONTINUOUS
 62
     3
100
AcDbLine
 10
60.65231
 20
155.035176
 30
0.0
 11
68.15231
 21
155.035176
 31
0.0
  0
LINE
  5
11C
330
1E
100
AcDbEntity
  8
CSLAYER1
  6
CONTINUOUS
 62
     3
100
AcDbLine
 10
68.15231
 20
155.035176
 30
0.0
 11
68.15231
 21
150.8567659999999
 31
0.0
  0
ARC
  5
11D
330
1E
100
AcDbEntity
  8
CSLAYER1
  6
CONTINUOUS
 62
     3
100
AcDbCircle
 10
75.65231
 20
139.035176
 30
0.0
 40
14.0
100
AcDbArc
 50
122.3923649999999
 51
169.9170969999999
  0
LINE
  5
11E
330
1E
100
AcDbEntity
  8
CSLAYER1
  6
CONTINUOUS
 62
     3
100
AcDbLine
 10
61.868533
 20
141.486197
 30
0.0
 11
60.15230999999999
 21
139.035176
 31
0.0
  0
LINE
  5
11F
330
1E
100
AcDbEntity
  8
CSLAYER1
  6
CONTINUOUS
 62
     3
100
AcDbLine
 10
60.15230999999999
 20
139.035176
 30
0.0
 11
61.868533
 21
136.584155
 31
0.0
  0
ARC
  5
120
330
1E
100
AcDbEntity
  8
CSLAYER1
  6
CONTINUOUS
 62
     3
100
AcDbCircle
 10
75.65231
 20
139.035176
 30
0.0
 40
14.0
100
AcDbArc
 50
190.0829029999999
 51
237.607635
  0
LINE
  5
121
330
1E
100
AcDbEntity
  8
CSLAYER1
  6
CONTINUOUS
 62
     3
100
AcDbLine
 10
108.039803
 20
80.10552800000002
 30
0.0
 11
133.9365249999999
 21
80.10552800000002
 31
0.0
  0
ARC
  5
122
330
1E
100
AcDbEntity
  8
CSLAYER1
  6
CONTINUOUS
 62
     3
100
AcDbCircle
 10
133.9365249999999
 20
42.605528
 30
0.0
 40
37.5
100
AcDbArc
 50
80.63321100000001
 51
90.0
  0
LINE
  5
123
330
1E
100
AcDbEntity
  8
CSLAYER1
  6
CONTINUOUS
 62
     3
100
AcDbLine
 10
177.2952399999999
 20
79.60552800000002
 30
0.0
 11
177.2952399999999
 21
87.60552800000002
 31
0.0
  0
LINE
  5
124
330
1E
100
AcDbEntity
  8
CSLAYER1
  6
CONTINUOUS
 62
     3
100
AcDbLine
 10
177.2952399999999
 20
87.60552800000002
 30
0.0
 11
177.7952399999999
 21
88.10552800000001
 31
0.0
  0
LINE
  5
125
330
1E
100
AcDbEntity
  8
CSLAYER1
  6
CONTINUOUS
 62
     3
100
AcDbLine
 10
134.039803
 20
123.035176
 30
0.0
 11
134.039803
 21
138.535176
 31
0.0
  0
ARC
  5
126
330
1E
100
AcDbEntity
  8
CSLAYER1
  6
CONTINUOUS
 62
     3
100
AcDbCircle
 10
133.039803
 20
149.8567659999999
 30
0.0
 40
1.0
100
AcDbArc
 50
0.0
 51
90.0
  0
LINE
  5
127
330
1E
100
AcDbEntity
  8
CSLAYER1
  6
CONTINUOUS
 62
     3
100
AcDbLine
 10
133.039803
 20
150.8567659999999
 30
0.0
 11
113.257873
 21
150.8567659999999
 31
0.0
  0
LINE
  5
128
330
1E
100
AcDbEntity
  8
CSLAYER1
  6
CONTINUOUS
 62
     3
100
AcDbLine
 10
113.257873
 20
127.213585
 30
0.0
 11
133.039803
 21
127.213585
 31
0.0
  0
ARC
  5
129
330
1E
100
AcDbEntity
  8
CSLAYER1
  6
CONTINUOUS
 62
     3
100
AcDbCircle
 10
133.039803
 20
128.213585
 30
0.0
 40
1.0
100
AcDbArc
 50
270.0
 51
0.0
  0
LINE
  5
12A
330
1E
100
AcDbEntity
  8
CSLAYER1
  6
CONTINUOUS
 62
     3
100
AcDbLine
 10
233.0
 20
48.0
 30
0.0
 11
274.0
 21
48.0
 31
0.0
  0
LINE
  5
12B
330
1E
100
AcDbEntity
  8
CSLAYER1
  6
CONTINUOUS
 62
     3
100
AcDbLine
 10
274.0
 20
38.0
 30
0.0
 11
233.0
 21
38.0
 31
0.0
  0
POINT
  5
12C
330
1E
100
AcDbEntity
  8
CSLAYER1
 62
     3
100
AcDbPoint
 10
245.5
 20
41.5
 30
0.0
  0
POINT
  5
12D
330
1E
100
AcDbEntity
  8
CSLAYER1
 62
     3
100
AcDbPoint
 10
266.0
 20
41.5
 30
0.0
  0
POINT
  5
12E
330
1E
100
AcDbEntity
  8
CSLAYER1
 62
     3
100
AcDbPoint
 10
266.0
 20
51.5
 30
0.0
  0
TEXT
  5
12F
330
1E
100
AcDbEntity
  8
CSLAYER1
 62
     3
100
AcDbText
 10
233.0999849999999
 20
49.00000399999999
 30
0.0
 40
5.0
  1
刃開キハ
 41
1.110447761194034
  7
FX_FONT
 72
     5
 11
257.899985
 21
49.00000399999999
 31
0.0
100
AcDbText
  0
TEXT
  5
130
330
1E
100
AcDbEntity
  8
CSLAYER1
 62
     3
100
AcDbText
 10
232.999985
 20
39.00000399999999
 30
0.0
 40
5.0
  1
切刃部有効
 41
0.872093023255811
  7
FX_FONT
 72
     5
 11
257.9999849999999
 21
39.00000399999999
 31
0.0
100
AcDbText
  0
POINT
  5
131
330
1E
100
AcDbEntity
  8
CSLAYER1
 62
     3
100
AcDbPoint
 10
193.039803
 20
139.035176
 30
0.0
  0
POINT
  5
132
330
1E
100
AcDbEntity
  8
CSLAYER1
 62
     3
100
AcDbPoint
 10
193.039803
 20
88.10552800000001
 30
0.0
  0
POINT
  5
133
330
1E
100
AcDbEntity
  8
CSLAYER1
 62
     3
100
AcDbPoint
 10
183.0398029999999
 20
139.035176
 30
0.0
  0
POINT
  5
134
330
1E
100
AcDbEntity
  8
CSLAYER1
 62
     3
100
AcDbPoint
 10
183.0398029999999
 20
88.10552800000001
 30
0.0
  0
POINT
  5
135
330
1E
100
AcDbEntity
  8
CSLAYER1
 62
     3
100
AcDbPoint
 10
252.0
 20
19.0
 30
0.0
  0
TEXT
  5
136
330
1E
100
AcDbEntity
  8
CSLAYER1
 62
     3
100
AcDbText
 10
261.0
 20
49.0
 30
0.0
 40
5.0
  1
19
 41
1.199999999999999
  7
FX_FONT
 72
     5
 11
271.0
 21
49.0
 31
0.0
100
AcDbText
  0
TEXT
  5
137
330
1E
100
AcDbEntity
  8
CSLAYER1
 62
     3
100
AcDbText
 10
261.0
 20
39.0
 30
0.0
 40
5.0
  1
25
 41
1.199999999999999
  7
FX_FONT
 72
     5
 11
271.0
 21
39.0
 31
0.0
100
AcDbText
  0
TEXT
  5
138
330
1E
100
AcDbEntity
  8
CSLAYER1
 62
     3
100
AcDbText
 10
241.5
 20
17.25
 30
0.0
 40
3.5
  1
N30AJL
 41
1.058823529411764
  7
FX_FONT
 72
     5
 11
262.5
 21
17.25
 31
0.0
100
AcDbText
  0
POINT
  5
139
330
1E
100
AcDbEntity
  8
CSLAYER1
 62
     3
100
AcDbPoint
 10
245.5
 20
51.5
 30
0.0
  0
LINE
  5
13A
330
1E
100
AcDbEntity
  8
CSLAYER1
  6
CENTER
 62
     4
100
AcDbLine
 10
183.0398029999999
 20
76.004098
 30
0.0
 11
183.0398029999999
 21
100.057474
 31
0.0
  0
LINE
  5
13B
330
1E
100
AcDbEntity
  8
CSLAYER1
  6
CENTER
 62
     4
100
AcDbLine
 10
170.1090419999998
 20
88.10552800000001
 30
0.0
 11
163.167308
 21
88.10552800000001
 31
0.0
  0
LINE
  5
13C
330
1E
100
AcDbEntity
  8
CSLAYER1
  6
DASHED
 62
     4
100
AcDbLine
 10
134.039803
 20
89.605528
 30
0.0
 11
134.039803
 21
80.60552800000001
 31
0.0
  0
ARC
  5
13D
330
1E
100
AcDbEntity
  8
CSLAYER1
  6
DASHED
 62
     4
100
AcDbCircle
 10
133.039803
 20
80.60552800000001
 30
0.0
 40
1.0
100
AcDbArc
 50
270.0
 51
0.0
  0
LINE
  5
13E
330
1E
100
AcDbEntity
  8
CSLAYER1
  6
CENTER
 62
     4
100
AcDbLine
 10
133.039803
 20
139.035176
 30
0.0
 11
275.270712
 21
139.035176
 31
0.0
  0
LINE
  5
13F
330
1E
100
AcDbEntity
  8
CSLAYER1
  6
CENTER
 62
     4
100
AcDbLine
 10
257.039803
 20
145.4715399999998
 30
0.0
 11
257.039803
 21
133.1079029999999
 31
0.0
  0
LINE
  5
140
330
1E
100
AcDbEntity
  8
CSLAYER1
  6
CENTER
 62
     4
100
AcDbLine
 10
209.039803
 20
130.887339
 30
0.0
 11
209.039803
 21
147.535176
 31
0.0
  0
LINE
  5
141
330
1E
100
AcDbEntity
  8
CSLAYER1
  6
CENTER
 62
     4
100
AcDbLine
 10
183.0398029999999
 20
160.910327
 30
0.0
 11
183.0398029999999
 21
116.3794179999999
 31
0.0
  0
LINE
  5
142
330
1E
100
AcDbEntity
  8
CSLAYER1
  6
CENTER
 62
     4
100
AcDbLine
 10
195.970563
 20
88.10552800000001
 30
0.0
 11
204.477984
 21
88.10552800000001
 31
0.0
  0
LINE
  5
143
330
1E
100
AcDbEntity
  8
CSLAYER1
  6
CENTER
 62
     4
100
AcDbLine
 10
260.939197
 20
88.119467
 30
0.0
 11
273.031318
 21
88.119467
 31
0.0
  0
LINE
  5
144
330
1E
100
AcDbEntity
  8
CSLAYER1
  6
CENTER
 62
     4
100
AcDbLine
 10
108.039803
 20
139.035176
 30
0.0
 11
102.168374
 21
139.035176
 31
0.0
  0
LINE
  5
145
330
1E
100
AcDbEntity
  8
CSLAYER1
  6
CENTER
 62
     4
100
AcDbLine
 10
71.78741399999998
 20
139.035176
 30
0.0
 11
57.01627099999999
 21
139.035176
 31
0.0
  0
DIMENSION
  5
146
330
1E
100
AcDbEntity
  8
CSLAYER1
 62
     4
100
AcDbDimension
  2
*D0
 10
95.552971
 20
155.035176
 30
0.0
 11
95.05297099999999
 21
139.0351719999999
 31
0.0
 70
     1
100
AcDbAlignedDimension
 13
124.039803
 23
123.035176
 33
0.0
 14
124.039803
 24
155.035176
 34
0.0
  0
DIMENSION
  5
147
330
1E
100
AcDbEntity
  8
CSLAYER1
 62
     4
100
AcDbDimension
  2
*D1
 10
89.55297100000001
 20
96.60552800000001
 30
0.0
 11
89.052971
 21
96.60553
 31
0.0
100
AcDbAlignedDimension
 13
108.039803
 23
79.60552800000002
 33
0.0
 14
134.039803
 24
96.60552800000001
 34
0.0
 50
90.0
100
AcDbRotatedDimension
  0
DIMENSION
  5
148
330
1E
100
AcDbEntity
  8
CSLAYER1
 62
     4
100
AcDbDimension
  2
*D2
 10
124.039803
 20
139.035176
 30
0.0
 11
117.352104
 21
131.365387
 31
0.0
 70
     4
100
AcDbRadialDimension
 15
114.129803
 25
126.473651
 35
0.0
 40
0.0
  0
INSERT
  5
149
330
1E
100
AcDbEntity
  8
CSLAYER1
100
AcDbBlockReference
  2
FXDIM0000
 10
0.0
 20
0.0
 30
0.0
  0
INSERT
  5
14A
330
1E
100
AcDbEntity
  8
CSLAYER1
100
AcDbBlockReference
  2
FXDIM0001
 10
0.0
 20
0.0
 30
0.0
  0
DIMENSION
  5
14B
330
1E
100
AcDbEntity
  8
CSLAYER1
 62
     4
100
AcDbDimension
  2
*D5
 10
75.65231
 20
139.035176
 30
0.0
 11
71.772575
 21
133.085815
 31
0.0
 70
     4
100
AcDbRadialDimension
 15
62.998009
 25
133.046129
 35
0.0
 40
0.0
  0
DIMENSION
  5
14C
330
1E
100
AcDbEntity
  8
CSLAYER1
 62
     4
100
AcDbDimension
  2
*D6
 10
95.387149
 20
87.60552800000002
 30
0.0
 11
94.88715400000002
 21
83.60553000000001
 31
0.0
 70
     1
100
AcDbAlignedDimension
 13
123.238487
 23
79.60552800000002
 33
0.0
 14
123.238487
 24
87.60552800000002
 34
0.0
  0
DIMENSION
  5
14D
330
1E
100
AcDbEntity
  8
CSLAYER1
 62
     4
100
AcDbDimension
  2
*D7
 10
183.0398029999999
 20
105.1009239999999
 30
0.0
 11
158.5397949999999
 21
105.6009219999999
 31
0.0
100
AcDbAlignedDimension
 13
134.039803
 23
96.60552800000001
 33
0.0
 14
183.0398029999999
 24
100.057474
 34
0.0
100
AcDbRotatedDimension
  0
INSERT
  5
14E
330
1E
100
AcDbEntity
  8
CSLAYER1
100
AcDbBlockReference
  2
FXDIM0002
 10
0.0
 20
0.0
 30
0.0
  0
DIMENSION
  5
14F
330
1E
100
AcDbEntity
  8
CSLAYER1
 62
     4
100
AcDbDimension
  2
*D9
 10
183.0398029999999
 20
172.667633
 30
0.0
 11
145.539795
 21
173.1676329999999
 31
0.0
100
AcDbAlignedDimension
 13
108.039803
 23
139.035176
 33
0.0
 14
183.0398029999999
 24
160.910327
 34
0.0
100
AcDbRotatedDimension
  0
LINE
  5
150
330
1E
100
AcDbEntity
  8
CSLAYER1
  6
CONTINUOUS
 62
     3
100
AcDbLine
 10
133.039803
 20
139.535176
 30
0.0
 11
133.039803
 21
138.535176
 31
0.0
  0
LINE
  5
151
330
1E
100
AcDbEntity
  8
CSLAYER1
  6
CONTINUOUS
 62
     3
100
AcDbLine
 10
134.039803
 20
139.535176
 30
0.0
 11
134.039803
 21
155.035176
 31
0.0
  0
DIMENSION
  5
152
330
1E
100
AcDbEntity
  8
CSLAYER1
 62
     4
100
AcDbDimension
  2
*D10
 10
140.039803
 20
63.003041
 30
0.0
 11
124.039803
 21
63.50304000000001
 31
0.0
 70
     1
 52
270.0
100
AcDbAlignedDimension
 13
108.039803
 23
79.60552800000002
 33
0.0
 14
140.039803
 24
79.60552800000002
 34
0.0
  0
DIMENSION
  5
153
330
1E
100
AcDbEntity
  8
CSLAYER1
 62
     4
100
AcDbDimension
  2
*D11
 10
133.039803
 20
69.00304100000001
 30
0.0
 11
120.539803
 21
69.50304399999999
 31
0.0
 70
     1
 52
270.0
100
AcDbAlignedDimension
 13
108.039803
 23
79.60552800000002
 33
0.0
 14
133.039803
 24
79.60552800000002
 34
0.0
  0
DIMENSION
  5
154
330
1E
100
AcDbEntity
  8
CSLAYER1
 62
     4
100
AcDbDimension
  2
*D12
 10
53.49501899999999
 20
142.035176
 30
0.0
 11
52.995018
 21
139.0351719999999
 31
0.0
 70
     1
100
AcDbAlignedDimension
 13
60.15230999999999
 23
136.035176
 33
0.0
 14
60.15230999999999
 24
142.035176
 34
0.0
  0
DIMENSION
  5
156
330
1E
100
AcDbEntity
  8
CSLAYER1
 62
     4
100
AcDbDimension
  2
*D14
 10
60.65231
 20
115.3885529999999
 30
0.0
 11
48.888474
 21
115.88855
 31
0.0
 52
270.0
100
AcDbAlignedDimension
 13
60.15230999999999
 23
136.035176
 33
0.0
 14
60.65231
 24
123.035176
 34
0.0
100
AcDbRotatedDimension
  0
LINE
  5
157
330
1E
100
AcDbEntity
  8
CSLAYER1
  6
CONTINUOUS
 62
     3
100
AcDbLine
 10
124.370905
 20
50.165097
 30
0.0
 11
67.87279599999999
 21
57.379635
 31
0.0
  0
ARC
  5
158
330
1E
100
AcDbEntity
  8
CSLAYER1
  6
CONTINUOUS
 62
     3
100
AcDbCircle
 10
65.84613
 20
41.508509
 30
0.0
 40
16.0
100
AcDbArc
 50
82.72298599999997
 51
172.722986
  0
CIRCLE
  5
159
330
1E
100
AcDbEntity
  8
CSLAYER1
  6
CONTINUOUS
 62
     3
100
AcDbCircle
 10
124.370905
 20
34.035176
 30
0.0
 40
9.55
  0
CIRCLE
  5
15A
330
1E
100
AcDbEntity
  8
CSLAYER1
  6
CONTINUOUS
 62
     3
100
AcDbCircle
 10
124.370905
 20
34.035176
 30
0.0
 40
2.75
  0
ARC
  5
15B
330
1E
100
AcDbEntity
  8
CSLAYER1
  6
CONTINUOUS
 62
     3
100
AcDbCircle
 10
124.370905
 20
34.035176
 30
0.0
 40
17.0
100
AcDbArc
 50
117.026937
 51
178.8620459999999
  0
LINE
  5
15C
330
1E
100
AcDbEntity
  8
CSLAYER1
  6
CONTINUOUS
 62
     3
100
AcDbLine
 10
112.5790179999998
 20
51.670864
 30
0.0
 11
106.0741829999999
 21
37.248827
 31
0.0
  0
LINE
  5
15D
330
1E
100
AcDbEntity
  8
CSLAYER1
  6
CONTINUOUS
 62
     3
100
AcDbLine
 10
106.0741829999999
 20
37.248827
 30
0.0
 11
105.4402949999999
 21
36.758497
 31
0.0
  0
ARC
  5
15E
330
1E
100
AcDbEntity
  8
CSLAYER1
  6
CONTINUOUS
 62
     3
100
AcDbCircle
 10
103.874948
 20
33.628051
 30
0.0
 40
3.5
100
AcDbArc
 50
1.137954
 51
82.72298599999997
  0
LINE
  5
15F
330
1E
100
AcDbEntity
  8
CSLAYER1
  6
CONTINUOUS
 62
     3
100
AcDbLine
 10
104.318281
 20
37.09986
 30
0.0
 11
74.83697099999997
 21
40.864482
 31
0.0
  0
LINE
  5
160
330
1E
100
AcDbEntity
  8
CSLAYER1
  6
CONTINUOUS
 62
     3
100
AcDbLine
 10
74.773638
 20
40.368509
 30
0.0
 11
49.97500399999999
 21
43.53517599999999
 31
0.0
  0
LINE
  5
161
330
1E
100
AcDbEntity
  8
CSLAYER1
  6
CONTINUOUS
 62
     3
100
AcDbLine
 10
50.472795
 20
45.942534
 30
0.0
 11
75.08410000000002
 21
42.799788
 31
0.0
  0
ARC
  5
162
330
1E
100
AcDbEntity
  8
CSLAYER1
  6
CONTINUOUS
 62
     3
100
AcDbCircle
 10
74.95743399999998
 20
41.807843
 30
0.0
 40
1.0
100
AcDbArc
 50
352.7229859999998
 51
82.72298599999997
  0
ARC
  5
163
330
1E
100
AcDbEntity
  8
CSLAYER1
  6
CONTINUOUS
 62
     3
100
AcDbCircle
 10
76.14437200000002
 20
51.102935
 30
0.0
 40
1.0
100
AcDbArc
 50
352.7229859999998
 51
82.72298599999997
  0
LINE
  5
164
330
1E
100
AcDbEntity
  8
CSLAYER1
  6
CONTINUOUS
 62
     3
100
AcDbLine
 10
76.271039
 20
52.094881
 30
0.0
 11
56.64844699999999
 21
54.600592
 31
0.0
  0
LINE
  5
165
330
1E
100
AcDbEntity
  8
CSLAYER1
  6
CENTER
 62
     4
100
AcDbLine
 10
45.26381699999999
 20
34.035176
 30
0.0
 11
136.315384
 21
34.035176
 31
0.0
  0
LINE
  5
166
330
1E
100
AcDbEntity
  8
CSLAYER1
  6
CENTER
 62
     4
100
AcDbLine
 10
124.370905
 20
55.910327
 30
0.0
 11
124.370905
 21
11.37941799999999
 31
0.0
  0
LINE
  5
167
330
1E
100
AcDbEntity
  8
CSLAYER1
  6
CONTINUOUS
 62
     3
100
AcDbLine
 10
74.83697099999997
 20
40.864482
 30
0.0
 11
74.773638
 21
40.368509
 31
0.0
  0
LINE
  5
168
330
1E
100
AcDbEntity
  8
CSLAYER1
  6
CONTINUOUS
 62
     3
100
AcDbLine
 10
75.828916
 20
40.737815
 30
0.0
 11
77.79225
 21
56.112968
 31
0.0
  0
LINE
  5
169
330
1E
100
AcDbEntity
  8
CSLAYER1
  6
CONTINUOUS
 62
     3
100
AcDbLine
 10
136.92196
 20
19.507964
 30
0.0
 11
67.87279599999999
 21
10.690717
 31
0.0
  0
ARC
  5
16A
330
1E
100
AcDbEntity
  8
CSLAYER1
  6
CONTINUOUS
 62
     3
100
AcDbCircle
 10
65.84613
 20
26.561843
 30
0.0
 40
16.0
100
AcDbArc
 50
187.2770139999999
 51
277.2770139999999
  0
ARC
  5
16B
330
1E
100
AcDbEntity
  8
CSLAYER1
  6
CONTINUOUS
 62
     3
100
AcDbCircle
 10
103.874948
 20
34.442301
 30
0.0
 40
3.5
100
AcDbArc
 50
277.2770139999999
 51
358.862046
  0
LINE
  5
16C
330
1E
100
AcDbEntity
  8
CSLAYER1
  6
CONTINUOUS
 62
     3
100
AcDbLine
 10
104.318281
 20
30.970492
 30
0.0
 11
74.83697099999997
 21
27.20587
 31
0.0
  0
LINE
  5
16D
330
1E
100
AcDbEntity
  8
CSLAYER1
  6
CONTINUOUS
 62
     3
100
AcDbLine
 10
74.773638
 20
27.701843
 30
0.0
 11
49.97500399999999
 21
24.535176
 31
0.0
  0
LINE
  5
16E
330
1E
100
AcDbEntity
  8
CSLAYER1
  6
CONTINUOUS
 62
     3
100
AcDbLine
 10
50.472795
 20
22.12781799999999
 30
0.0
 11
75.08410000000002
 21
25.270564
 31
0.0
  0
ARC
  5
16F
330
1E
100
AcDbEntity
  8
CSLAYER1
  6
CONTINUOUS
 62
     3
100
AcDbCircle
 10
74.95743399999998
 20
26.262509
 30
0.0
 40
1.0
100
AcDbArc
 50
277.2770139999999
 51
7.277014
  0
ARC
  5
170
330
1E
100
AcDbEntity
  8
CSLAYER1
  6
CONTINUOUS
 62
     3
100
AcDbCircle
 10
76.14437200000002
 20
16.967416
 30
0.0
 40
1.0
100
AcDbArc
 50
277.2770139999999
 51
7.277014
  0
LINE
  5
171
330
1E
100
AcDbEntity
  8
CSLAYER1
  6
CONTINUOUS
 62
     3
100
AcDbLine
 10
76.271039
 20
15.97547099999998
 30
0.0
 11
56.64844699999999
 21
13.46976
 31
0.0
  0
LINE
  5
172
330
1E
100
AcDbEntity
  8
CSLAYER1
  6
CONTINUOUS
 62
     3
100
AcDbLine
 10
74.83697099999997
 20
27.20587
 30
0.0
 11
74.773638
 21
27.701843
 31
0.0
  0
LINE
  5
173
330
1E
100
AcDbEntity
  8
CSLAYER1
  6
CONTINUOUS
 62
     3
100
AcDbLine
 10
75.828916
 20
27.332537
 30
0.0
 11
77.79225
 21
11.95738399999999
 31
0.0
  0
LINE
  5
174
330
1E
100
AcDbEntity
  8
CSLAYER1
  6
CONTINUOUS
 62
     3
100
AcDbLine
 10
132.5470939999999
 20
51.209157
 30
0.0
 11
116.645946
 21
49.178657
 31
0.0
  0
DIMENSION
  5
175
330
1E
100
AcDbEntity
  8
CSLAYER1
 62
     4
100
AcDbDimension
  2
*D15
 10
38.071633
 20
43.53517599999999
 30
0.0
 11
37.571632
 21
34.035175
 31
0.0
 70
     1
100
AcDbAlignedDimension
 13
49.97500399999999
 23
24.535176
 33
0.0
 14
49.97500399999999
 24
43.53517599999999
 34
0.0
  0
LINE
  5
176
330
1E
100
AcDbEntity
  8
CSLAYER1
  6
CONTINUOUS
 62
     3
100
AcDbLine
 10
16.776767
 20
43.53517599999999
 30
0.0
 11
16.776767
 21
46.53517599999999
 31
0.0
  0
LINE
  5
177
330
1E
100
AcDbEntity
  8
CSLAYER1
  6
CONTINUOUS
 62
     3
100
AcDbLine
 10
16.776767
 20
46.53517599999999
 30
0.0
 11
16.976767
 21
46.53517599999999
 31
0.0
  0
ARC
  5
178
330
1E
100
AcDbEntity
  8
CSLAYER1
  6
CONTINUOUS
 62
     3
100
AcDbCircle
 10
16.976767
 20
46.835176
 30
0.0
 40
0.3
100
AcDbArc
 50
270.0
 51
0.0
  0
LINE
  5
179
330
1E
100
AcDbEntity
  8
CSLAYER1
  6
CONTINUOUS
 62
     3
100
AcDbLine
 10
17.27676699999999
 20
46.835176
 30
0.0
 11
17.27676699999999
 21
59.535176
 31
0.0
  0
LINE
  5
17A
330
1E
100
AcDbEntity
  8
CSLAYER1
  6
CONTINUOUS
 62
     3
100
AcDbLine
 10
17.27676699999999
 20
59.535176
 30
0.0
 11
24.77676699999999
 21
59.535176
 31
0.0
  0
LINE
  5
17B
330
1E
100
AcDbEntity
  8
CSLAYER1
  6
CONTINUOUS
 62
     3
100
AcDbLine
 10
24.77676699999999
 20
59.535176
 30
0.0
 11
24.77676699999999
 21
55.356766
 31
0.0
  0
ARC
  5
17C
330
1E
100
AcDbEntity
  8
CSLAYER1
  6
CONTINUOUS
 62
     3
100
AcDbCircle
 10
32.27676699999999
 20
43.53517599999999
 30
0.0
 40
14.0
100
AcDbArc
 50
122.3923649999999
 51
169.9170969999999
  0
LINE
  5
17D
330
1E
100
AcDbEntity
  8
CSLAYER1
  6
CONTINUOUS
 62
     3
100
AcDbLine
 10
18.49299
 20
45.98619699999999
 30
0.0
 11
16.776767
 21
43.53517599999999
 31
0.0
  0
LINE
  5
17E
330
1E
100
AcDbEntity
  8
CSLAYER1
  6
CENTER
 62
     4
100
AcDbLine
 10
28.411871
 20
34.035176
 30
0.0
 11
13.64072799999999
 21
34.035176
 31
0.0
  0
LINE
  5
17F
330
1E
100
AcDbEntity
  8
CSLAYER1
  6
CONTINUOUS
 62
     3
100
AcDbLine
 10
16.776767
 20
24.535176
 30
0.0
 11
16.776767
 21
21.535176
 31
0.0
  0
LINE
  5
180
330
1E
100
AcDbEntity
  8
CSLAYER1
  6
CONTINUOUS
 62
     3
100
AcDbLine
 10
16.776767
 20
21.535176
 30
0.0
 11
16.976767
 21
21.535176
 31
0.0
  0
ARC
  5
181
330
1E
100
AcDbEntity
  8
CSLAYER1
  6
CONTINUOUS
 62
     3
100
AcDbCircle
 10
16.976767
 20
21.235176
 30
0.0
 40
0.3
100
AcDbArc
 50
0.0
 51
90.0
  0
LINE
  5
182
330
1E
100
AcDbEntity
  8
CSLAYER1
  6
CONTINUOUS
 62
     3
100
AcDbLine
 10
17.27676699999999
 20
21.235176
 30
0.0
 11
17.27676699999999
 21
8.535175999999998
 31
0.0
  0
LINE
  5
183
330
1E
100
AcDbEntity
  8
CSLAYER1
  6
CONTINUOUS
 62
     3
100
AcDbLine
 10
17.27676699999999
 20
8.535175999999998
 30
0.0
 11
24.77676699999999
 21
8.535175999999998
 31
0.0
  0
LINE
  5
184
330
1E
100
AcDbEntity
  8
CSLAYER1
  6
CONTINUOUS
 62
     3
100
AcDbLine
 10
24.77676699999999
 20
8.535175999999998
 30
0.0
 11
24.77676699999999
 21
12.713585
 31
0.0
  0
ARC
  5
185
330
1E
100
AcDbEntity
  8
CSLAYER1
  6
CONTINUOUS
 62
     3
100
AcDbCircle
 10
32.27676699999999
 20
24.535176
 30
0.0
 40
14.0
100
AcDbArc
 50
190.0829029999999
 51
237.607635
  0
LINE
  5
186
330
1E
100
AcDbEntity
  8
CSLAYER1
  6
CONTINUOUS
 62
     3
100
AcDbLine
 10
18.49299
 20
22.084155
 30
0.0
 11
16.776767
 21
24.535176
 31
0.0
  0
LINE
  5
187
330
1E
100
AcDbEntity
  8
CSLAYER1
  6
DOT
 62
     3
100
AcDbLine
 10
4.0
 20
1.0
 30
0.0
 11
283.0
 21
1.0
 31
0.0
  0
LINE
  5
188
330
1E
100
AcDbEntity
  8
CSLAYER1
  6
DOT
 62
     3
100
AcDbLine
 10
283.0
 20
1.0
 30
0.0
 11
283.0
 21
195.0
 31
0.0
  0
LINE
  5
189
330
1E
100
AcDbEntity
  8
CSLAYER1
  6
DOT
 62
     3
100
AcDbLine
 10
283.0
 20
195.0
 30
0.0
 11
4.0
 21
195.0
 31
0.0
  0
LINE
  5
18A
330
1E
100
AcDbEntity
  8
CSLAYER1
  6
DOT
 62
     3
100
AcDbLine
 10
4.0
 20
195.0
 30
0.0
 11
4.0
 21
1.0
 31
0.0
  0
LINE
  5
18B
330
1E
100
AcDbEntity
  8
CSLAYER1
  6
DOT
 62
     3
100
AcDbLine
 10
143.5
 20
195.0
 30
0.0
 11
143.5
 21
199.0
 31
0.0
  0
ENDSEC
  0
SECTION
  2
OBJECTS
  0
DICTIONARY
  5
C
330
0
100
AcDbDictionary
  3
ACAD_GROUP
350
D
  3
ACAD_LAYOUT
350
19
  3
ACAD_MLINESTYLE
350
16
  3
ACAD_PLOTSETTINGS
350
18
1001
ACAD
1000
TREAT_AS_HARD
1070
     0
1000
TREAT_AS_HARD
1070
     0
  0
DICTIONARY
  5
195
330
1E
100
AcDbDictionary
  3
ACAD_LAYOUTSELFREF
350
1B4
1001
ACAD
1000
TREAT_AS_HARD
1070
     0
  0
DICTIONARY
  5
193
330
1A
100
AcDbDictionary
  3
ACAD_LAYOUTSELFREF
350
1B3
1001
ACAD
1000
TREAT_AS_HARD
1070
     0
  0
DICTIONARY
  5
D
102
{ACAD_REACTORS
330
C
102
}
330
C
100
AcDbDictionary
1001
ACAD
1000
TREAT_AS_HARD
1070
     0
1000
TREAT_AS_HARD
1070
     0
  0
DICTIONARY
  5
19
102
{ACAD_REACTORS
330
C
102
}
330
C
100
AcDbDictionary
1001
ACAD
1000
TREAT_AS_HARD
1070
     0
1000
TREAT_AS_HARD
1070
     0
  0
DICTIONARY
  5
16
102
{ACAD_REACTORS
330
C
102
}
330
C
100
AcDbDictionary
  3
STANDARD
350
17
1001
ACAD
1000
TREAT_AS_HARD
1070
     0
1000
TREAT_AS_HARD
1070
     0
  0
DICTIONARY
  5
18
102
{ACAD_REACTORS
330
C
102
}
330
C
100
AcDbDictionary
1001
ACAD
1000
TREAT_AS_HARD
1070
     0
1000
TREAT_AS_HARD
1070
     0
  0
XRECORD
  5
1B4
102
{ACAD_REACTORS
330
195
102
}
330
195
100
AcDbXrecord
340
1E
  0
XRECORD
  5
1B3
102
{ACAD_REACTORS
330
193
102
}
330
193
100
AcDbXrecord
340
1A
  0
MLINESTYLE
  5
17
102
{ACAD_REACTORS
330
16
102
}
330
16
100
AcDbMlineStyle
  2
STANDARD
 70
     0
  3

 62
   256
 51
90.0
 52
90.0
 71
     2
 49
0.5
 62
   256
  6
BYLAYER
 49
-0.5
 62
   256
  6
BYLAYER
  0
ENDSEC
  0
EOF
