  0
SECTION
  2
HEADER
  9
$ACADVER
  1
AC1012
  9
$DWGCODEPAGE
  3
dos932
  9
$INSBASE
 10
0.0
 20
0.0
 30
0.0
  9
$EXTMIN
 10
-0.0090630292066862
 20
0.9869389666558276
 30
-0.0015258207003583
  9
$EXTMAX
 10
283.0056159095904
 20
199.0155034058442
 30
0.0000000349246037
  9
$LIMMIN
 10
0.0
 20
0.0
  9
$LIMMAX
 10
297.0
 20
210.0
  9
$ORTHOMODE
 70
     0
  9
$REGENMODE
 70
     1
  9
$FILLMODE
 70
     1
  9
$QTEXTMODE
 70
     0
  9
$MIRRTEXT
 70
     1
  9
$DRAGMODE
 70
     2
  9
$LTSCALE
 40
15.0
  9
$OSMODE
 70
    37
  9
$ATTMODE
 70
     1
  9
$TEXTSIZE
 40
0.2
  9
$TRACEWID
 40
0.05
  9
$TEXTSTYLE
  7
GOTHIC
  9
$CLAYER
  8
CSLAYER1
  9
$CELTYPE
  6
BYLAYER
  9
$CECOLOR
 62
   256
  9
$CELTSCALE
 40
1.0
  9
$DELOBJ
 70
     1
  9
$DISPSILH
 70
     0
  9
$DIMSCALE
 40
1.0
  9
$DIMASZ
 40
0.18
  9
$DIMEXO
 40
0.0625
  9
$DIMDLI
 40
0.38
  9
$DIMRND
 40
0.0
  9
$DIMDLE
 40
0.0
  9
$DIMEXE
 40
0.18
  9
$DIMTP
 40
0.0
  9
$DIMTM
 40
0.0
  9
$DIMTXT
 40
0.18
  9
$DIMCEN
 40
0.09
  9
$DIMTSZ
 40
0.0
  9
$DIMTOL
 70
     0
  9
$DIMLIM
 70
     0
  9
$DIMTIH
 70
     1
  9
$DIMTOH
 70
     1
  9
$DIMSE1
 70
     0
  9
$DIMSE2
 70
     0
  9
$DIMTAD
 70
     0
  9
$DIMZIN
 70
     0
  9
$DIMBLK
  1

  9
$DIMASO
 70
     1
  9
$DIMSHO
 70
     1
  9
$DIMPOST
  1

  9
$DIMAPOST
  1

  9
$DIMALT
 70
     0
  9
$DIMALTD
 70
     2
  9
$DIMALTF
 40
25.4
  9
$DIMLFAC
 40
1.0
  9
$DIMTOFL
 70
     0
  9
$DIMTVP
 40
0.0
  9
$DIMTIX
 70
     0
  9
$DIMSOXD
 70
     0
  9
$DIMSAH
 70
     0
  9
$DIMBLK1
  1

  9
$DIMBLK2
  1

  9
$DIMSTYLE
  2
STANDARD
  9
$DIMCLRD
 70
     0
  9
$DIMCLRE
 70
     0
  9
$DIMCLRT
 70
     0
  9
$DIMTFAC
 40
1.0
  9
$DIMGAP
 40
0.09
  9
$DIMJUST
 70
     0
  9
$DIMSD1
 70
     0
  9
$DIMSD2
 70
     0
  9
$DIMTOLJ
 70
     1
  9
$DIMTZIN
 70
     0
  9
$DIMALTZ
 70
     0
  9
$DIMALTTZ
 70
     0
  9
$DIMFIT
 70
     3
  9
$DIMUPT
 70
     0
  9
$DIMUNIT
 70
     2
  9
$DIMDEC
 70
     4
  9
$DIMTDEC
 70
     4
  9
$DIMALTU
 70
     2
  9
$DIMALTTD
 70
     2
  9
$DIMTXSTY
  7
STANDARD
  9
$DIMAUNIT
 70
     0
  9
$LUNITS
 70
     2
  9
$LUPREC
 70
     4
  9
$SKETCHINC
 40
0.1
  9
$FILLETRAD
 40
0.0
  9
$AUNITS
 70
     0
  9
$AUPREC
 70
     0
  9
$MENU
  1
ACAD
  9
$ELEVATION
 40
0.0
  9
$PELEVATION
 40
0.0
  9
$THICKNESS
 40
0.0
  9
$LIMCHECK
 70
     0
  9
$BLIPMODE
 70
     1
  9
$CHAMFERA
 40
0.0
  9
$CHAMFERB
 40
0.0
  9
$CHAMFERC
 40
0.0
  9
$CHAMFERD
 40
0.0
  9
$SKPOLY
 70
     0
  9
$TDCREATE
 40
2453418.000000000
  9
$TDUPDATE
 40
2453516.554063345
  9
$TDINDWG
 40
0.0004478819
  9
$TDUSRTIMER
 40
0.0004477546
  9
$USRTIMER
 70
     1
  9
$ANGBASE
 50
0.0
  9
$ANGDIR
 70
     0
  9
$PDMODE
 70
     0
  9
$PDSIZE
 40
0.0
  9
$PLINEWID
 40
0.0
  9
$COORDS
 70
     0
  9
$SPLFRAME
 70
     0
  9
$SPLINETYPE
 70
     6
  9
$SPLINESEGS
 70
     8
  9
$ATTDIA
 70
     0
  9
$ATTREQ
 70
     1
  9
$HANDLING
 70
-16383
  9
$HANDSEED
  5
1EE
  9
$SURFTAB1
 70
     6
  9
$SURFTAB2
 70
     6
  9
$SURFTYPE
 70
     6
  9
$SURFU
 70
     6
  9
$SURFV
 70
     6
  9
$UCSNAME
  2

  9
$UCSORG
 10
0.0
 20
0.0
 30
0.0
  9
$UCSXDIR
 10
1.0
 20
0.0
 30
0.0
  9
$UCSYDIR
 10
0.0
 20
1.0
 30
0.0
  9
$PUCSNAME
  2

  9
$PUCSORG
 10
0.0
 20
0.0
 30
0.0
  9
$PUCSXDIR
 10
1.0
 20
0.0
 30
0.0
  9
$PUCSYDIR
 10
0.0
 20
1.0
 30
0.0
  9
$USERI1
 70
     0
  9
$USERI2
 70
     0
  9
$USERI3
 70
     0
  9
$USERI4
 70
     0
  9
$USERI5
 70
     0
  9
$USERR1
 40
0.0
  9
$USERR2
 40
0.0
  9
$USERR3
 40
0.0
  9
$USERR4
 40
0.0
  9
$USERR5
 40
0.0
  9
$WORLDVIEW
 70
     1
  9
$SHADEDGE
 70
     3
  9
$SHADEDIF
 70
    70
  9
$TILEMODE
 70
     1
  9
$MAXACTVP
 70
    64
  9
$PINSBASE
 10
0.0
 20
0.0
 30
0.0
  9
$PLIMCHECK
 70
     0
  9
$PEXTMIN
 10
1.000000000000000E+20
 20
1.000000000000000E+20
 30
1.000000000000000E+20
  9
$PEXTMAX
 10
-1.000000000000000E+20
 20
-1.000000000000000E+20
 30
-1.000000000000000E+20
  9
$PLIMMIN
 10
0.0
 20
0.0
  9
$PLIMMAX
 10
12.0
 20
9.0
  9
$UNITMODE
 70
     0
  9
$VISRETAIN
 70
     1
  9
$PLINEGEN
 70
     0
  9
$PSLTSCALE
 70
     1
  9
$TREEDEPTH
 70
  3020
  9
$PICKSTYLE
 70
     3
  9
$CMLSTYLE
  2
STANDARD
  9
$CMLJUST
 70
     0
  9
$CMLSCALE
 40
1.0
  9
$SAVEIMAGES
 70
     1
  0
ENDSEC
  0
SECTION
  2
CLASSES
  0
CLASS
  1
ACDBDICTIONARYWDFLT
  2
AcDbDictionaryWithDefault
  3
AutoCAD 2000
 90
    32768
280
     0
281
     0
  0
CLASS
  1
ACDBPLACEHOLDER
  2
AcDbPlaceHolder
  3
AutoCAD 2000
 90
    32768
280
     0
281
     0
  0
CLASS
  1
LAYOUT
  2
AcDbLayout
  3
AutoCAD 2000
 90
    32768
280
     0
281
     0
  0
CLASS
  1
DICTIONARYVAR
  2
AcDbDictionaryVar
  3
AutoCAD 2000
 90
    32768
280
     0
281
     0
  0
CLASS
  1
LONG_TRANSACTION
  2
AcDbLongTransaction
  3
AutoCAD 2000
 90
    32768
280
     0
281
     0
  0
CLASS
  1
LWPOLYLINE
  2
AcDbPolyline
  3
AutoCAD 2000
 90
    32768
280
     0
281
     1
  0
CLASS
  1
HATCH
  2
AcDbHatch
  3
AutoCAD 2000
 90
    32768
280
     0
281
     1
  0
CLASS
  1
XRECORD
  2
AcDbXrecord
  3
AutoCAD 2000
 90
    32768
280
     0
281
     0
  0
CLASS
  1
LONG_TRANSACTION
  2
AcDbLongTransaction
  3
AutoCAD 2000
 90
    32768
280
     0
281
     0
  0
CLASS
  1
LWPOLYLINE
  2
AcDbPolyline
  3
AutoCAD 2000
 90
    32768
280
     0
281
     1
  0
CLASS
  1
HATCH
  2
AcDbHatch
  3
AutoCAD 2000
 90
    32768
280
     0
281
     1
  0
CLASS
  1
XRECORD
  2
AcDbXrecord
  3
AutoCAD 2000
 90
    32768
280
     0
281
     0
  0
ENDSEC
  0
SECTION
  2
TABLES
  0
TABLE
  2
VPORT
  5
8
330
0
100
AcDbSymbolTable
 70
     2
  0
VPORT
  5
1EB
330
8
100
AcDbSymbolTableRecord
100
AcDbViewportTableRecord
  2
*ACTIVE
 70
     0
 10
0.0
 20
0.0
 11
1.0
 21
1.0
 12
141.4982764401918
 22
100.00122118625
 13
0.0
 23
0.0
 14
1.0
 24
1.0
 15
0.0
 25
0.0
 16
0.0
 26
0.0
 36
1.0
 17
0.0
 27
0.0
 37
0.0
 40
199.5156375138256
 41
1.510025062656641
 42
50.0
 43
0.0
 44
0.0
 50
0.0
 51
0.0
 71
     0
 72
   100
 73
     1
 74
     1
 75
     0
 76
     0
 77
     0
 78
     0
  0
ENDTAB
  0
TABLE
  2
LTYPE
  5
5
330
0
100
AcDbSymbolTable
 70
     4
  0
LTYPE
  5
13
330
5
100
AcDbSymbolTableRecord
100
AcDbLinetypeTableRecord
  2
BYBLOCK
 70
     0
  3

 72
    65
 73
     0
 40
0.0
  0
LTYPE
  5
14
330
5
100
AcDbSymbolTableRecord
100
AcDbLinetypeTableRecord
  2
BYLAYER
 70
     0
  3

 72
    65
 73
     0
 40
0.0
  0
LTYPE
  5
15
330
5
100
AcDbSymbolTableRecord
100
AcDbLinetypeTableRecord
  2
CONTINUOUS
 70
     0
  3
Solid line
 72
    65
 73
     0
 40
0.0
  0
LTYPE
  5
23
330
5
100
AcDbSymbolTableRecord
100
AcDbLinetypeTableRecord
  2
DASHED
 70
     0
  3
__ __ __ __ __ __ __ __ __ __ __ __ __ __ __
 72
    65
 73
     2
 40
0.75
 49
0.5
 74
     0
 49
-0.25
 74
     0
  0
LTYPE
  5
25
330
5
100
AcDbSymbolTableRecord
100
AcDbLinetypeTableRecord
  2
DOT
 70
     0
  3
...............................................
 72
    65
 73
     2
 40
0.25
 49
0.0
 74
     0
 49
-0.25
 74
     0
  0
LTYPE
  5
28
330
5
100
AcDbSymbolTableRecord
100
AcDbLinetypeTableRecord
  2
CENTER
 70
     0
  3
____ _ ____ _ ____ _ ____ _ ____ _ ____ _ ____ 
 72
    65
 73
     4
 40
2.0
 49
1.25
 74
     0
 49
-0.25
 74
     0
 49
0.25
 74
     0
 49
-0.25
 74
     0
  0
ENDTAB
  0
TABLE
  2
LAYER
  5
2
330
0
100
AcDbSymbolTable
 70
     3
  0
LAYER
  5
10
330
2
100
AcDbSymbolTableRecord
100
AcDbLayerTableRecord
  2
0
 70
     0
 62
     7
  6
CONTINUOUS
  0
LAYER
  5
22
330
2
100
AcDbSymbolTableRecord
100
AcDbLayerTableRecord
  2
CSLAYER1
 70
     0
 62
     7
  6
CONTINUOUS
  0
LAYER
  5
1C4
330
2
100
AcDbSymbolTableRecord
100
AcDbLayerTableRecord
  2
DEFPOINTS
 70
     0
 62
     7
  6
CONTINUOUS
  0
ENDTAB
  0
TABLE
  2
STYLE
  5
3
330
0
100
AcDbSymbolTable
 70
     3
  0
STYLE
  5
11
330
3
100
AcDbSymbolTableRecord
100
AcDbTextStyleTableRecord
  2
STANDARD
 70
     0
 40
0.0
 41
1.0
 50
0.0
 71
     0
 42
0.2
  3
txt
  4
extfont.shx
  0
STYLE
  5
3A
330
3
100
AcDbSymbolTableRecord
100
AcDbTextStyleTableRecord
  2
FX_FONT
 70
     0
 40
1.0
 41
1.0
 50
0.0
 71
     0
 42
1.0
  3
monotxt
  4
bigfont
  0
STYLE
  5
1BC
330
3
100
AcDbSymbolTableRecord
100
AcDbTextStyleTableRecord
  2
GOTHIC
 70
     0
 40
0.0
 41
1.0
 50
0.0
 71
     0
 42
0.2
  3
txt.shx
  4
extfont.shx
  0
ENDTAB
  0
TABLE
  2
VIEW
  5
6
330
0
100
AcDbSymbolTable
 70
     0
  0
ENDTAB
  0
TABLE
  2
UCS
  5
7
330
0
100
AcDbSymbolTable
 70
     0
  0
ENDTAB
  0
TABLE
  2
APPID
  5
9
330
0
100
AcDbSymbolTable
 70
     1
  0
APPID
  5
12
330
9
100
AcDbSymbolTableRecord
100
AcDbRegAppTableRecord
  2
ACAD
 70
     0
  0
ENDTAB
  0
TABLE
  2
DIMSTYLE
  5
A
330
0
100
AcDbSymbolTable
 70
     1
  0
DIMSTYLE
105
1B9
330
A
100
AcDbSymbolTableRecord
100
AcDbDimStyleTableRecord
  2
STANDARD
 70
     0
  3

  4

  5

  6

  7

 40
1.0
 41
0.18
 42
0.0625
 43
0.38
 44
0.18
 45
0.0
 46
0.0
 47
0.0
 48
0.0
140
0.18
141
0.09
142
0.0
143
25.4
144
1.0
145
0.0
146
1.0
147
0.09
 71
     0
 72
     0
 73
     1
 74
     1
 75
     0
 76
     0
 77
     0
 78
     0
170
     0
171
     2
172
     0
173
     0
174
     0
175
     0
176
     0
177
     0
178
     0
270
     2
271
     4
272
     4
273
     2
274
     2
340
11
275
     0
280
     0
281
     0
282
     0
283
     1
284
     0
285
     0
286
     0
287
     3
288
     0
  0
ENDTAB
  0
TABLE
  2
BLOCK_RECORD
  5
1
330
0
100
AcDbSymbolTable
 70
    20
  0
BLOCK_RECORD
  5
1E
102
{ACAD_XDICTIONARY
360
1C2
102
}
330
1
100
AcDbSymbolTableRecord
100
AcDbBlockTableRecord
  2
*MODEL_SPACE
  0
BLOCK_RECORD
  5
1A
102
{ACAD_XDICTIONARY
360
1C0
102
}
330
1
100
AcDbSymbolTableRecord
100
AcDbBlockTableRecord
  2
*PAPER_SPACE
  0
BLOCK_RECORD
  5
3F
330
1
100
AcDbSymbolTableRecord
100
AcDbBlockTableRecord
  2
FXDIM0000
  0
BLOCK_RECORD
  5
47
330
1
100
AcDbSymbolTableRecord
100
AcDbBlockTableRecord
  2
*D1
  0
BLOCK_RECORD
  5
4E
330
1
100
AcDbSymbolTableRecord
100
AcDbBlockTableRecord
  2
*D2
  0
BLOCK_RECORD
  5
59
330
1
100
AcDbSymbolTableRecord
100
AcDbBlockTableRecord
  2
*D3
  0
BLOCK_RECORD
  5
66
330
1
100
AcDbSymbolTableRecord
100
AcDbBlockTableRecord
  2
*D4
  0
BLOCK_RECORD
  5
71
330
1
100
AcDbSymbolTableRecord
100
AcDbBlockTableRecord
  2
*D5
  0
BLOCK_RECORD
  5
7C
330
1
100
AcDbSymbolTableRecord
100
AcDbBlockTableRecord
  2
FXDIM0001
  0
BLOCK_RECORD
  5
86
330
1
100
AcDbSymbolTableRecord
100
AcDbBlockTableRecord
  2
FXDIM0002
  0
BLOCK_RECORD
  5
90
330
1
100
AcDbSymbolTableRecord
100
AcDbBlockTableRecord
  2
*D8
  0
BLOCK_RECORD
  5
9A
330
1
100
AcDbSymbolTableRecord
100
AcDbBlockTableRecord
  2
*D9
  0
BLOCK_RECORD
  5
A1
330
1
100
AcDbSymbolTableRecord
100
AcDbBlockTableRecord
  2
*D10
  0
BLOCK_RECORD
  5
A8
330
1
100
AcDbSymbolTableRecord
100
AcDbBlockTableRecord
  2
*D11
  0
BLOCK_RECORD
  5
B3
330
1
100
AcDbSymbolTableRecord
100
AcDbBlockTableRecord
  2
*D12
  0
BLOCK_RECORD
  5
BE
330
1
100
AcDbSymbolTableRecord
100
AcDbBlockTableRecord
  2
*D13
  0
BLOCK_RECORD
  5
C9
330
1
100
AcDbSymbolTableRecord
100
AcDbBlockTableRecord
  2
*D14
  0
BLOCK_RECORD
  5
D2
330
1
100
AcDbSymbolTableRecord
100
AcDbBlockTableRecord
  2
BLKF0000
  0
BLOCK_RECORD
  5
F2
330
1
100
AcDbSymbolTableRecord
100
AcDbBlockTableRecord
  2
BLKF0001
  0
BLOCK_RECORD
  5
104
330
1
100
AcDbSymbolTableRecord
100
AcDbBlockTableRecord
  2
BLKF0002
  0
BLOCK_RECORD
  5
1C5
330
1
100
AcDbSymbolTableRecord
100
AcDbBlockTableRecord
  2
*D18
  0
BLOCK_RECORD
  5
1D3
330
1
100
AcDbSymbolTableRecord
100
AcDbBlockTableRecord
  2
*D19
  0
ENDTAB
  0
ENDSEC
  0
SECTION
  2
BLOCKS
  0
BLOCK
  5
1F
330
1E
100
AcDbEntity
  8
0
100
AcDbBlockBegin
  2
*MODEL_SPACE
 70
     0
 10
0.0
 20
0.0
 30
0.0
  3
*MODEL_SPACE
  1

  0
ENDBLK
  5
20
330
1E
100
AcDbEntity
  8
0
100
AcDbBlockEnd
  0
BLOCK
  5
1B
330
1A
100
AcDbEntity
 67
     1
  8
0
100
AcDbBlockBegin
  2
*PAPER_SPACE
 70
     0
 10
0.0
 20
0.0
 30
0.0
  3
*PAPER_SPACE
  1

  0
ENDBLK
  5
1C
330
1A
100
AcDbEntity
 67
     1
  8
0
100
AcDbBlockEnd
  0
BLOCK
  5
40
330
3F
100
AcDbEntity
  8
0
100
AcDbBlockBegin
  2
FXDIM0000
 70
     0
 10
0.0
 20
0.0
 30
0.0
  3
FXDIM0000
  1

  0
LINE
  5
41
330
3F
100
AcDbEntity
  8
CSLAYER1
  6
CONTINUOUS
 62
     4
100
AcDbLine
 10
165.30015
 20
128.873161
 30
0.0
 11
158.4210479999998
 21
103.2
 31
0.0
  0
LINE
  5
42
330
3F
100
AcDbEntity
  8
CSLAYER1
  6
CONTINUOUS
 62
     4
100
AcDbLine
 10
165.30015
 20
128.873161
 30
0.0
 11
165.30015
 21
125.873161
 31
0.0
  0
LINE
  5
43
330
3F
100
AcDbEntity
  8
CSLAYER1
  6
CONTINUOUS
 62
     4
100
AcDbLine
 10
165.30015
 20
128.873161
 30
0.0
 11
163.80015
 21
126.275084
 31
0.0
  0
LINE
  5
44
330
3F
100
AcDbEntity
  8
CSLAYER1
  6
CONTINUOUS
 62
     4
100
AcDbLine
 10
158.4210479999998
 20
103.2
 30
0.0
 11
144.4210479999999
 21
103.2
 31
0.0
  0
TEXT
  5
45
330
3F
100
AcDbEntity
  8
CSLAYER1
 62
     4
100
AcDbText
 10
144.621051
 20
104.2000049999999
 30
0.0
 40
3.2
  1
%%c4.1
 41
1.142857142857143
 51
15.0
  7
FX_FONT
 72
     5
 11
157.421051
 21
104.2000049999999
 31
0.0
100
AcDbText
  0
ENDBLK
  5
46
330
3F
100
AcDbEntity
  8
0
100
AcDbBlockEnd
  0
BLOCK
  5
48
330
47
100
AcDbEntity
  8
0
100
AcDbBlockBegin
  2
*D1
 70
     1
 10
0.0
 20
0.0
 30
0.0
  3
*D1
  1

  0
TEXT
  5
49
330
47
100
AcDbEntity
  8
CSLAYER1
 62
     4
100
AcDbText
 10
136.7131959999998
 20
109.092033
 30
0.0
 40
3.2
  1
R20
 50
69.45268790096346
 41
1.125000027400524
 51
15.0
  7
FX_FONT
 72
     5
 11
140.082611
 21
118.081307
 31
0.0
100
AcDbText
  0
LINE
  5
4A
330
47
100
AcDbEntity
  8
CSLAYER1
  6
CONTINUOUS
 62
     4
100
AcDbLine
 10
142.08425
 20
120.5723469999999
 30
0.0
 11
149.1038669999998
 21
139.3
 31
0.0
  0
LINE
  5
4B
330
47
100
AcDbEntity
  8
CSLAYER1
  6
CONTINUOUS
 62
     4
100
AcDbLine
 10
142.08425
 20
120.5723469999999
 30
0.0
 11
142.374254
 21
123.558297
 31
0.0
  0
LINE
  5
4C
330
47
100
AcDbEntity
  8
CSLAYER1
  6
CONTINUOUS
 62
     4
100
AcDbLine
 10
142.08425
 20
120.5723469999999
 30
0.0
 11
143.8283749999999
 21
123.013254
 31
0.0
  0
ENDBLK
  5
4D
330
47
100
AcDbEntity
  8
0
100
AcDbBlockEnd
  0
BLOCK
  5
4F
330
4E
100
AcDbEntity
  8
0
100
AcDbBlockBegin
  2
*D2
 70
     1
 10
0.0
 20
0.0
 30
0.0
  3
*D2
  1

  0
TEXT
  5
50
330
4E
100
AcDbEntity
  8
CSLAYER1
 62
     4
100
AcDbText
 10
118.7171399999999
 20
119.6000029999999
 30
0.0
 40
3.2
  1
22.5~24
 50
90.0
 41
1.05
 51
15.0
  7
FX_FONT
 72
     5
 11
118.7171399999999
 21
142.0000029999999
 31
0.0
100
AcDbText
  0
LINE
  5
51
330
4E
100
AcDbEntity
  8
CSLAYER1
  6
CONTINUOUS
 62
     4
100
AcDbLine
 10
148.1038669999998
 20
119.3
 30
0.0
 11
118.717143
 21
119.3
 31
0.0
  0
LINE
  5
52
330
4E
100
AcDbEntity
  8
CSLAYER1
  6
CONTINUOUS
 62
     4
100
AcDbLine
 10
148.1038669999998
 20
142.3
 30
0.0
 11
118.717143
 21
142.3
 31
0.0
  0
LINE
  5
53
330
4E
100
AcDbEntity
  8
CSLAYER1
  6
CONTINUOUS
 62
     4
100
AcDbLine
 10
119.717143
 20
119.3
 30
0.0
 11
119.717143
 21
142.3
 31
0.0
  0
LINE
  5
54
330
4E
100
AcDbEntity
  8
CSLAYER1
  6
CONTINUOUS
 62
     4
100
AcDbLine
 10
119.717143
 20
119.3
 30
0.0
 11
118.940686
 21
122.197777
 31
0.0
  0
LINE
  5
55
330
4E
100
AcDbEntity
  8
CSLAYER1
  6
CONTINUOUS
 62
     4
100
AcDbLine
 10
119.717143
 20
119.3
 30
0.0
 11
120.4936
 21
122.197777
 31
0.0
  0
LINE
  5
56
330
4E
100
AcDbEntity
  8
CSLAYER1
  6
CONTINUOUS
 62
     4
100
AcDbLine
 10
119.717143
 20
142.3
 30
0.0
 11
118.940686
 21
139.402223
 31
0.0
  0
LINE
  5
57
330
4E
100
AcDbEntity
  8
CSLAYER1
  6
CONTINUOUS
 62
     4
100
AcDbLine
 10
119.717143
 20
142.3
 30
0.0
 11
120.4936
 21
139.402223
 31
0.0
  0
ENDBLK
  5
58
330
4E
100
AcDbEntity
  8
0
100
AcDbBlockEnd
  0
BLOCK
  5
5A
330
59
100
AcDbEntity
  8
0
100
AcDbBlockBegin
  2
*D3
 70
     1
 10
0.0
 20
0.0
 30
0.0
  3
*D3
  1

  0
TEXT
  5
5B
330
59
100
AcDbEntity
  8
CSLAYER1
 62
     4
100
AcDbText
 10
114.286522
 20
62.816005
 30
0.0
 40
3.2
  1
12 
 50
90.0
 41
1.153846153846153
 51
15.0
  7
FX_FONT
 72
     5
 11
114.286522
 21
72.416005
 31
0.0
100
AcDbText
  0
TEXT
  5
5C
330
59
100
AcDbEntity
  8
CSLAYER1
 62
     4
100
AcDbText
 10
112.686522
 20
72.416005
 30
0.0
 40
1.6
  1
  0
 50
90.0
 41
1.60714285714286
 51
15.0
  7
FX_FONT
 72
     5
 11
112.686522
 21
77.216005
 31
0.0
100
AcDbText
  0
TEXT
  5
5D
330
59
100
AcDbEntity
  8
CSLAYER1
 62
     4
100
AcDbText
 10
114.286522
 20
72.416005
 30
0.0
 40
1.6
  1
-0.15
 50
90.0
 41
1.071428571428569
 51
15.0
  7
FX_FONT
 72
     5
 11
114.286522
 21
80.41600499999999
 31
0.0
100
AcDbText
  0
LINE
  5
5E
330
59
100
AcDbEntity
  8
CSLAYER1
  6
CONTINUOUS
 62
     4
100
AcDbLine
 10
144.0
 20
59.8
 30
0.0
 11
114.6502409999999
 21
59.8
 31
0.0
  0
LINE
  5
5F
330
59
100
AcDbEntity
  8
CSLAYER1
  6
CONTINUOUS
 62
     4
100
AcDbLine
 10
130.0
 20
71.79999999999998
 30
0.0
 11
114.6502409999999
 21
71.79999999999998
 31
0.0
  0
LINE
  5
60
330
59
100
AcDbEntity
  8
CSLAYER1
  6
CONTINUOUS
 62
     4
100
AcDbLine
 10
115.6502409999999
 20
59.8
 30
0.0
 11
115.6502409999999
 21
71.79999999999998
 31
0.0
  0
LINE
  5
61
330
59
100
AcDbEntity
  8
CSLAYER1
  6
CONTINUOUS
 62
     4
100
AcDbLine
 10
115.6502409999999
 20
59.8
 30
0.0
 11
114.8737829999999
 21
62.697777
 31
0.0
  0
LINE
  5
62
330
59
100
AcDbEntity
  8
CSLAYER1
  6
CONTINUOUS
 62
     4
100
AcDbLine
 10
115.6502409999999
 20
59.8
 30
0.0
 11
116.426698
 21
62.697777
 31
0.0
  0
LINE
  5
63
330
59
100
AcDbEntity
  8
CSLAYER1
  6
CONTINUOUS
 62
     4
100
AcDbLine
 10
115.6502409999999
 20
71.79999999999998
 30
0.0
 11
114.8737829999999
 21
68.90222299999999
 31
0.0
  0
LINE
  5
64
330
59
100
AcDbEntity
  8
CSLAYER1
  6
CONTINUOUS
 62
     4
100
AcDbLine
 10
115.6502409999999
 20
71.79999999999998
 30
0.0
 11
116.426698
 21
68.90222299999999
 31
0.0
  0
ENDBLK
  5
65
330
59
100
AcDbEntity
  8
0
100
AcDbBlockEnd
  0
BLOCK
  5
67
330
66
100
AcDbEntity
  8
0
100
AcDbBlockBegin
  2
*D4
 70
     1
 10
0.0
 20
0.0
 30
0.0
  3
*D4
  1

  0
TEXT
  5
68
330
66
100
AcDbEntity
  8
CSLAYER1
 62
     4
100
AcDbText
 10
152.3
 20
50.13450200000001
 30
0.0
 40
3.2
  1
21
 41
1.33333333333331
 51
15.0
  7
FX_FONT
 72
     5
 11
158.6999999999999
 21
50.13450200000001
 31
0.0
100
AcDbText
  0
LINE
  5
69
330
66
100
AcDbEntity
  8
CSLAYER1
  6
CONTINUOUS
 62
     4
100
AcDbLine
 10
145.0
 20
58.79999999999999
 30
0.0
 11
145.0
 21
48.134501
 31
0.0
  0
LINE
  5
6A
330
66
100
AcDbEntity
  8
CSLAYER1
  6
CONTINUOUS
 62
     4
100
AcDbLine
 10
166.0
 20
55.2648
 30
0.0
 11
166.0
 21
48.134501
 31
0.0
  0
LINE
  5
6B
330
66
100
AcDbEntity
  8
CSLAYER1
  6
CONTINUOUS
 62
     4
100
AcDbLine
 10
145.0
 20
49.134501
 30
0.0
 11
166.0
 21
49.134501
 31
0.0
  0
LINE
  5
6C
330
66
100
AcDbEntity
  8
CSLAYER1
  6
CONTINUOUS
 62
     4
100
AcDbLine
 10
145.0
 20
49.134501
 30
0.0
 11
147.897777
 21
49.910958
 31
0.0
  0
LINE
  5
6D
330
66
100
AcDbEntity
  8
CSLAYER1
  6
CONTINUOUS
 62
     4
100
AcDbLine
 10
145.0
 20
49.134501
 30
0.0
 11
147.897777
 21
48.358044
 31
0.0
  0
LINE
  5
6E
330
66
100
AcDbEntity
  8
CSLAYER1
  6
CONTINUOUS
 62
     4
100
AcDbLine
 10
166.0
 20
49.134501
 30
0.0
 11
163.102223
 21
49.910958
 31
0.0
  0
LINE
  5
6F
330
66
100
AcDbEntity
  8
CSLAYER1
  6
CONTINUOUS
 62
     4
100
AcDbLine
 10
166.0
 20
49.134501
 30
0.0
 11
163.102223
 21
48.358044
 31
0.0
  0
ENDBLK
  5
70
330
66
100
AcDbEntity
  8
0
100
AcDbBlockEnd
  0
BLOCK
  5
72
330
71
100
AcDbEntity
  8
0
100
AcDbBlockBegin
  2
*D5
 70
     1
 10
0.0
 20
0.0
 30
0.0
  3
*D5
  1

  0
TEXT
  5
73
330
71
100
AcDbEntity
  8
CSLAYER1
 62
     4
100
AcDbText
 10
155.3
 20
87.163643
 30
0.0
 40
3.2
  1
15
 41
1.199999999999979
 51
15.0
  7
FX_FONT
 72
     5
 11
161.6999999999999
 21
87.163643
 31
0.0
100
AcDbText
  0
LINE
  5
74
330
71
100
AcDbEntity
  8
CSLAYER1
  6
CONTINUOUS
 62
     4
100
AcDbLine
 10
151.0
 20
72.8
 30
0.0
 11
151.0
 21
87.16363599999999
 31
0.0
  0
LINE
  5
75
330
71
100
AcDbEntity
  8
CSLAYER1
  6
CONTINUOUS
 62
     4
100
AcDbLine
 10
166.0
 20
76.46174499999998
 30
0.0
 11
166.0
 21
87.16363599999999
 31
0.0
  0
LINE
  5
76
330
71
100
AcDbEntity
  8
CSLAYER1
  6
CONTINUOUS
 62
     4
100
AcDbLine
 10
151.0
 20
86.16363599999997
 30
0.0
 11
166.0
 21
86.16363599999997
 31
0.0
  0
LINE
  5
77
330
71
100
AcDbEntity
  8
CSLAYER1
  6
CONTINUOUS
 62
     4
100
AcDbLine
 10
151.0
 20
86.16363599999997
 30
0.0
 11
153.8977769999999
 21
86.94009300000002
 31
0.0
  0
LINE
  5
78
330
71
100
AcDbEntity
  8
CSLAYER1
  6
CONTINUOUS
 62
     4
100
AcDbLine
 10
151.0
 20
86.16363599999997
 30
0.0
 11
153.8977769999999
 21
85.38717899999998
 31
0.0
  0
LINE
  5
79
330
71
100
AcDbEntity
  8
CSLAYER1
  6
CONTINUOUS
 62
     4
100
AcDbLine
 10
166.0
 20
86.16363599999997
 30
0.0
 11
163.102223
 21
86.94009300000002
 31
0.0
  0
LINE
  5
7A
330
71
100
AcDbEntity
  8
CSLAYER1
  6
CONTINUOUS
 62
     4
100
AcDbLine
 10
166.0
 20
86.16363599999997
 30
0.0
 11
163.102223
 21
85.38717899999998
 31
0.0
  0
ENDBLK
  5
7B
330
71
100
AcDbEntity
  8
0
100
AcDbBlockEnd
  0
BLOCK
  5
7D
330
7C
100
AcDbEntity
  8
0
100
AcDbBlockBegin
  2
FXDIM0001
 70
     0
 10
0.0
 20
0.0
 30
0.0
  3
FXDIM0001
  1

  0
LINE
  5
7E
330
7C
100
AcDbEntity
  8
CSLAYER1
  6
CONTINUOUS
 62
     4
100
AcDbLine
 10
171.132
 20
71.79999999999998
 30
0.0
 11
172.632
 21
74.398076
 31
0.0
  0
LINE
  5
7F
330
7C
100
AcDbEntity
  8
CSLAYER1
  6
CONTINUOUS
 62
     4
100
AcDbLine
 10
169.632
 20
74.398076
 30
0.0
 11
178.632
 21
74.398076
 31
0.0
  0
LINE
  5
80
330
7C
100
AcDbEntity
  8
CSLAYER1
  6
CONTINUOUS
 62
     4
100
AcDbLine
 10
169.632
 20
74.398076
 30
0.0
 11
171.132
 21
71.79999999999998
 31
0.0
  0
LINE
  5
81
330
7C
100
AcDbEntity
  8
CSLAYER1
  6
CONTINUOUS
 62
     4
100
AcDbLine
 10
174.1319999999999
 20
71.79999999999998
 30
0.0
 11
175.632
 21
74.398076
 31
0.0
  0
LINE
  5
82
330
7C
100
AcDbEntity
  8
CSLAYER1
  6
CONTINUOUS
 62
     4
100
AcDbLine
 10
172.632
 20
74.398076
 30
0.0
 11
174.1319999999999
 21
71.79999999999998
 31
0.0
  0
LINE
  5
83
330
7C
100
AcDbEntity
  8
CSLAYER1
  6
CONTINUOUS
 62
     4
100
AcDbLine
 10
177.132
 20
71.79999999999998
 30
0.0
 11
178.632
 21
74.398076
 31
0.0
  0
LINE
  5
84
330
7C
100
AcDbEntity
  8
CSLAYER1
  6
CONTINUOUS
 62
     4
100
AcDbLine
 10
175.632
 20
74.398076
 30
0.0
 11
177.132
 21
71.79999999999998
 31
0.0
  0
ENDBLK
  5
85
330
7C
100
AcDbEntity
  8
0
100
AcDbBlockEnd
  0
BLOCK
  5
87
330
86
100
AcDbEntity
  8
0
100
AcDbBlockBegin
  2
FXDIM0002
 70
     0
 10
0.0
 20
0.0
 30
0.0
  3
FXDIM0002
  1

  0
LINE
  5
88
330
86
100
AcDbEntity
  8
CSLAYER1
  6
CONTINUOUS
 62
     4
100
AcDbLine
 10
171.564
 20
59.8
 30
0.0
 11
170.0639999999999
 21
57.201924
 31
0.0
  0
LINE
  5
89
330
86
100
AcDbEntity
  8
CSLAYER1
  6
CONTINUOUS
 62
     4
100
AcDbLine
 10
170.0639999999999
 20
57.201924
 30
0.0
 11
179.0639999999999
 21
57.201924
 31
0.0
  0
LINE
  5
8A
330
86
100
AcDbEntity
  8
CSLAYER1
  6
CONTINUOUS
 62
     4
100
AcDbLine
 10
173.064
 20
57.201924
 30
0.0
 11
171.564
 21
59.8
 31
0.0
  0
LINE
  5
8B
330
86
100
AcDbEntity
  8
CSLAYER1
  6
CONTINUOUS
 62
     4
100
AcDbLine
 10
174.5639999999999
 20
59.8
 30
0.0
 11
173.064
 21
57.201924
 31
0.0
  0
LINE
  5
8C
330
86
100
AcDbEntity
  8
CSLAYER1
  6
CONTINUOUS
 62
     4
100
AcDbLine
 10
176.0639999999999
 20
57.201924
 30
0.0
 11
174.5639999999999
 21
59.8
 31
0.0
  0
LINE
  5
8D
330
86
100
AcDbEntity
  8
CSLAYER1
  6
CONTINUOUS
 62
     4
100
AcDbLine
 10
177.5639999999999
 20
59.8
 30
0.0
 11
176.0639999999999
 21
57.201924
 31
0.0
  0
LINE
  5
8E
330
86
100
AcDbEntity
  8
CSLAYER1
  6
CONTINUOUS
 62
     4
100
AcDbLine
 10
179.0639999999999
 20
57.201924
 30
0.0
 11
177.5639999999999
 21
59.8
 31
0.0
  0
ENDBLK
  5
8F
330
86
100
AcDbEntity
  8
0
100
AcDbBlockEnd
  0
BLOCK
  5
91
330
90
100
AcDbEntity
  8
0
100
AcDbBlockBegin
  2
*D8
 70
     1
 10
0.0
 20
0.0
 30
0.0
  3
*D8
  1

  0
TEXT
  5
92
330
90
100
AcDbEntity
  8
CSLAYER1
 62
     4
100
AcDbText
 10
70.93379300000002
 20
152.188307
 30
0.0
 40
3.2
  1
35%%d
 50
342.4999986410725
 41
1.285714333640238
 51
15.0
  7
FX_FONT
 72
     5
 11
80.089476
 21
149.301531
 31
0.0
100
AcDbText
  0
ARC
  5
93
330
90
100
AcDbEntity
  8
CSLAYER1
  6
CONTINUOUS
 62
     4
100
AcDbCircle
 10
69.22303499999999
 20
130.8
 30
0.0
 40
19.91281899999998
100
AcDbArc
 50
55.0
 51
90.0
  0
LINE
  5
94
330
90
100
AcDbEntity
  8
CSLAYER1
  6
CONTINUOUS
 62
     4
100
AcDbLine
 10
80.64455799999997
 20
147.111626
 30
0.0
 11
77.82548
 21
148.137687
 31
0.0
  0
LINE
  5
95
330
90
100
AcDbEntity
  8
CSLAYER1
  6
CONTINUOUS
 62
     4
100
AcDbLine
 10
80.64455799999997
 20
147.111626
 30
0.0
 11
78.716195
 21
149.409759
 31
0.0
  0
LINE
  5
96
330
90
100
AcDbEntity
  8
CSLAYER1
  6
CONTINUOUS
 62
     4
100
AcDbLine
 10
69.22303499999999
 20
150.7128189999999
 30
0.0
 11
72.120812
 21
151.4892759999999
 31
0.0
  0
LINE
  5
97
330
90
100
AcDbEntity
  8
CSLAYER1
  6
CONTINUOUS
 62
     4
100
AcDbLine
 10
69.22303499999999
 20
150.7128189999999
 30
0.0
 11
72.120812
 21
149.936362
 31
0.0
  0
LINE
  5
98
330
90
100
AcDbEntity
  8
CSLAYER1
  6
CONTINUOUS
 62
     4
100
AcDbLine
 10
70.92801800000002
 20
133.2349679999998
 30
0.0
 11
81.218135
 21
147.930778
 31
0.0
  0
ENDBLK
  5
99
330
90
100
AcDbEntity
  8
0
100
AcDbBlockEnd
  0
BLOCK
  5
9B
330
9A
100
AcDbEntity
  8
0
100
AcDbBlockBegin
  2
*D9
 70
     1
 10
0.0
 20
0.0
 30
0.0
  3
*D9
  1

  0
TEXT
  5
9C
330
9A
100
AcDbEntity
  8
CSLAYER1
 62
     4
100
AcDbText
 10
74.12977399999999
 20
136.1716069999999
 30
0.0
 40
3.2
  1
R10
 50
325.6732120538444
 41
1.124999936037703
 51
15.0
  7
FX_FONT
 72
     5
 11
82.05778700000001
 21
130.75805
 31
0.0
100
AcDbText
  0
LINE
  5
9D
330
9A
100
AcDbEntity
  8
CSLAYER1
  6
CONTINUOUS
 62
     4
100
AcDbLine
 10
71.964687
 20
136.4391219999999
 30
0.0
 11
80.22303499999997
 21
130.8
 31
0.0
  0
LINE
  5
9E
330
9A
100
AcDbEntity
  8
CSLAYER1
  6
CONTINUOUS
 62
     4
100
AcDbLine
 10
71.964687
 20
136.4391219999999
 30
0.0
 11
74.795626
 21
135.446255
 31
0.0
  0
LINE
  5
9F
330
9A
100
AcDbEntity
  8
CSLAYER1
  6
CONTINUOUS
 62
     4
100
AcDbLine
 10
71.964687
 20
136.4391219999999
 30
0.0
 11
73.91991899999998
 21
134.163805
 31
0.0
  0
ENDBLK
  5
A0
330
9A
100
AcDbEntity
  8
0
100
AcDbBlockEnd
  0
BLOCK
  5
A2
330
A1
100
AcDbEntity
  8
0
100
AcDbBlockBegin
  2
*D10
 70
     1
 10
0.0
 20
0.0
 30
0.0
  3
*D10
  1

  0
TEXT
  5
A3
330
A1
100
AcDbEntity
  8
CSLAYER1
 62
     4
100
AcDbText
 10
74.92376800000002
 20
123.0358269999999
 30
0.0
 40
3.2
  1
R75
 50
7.214341261516266
 41
1.125000038878717
 51
15.0
  7
FX_FONT
 72
     5
 11
84.44776800000003
 21
124.24141
 31
0.0
100
AcDbText
  0
LINE
  5
A4
330
A1
100
AcDbEntity
  8
CSLAYER1
  6
CONTINUOUS
 62
     4
100
AcDbLine
 10
69.81678599999999
 20
121.3813899999999
 30
0.0
 11
89.80591899999998
 21
123.911686
 31
0.0
  0
LINE
  5
A5
330
A1
100
AcDbEntity
  8
CSLAYER1
  6
CONTINUOUS
 62
     4
100
AcDbLine
 10
69.81678599999999
 20
121.3813899999999
 30
0.0
 11
72.59411400000002
 21
122.515607
 31
0.0
  0
LINE
  5
A6
330
A1
100
AcDbEntity
  8
CSLAYER1
  6
CONTINUOUS
 62
     4
100
AcDbLine
 10
69.81678599999999
 20
121.3813899999999
 30
0.0
 11
72.78913199999998
 21
120.974987
 31
0.0
  0
ENDBLK
  5
A7
330
A1
100
AcDbEntity
  8
0
100
AcDbBlockEnd
  0
BLOCK
  5
A9
330
A8
100
AcDbEntity
  8
0
100
AcDbBlockBegin
  2
*D11
 70
     1
 10
0.0
 20
0.0
 30
0.0
  3
*D11
  1

  0
TEXT
  5
AA
330
A8
100
AcDbEntity
  8
CSLAYER1
 62
     4
100
AcDbText
 10
145.3
 20
159.1714169999999
 30
0.0
 40
3.2
  1
35
 41
1.199999999999979
 51
15.0
  7
FX_FONT
 72
     5
 11
151.6999999999999
 21
159.1714169999999
 31
0.0
100
AcDbText
  0
LINE
  5
AB
330
A8
100
AcDbEntity
  8
CSLAYER1
  6
CONTINUOUS
 62
     4
100
AcDbLine
 10
131.0
 20
158.1714149999999
 30
0.0
 11
166.0
 21
158.1714149999999
 31
0.0
  0
LINE
  5
AC
330
A8
100
AcDbEntity
  8
CSLAYER1
  6
CONTINUOUS
 62
     4
100
AcDbLine
 10
131.0
 20
158.1714149999999
 30
0.0
 11
133.8977769999999
 21
158.9478719999999
 31
0.0
  0
LINE
  5
AD
330
A8
100
AcDbEntity
  8
CSLAYER1
  6
CONTINUOUS
 62
     4
100
AcDbLine
 10
131.0
 20
158.1714149999999
 30
0.0
 11
133.8977769999999
 21
157.394957
 31
0.0
  0
LINE
  5
AE
330
A8
100
AcDbEntity
  8
CSLAYER1
  6
CONTINUOUS
 62
     4
100
AcDbLine
 10
166.0
 20
158.1714149999999
 30
0.0
 11
163.102223
 21
158.9478719999999
 31
0.0
  0
LINE
  5
AF
330
A8
100
AcDbEntity
  8
CSLAYER1
  6
CONTINUOUS
 62
     4
100
AcDbLine
 10
166.0
 20
158.1714149999999
 30
0.0
 11
163.102223
 21
157.394957
 31
0.0
  0
LINE
  5
B0
330
A8
100
AcDbEntity
  8
CSLAYER1
  6
CONTINUOUS
 62
     4
100
AcDbLine
 10
131.0
 20
131.8
 30
0.0
 11
131.0
 21
159.171415
 31
0.0
  0
LINE
  5
B1
330
A8
100
AcDbEntity
  8
CSLAYER1
  6
CONTINUOUS
 62
     4
100
AcDbLine
 10
166.0
 20
146.3630329999999
 30
0.0
 11
166.0
 21
159.171415
 31
0.0
  0
ENDBLK
  5
B2
330
A8
100
AcDbEntity
  8
0
100
AcDbBlockEnd
  0
BLOCK
  5
B4
330
B3
100
AcDbEntity
  8
0
100
AcDbBlockBegin
  2
*D12
 70
     1
 10
0.0
 20
0.0
 30
0.0
  3
*D12
  1

  0
TEXT
  5
B5
330
B3
100
AcDbEntity
  8
CSLAYER1
 62
     4
100
AcDbText
 10
39.80260499999999
 20
69.22587299999999
 30
0.0
 40
3.2
  1
11
 50
90.0
 41
1.333333333333334
 51
15.0
  7
FX_FONT
 72
     5
 11
39.80260499999999
 21
75.625873
 31
0.0
100
AcDbText
  0
LINE
  5
B6
330
B3
100
AcDbEntity
  8
CSLAYER1
  6
CONTINUOUS
 62
     4
100
AcDbLine
 10
40.802605
 20
66.92587399999999
 30
0.0
 11
40.802605
 21
77.92587399999998
 31
0.0
  0
LINE
  5
B7
330
B3
100
AcDbEntity
  8
CSLAYER1
  6
CONTINUOUS
 62
     4
100
AcDbLine
 10
40.802605
 20
66.92587399999999
 30
0.0
 11
40.02614799999999
 21
69.823652
 31
0.0
  0
LINE
  5
B8
330
B3
100
AcDbEntity
  8
CSLAYER1
  6
CONTINUOUS
 62
     4
100
AcDbLine
 10
40.802605
 20
66.92587399999999
 30
0.0
 11
41.579062
 21
69.823652
 31
0.0
  0
LINE
  5
B9
330
B3
100
AcDbEntity
  8
CSLAYER1
  6
CONTINUOUS
 62
     4
100
AcDbLine
 10
40.802605
 20
77.92587399999998
 30
0.0
 11
40.02614799999999
 21
75.028097
 31
0.0
  0
LINE
  5
BA
330
B3
100
AcDbEntity
  8
CSLAYER1
  6
CONTINUOUS
 62
     4
100
AcDbLine
 10
40.802605
 20
77.92587399999998
 30
0.0
 11
41.579062
 21
75.028097
 31
0.0
  0
LINE
  5
BB
330
B3
100
AcDbEntity
  8
CSLAYER1
  6
CONTINUOUS
 62
     4
100
AcDbLine
 10
45.994285
 20
66.92587399999999
 30
0.0
 11
39.80260499999999
 21
66.92587399999999
 31
0.0
  0
LINE
  5
BC
330
B3
100
AcDbEntity
  8
CSLAYER1
  6
CONTINUOUS
 62
     4
100
AcDbLine
 10
45.994285
 20
77.92587399999998
 30
0.0
 11
39.80260499999999
 21
77.92587399999998
 31
0.0
  0
ENDBLK
  5
BD
330
B3
100
AcDbEntity
  8
0
100
AcDbBlockEnd
  0
BLOCK
  5
BF
330
BE
100
AcDbEntity
  8
0
100
AcDbBlockBegin
  2
*D13
 70
     1
 10
0.0
 20
0.0
 30
0.0
  3
*D13
  1

  0
TEXT
  5
C0
330
BE
100
AcDbEntity
  8
CSLAYER1
 62
     4
100
AcDbText
 10
109.834881
 20
57.663242
 30
0.0
 40
3.2
  1
切刃部有効13.5
 50
320.000000291089
 41
0.9310344804005531
 51
15.0
  7
FX_FONT
 72
     5
 11
131.896961
 21
39.150959
 31
0.0
100
AcDbText
  0
LINE
  5
C1
330
BE
100
AcDbEntity
  8
CSLAYER1
  6
CONTINUOUS
 62
     4
100
AcDbLine
 10
118.298144
 20
56.409913
 30
0.0
 11
128.639744
 21
47.73227999999998
 31
0.0
  0
LINE
  5
C2
330
BE
100
AcDbEntity
  8
CSLAYER1
  6
CONTINUOUS
 62
     4
100
AcDbLine
 10
118.298144
 20
56.409913
 30
0.0
 11
121.017068
 21
55.142058
 31
0.0
  0
LINE
  5
C3
330
BE
100
AcDbEntity
  8
CSLAYER1
  6
CONTINUOUS
 62
     4
100
AcDbLine
 10
118.298144
 20
56.409913
 30
0.0
 11
120.0188739999999
 21
53.952456
 31
0.0
  0
LINE
  5
C4
330
BE
100
AcDbEntity
  8
CSLAYER1
  6
CONTINUOUS
 62
     4
100
AcDbLine
 10
128.639744
 20
47.73227999999998
 30
0.0
 11
125.9208209999999
 21
49.000135
 31
0.0
  0
LINE
  5
C5
330
BE
100
AcDbEntity
  8
CSLAYER1
  6
CONTINUOUS
 62
     4
100
AcDbLine
 10
128.639744
 20
47.73227999999998
 30
0.0
 11
126.9190149999999
 21
50.18973599999998
 31
0.0
  0
LINE
  5
C6
330
BE
100
AcDbEntity
  8
CSLAYER1
  6
CONTINUOUS
 62
     4
100
AcDbLine
 10
130.357212
 20
70.78135
 30
0.0
 11
117.655357
 21
55.64386800000001
 31
0.0
  0
LINE
  5
C7
330
BE
100
AcDbEntity
  8
CSLAYER1
  6
CONTINUOUS
 62
     4
100
AcDbLine
 10
140.698812
 20
62.103718
 30
0.0
 11
127.996957
 21
46.966235
 31
0.0
  0
ENDBLK
  5
C8
330
BE
100
AcDbEntity
  8
0
100
AcDbBlockEnd
  0
BLOCK
  5
CA
330
C9
100
AcDbEntity
  8
0
100
AcDbBlockBegin
  2
*D14
 70
     1
 10
0.0
 20
0.0
 30
0.0
  3
*D14
  1

  0
TEXT
  5
CB
330
C9
100
AcDbEntity
  8
CSLAYER1
 62
     4
100
AcDbText
 10
131.1096
 20
59.747639
 30
0.0
 40
3.2
  1
40%%d
 50
69.9999961742847
 41
1.285714294221793
 51
15.0
  7
FX_FONT
 72
     5
 11
134.3929939999999
 21
68.768688
 31
0.0
100
AcDbText
  0
ARC
  5
CC
330
C9
100
AcDbEntity
  8
CSLAYER1
  6
CONTINUOUS
 62
     4
100
AcDbCircle
 10
145.0
 20
59.8
 30
0.0
 40
12.034802
100
AcDbArc
 50
140.0
 51
180.0
  0
LINE
  5
CD
330
C9
100
AcDbEntity
  8
CSLAYER1
  6
CONTINUOUS
 62
     4
100
AcDbLine
 10
135.780806
 20
67.535822
 30
0.0
 11
134.512952
 21
64.81689899999999
 31
0.0
  0
LINE
  5
CE
330
C9
100
AcDbEntity
  8
CSLAYER1
  6
CONTINUOUS
 62
     4
100
AcDbLine
 10
135.780806
 20
67.535822
 30
0.0
 11
133.32335
 21
65.815093
 31
0.0
  0
LINE
  5
CF
330
C9
100
AcDbEntity
  8
CSLAYER1
  6
CONTINUOUS
 62
     4
100
AcDbLine
 10
132.9651979999999
 20
59.8
 30
0.0
 11
132.18874
 21
62.697777
 31
0.0
  0
LINE
  5
D0
330
C9
100
AcDbEntity
  8
CSLAYER1
  6
CONTINUOUS
 62
     4
100
AcDbLine
 10
132.9651979999999
 20
59.8
 30
0.0
 11
133.741655
 21
62.697777
 31
0.0
  0
ENDBLK
  5
D1
330
C9
100
AcDbEntity
  8
0
100
AcDbBlockEnd
  0
BLOCK
  5
D3
330
D2
100
AcDbEntity
  8
0
100
AcDbBlockBegin
  2
BLKF0000
 70
     0
 10
0.0
 20
0.0
 30
0.0
  3
BLKF0000
  1

  0
LINE
  5
D4
330
D2
100
AcDbEntity
  8
CSLAYER1
  6
CONTINUOUS
 62
     3
100
AcDbLine
 10
146.2446789999999
 20
139.799295
 30
0.0
 11
145.826036
 21
139.4602539999999
 31
0.0
  0
LINE
  5
D5
330
D2
100
AcDbEntity
  8
CSLAYER1
  6
CONTINUOUS
 62
     3
100
AcDbLine
 10
145.826036
 20
139.4602539999999
 30
0.0
 11
145.3530959999999
 21
138.99152
 31
0.0
  0
LINE
  5
D6
330
D2
100
AcDbEntity
  8
CSLAYER1
  6
CONTINUOUS
 62
     3
100
AcDbLine
 10
145.3530959999999
 20
138.99152
 30
0.0
 11
144.9082149999999
 21
138.4604439999999
 31
0.0
  0
LINE
  5
D7
330
D2
100
AcDbEntity
  8
CSLAYER1
  6
CONTINUOUS
 62
     3
100
AcDbLine
 10
144.9082149999999
 20
138.4604439999999
 30
0.0
 11
144.494779
 21
137.8710679999999
 31
0.0
  0
LINE
  5
D8
330
D2
100
AcDbEntity
  8
CSLAYER1
  6
CONTINUOUS
 62
     3
100
AcDbLine
 10
144.494779
 20
137.8710679999999
 30
0.0
 11
144.115935
 21
137.227876
 31
0.0
  0
LINE
  5
D9
330
D2
100
AcDbEntity
  8
CSLAYER1
  6
CONTINUOUS
 62
     3
100
AcDbLine
 10
144.115935
 20
137.227876
 30
0.0
 11
143.774566
 21
136.535764
 31
0.0
  0
LINE
  5
DA
330
D2
100
AcDbEntity
  8
CSLAYER1
  6
CONTINUOUS
 62
     3
100
AcDbLine
 10
143.774566
 20
136.535764
 30
0.0
 11
143.4732699999998
 21
135.8
 31
0.0
  0
LINE
  5
DB
330
D2
100
AcDbEntity
  8
CSLAYER1
  6
CONTINUOUS
 62
     3
100
AcDbLine
 10
143.4732699999998
 20
135.8
 30
0.0
 11
143.2143399999999
 21
135.0261829999999
 31
0.0
  0
LINE
  5
DC
330
D2
100
AcDbEntity
  8
CSLAYER1
  6
CONTINUOUS
 62
     3
100
AcDbLine
 10
143.2143399999999
 20
135.0261829999999
 30
0.0
 11
142.9997459999998
 21
134.220201
 31
0.0
  0
LINE
  5
DD
330
D2
100
AcDbEntity
  8
CSLAYER1
  6
CONTINUOUS
 62
     3
100
AcDbLine
 10
142.9997459999998
 20
134.220201
 30
0.0
 11
142.831123
 21
133.3881899999999
 31
0.0
  0
LINE
  5
DE
330
D2
100
AcDbEntity
  8
CSLAYER1
  6
CONTINUOUS
 62
     3
100
AcDbLine
 10
142.831123
 20
133.3881899999999
 30
0.0
 11
142.709752
 21
132.536482
 31
0.0
  0
LINE
  5
DF
330
D2
100
AcDbEntity
  8
CSLAYER1
  6
CONTINUOUS
 62
     3
100
AcDbLine
 10
142.709752
 20
132.536482
 30
0.0
 11
142.637747
 21
131.6856019999999
 31
0.0
  0
LINE
  5
E0
330
D2
100
AcDbEntity
  8
CSLAYER1
  6
CONTINUOUS
 62
     3
100
AcDbLine
 10
142.6361629999999
 20
131.6574679999999
 30
0.0
 11
142.623324
 21
131.1999999999999
 31
0.0
  0
LINE
  5
E1
330
D2
100
AcDbEntity
  8
CSLAYER1
  6
CONTINUOUS
 62
     3
100
AcDbLine
 10
142.623324
 20
130.4
 30
0.0
 11
142.6430189999998
 21
129.698211
 31
0.0
  0
LINE
  5
E2
330
D2
100
AcDbEntity
  8
CSLAYER1
  6
CONTINUOUS
 62
     3
100
AcDbLine
 10
142.636558
 20
129.9284429999999
 30
0.0
 11
142.732052
 21
128.8
 31
0.0
  0
LINE
  5
E3
330
D2
100
AcDbEntity
  8
CSLAYER1
  6
CONTINUOUS
 62
     3
100
AcDbLine
 10
142.709752
 20
129.0635179999999
 30
0.0
 11
142.831123
 21
128.21181
 31
0.0
  0
LINE
  5
E4
330
D2
100
AcDbEntity
  8
CSLAYER1
  6
CONTINUOUS
 62
     3
100
AcDbLine
 10
142.831123
 20
128.21181
 30
0.0
 11
142.9997459999998
 21
127.379799
 31
0.0
  0
LINE
  5
E5
330
D2
100
AcDbEntity
  8
CSLAYER1
  6
CONTINUOUS
 62
     3
100
AcDbLine
 10
142.9997459999998
 20
127.379799
 30
0.0
 11
143.2143399999999
 21
126.5738169999998
 31
0.0
  0
LINE
  5
E6
330
D2
100
AcDbEntity
  8
CSLAYER1
  6
CONTINUOUS
 62
     3
100
AcDbLine
 10
143.2143399999999
 20
126.5738169999998
 30
0.0
 11
143.4732699999998
 21
125.8
 31
0.0
  0
LINE
  5
E7
330
D2
100
AcDbEntity
  8
CSLAYER1
  6
CONTINUOUS
 62
     3
100
AcDbLine
 10
143.4732699999998
 20
125.8
 30
0.0
 11
143.774566
 21
125.064236
 31
0.0
  0
LINE
  5
E8
330
D2
100
AcDbEntity
  8
CSLAYER1
  6
CONTINUOUS
 62
     3
100
AcDbLine
 10
143.774566
 20
125.064236
 30
0.0
 11
144.115935
 21
124.3721239999999
 31
0.0
  0
LINE
  5
E9
330
D2
100
AcDbEntity
  8
CSLAYER1
  6
CONTINUOUS
 62
     3
100
AcDbLine
 10
144.115935
 20
124.3721239999999
 30
0.0
 11
144.494779
 21
123.728932
 31
0.0
  0
LINE
  5
EA
330
D2
100
AcDbEntity
  8
CSLAYER1
  6
CONTINUOUS
 62
     3
100
AcDbLine
 10
144.494779
 20
123.728932
 30
0.0
 11
144.9082149999999
 21
123.1395559999999
 31
0.0
  0
LINE
  5
EB
330
D2
100
AcDbEntity
  8
CSLAYER1
  6
CONTINUOUS
 62
     3
100
AcDbLine
 10
144.9082149999999
 20
123.1395559999999
 30
0.0
 11
145.3530959999999
 21
122.6084799999999
 31
0.0
  0
LINE
  5
EC
330
D2
100
AcDbEntity
  8
CSLAYER1
  6
CONTINUOUS
 62
     3
100
AcDbLine
 10
145.3530959999999
 20
122.6084799999999
 30
0.0
 11
145.826036
 21
122.139746
 31
0.0
  0
LINE
  5
ED
330
D2
100
AcDbEntity
  8
CSLAYER1
  6
CONTINUOUS
 62
     3
100
AcDbLine
 10
145.826036
 20
122.139746
 30
0.0
 11
146.2446789999999
 21
121.800705
 31
0.0
  0
ARC
  5
EE
330
D2
100
AcDbEntity
  8
CSLAYER1
  6
CONTINUOUS
 62
     3
100
AcDbCircle
 10
143.135966
 20
131.643441
 30
0.0
 40
0.5
100
AcDbArc
 50
175.162893
 51
178.392432
  0
ARC
  5
EF
330
D2
100
AcDbEntity
  8
CSLAYER1
  6
CONTINUOUS
 62
     3
100
AcDbCircle
 10
142.1432159999999
 20
129.684184
 30
0.0
 40
0.5
100
AcDbArc
 50
270.0
 51
1.607567999999999
  0
ARC
  5
F0
330
D2
100
AcDbEntity
  8
CSLAYER1
  6
CONTINUOUS
 62
     3
100
AcDbCircle
 10
142.1554409999999
 20
131.9158159999998
 30
0.0
 40
0.5
100
AcDbArc
 50
355.162893
 51
90.0
  0
ENDBLK
  5
F1
330
D2
100
AcDbEntity
  8
0
100
AcDbBlockEnd
  0
BLOCK
  5
F3
330
F2
100
AcDbEntity
  8
0
100
AcDbBlockBegin
  2
BLKF0001
 70
     0
 10
0.0
 20
0.0
 30
0.0
  3
BLKF0001
  1

  0
LINE
  5
F4
330
F2
100
AcDbEntity
  8
CSLAYER1
  6
CONTINUOUS
 62
     3
100
AcDbLine
 10
63.46373599999999
 20
84.41776899999998
 30
0.0
 11
62.997017
 21
84.148726
 31
0.0
  0
LINE
  5
F5
330
F2
100
AcDbEntity
  8
CSLAYER1
  6
CONTINUOUS
 62
     3
100
AcDbLine
 10
62.997017
 20
84.148726
 30
0.0
 11
62.45629499999999
 21
83.760136
 31
0.0
  0
LINE
  5
F6
330
F2
100
AcDbEntity
  8
CSLAYER1
  6
CONTINUOUS
 62
     3
100
AcDbLine
 10
62.45629499999999
 20
83.760136
 30
0.0
 11
61.933487
 21
83.30556800000001
 31
0.0
  0
LINE
  5
F7
330
F2
100
AcDbEntity
  8
CSLAYER1
  6
CONTINUOUS
 62
     3
100
AcDbLine
 10
61.933487
 20
83.30556800000001
 30
0.0
 11
61.43257099999999
 21
82.788482
 31
0.0
  0
LINE
  5
F8
330
F2
100
AcDbEntity
  8
CSLAYER1
  6
CONTINUOUS
 62
     3
100
AcDbLine
 10
61.43257099999999
 20
82.788482
 30
0.0
 11
60.95736099999999
 21
82.212814
 31
0.0
  0
LINE
  5
F9
330
F2
100
AcDbEntity
  8
CSLAYER1
  6
CONTINUOUS
 62
     3
100
AcDbLine
 10
60.95736099999999
 20
82.212814
 30
0.0
 11
60.511473
 21
81.582945
 31
0.0
  0
LINE
  5
FA
330
F2
100
AcDbEntity
  8
CSLAYER1
  6
CONTINUOUS
 62
     3
100
AcDbLine
 10
60.511473
 20
81.582945
 30
0.0
 11
60.0983
 21
80.90366800000003
 31
0.0
  0
LINE
  5
FB
330
F2
100
AcDbEntity
  8
CSLAYER1
  6
CONTINUOUS
 62
     3
100
AcDbLine
 10
60.0983
 20
80.90366800000003
 30
0.0
 11
59.720987
 21
80.18015400000001
 31
0.0
  0
LINE
  5
FC
330
F2
100
AcDbEntity
  8
CSLAYER1
  6
CONTINUOUS
 62
     3
100
AcDbLine
 10
59.720987
 20
80.18015400000001
 30
0.0
 11
59.382405
 21
79.41790799999998
 31
0.0
  0
LINE
  5
FD
330
F2
100
AcDbEntity
  8
CSLAYER1
  6
CONTINUOUS
 62
     3
100
AcDbLine
 10
59.382405
 20
79.41790799999998
 30
0.0
 11
59.08513199999998
 21
78.622732
 31
0.0
  0
LINE
  5
FE
330
F2
100
AcDbEntity
  8
CSLAYER1
  6
CONTINUOUS
 62
     3
100
AcDbLine
 10
59.08513199999998
 20
78.622732
 30
0.0
 11
58.83142900000001
 21
77.80067800000002
 31
0.0
  0
LINE
  5
FF
330
F2
100
AcDbEntity
  8
CSLAYER1
  6
CONTINUOUS
 62
     3
100
AcDbLine
 10
58.83142900000001
 20
77.80067800000002
 30
0.0
 11
58.62660899999998
 21
76.971685
 31
0.0
  0
LINE
  5
100
330
F2
100
AcDbEntity
  8
CSLAYER1
  6
CONTINUOUS
 62
     3
100
AcDbLine
 10
58.62062299999998
 20
76.94414899999998
 30
0.0
 11
58.536056
 21
76.494382
 31
0.0
  0
ARC
  5
101
330
F2
100
AcDbEntity
  8
CSLAYER1
  6
CONTINUOUS
 62
     3
100
AcDbCircle
 10
59.112013
 20
76.851756
 30
0.0
 40
0.5
100
AcDbArc
 50
166.1217959999999
 51
169.351336
  0
ARC
  5
102
330
F2
100
AcDbEntity
  8
CSLAYER1
  6
CONTINUOUS
 62
     3
100
AcDbCircle
 10
58.186472
 20
77.274829
 30
0.0
 40
0.5
100
AcDbArc
 50
346.1217959999998
 51
80.958904
  0
ENDBLK
  5
103
330
F2
100
AcDbEntity
  8
0
100
AcDbBlockEnd
  0
BLOCK
  5
105
330
104
100
AcDbEntity
  8
0
100
AcDbBlockBegin
  2
BLKF0002
 70
     0
 10
0.0
 20
0.0
 30
0.0
  3
BLKF0002
  1

  0
LINE
  5
106
330
104
100
AcDbEntity
  8
CSLAYER1
  6
CONTINUOUS
 62
     3
100
AcDbLine
 10
63.46373599999999
 20
60.43398
 30
0.0
 11
62.997017
 21
60.703022
 31
0.0
  0
LINE
  5
107
330
104
100
AcDbEntity
  8
CSLAYER1
  6
CONTINUOUS
 62
     3
100
AcDbLine
 10
62.997017
 20
60.703022
 30
0.0
 11
62.45629499999999
 21
61.091613
 31
0.0
  0
LINE
  5
108
330
104
100
AcDbEntity
  8
CSLAYER1
  6
CONTINUOUS
 62
     3
100
AcDbLine
 10
62.45629499999999
 20
61.091613
 30
0.0
 11
61.933487
 21
61.546181
 31
0.0
  0
LINE
  5
109
330
104
100
AcDbEntity
  8
CSLAYER1
  6
CONTINUOUS
 62
     3
100
AcDbLine
 10
61.933487
 20
61.546181
 30
0.0
 11
61.43257099999999
 21
62.063266
 31
0.0
  0
LINE
  5
10A
330
104
100
AcDbEntity
  8
CSLAYER1
  6
CONTINUOUS
 62
     3
100
AcDbLine
 10
61.43257099999999
 20
62.063266
 30
0.0
 11
60.95736099999999
 21
62.638934
 31
0.0
  0
LINE
  5
10B
330
104
100
AcDbEntity
  8
CSLAYER1
  6
CONTINUOUS
 62
     3
100
AcDbLine
 10
60.95736099999999
 20
62.638934
 30
0.0
 11
60.511473
 21
63.268803
 31
0.0
  0
LINE
  5
10C
330
104
100
AcDbEntity
  8
CSLAYER1
  6
CONTINUOUS
 62
     3
100
AcDbLine
 10
60.511473
 20
63.268803
 30
0.0
 11
60.0983
 21
63.94808000000001
 31
0.0
  0
LINE
  5
10D
330
104
100
AcDbEntity
  8
CSLAYER1
  6
CONTINUOUS
 62
     3
100
AcDbLine
 10
60.0983
 20
63.94808000000001
 30
0.0
 11
59.720987
 21
64.67159399999999
 31
0.0
  0
LINE
  5
10E
330
104
100
AcDbEntity
  8
CSLAYER1
  6
CONTINUOUS
 62
     3
100
AcDbLine
 10
59.720987
 20
64.67159399999999
 30
0.0
 11
59.382405
 21
65.43384
 31
0.0
  0
LINE
  5
10F
330
104
100
AcDbEntity
  8
CSLAYER1
  6
CONTINUOUS
 62
     3
100
AcDbLine
 10
59.382405
 20
65.43384
 30
0.0
 11
59.08513199999998
 21
66.229016
 31
0.0
  0
LINE
  5
110
330
104
100
AcDbEntity
  8
CSLAYER1
  6
CONTINUOUS
 62
     3
100
AcDbLine
 10
59.08513199999998
 20
66.229016
 30
0.0
 11
58.83142900000001
 21
67.05106999999999
 31
0.0
  0
LINE
  5
111
330
104
100
AcDbEntity
  8
CSLAYER1
  6
CONTINUOUS
 62
     3
100
AcDbLine
 10
58.83142900000001
 20
67.05106999999999
 30
0.0
 11
58.62660899999998
 21
67.88006300000001
 31
0.0
  0
LINE
  5
112
330
104
100
AcDbEntity
  8
CSLAYER1
  6
CONTINUOUS
 62
     3
100
AcDbLine
 10
58.62062299999998
 20
67.9076
 30
0.0
 11
58.536056
 21
68.357366
 31
0.0
  0
ARC
  5
113
330
104
100
AcDbEntity
  8
CSLAYER1
  6
CONTINUOUS
 62
     3
100
AcDbCircle
 10
59.112013
 20
67.999993
 30
0.0
 40
0.5
100
AcDbArc
 50
190.6486639999999
 51
193.878204
  0
ARC
  5
114
330
104
100
AcDbEntity
  8
CSLAYER1
  6
CONTINUOUS
 62
     3
100
AcDbCircle
 10
58.186472
 20
67.57691899999999
 30
0.0
 40
0.5
100
AcDbArc
 50
279.0410959999999
 51
13.878204
  0
ENDBLK
  5
115
330
104
100
AcDbEntity
  8
0
100
AcDbBlockEnd
  0
BLOCK
  5
1D1
330
1C5
100
AcDbEntity
  8
0
100
AcDbBlockBegin
  2
*D18
 70
     1
 10
0.0
 20
0.0
 30
0.0
  3
*D18
  1

  0
LINE
  5
1C6
330
1C5
100
AcDbEntity
  8
CSLAYER1
 62
     0
100
AcDbLine
 10
70.39028951571538
 20
132.46701301086
 30
0.0
 11
80.74779876622381
 21
147.2590763083139
 31
0.0
  0
ARC
  5
1C7
330
1C5
100
AcDbEntity
  8
CSLAYER1
 62
     0
100
AcDbCircle
 10
69.22303499999999
 20
130.7999999999998
 30
0.0
 40
19.9128189358827
100
AcDbArc
 50
55.51793435152004
 51
71.35591597206776
  0
ARC
  5
1C8
330
1C5
100
AcDbEntity
  8
CSLAYER1
 62
     0
100
AcDbCircle
 10
69.22303499999999
 20
130.7999999999998
 30
0.0
 40
19.9128189358827
100
AcDbArc
 50
73.63693759955556
 51
89.4820785817156
  0
SOLID
  5
1C9
330
1C5
100
AcDbEntity
  8
CSLAYER1
 62
     0
100
AcDbTrace
 10
80.51373856695532
 20
147.2388572555785
 30
0.0
 11
80.47954648278013
 21
147.1895530835466
 31
0.0
 12
80.64455504096356
 22
147.1116289170369
 32
0.0
 13
80.64455504096356
 23
147.1116289170369
 33
0.0
  0
SOLID
  5
1CA
330
1C5
100
AcDbEntity
  8
CSLAYER1
 62
     0
100
AcDbTrace
 10
69.40289757044877
 20
150.6820056960082
 30
0.0
 11
69.40316875254595
 21
150.742005083174
 31
0.0
 12
69.22303500000001
 22
150.7128189358827
 32
0.0
 13
69.22303500000001
 23
150.7128189358827
 33
0.0
  0
MTEXT
  5
1CB
330
1C5
100
AcDbEntity
  8
CSLAYER1
 62
     0
100
AcDbMText
 10
75.21093299508073
 20
149.7911936321485
 30
0.0
 40
0.18
 41
0.0
 71
     5
 72
     1
  1
\A1;35°
1001
ACAD
1000
MTEXTBEGIN
1070
    73
1070
     1
1070
    44
1040
1.0
1070
    74
1070
     0
1000
MTEXTEND
  0
POINT
  5
1CC
330
1C5
100
AcDbEntity
  8
DEFPOINTS
 62
     0
100
AcDbPoint
 10
77.11009691379533
 20
149.0842722672029
 30
0.0
  0
POINT
  5
1CD
330
1C5
100
AcDbEntity
  8
DEFPOINTS
 62
     0
100
AcDbPoint
 10
69.22303499999999
 20
130.7999999999998
 30
0.0
  0
POINT
  5
1CE
330
1C5
100
AcDbEntity
  8
DEFPOINTS
 62
     0
100
AcDbPoint
 10
69.22303500000001
 20
151.486687
 30
0.0
  0
POINT
  5
1CF
330
1C5
100
AcDbEntity
  8
DEFPOINTS
 62
     0
100
AcDbPoint
 10
69.22303499999999
 20
130.7999999999998
 30
0.0
  0
POINT
  5
1D0
330
1C5
100
AcDbEntity
  8
DEFPOINTS
 62
     0
100
AcDbPoint
 10
70.35444100000001
 20
132.4158159999998
 30
0.0
  0
ENDBLK
  5
1D2
330
1C5
100
AcDbEntity
  8
0
100
AcDbBlockEnd
  0
BLOCK
  5
1DE
330
1D3
100
AcDbEntity
  8
0
100
AcDbBlockBegin
  2
*D19
 70
     1
 10
0.0
 20
0.0
 30
0.0
  3
*D19
  1

  0
ARC
  5
1D4
330
1D3
100
AcDbEntity
  8
CSLAYER1
 62
     0
100
AcDbCircle
 10
144.9999999999999
 20
59.8
 30
0.0
 40
12.03480244670633
100
AcDbArc
 50
140.8569589540445
 51
159.0853552623668
  0
ARC
  5
1D5
330
1D3
100
AcDbEntity
  8
CSLAYER1
 62
     0
100
AcDbCircle
 10
144.9999999999999
 20
59.8
 30
0.0
 40
12.03480244670633
100
AcDbArc
 50
160.9093600785066
 51
179.1430406532486
  0
SOLID
  5
1D6
330
1D3
100
AcDbEntity
  8
CSLAYER1
 62
     0
100
AcDbTrace
 10
135.6430142492404
 20
67.41618379153314
 30
0.0
 11
135.6892640482667
 21
67.3779613362219
 31
0.0
 12
135.7808065146874
 22
67.53582196095665
 32
0.0
 13
135.7808065146874
 23
67.53582196095665
 33
0.0
  0
SOLID
  5
1D7
330
1D3
100
AcDbEntity
  8
CSLAYER1
 62
     0
100
AcDbTrace
 10
132.9965428104517
 20
59.97977061732576
 30
0.0
 11
132.9365444882294
 21
59.9802193160081
 31
0.0
 12
132.9651975532935
 22
59.80000000000001
 32
0.0
 13
132.9651975532935
 23
59.80000000000001
 33
0.0
  0
MTEXT
  5
1D8
330
1D3
100
AcDbEntity
  8
CSLAYER1
 62
     0
100
AcDbMText
 10
133.6909849623199
 20
63.91614489647473
 30
0.0
 40
0.18
 41
0.0
 71
     5
 72
     1
  1
\A1;40°
1001
ACAD
1000
MTEXTBEGIN
1070
    73
1070
     1
1070
    44
1040
1.0
1070
    74
1070
     0
1000
MTEXTEND
  0
POINT
  5
1D9
330
1D3
100
AcDbEntity
  8
DEFPOINTS
 62
     0
100
AcDbPoint
 10
134.2453077384591
 20
65.20120952109829
 30
0.0
  0
POINT
  5
1DA
330
1D3
100
AcDbEntity
  8
DEFPOINTS
 62
     0
100
AcDbPoint
 10
144.9999999999999
 20
59.79999999999999
 30
0.0
  0
POINT
  5
1DB
330
1D3
100
AcDbEntity
  8
DEFPOINTS
 62
     0
100
AcDbPoint
 10
114.6502409999999
 20
59.8
 30
0.0
  0
POINT
  5
1DC
330
1D3
100
AcDbEntity
  8
DEFPOINTS
 62
     0
100
AcDbPoint
 10
144.0
 20
59.8
 30
0.0
  0
POINT
  5
1DD
330
1D3
100
AcDbEntity
  8
DEFPOINTS
 62
     0
100
AcDbPoint
 10
131.0
 20
71.54739499999998
 30
0.0
  0
ENDBLK
  5
1DF
330
1D3
100
AcDbEntity
  8
0
100
AcDbBlockEnd
  0
ENDSEC
  0
SECTION
  2
ENTITIES
  0
POINT
  5
116
330
1E
100
AcDbEntity
  8
CSLAYER1
 62
     3
100
AcDbPoint
 10
247.164242
 20
43.5
 30
0.0
  0
POINT
  5
117
330
1E
100
AcDbEntity
  8
CSLAYER1
 62
     3
100
AcDbPoint
 10
268.9151519999999
 20
43.5
 30
0.0
  0
POINT
  5
118
330
1E
100
AcDbEntity
  8
CSLAYER1
 62
     3
100
AcDbPoint
 10
267.6642419999999
 20
53.5
 30
0.0
  0
POINT
  5
119
330
1E
100
AcDbEntity
  8
CSLAYER1
 62
     3
100
AcDbPoint
 10
247.164242
 20
53.5
 30
0.0
  0
TEXT
  5
11A
330
1E
100
AcDbEntity
  8
CSLAYER1
 62
     3
100
AcDbText
 10
234.7642299999999
 20
51.00000399999998
 30
0.0
 40
5.0
  1
刃開キハ
 41
1.110447761194034
  7
FX_FONT
 72
     5
 11
259.56423
 21
51.00000399999998
 31
0.0
100
AcDbText
  0
TEXT
  5
11B
330
1E
100
AcDbEntity
  8
CSLAYER1
 62
     3
100
AcDbText
 10
234.6642299999999
 20
41.00000399999998
 30
0.0
 40
5.0
  1
切刃部有効
 41
0.872093023255814
  7
FX_FONT
 72
     5
 11
259.6642299999999
 21
41.00000399999998
 31
0.0
100
AcDbText
  0
TEXT
  5
11C
330
1E
100
AcDbEntity
  8
CSLAYER1
 62
     3
100
AcDbText
 10
262.6642459999999
 20
51.00000399999998
 30
0.0
 40
5.0
  1
11
 41
1.333333333333333
  7
FX_FONT
 72
     5
 11
272.6642459999999
 21
51.00000399999998
 31
0.0
100
AcDbText
  0
TEXT
  5
11D
330
1E
100
AcDbEntity
  8
CSLAYER1
 62
     3
100
AcDbText
 10
258.915161
 20
41.00000399999998
 30
0.0
 40
5.0
  1
13.5
 41
1.090909090909091
  7
FX_FONT
 72
     5
 11
278.915161
 21
41.00000399999998
 31
0.0
100
AcDbText
  0
TEXT
  5
11E
330
1E
100
AcDbEntity
  8
CSLAYER1
 62
     3
100
AcDbText
 10
242.45
 20
17.25
 30
0.0
 40
3.5
  1
N20PF
 41
1.169387755102042
  7
FX_FONT
 72
     5
 11
261.55
 21
17.25
 31
0.0
100
AcDbText
  0
POINT
  5
11F
330
1E
100
AcDbEntity
  8
CSLAYER1
 62
     3
100
AcDbPoint
 10
166.0
 20
130.8
 30
0.0
  0
POINT
  5
120
330
1E
100
AcDbEntity
  8
CSLAYER1
 62
     3
100
AcDbPoint
 10
166.0
 20
65.8
 30
0.0
  0
INSERT
  5
121
330
1E
100
AcDbEntity
  8
CSLAYER1
100
AcDbBlockReference
  2
FXDIM0000
 10
0.0
 20
0.0
 30
0.0
  0
DIMENSION
  5
122
330
1E
100
AcDbEntity
  8
CSLAYER1
 62
     4
100
AcDbDimension
  2
*D1
 10
149.1038669999998
 20
139.3
 30
0.0
 11
138.397903
 21
113.58667
 31
0.0
 70
     4
100
AcDbRadialDimension
 15
142.08425
 25
120.5723469999999
 35
0.0
 40
0.0
  0
DIMENSION
  5
123
330
1E
100
AcDbEntity
  8
CSLAYER1
 62
     4
100
AcDbDimension
  2
*D2
 10
119.717143
 20
142.3
 30
0.0
 11
118.7171399999999
 21
130.800003
 31
0.0
 70
     1
100
AcDbAlignedDimension
 13
149.1038669999998
 23
119.3
 33
0.0
 14
149.1038669999998
 24
142.3
 34
0.0
  0
INSERT
  5
124
330
1E
100
AcDbEntity
  8
CSLAYER1
100
AcDbBlockReference
  2
BLKF0000
 10
0.0
 20
0.0
 30
0.0
  0
DIMENSION
  5
125
330
1E
100
AcDbEntity
  8
CSLAYER1
 62
     4
100
AcDbDimension
  2
*D3
 10
115.6502409999999
 20
71.79999999999998
 30
0.0
 11
114.286522
 21
71.616005
 31
0.0
100
AcDbAlignedDimension
 13
145.0
 23
59.8
 33
0.0
 14
131.0
 24
71.79999999999998
 34
0.0
 50
90.0
100
AcDbRotatedDimension
  0
DIMENSION
  5
126
330
1E
100
AcDbEntity
  8
CSLAYER1
 62
     4
100
AcDbDimension
  2
*D4
 10
166.0
 20
49.134501
 30
0.0
 11
155.4999999999999
 21
50.13450200000001
 31
0.0
 52
270.0
100
AcDbAlignedDimension
 13
145.0
 23
59.8
 33
0.0
 14
166.0
 24
56.2648
 34
0.0
100
AcDbRotatedDimension
  0
DIMENSION
  5
127
330
1E
100
AcDbEntity
  8
CSLAYER1
 62
     4
100
AcDbDimension
  2
*D5
 10
166.0
 20
86.16363599999997
 30
0.0
 11
158.4999999999999
 21
87.163643
 31
0.0
100
AcDbAlignedDimension
 13
151.0
 23
71.79999999999998
 33
0.0
 14
166.0
 24
75.46174499999998
 34
0.0
100
AcDbRotatedDimension
  0
INSERT
  5
128
330
1E
100
AcDbEntity
  8
CSLAYER1
100
AcDbBlockReference
  2
FXDIM0001
 10
0.0
 20
0.0
 30
0.0
  0
INSERT
  5
129
330
1E
100
AcDbEntity
  8
CSLAYER1
100
AcDbBlockReference
  2
FXDIM0002
 10
0.0
 20
0.0
 30
0.0
  0
LINE
  5
12A
330
1E
100
AcDbEntity
  8
CSLAYER1
  6
CONTINUOUS
 62
     3
100
AcDbLine
 10
234.664242
 20
40.0
 30
0.0
 11
278.4909089999999
 21
40.0
 31
0.0
  0
ARC
  5
12B
330
1E
100
AcDbEntity
  8
CSLAYER1
  6
CONTINUOUS
 62
     3
100
AcDbCircle
 10
147.862898
 20
141.553729
 30
0.0
 40
20.0
100
AcDbArc
 50
212.5262819999999
 51
265.35907
  0
LINE
  5
12C
330
1E
100
AcDbEntity
  8
CSLAYER1
  6
CONTINUOUS
 62
     3
100
AcDbLine
 10
146.2446789999999
 20
121.800705
 30
0.0
 11
146.2446789999999
 21
119.505429
 31
0.0
  0
LINE
  5
12D
330
1E
100
AcDbEntity
  8
CSLAYER1
  6
CONTINUOUS
 62
     3
100
AcDbLine
 10
149.1038669999998
 20
119.3
 30
0.0
 11
176.0
 21
119.3
 31
0.0
  0
LINE
  5
12E
330
1E
100
AcDbEntity
  8
CSLAYER1
  6
CONTINUOUS
 62
     3
100
AcDbLine
 10
176.0
 20
119.3
 30
0.0
 11
220.4960859999999
 21
122.859687
 31
0.0
  0
ARC
  5
12F
330
1E
100
AcDbEntity
  8
CSLAYER1
  6
CONTINUOUS
 62
     3
100
AcDbCircle
 10
220.0176149999999
 20
128.8405789999998
 30
0.0
 40
6.0
100
AcDbArc
 50
274.5739209999999
 51
4.391449999999998
  0
LINE
  5
130
330
1E
100
AcDbEntity
  8
CSLAYER1
  6
CONTINUOUS
 62
     3
100
AcDbLine
 10
226.0
 20
129.3
 30
0.0
 11
179.3
 21
129.3
 31
0.0
  0
LINE
  5
131
330
1E
100
AcDbEntity
  8
CSLAYER1
  6
CONTINUOUS
 62
     3
100
AcDbLine
 10
179.6582429999999
 20
129.3
 30
0.0
 11
176.663577
 21
119.5048909999999
 31
0.0
  0
ARC
  5
132
330
1E
100
AcDbEntity
  8
CSLAYER1
  6
CONTINUOUS
 62
     3
100
AcDbCircle
 10
166.0
 20
130.8
 30
0.0
 40
12.5
100
AcDbArc
 50
293.0739179999999
 51
0.0
  0
LINE
  5
133
330
1E
100
AcDbEntity
  8
CSLAYER1
  6
CONTINUOUS
 62
     3
100
AcDbLine
 10
178.5
 20
131.4999999999999
 30
0.0
 11
178.5
 21
130.0999999999999
 31
0.0
  0
ARC
  5
134
330
1E
100
AcDbEntity
  8
CSLAYER1
  6
CONTINUOUS
 62
     3
100
AcDbCircle
 10
179.3
 20
130.0999999999999
 30
0.0
 40
0.8
100
AcDbArc
 50
180.0
 51
270.0
  0
ARC
  5
135
330
1E
100
AcDbEntity
  8
CSLAYER1
  6
CONTINUOUS
 62
     3
100
AcDbCircle
 10
179.3
 20
131.4999999999999
 30
0.0
 40
0.8
100
AcDbArc
 50
90.0
 51
180.0
  0
LINE
  5
136
330
1E
100
AcDbEntity
  8
CSLAYER1
  6
CONTINUOUS
 62
     3
100
AcDbLine
 10
179.3
 20
132.3
 30
0.0
 11
226.0
 21
132.3
 31
0.0
  0
ARC
  5
137
330
1E
100
AcDbEntity
  8
CSLAYER1
  6
CONTINUOUS
 62
     3
100
AcDbCircle
 10
220.0176149999999
 20
132.7594209999999
 30
0.0
 40
6.0
100
AcDbArc
 50
355.60855
 51
85.42607900000001
  0
LINE
  5
138
330
1E
100
AcDbEntity
  8
CSLAYER1
  6
CONTINUOUS
 62
     3
100
AcDbLine
 10
220.4960859999999
 20
138.7403129999998
 30
0.0
 11
176.0
 21
142.3
 31
0.0
  0
LINE
  5
139
330
1E
100
AcDbEntity
  8
CSLAYER1
  6
CONTINUOUS
 62
     3
100
AcDbLine
 10
176.0
 20
142.3
 30
0.0
 11
149.1038669999998
 21
142.3
 31
0.0
  0
ARC
  5
13A
330
1E
100
AcDbEntity
  8
CSLAYER1
  6
CONTINUOUS
 62
     3
100
AcDbCircle
 10
149.1038669999998
 20
122.3
 30
0.0
 40
20.0
100
AcDbArc
 50
90.0
 51
154.849337
  0
LINE
  5
13B
330
1E
100
AcDbEntity
  8
CSLAYER1
  6
CONTINUOUS
 62
     3
100
AcDbLine
 10
131.0
 20
130.8
 30
0.0
 11
141.4630309999999
 21
130.8
 31
0.0
  0
LINE
  5
13C
330
1E
100
AcDbEntity
  8
CSLAYER1
  6
CONTINUOUS
 62
     3
100
AcDbLine
 10
141.4630309999999
 20
130.4
 30
0.0
 11
150.7196199999999
 21
130.4
 31
0.0
  0
ARC
  5
13D
330
1E
100
AcDbEntity
  8
CSLAYER1
  6
CONTINUOUS
 62
     3
100
AcDbCircle
 10
150.7196199999999
 20
133.4
 30
0.0
 40
3.0
100
AcDbArc
 50
270.0
 51
350.3434439999998
  0
LINE
  5
13E
330
1E
100
AcDbEntity
  8
CSLAYER1
  6
CONTINUOUS
 62
     3
100
AcDbLine
 10
152.1033429999999
 20
131.520182
 30
0.0
 11
155.3990639999998
 21
142.3
 31
0.0
  0
LINE
  5
13F
330
1E
100
AcDbEntity
  8
CSLAYER1
  6
CONTINUOUS
 62
     3
100
AcDbLine
 10
151.0
 20
142.3
 30
0.0
 11
151.0
 21
131.186869
 31
0.0
  0
LINE
  5
140
330
1E
100
AcDbEntity
  8
CSLAYER1
  6
CONTINUOUS
 62
     3
100
AcDbLine
 10
150.7196199999999
 20
131.1999999999999
 30
0.0
 11
141.4630309999999
 21
131.1999999999999
 31
0.0
  0
LINE
  5
141
330
1E
100
AcDbEntity
  8
CSLAYER1
  6
CONTINUOUS
 62
     3
100
AcDbLine
 10
141.4630309999999
 20
131.1999999999999
 30
0.0
 11
141.4630309999999
 21
130.4
 31
0.0
  0
ARC
  5
142
330
1E
100
AcDbEntity
  8
CSLAYER1
  6
CONTINUOUS
 62
     3
100
AcDbCircle
 10
149.1038669999998
 20
139.3
 30
0.0
 40
20.0
100
AcDbArc
 50
205.1506629999999
 51
270.0
  0
LINE
  5
143
330
1E
100
AcDbEntity
  8
CSLAYER1
  6
CONTINUOUS
 62
     3
100
AcDbLine
 10
151.0
 20
119.3
 30
0.0
 11
151.0
 21
130.413131
 31
0.0
  0
LINE
  5
144
330
1E
100
AcDbEntity
  8
CSLAYER1
  6
CONTINUOUS
 62
     3
100
AcDbLine
 10
151.638858
 20
131.055697
 30
0.0
 11
152.1033429999999
 21
131.520182
 31
0.0
  0
ARC
  5
145
330
1E
100
AcDbEntity
  8
CSLAYER1
  6
CONTINUOUS
 62
     3
100
AcDbCircle
 10
150.7196199999999
 20
128.1999999999999
 30
0.0
 40
3.0
100
AcDbArc
 50
60.073565
 51
90.0
  0
LINE
  5
146
330
1E
100
AcDbEntity
  8
CSLAYER1
  6
CONTINUOUS
 62
     3
100
AcDbLine
 10
136.0
 20
136.148186
 30
0.0
 11
136.0
 21
137.4092249999999
 31
0.0
  0
LINE
  5
147
330
1E
100
AcDbEntity
  8
CSLAYER1
  6
CONTINUOUS
 62
     3
100
AcDbLine
 10
146.2446789999999
 20
139.799295
 30
0.0
 11
146.2446789999999
 21
142.0945709999999
 31
0.0
  0
ARC
  5
148
330
1E
100
AcDbEntity
  8
CSLAYER1
  6
CONTINUOUS
 62
     3
100
AcDbCircle
 10
147.862898
 20
120.0462709999999
 30
0.0
 40
20.0
100
AcDbArc
 50
94.64093
 51
147.4737179999999
  0
LINE
  5
149
330
1E
100
AcDbEntity
  8
CSLAYER1
  6
CONTINUOUS
 62
     3
100
AcDbLine
 10
136.0
 20
125.4518139999998
 30
0.0
 11
136.0
 21
124.1907749999999
 31
0.0
  0
ARC
  5
14A
330
1E
100
AcDbEntity
  8
CSLAYER1
  6
CONTINUOUS
 62
     3
100
AcDbCircle
 10
166.0
 20
130.8
 30
0.0
 40
12.5
100
AcDbArc
 50
113.0739179999999
 51
170.343444
  0
CIRCLE
  5
14B
330
1E
100
AcDbEntity
  8
CSLAYER1
  6
CONTINUOUS
 62
     3
100
AcDbCircle
 10
166.0
 20
130.8
 30
0.0
 40
2.049999999999998
  0
CIRCLE
  5
14C
330
1E
100
AcDbEntity
  8
CSLAYER1
  6
CONTINUOUS
 62
     3
100
AcDbCircle
 10
166.0
 20
130.8
 30
0.0
 40
8.55
  0
LINE
  5
14D
330
1E
100
AcDbEntity
  8
CSLAYER1
  6
CONTINUOUS
 62
     3
100
AcDbLine
 10
216.5
 20
132.3
 30
0.0
 11
216.5
 21
129.3
 31
0.0
  0
LINE
  5
14E
330
1E
100
AcDbEntity
  8
CSLAYER1
  6
CONTINUOUS
 62
     3
100
AcDbLine
 10
222.5
 20
129.3
 30
0.0
 11
222.5
 21
132.3
 31
0.0
  0
LINE
  5
14F
330
1E
100
AcDbEntity
  8
CSLAYER1
  6
CONTINUOUS
 62
     3
100
AcDbLine
 10
220.849326
 20
71.14657499999998
 30
0.0
 11
186.0
 21
71.79999999999998
 31
0.0
  0
LINE
  5
150
330
1E
100
AcDbEntity
  8
CSLAYER1
  6
CONTINUOUS
 62
     3
100
AcDbLine
 10
186.0
 20
71.79999999999998
 30
0.0
 11
151.0
 21
71.79999999999998
 31
0.0
  0
LINE
  5
151
330
1E
100
AcDbEntity
  8
CSLAYER1
  6
CONTINUOUS
 62
     3
100
AcDbLine
 10
151.0
 20
71.79999999999998
 30
0.0
 11
150.066407
 21
69.08240500000001
 31
0.0
  0
ARC
  5
152
330
1E
100
AcDbEntity
  8
CSLAYER1
  6
CONTINUOUS
 62
     3
100
AcDbCircle
 10
148.17491
 20
69.732203
 30
0.0
 40
2.0
100
AcDbArc
 50
251.040542
 51
341.040542
  0
LINE
  5
153
330
1E
100
AcDbEntity
  8
CSLAYER1
  6
CONTINUOUS
 62
     3
100
AcDbLine
 10
147.525112
 20
67.840705
 30
0.0
 11
136.0
 21
71.79999999999998
 31
0.0
  0
LINE
  5
154
330
1E
100
AcDbEntity
  8
CSLAYER1
  6
CONTINUOUS
 62
     3
100
AcDbLine
 10
136.0
 20
71.79999999999998
 30
0.0
 11
131.0
 21
71.79999999999998
 31
0.0
  0
LINE
  5
155
330
1E
100
AcDbEntity
  8
CSLAYER1
  6
CONTINUOUS
 62
     3
100
AcDbLine
 10
131.0
 20
71.79999999999998
 30
0.0
 11
131.0
 21
71.54739499999998
 31
0.0
  0
LINE
  5
156
330
1E
100
AcDbEntity
  8
CSLAYER1
  6
CONTINUOUS
 62
     3
100
AcDbLine
 10
131.0
 20
71.54739499999998
 30
0.0
 11
145.0
 21
59.8
 31
0.0
  0
LINE
  5
157
330
1E
100
AcDbEntity
  8
CSLAYER1
  6
CONTINUOUS
 62
     3
100
AcDbLine
 10
145.0
 20
59.8
 30
0.0
 11
186.0
 21
59.8
 31
0.0
  0
LINE
  5
158
330
1E
100
AcDbEntity
  8
CSLAYER1
  6
CONTINUOUS
 62
     3
100
AcDbLine
 10
186.0
 20
59.8
 30
0.0
 11
220.849326
 21
60.453425
 31
0.0
  0
ARC
  5
159
330
1E
100
AcDbEntity
  8
CSLAYER1
  6
CONTINUOUS
 62
     3
100
AcDbCircle
 10
220.750905
 20
65.702502
 30
0.0
 40
5.25
100
AcDbArc
 50
271.0741699999999
 51
1.064100999999998
  0
ARC
  5
15A
330
1E
100
AcDbEntity
  8
CSLAYER1
  6
CONTINUOUS
 62
     3
100
AcDbCircle
 10
220.750905
 20
65.89749799999998
 30
0.0
 40
5.25
100
AcDbArc
 50
358.935899
 51
88.92583
  0
LINE
  5
15B
330
1E
100
AcDbEntity
  8
CSLAYER1
  6
CONTINUOUS
 62
     3
100
AcDbLine
 10
234.664242
 20
50.0
 30
0.0
 11
275.6642419999999
 21
50.0
 31
0.0
  0
LINE
  5
15C
330
1E
100
AcDbEntity
  8
CSLAYER1
  6
CONTINUOUS
 62
     3
100
AcDbLine
 10
176.663577
 20
66.79999999999999
 30
0.0
 11
176.663577
 21
71.79999999999998
 31
0.0
  0
LINE
  5
15D
330
1E
100
AcDbEntity
  8
CSLAYER1
  6
CONTINUOUS
 62
     3
100
AcDbLine
 10
170.8989789999999
 20
71.79999999999998
 30
0.0
 11
170.8989789999999
 21
66.29999999999999
 31
0.0
  0
LINE
  5
15E
330
1E
100
AcDbEntity
  8
CSLAYER1
  6
CONTINUOUS
 62
     3
100
AcDbLine
 10
170.8989789999999
 20
66.29999999999999
 30
0.0
 11
170.398979
 21
65.8
 31
0.0
  0
LINE
  5
15F
330
1E
100
AcDbEntity
  8
CSLAYER1
  6
CONTINUOUS
 62
     3
100
AcDbLine
 10
175.663577
 20
65.8
 30
0.0
 11
156.3990639999999
 21
65.8
 31
0.0
  0
ARC
  5
160
330
1E
100
AcDbEntity
  8
CSLAYER1
  6
CONTINUOUS
 62
     3
100
AcDbCircle
 10
156.3990639999999
 20
64.8
 30
0.0
 40
1.0
100
AcDbArc
 50
90.0
 51
180.0
  0
LINE
  5
161
330
1E
100
AcDbEntity
  8
CSLAYER1
  6
CONTINUOUS
 62
     3
100
AcDbLine
 10
155.3990639999998
 20
64.8
 30
0.0
 11
155.3990639999998
 21
59.8
 31
0.0
  0
LINE
  5
162
330
1E
100
AcDbEntity
  8
CSLAYER1
  6
CONTINUOUS
 62
     3
100
AcDbLine
 10
161.101021
 20
59.8
 30
0.0
 11
161.101021
 21
65.3
 31
0.0
  0
LINE
  5
163
330
1E
100
AcDbEntity
  8
CSLAYER1
  6
CONTINUOUS
 62
     3
100
AcDbLine
 10
161.101021
 20
65.3
 30
0.0
 11
161.6010209999999
 21
65.8
 31
0.0
  0
ARC
  5
164
330
1E
100
AcDbEntity
  8
CSLAYER1
  6
CONTINUOUS
 62
     3
100
AcDbCircle
 10
175.663577
 20
66.79999999999999
 30
0.0
 40
1.0
100
AcDbArc
 50
270.0
 51
0.0
  0
LINE
  5
165
330
1E
100
AcDbEntity
  8
CSLAYER1
  6
CENTER
 62
     4
100
AcDbLine
 10
127.611556
 20
130.8
 30
0.0
 11
131.0
 21
130.8
 31
0.0
  0
LINE
  5
166
330
1E
100
AcDbEntity
  8
CSLAYER1
  6
CENTER
 62
     4
100
AcDbLine
 10
141.4630309999999
 20
130.8
 30
0.0
 11
228.5060609999999
 21
130.8
 31
0.0
  0
LINE
  5
167
330
1E
100
AcDbEntity
  8
CSLAYER1
  6
CENTER
 62
     4
100
AcDbLine
 10
219.4999999999999
 20
135.192
 30
0.0
 11
219.4999999999999
 21
126.552
 31
0.0
  0
LINE
  5
168
330
1E
100
AcDbEntity
  8
CSLAYER1
  6
CENTER
 62
     4
100
AcDbLine
 10
184.0
 20
124.925078
 30
0.0
 11
184.0
 21
137.024998
 31
0.0
  0
LINE
  5
169
330
1E
100
AcDbEntity
  8
CSLAYER1
  6
CENTER
 62
     4
100
AcDbLine
 10
166.0
 20
145.363033
 30
0.0
 11
166.0
 21
116.1141069999999
 31
0.0
  0
LINE
  5
16A
330
1E
100
AcDbEntity
  8
CSLAYER1
  6
CENTER
 62
     4
100
AcDbLine
 10
166.0
 20
75.46174499999998
 30
0.0
 11
166.0
 21
56.2648
 31
0.0
  0
LINE
  5
16B
330
1E
100
AcDbEntity
  8
CSLAYER1
  6
CENTER
 62
     4
100
AcDbLine
 10
155.3990639999998
 20
65.8
 30
0.0
 11
150.29379
 21
65.8
 31
0.0
  0
LINE
  5
16C
330
1E
100
AcDbEntity
  8
CSLAYER1
  6
DASHED
 62
     4
100
AcDbLine
 10
147.643601
 20
67.8
 30
0.0
 11
143.576279
 21
62.95275400000001
 31
0.0
  0
ARC
  5
16D
330
1E
100
AcDbEntity
  8
CSLAYER1
  6
DASHED
 62
     4
100
AcDbCircle
 10
142.427213
 20
63.91693599999999
 30
0.0
 40
1.5
100
AcDbArc
 50
230.0
 51
320.0
  0
LINE
  5
16E
330
1E
100
AcDbEntity
  8
CSLAYER1
  6
CENTER
 62
     4
100
AcDbLine
 10
176.663577
 20
65.8
 30
0.0
 11
182.0
 21
65.8
 31
0.0
  0
LINE
  5
16F
330
1E
100
AcDbEntity
  8
CSLAYER1
  6
CENTER
 62
     4
100
AcDbLine
 10
219.5922819999999
 20
65.8
 30
0.0
 11
230.9730189999999
 21
65.8
 31
0.0
  0
LINE
  5
170
330
1E
100
AcDbEntity
  8
CSLAYER1
  6
CENTER
 62
     4
100
AcDbLine
 10
85.70115600000002
 20
130.8
 30
0.0
 11
66.60548399999999
 21
130.8
 31
0.0
  0
LINE
  5
172
330
1E
100
AcDbEntity
  8
CSLAYER1
  6
CONTINUOUS
 62
     3
100
AcDbLine
 10
69.22303499999999
 20
130.8
 30
0.0
 11
70.35444100000001
 21
132.4158159999998
 31
0.0
  0
LINE
  5
173
330
1E
100
AcDbEntity
  8
CSLAYER1
  6
CONTINUOUS
 62
     3
100
AcDbLine
 10
70.10994499999999
 20
142.3
 30
0.0
 11
77.22303499999998
 21
142.3
 31
0.0
  0
ARC
  5
174
330
1E
100
AcDbEntity
  8
CSLAYER1
  6
CONTINUOUS
 62
     3
100
AcDbCircle
 10
144.223035
 20
130.8
 30
0.0
 40
75.0
100
AcDbArc
 50
171.179852
 51
188.820148
  0
LINE
  5
175
330
1E
100
AcDbEntity
  8
CSLAYER1
  6
CONTINUOUS
 62
     3
100
AcDbLine
 10
70.10994499999999
 20
119.3
 30
0.0
 11
77.22303499999998
 21
119.3
 31
0.0
  0
LINE
  5
176
330
1E
100
AcDbEntity
  8
CSLAYER1
  6
CONTINUOUS
 62
     3
100
AcDbLine
 10
77.22303499999998
 20
142.3
 30
0.0
 11
77.22303499999998
 21
142.225184
 31
0.0
  0
ARC
  5
177
330
1E
100
AcDbEntity
  8
CSLAYER1
  6
CONTINUOUS
 62
     3
100
AcDbCircle
 10
80.22303499999997
 20
130.8
 30
0.0
 40
10.0
100
AcDbArc
 50
119.2987089999999
 51
170.7012909999999
  0
LINE
  5
178
330
1E
100
AcDbEntity
  8
CSLAYER1
  6
CONTINUOUS
 62
     3
100
AcDbLine
 10
75.32940699999997
 20
139.520803
 30
0.0
 11
77.22303499999998
 21
142.225184
 31
0.0
  0
LINE
  5
179
330
1E
100
AcDbEntity
  8
CSLAYER1
  6
CONTINUOUS
 62
     3
100
AcDbLine
 10
69.22303499999999
 20
130.8
 30
0.0
 11
70.35444100000001
 21
129.184184
 31
0.0
  0
LINE
  5
17A
330
1E
100
AcDbEntity
  8
CSLAYER1
  6
CONTINUOUS
 62
     3
100
AcDbLine
 10
77.22303499999998
 20
119.3
 30
0.0
 11
77.22303499999998
 21
119.3748159999999
 31
0.0
  0
ARC
  5
17B
330
1E
100
AcDbEntity
  8
CSLAYER1
  6
CONTINUOUS
 62
     3
100
AcDbCircle
 10
80.22303499999997
 20
130.8
 30
0.0
 40
10.0
100
AcDbArc
 50
189.298709
 51
240.701291
  0
LINE
  5
17C
330
1E
100
AcDbEntity
  8
CSLAYER1
  6
CONTINUOUS
 62
     3
100
AcDbLine
 10
75.32940699999997
 20
122.079197
 30
0.0
 11
77.22303499999998
 21
119.3748159999999
 31
0.0
  0
DIMENSION
  5
17E
330
1E
100
AcDbEntity
  8
CSLAYER1
 62
     4
100
AcDbDimension
  2
*D9
 10
80.22303499999997
 20
130.8
 30
0.0
 11
78.093781
 21
133.464828
 31
0.0
 70
     4
100
AcDbRadialDimension
 15
71.964687
 25
136.4391219999999
 35
0.0
 40
0.0
  0
DIMENSION
  5
17F
330
1E
100
AcDbEntity
  8
CSLAYER1
 62
     4
100
AcDbDimension
  2
*D10
 10
144.223035
 20
130.8
 30
0.0
 11
79.68576800000002
 21
123.638618
 31
0.0
 70
     4
100
AcDbRadialDimension
 15
69.81678599999999
 25
121.3813899999999
 35
0.0
 40
0.0
  0
LINE
  5
180
330
1E
100
AcDbEntity
  8
CSLAYER1
  6
CONTINUOUS
 62
     3
100
AcDbLine
 10
132.1468429999999
 20
129.184184
 30
0.0
 11
142.1432159999999
 21
129.184184
 31
0.0
  0
LINE
  5
181
330
1E
100
AcDbEntity
  8
CSLAYER1
  6
CONTINUOUS
 62
     3
100
AcDbLine
 10
132.1468429999999
 20
132.4158159999998
 30
0.0
 11
142.1554409999999
 21
132.4158159999998
 31
0.0
  0
INSERT
  5
182
330
1E
100
AcDbEntity
  8
CSLAYER1
100
AcDbBlockReference
  2
BLKF0001
 10
0.0
 20
0.0
 30
0.0
  0
LINE
  5
183
330
1E
100
AcDbEntity
  8
CSLAYER1
  6
CONTINUOUS
 62
     3
100
AcDbLine
 10
81.55944100000002
 20
84.070549
 30
0.0
 11
66.68036999999999
 21
86.438103
 31
0.0
  0
ARC
  5
184
330
1E
100
AcDbEntity
  8
CSLAYER1
  6
CONTINUOUS
 62
     3
100
AcDbCircle
 10
63.53751299999998
 20
66.686586
 30
0.0
 40
20.0
100
AcDbArc
 50
80.958904
 51
145.8082399999999
  0
LINE
  5
185
330
1E
100
AcDbEntity
  8
CSLAYER1
  6
CONTINUOUS
 62
     3
100
AcDbLine
 10
46.99428499999998
 20
77.92587399999998
 30
0.0
 11
57.327322
 21
76.281683
 31
0.0
  0
LINE
  5
186
330
1E
100
AcDbEntity
  8
CSLAYER1
  6
CONTINUOUS
 62
     3
100
AcDbLine
 10
67.94860899999999
 20
75.32086899999999
 30
0.0
 11
72.897355
 21
85.44885800000001
 31
0.0
  0
LINE
  5
187
330
1E
100
AcDbEntity
  8
CSLAYER1
  6
CONTINUOUS
 62
     3
100
AcDbLine
 10
68.55294499999999
 20
86.14014
 30
0.0
 11
66.806596
 21
75.16508
 31
0.0
  0
LINE
  5
188
330
1E
100
AcDbEntity
  8
CSLAYER1
  6
CONTINUOUS
 62
     3
100
AcDbLine
 10
66.531763
 20
75.22210699999998
 30
0.0
 11
57.390179
 21
76.676714
 31
0.0
  0
LINE
  5
189
330
1E
100
AcDbEntity
  8
CSLAYER1
  6
CONTINUOUS
 62
     3
100
AcDbLine
 10
57.390179
 20
76.676714
 30
0.0
 11
57.327322
 21
76.281683
 31
0.0
  0
LINE
  5
18A
330
1E
100
AcDbEntity
  8
CSLAYER1
  6
CONTINUOUS
 62
     3
100
AcDbLine
 10
67.416904
 20
74.93514499999998
 30
0.0
 11
67.94860899999999
 21
75.32086899999999
 31
0.0
  0
ARC
  5
18B
330
1E
100
AcDbEntity
  8
CSLAYER1
  6
CONTINUOUS
 62
     3
100
AcDbCircle
 10
66.06033499999999
 20
72.25937900000002
 30
0.0
 40
3.0
100
AcDbArc
 50
0.6154600000000002
 51
80.958904
  0
LINE
  5
18C
330
1E
100
AcDbEntity
  8
CSLAYER1
  6
CONTINUOUS
 62
     3
100
AcDbLine
 10
52.772593
 20
82.42189899999997
 30
0.0
 11
52.97075699999999
 21
83.667271
 31
0.0
  0
LINE
  5
18D
330
1E
100
AcDbEntity
  8
CSLAYER1
  6
CONTINUOUS
 62
     3
100
AcDbLine
 10
63.46373599999999
 20
84.41776899999998
 30
0.0
 11
63.824423
 21
86.684528
 31
0.0
  0
ARC
  5
18E
330
1E
100
AcDbEntity
  8
CSLAYER1
  6
CONTINUOUS
 62
     3
100
AcDbCircle
 10
61.957804
 20
64.655867
 30
0.0
 40
20.0
100
AcDbArc
 50
85.599834
 51
138.4326209999999
  0
ARC
  5
18F
330
1E
100
AcDbEntity
  8
CSLAYER1
  6
CONTINUOUS
 62
     3
100
AcDbCircle
 10
81.55944100000002
 20
72.42587399999997
 30
0.0
 40
12.5
100
AcDbArc
 50
122.1150139999999
 51
179.3845399999999
  0
CIRCLE
  5
190
330
1E
100
AcDbEntity
  8
CSLAYER1
  6
CONTINUOUS
 62
     3
100
AcDbCircle
 10
81.55944100000002
 20
72.42587399999997
 30
0.0
 40
8.55
  0
LINE
  5
191
330
1E
100
AcDbEntity
  8
CSLAYER1
  6
CENTER
 62
     4
100
AcDbLine
 10
42.769902
 20
72.42587399999997
 30
0.0
 11
94.791118
 21
72.42587399999997
 31
0.0
  0
LINE
  5
192
330
1E
100
AcDbEntity
  8
CSLAYER1
  6
CENTER
 62
     4
100
AcDbLine
 10
81.55944100000002
 20
86.98890699999997
 30
0.0
 11
81.55944100000002
 21
57.739981
 31
0.0
  0
LINE
  5
193
330
1E
100
AcDbEntity
  8
CSLAYER1
  6
CONTINUOUS
 62
     3
100
AcDbLine
 10
48.380793
 20
79.341397
 30
0.0
 11
58.265043
 21
77.76861700000002
 31
0.0
  0
CIRCLE
  5
194
330
1E
100
AcDbEntity
  8
CSLAYER1
  6
CONTINUOUS
 62
     3
100
AcDbCircle
 10
81.55944100000002
 20
72.42587399999997
 30
0.0
 40
2.049999999999998
  0
INSERT
  5
195
330
1E
100
AcDbEntity
  8
CSLAYER1
100
AcDbBlockReference
  2
BLKF0002
 10
0.0
 20
0.0
 30
0.0
  0
LINE
  5
196
330
1E
100
AcDbEntity
  8
CSLAYER1
  6
CONTINUOUS
 62
     3
100
AcDbLine
 10
89.83365199999999
 20
62.09779000000001
 30
0.0
 11
66.68036999999999
 21
58.413645
 31
0.0
  0
ARC
  5
197
330
1E
100
AcDbEntity
  8
CSLAYER1
  6
CONTINUOUS
 62
     3
100
AcDbCircle
 10
63.53751299999998
 20
78.165163
 30
0.0
 40
20.0
100
AcDbArc
 50
214.19176
 51
279.0410959999999
  0
LINE
  5
198
330
1E
100
AcDbEntity
  8
CSLAYER1
  6
CONTINUOUS
 62
     3
100
AcDbLine
 10
46.99428499999998
 20
66.92587399999999
 30
0.0
 11
57.327322
 21
68.570065
 31
0.0
  0
LINE
  5
199
330
1E
100
AcDbEntity
  8
CSLAYER1
  6
CONTINUOUS
 62
     3
100
AcDbLine
 10
68.55294499999999
 20
58.71160899999999
 30
0.0
 11
66.806596
 21
69.68666899999999
 31
0.0
  0
LINE
  5
19A
330
1E
100
AcDbEntity
  8
CSLAYER1
  6
CONTINUOUS
 62
     3
100
AcDbLine
 10
66.531763
 20
69.629641
 30
0.0
 11
57.390179
 21
68.17503399999999
 31
0.0
  0
LINE
  5
19B
330
1E
100
AcDbEntity
  8
CSLAYER1
  6
CONTINUOUS
 62
     3
100
AcDbLine
 10
57.390179
 20
68.17503399999999
 30
0.0
 11
57.327322
 21
68.570065
 31
0.0
  0
ARC
  5
19C
330
1E
100
AcDbEntity
  8
CSLAYER1
  6
CONTINUOUS
 62
     3
100
AcDbCircle
 10
66.06033499999999
 20
72.59236899999997
 30
0.0
 40
3.0
100
AcDbArc
 50
279.0410959999999
 51
359.38454
  0
LINE
  5
19D
330
1E
100
AcDbEntity
  8
CSLAYER1
  6
CONTINUOUS
 62
     3
100
AcDbLine
 10
52.772593
 20
62.42984899999999
 30
0.0
 11
52.97075699999999
 21
61.18447800000001
 31
0.0
  0
LINE
  5
19E
330
1E
100
AcDbEntity
  8
CSLAYER1
  6
CONTINUOUS
 62
     3
100
AcDbLine
 10
63.46373599999999
 20
60.43398
 30
0.0
 11
63.824423
 21
58.16722099999999
 31
0.0
  0
ARC
  5
19F
330
1E
100
AcDbEntity
  8
CSLAYER1
  6
CONTINUOUS
 62
     3
100
AcDbCircle
 10
61.957804
 20
80.19588099999998
 30
0.0
 40
20.0
100
AcDbArc
 50
221.567379
 51
274.400166
  0
LINE
  5
1A0
330
1E
100
AcDbEntity
  8
CSLAYER1
  6
CONTINUOUS
 62
     3
100
AcDbLine
 10
48.380793
 20
65.510352
 30
0.0
 11
58.265043
 21
67.08313100000001
 31
0.0
  0
LINE
  5
1A1
330
1E
100
AcDbEntity
  8
CSLAYER1
  6
CONTINUOUS
 62
     3
100
AcDbLine
 10
85.61982699999999
 20
84.716637
 30
0.0
 11
74.91418399999997
 21
83.01315699999998
 31
0.0
  0
DIMENSION
  5
1A2
330
1E
100
AcDbEntity
  8
CSLAYER1
 62
     4
100
AcDbDimension
  2
*D11
 10
166.0
 20
158.1714149999999
 30
0.0
 11
148.5
 21
159.1714169999999
 31
0.0
100
AcDbAlignedDimension
 13
131.0
 23
130.8
 33
0.0
 14
166.0
 24
145.363033
 34
0.0
100
AcDbRotatedDimension
  0
LINE
  5
1A3
330
1E
100
AcDbEntity
  8
CSLAYER1
  6
CENTER
 62
     4
100
AcDbLine
 10
28.605364
 20
72.42587399999997
 30
0.0
 11
15.34514399999999
 21
72.42587399999997
 31
0.0
  0
LINE
  5
1A4
330
1E
100
AcDbEntity
  8
CSLAYER1
  6
CONTINUOUS
 62
     3
100
AcDbLine
 10
17.962695
 20
77.92587399999998
 30
0.0
 11
19.094101
 21
79.54169
 31
0.0
  0
LINE
  5
1A5
330
1E
100
AcDbEntity
  8
CSLAYER1
  6
CONTINUOUS
 62
     3
100
AcDbLine
 10
18.849605
 20
89.42587399999998
 30
0.0
 11
25.962695
 21
89.42587399999998
 31
0.0
  0
ARC
  5
1A6
330
1E
100
AcDbEntity
  8
CSLAYER1
  6
CONTINUOUS
 62
     3
100
AcDbCircle
 10
92.96269499999999
 20
77.92587399999998
 30
0.0
 40
75.0
100
AcDbArc
 50
171.179852
 51
180.0
  0
LINE
  5
1A7
330
1E
100
AcDbEntity
  8
CSLAYER1
  6
CONTINUOUS
 62
     3
100
AcDbLine
 10
25.962695
 20
89.42587399999998
 30
0.0
 11
25.962695
 21
89.351058
 31
0.0
  0
ARC
  5
1A8
330
1E
100
AcDbEntity
  8
CSLAYER1
  6
CONTINUOUS
 62
     3
100
AcDbCircle
 10
28.962695
 20
77.92587399999998
 30
0.0
 40
10.0
100
AcDbArc
 50
119.2987089999999
 51
170.7012909999999
  0
LINE
  5
1A9
330
1E
100
AcDbEntity
  8
CSLAYER1
  6
CONTINUOUS
 62
     3
100
AcDbLine
 10
24.069067
 20
86.646677
 30
0.0
 11
25.962695
 21
89.351058
 31
0.0
  0
LINE
  5
1AA
330
1E
100
AcDbEntity
  8
CSLAYER1
  6
CONTINUOUS
 62
     3
100
AcDbLine
 10
17.962695
 20
66.92587399999999
 30
0.0
 11
19.094101
 21
65.31005799999999
 31
0.0
  0
LINE
  5
1AB
330
1E
100
AcDbEntity
  8
CSLAYER1
  6
CONTINUOUS
 62
     3
100
AcDbLine
 10
18.849605
 20
55.425874
 30
0.0
 11
25.962695
 21
55.425874
 31
0.0
  0
ARC
  5
1AC
330
1E
100
AcDbEntity
  8
CSLAYER1
  6
CONTINUOUS
 62
     3
100
AcDbCircle
 10
92.96269499999999
 20
66.92587399999999
 30
0.0
 40
75.0
100
AcDbArc
 50
180.0
 51
188.820148
  0
LINE
  5
1AD
330
1E
100
AcDbEntity
  8
CSLAYER1
  6
CONTINUOUS
 62
     3
100
AcDbLine
 10
25.962695
 20
55.425874
 30
0.0
 11
25.962695
 21
55.50069
 31
0.0
  0
ARC
  5
1AE
330
1E
100
AcDbEntity
  8
CSLAYER1
  6
CONTINUOUS
 62
     3
100
AcDbCircle
 10
28.962695
 20
66.92587399999999
 30
0.0
 40
10.0
100
AcDbArc
 50
189.298709
 51
240.701291
  0
LINE
  5
1AF
330
1E
100
AcDbEntity
  8
CSLAYER1
  6
CONTINUOUS
 62
     3
100
AcDbLine
 10
24.069067
 20
58.205071
 30
0.0
 11
25.962695
 21
55.50069
 31
0.0
  0
DIMENSION
  5
1B0
330
1E
100
AcDbEntity
  8
CSLAYER1
 62
     4
100
AcDbDimension
  2
*D12
 10
40.802605
 20
77.92587399999998
 30
0.0
 11
39.80260499999999
 21
72.425873
 31
0.0
 70
     1
100
AcDbAlignedDimension
 13
46.99428499999998
 23
66.92587399999999
 33
0.0
 14
46.99428499999998
 24
77.92587399999998
 34
0.0
  0
DIMENSION
  5
1B1
330
1E
100
AcDbEntity
  8
CSLAYER1
 62
     4
100
AcDbDimension
  2
*D13
 10
128.639744
 20
47.73227999999998
 30
0.0
 11
120.8659209999999
 21
48.407101
 31
0.0
 70
     1
100
AcDbAlignedDimension
 13
131.0
 23
71.54739499999998
 33
0.0
 14
141.3415999999999
 24
62.869762
 34
0.0
  0
LINE
  5
1B3
330
1E
100
AcDbEntity
  8
CSLAYER1
  6
DOT
 62
     3
100
AcDbLine
 10
4.0
 20
1.0
 30
0.0
 11
283.0
 21
1.0
 31
0.0
  0
LINE
  5
1B4
330
1E
100
AcDbEntity
  8
CSLAYER1
  6
DOT
 62
     3
100
AcDbLine
 10
283.0
 20
1.0
 30
0.0
 11
283.0
 21
195.0
 31
0.0
  0
LINE
  5
1B5
330
1E
100
AcDbEntity
  8
CSLAYER1
  6
DOT
 62
     3
100
AcDbLine
 10
283.0
 20
195.0
 30
0.0
 11
4.0
 21
195.0
 31
0.0
  0
LINE
  5
1B6
330
1E
100
AcDbEntity
  8
CSLAYER1
  6
DOT
 62
     3
100
AcDbLine
 10
4.0
 20
195.0
 30
0.0
 11
4.0
 21
1.0
 31
0.0
  0
LINE
  5
1B7
330
1E
100
AcDbEntity
  8
CSLAYER1
  6
DOT
 62
     3
100
AcDbLine
 10
4.0
 20
98.0
 30
0.0
 11
0.0
 21
98.0
 31
0.0
  0
LINE
  5
1B8
330
1E
100
AcDbEntity
  8
CSLAYER1
  6
DOT
 62
     3
100
AcDbLine
 10
143.5
 20
195.0
 30
0.0
 11
143.5
 21
199.0
 31
0.0
  0
ENDSEC
  0
SECTION
  2
OBJECTS
  0
DICTIONARY
  5
C
330
0
100
AcDbDictionary
  3
ACAD_GROUP
350
D
  3
ACAD_LAYOUT
350
19
  3
ACAD_MLINESTYLE
350
16
  3
ACAD_PLOTSETTINGS
350
18
1001
ACAD
1000
TREAT_AS_HARD
1070
     0
1000
TREAT_AS_HARD
1070
     0
  0
DICTIONARY
  5
1C2
330
1E
100
AcDbDictionary
  3
ACAD_LAYOUTSELFREF
350
1ED
1001
ACAD
1000
TREAT_AS_HARD
1070
     0
  0
DICTIONARY
  5
1C0
330
1A
100
AcDbDictionary
  3
ACAD_LAYOUTSELFREF
350
1EC
1001
ACAD
1000
TREAT_AS_HARD
1070
     0
  0
DICTIONARY
  5
D
102
{ACAD_REACTORS
330
C
102
}
330
C
100
AcDbDictionary
1001
ACAD
1000
TREAT_AS_HARD
1070
     0
1000
TREAT_AS_HARD
1070
     0
  0
DICTIONARY
  5
19
102
{ACAD_REACTORS
330
C
102
}
330
C
100
AcDbDictionary
1001
ACAD
1000
TREAT_AS_HARD
1070
     0
1000
TREAT_AS_HARD
1070
     0
  0
DICTIONARY
  5
16
102
{ACAD_REACTORS
330
C
102
}
330
C
100
AcDbDictionary
  3
STANDARD
350
17
1001
ACAD
1000
TREAT_AS_HARD
1070
     0
1000
TREAT_AS_HARD
1070
     0
  0
DICTIONARY
  5
18
102
{ACAD_REACTORS
330
C
102
}
330
C
100
AcDbDictionary
1001
ACAD
1000
TREAT_AS_HARD
1070
     0
1000
TREAT_AS_HARD
1070
     0
  0
XRECORD
  5
1ED
102
{ACAD_REACTORS
330
1C2
102
}
330
1C2
100
AcDbXrecord
340
1E
  0
XRECORD
  5
1EC
102
{ACAD_REACTORS
330
1C0
102
}
330
1C0
100
AcDbXrecord
340
1A
  0
MLINESTYLE
  5
17
102
{ACAD_REACTORS
330
16
102
}
330
16
100
AcDbMlineStyle
  2
STANDARD
 70
     0
  3

 62
   256
 51
90.0
 52
90.0
 71
     2
 49
0.5
 62
   256
  6
BYLAYER
 49
-0.5
 62
   256
  6
BYLAYER
  0
ENDSEC
  0
EOF
