  0
SECTION
  2
HEADER
  9
$ACADVER
  1
AC1012
  9
$DWGCODEPAGE
  3
dos932
  9
$INSBASE
 10
0.0
 20
0.0
 30
0.0
  9
$EXTMIN
 10
-0.0090630292066862
 20
0.9869389666558276
 30
-0.0015258207003583
  9
$EXTMAX
 10
287.0163123253922
 20
199.0155034058442
 30
0.0000000349246037
  9
$LIMMIN
 10
0.0
 20
0.0
  9
$LIMMAX
 10
297.0
 20
210.0
  9
$ORTHOMODE
 70
     0
  9
$REGENMODE
 70
     1
  9
$FILLMODE
 70
     1
  9
$QTEXTMODE
 70
     0
  9
$MIRRTEXT
 70
     1
  9
$DRAGMODE
 70
     2
  9
$LTSCALE
 40
15.0
  9
$OSMODE
 70
    37
  9
$ATTMODE
 70
     1
  9
$TEXTSIZE
 40
0.2
  9
$TRACEWID
 40
0.05
  9
$TEXTSTYLE
  7
GOTHIC
  9
$CLAYER
  8
CSLAYER1
  9
$CELTYPE
  6
BYLAYER
  9
$CECOLOR
 62
   256
  9
$CELTSCALE
 40
1.0
  9
$DELOBJ
 70
     1
  9
$DISPSILH
 70
     0
  9
$DIMSCALE
 40
1.0
  9
$DIMASZ
 40
0.18
  9
$DIMEXO
 40
0.0625
  9
$DIMDLI
 40
0.38
  9
$DIMRND
 40
0.0
  9
$DIMDLE
 40
0.0
  9
$DIMEXE
 40
0.18
  9
$DIMTP
 40
0.0
  9
$DIMTM
 40
0.0
  9
$DIMTXT
 40
0.18
  9
$DIMCEN
 40
0.09
  9
$DIMTSZ
 40
0.0
  9
$DIMTOL
 70
     0
  9
$DIMLIM
 70
     0
  9
$DIMTIH
 70
     1
  9
$DIMTOH
 70
     1
  9
$DIMSE1
 70
     0
  9
$DIMSE2
 70
     0
  9
$DIMTAD
 70
     0
  9
$DIMZIN
 70
     0
  9
$DIMBLK
  1

  9
$DIMASO
 70
     1
  9
$DIMSHO
 70
     1
  9
$DIMPOST
  1

  9
$DIMAPOST
  1

  9
$DIMALT
 70
     0
  9
$DIMALTD
 70
     2
  9
$DIMALTF
 40
25.4
  9
$DIMLFAC
 40
1.0
  9
$DIMTOFL
 70
     0
  9
$DIMTVP
 40
0.0
  9
$DIMTIX
 70
     0
  9
$DIMSOXD
 70
     0
  9
$DIMSAH
 70
     0
  9
$DIMBLK1
  1

  9
$DIMBLK2
  1

  9
$DIMSTYLE
  2
STANDARD
  9
$DIMCLRD
 70
     0
  9
$DIMCLRE
 70
     0
  9
$DIMCLRT
 70
     0
  9
$DIMTFAC
 40
1.0
  9
$DIMGAP
 40
0.09
  9
$DIMJUST
 70
     0
  9
$DIMSD1
 70
     0
  9
$DIMSD2
 70
     0
  9
$DIMTOLJ
 70
     1
  9
$DIMTZIN
 70
     0
  9
$DIMALTZ
 70
     0
  9
$DIMALTTZ
 70
     0
  9
$DIMFIT
 70
     3
  9
$DIMUPT
 70
     0
  9
$DIMUNIT
 70
     2
  9
$DIMDEC
 70
     4
  9
$DIMTDEC
 70
     4
  9
$DIMALTU
 70
     2
  9
$DIMALTTD
 70
     2
  9
$DIMTXSTY
  7
STANDARD
  9
$DIMAUNIT
 70
     0
  9
$LUNITS
 70
     2
  9
$LUPREC
 70
     4
  9
$SKETCHINC
 40
0.1
  9
$FILLETRAD
 40
0.0
  9
$AUNITS
 70
     0
  9
$AUPREC
 70
     0
  9
$MENU
  1
ACAD
  9
$ELEVATION
 40
0.0
  9
$PELEVATION
 40
0.0
  9
$THICKNESS
 40
0.0
  9
$LIMCHECK
 70
     0
  9
$BLIPMODE
 70
     1
  9
$CHAMFERA
 40
0.0
  9
$CHAMFERB
 40
0.0
  9
$CHAMFERC
 40
0.0
  9
$CHAMFERD
 40
0.0
  9
$SKPOLY
 70
     0
  9
$TDCREATE
 40
2453476.999999999
  9
$TDUPDATE
 40
2453516.553101655
  9
$TDINDWG
 40
0.0003932639
  9
$TDUSRTIMER
 40
0.0003931481
  9
$USRTIMER
 70
     1
  9
$ANGBASE
 50
0.0
  9
$ANGDIR
 70
     0
  9
$PDMODE
 70
     0
  9
$PDSIZE
 40
0.0
  9
$PLINEWID
 40
0.0
  9
$COORDS
 70
     0
  9
$SPLFRAME
 70
     0
  9
$SPLINETYPE
 70
     6
  9
$SPLINESEGS
 70
     8
  9
$ATTDIA
 70
     0
  9
$ATTREQ
 70
     1
  9
$HANDLING
 70
-16383
  9
$HANDSEED
  5
1E4
  9
$SURFTAB1
 70
     6
  9
$SURFTAB2
 70
     6
  9
$SURFTYPE
 70
     6
  9
$SURFU
 70
     6
  9
$SURFV
 70
     6
  9
$UCSNAME
  2

  9
$UCSORG
 10
0.0
 20
0.0
 30
0.0
  9
$UCSXDIR
 10
1.0
 20
0.0
 30
0.0
  9
$UCSYDIR
 10
0.0
 20
1.0
 30
0.0
  9
$PUCSNAME
  2

  9
$PUCSORG
 10
0.0
 20
0.0
 30
0.0
  9
$PUCSXDIR
 10
1.0
 20
0.0
 30
0.0
  9
$PUCSYDIR
 10
0.0
 20
1.0
 30
0.0
  9
$USERI1
 70
     0
  9
$USERI2
 70
     0
  9
$USERI3
 70
     0
  9
$USERI4
 70
     0
  9
$USERI5
 70
     0
  9
$USERR1
 40
0.0
  9
$USERR2
 40
0.0
  9
$USERR3
 40
0.0
  9
$USERR4
 40
0.0
  9
$USERR5
 40
0.0
  9
$WORLDVIEW
 70
     1
  9
$SHADEDGE
 70
     3
  9
$SHADEDIF
 70
    70
  9
$TILEMODE
 70
     1
  9
$MAXACTVP
 70
    64
  9
$PINSBASE
 10
0.0
 20
0.0
 30
0.0
  9
$PLIMCHECK
 70
     0
  9
$PEXTMIN
 10
1.000000000000000E+20
 20
1.000000000000000E+20
 30
1.000000000000000E+20
  9
$PEXTMAX
 10
-1.000000000000000E+20
 20
-1.000000000000000E+20
 30
-1.000000000000000E+20
  9
$PLIMMIN
 10
0.0
 20
0.0
  9
$PLIMMAX
 10
12.0
 20
9.0
  9
$UNITMODE
 70
     0
  9
$VISRETAIN
 70
     1
  9
$PLINEGEN
 70
     0
  9
$PSLTSCALE
 70
     1
  9
$TREEDEPTH
 70
  3020
  9
$PICKSTYLE
 70
     3
  9
$CMLSTYLE
  2
STANDARD
  9
$CMLJUST
 70
     0
  9
$CMLSCALE
 40
1.0
  9
$SAVEIMAGES
 70
     1
  0
ENDSEC
  0
SECTION
  2
CLASSES
  0
CLASS
  1
ACDBDICTIONARYWDFLT
  2
AcDbDictionaryWithDefault
  3
AutoCAD 2000
 90
    32768
280
     0
281
     0
  0
CLASS
  1
ACDBPLACEHOLDER
  2
AcDbPlaceHolder
  3
AutoCAD 2000
 90
    32768
280
     0
281
     0
  0
CLASS
  1
LAYOUT
  2
AcDbLayout
  3
AutoCAD 2000
 90
    32768
280
     0
281
     0
  0
CLASS
  1
DICTIONARYVAR
  2
AcDbDictionaryVar
  3
AutoCAD 2000
 90
    32768
280
     0
281
     0
  0
CLASS
  1
LONG_TRANSACTION
  2
AcDbLongTransaction
  3
AutoCAD 2000
 90
    32768
280
     0
281
     0
  0
CLASS
  1
LWPOLYLINE
  2
AcDbPolyline
  3
AutoCAD 2000
 90
    32768
280
     0
281
     1
  0
CLASS
  1
HATCH
  2
AcDbHatch
  3
AutoCAD 2000
 90
    32768
280
     0
281
     1
  0
CLASS
  1
XRECORD
  2
AcDbXrecord
  3
AutoCAD 2000
 90
    32768
280
     0
281
     0
  0
CLASS
  1
LONG_TRANSACTION
  2
AcDbLongTransaction
  3
AutoCAD 2000
 90
    32768
280
     0
281
     0
  0
CLASS
  1
LWPOLYLINE
  2
AcDbPolyline
  3
AutoCAD 2000
 90
    32768
280
     0
281
     1
  0
CLASS
  1
HATCH
  2
AcDbHatch
  3
AutoCAD 2000
 90
    32768
280
     0
281
     1
  0
CLASS
  1
XRECORD
  2
AcDbXrecord
  3
AutoCAD 2000
 90
    32768
280
     0
281
     0
  0
ENDSEC
  0
SECTION
  2
TABLES
  0
TABLE
  2
VPORT
  5
8
330
0
100
AcDbSymbolTable
 70
     2
  0
VPORT
  5
1E1
330
8
100
AcDbSymbolTableRecord
100
AcDbViewportTableRecord
  2
*ACTIVE
 70
     0
 10
0.0
 20
0.0
 11
1.0
 21
1.0
 12
143.5036246480927
 22
100.00122118625
 13
0.0
 23
0.0
 14
1.0
 24
1.0
 15
0.0
 25
0.0
 16
0.0
 26
0.0
 36
1.0
 17
0.0
 27
0.0
 37
0.0
 40
199.5156375138256
 41
1.510025062656641
 42
50.0
 43
0.0
 44
0.0
 50
0.0
 51
0.0
 71
     0
 72
   100
 73
     1
 74
     1
 75
     0
 76
     0
 77
     0
 78
     0
  0
ENDTAB
  0
TABLE
  2
LTYPE
  5
5
330
0
100
AcDbSymbolTable
 70
     4
  0
LTYPE
  5
13
330
5
100
AcDbSymbolTableRecord
100
AcDbLinetypeTableRecord
  2
BYBLOCK
 70
     0
  3

 72
    65
 73
     0
 40
0.0
  0
LTYPE
  5
14
330
5
100
AcDbSymbolTableRecord
100
AcDbLinetypeTableRecord
  2
BYLAYER
 70
     0
  3

 72
    65
 73
     0
 40
0.0
  0
LTYPE
  5
15
330
5
100
AcDbSymbolTableRecord
100
AcDbLinetypeTableRecord
  2
CONTINUOUS
 70
     0
  3
Solid line
 72
    65
 73
     0
 40
0.0
  0
LTYPE
  5
23
330
5
100
AcDbSymbolTableRecord
100
AcDbLinetypeTableRecord
  2
DASHED
 70
     0
  3
__ __ __ __ __ __ __ __ __ __ __ __ __ __ __
 72
    65
 73
     2
 40
0.75
 49
0.5
 74
     0
 49
-0.25
 74
     0
  0
LTYPE
  5
25
330
5
100
AcDbSymbolTableRecord
100
AcDbLinetypeTableRecord
  2
DOT
 70
     0
  3
...............................................
 72
    65
 73
     2
 40
0.25
 49
0.0
 74
     0
 49
-0.25
 74
     0
  0
LTYPE
  5
28
330
5
100
AcDbSymbolTableRecord
100
AcDbLinetypeTableRecord
  2
CENTER
 70
     0
  3
____ _ ____ _ ____ _ ____ _ ____ _ ____ _ ____ 
 72
    65
 73
     4
 40
2.0
 49
1.25
 74
     0
 49
-0.25
 74
     0
 49
0.25
 74
     0
 49
-0.25
 74
     0
  0
ENDTAB
  0
TABLE
  2
LAYER
  5
2
330
0
100
AcDbSymbolTable
 70
     3
  0
LAYER
  5
10
330
2
100
AcDbSymbolTableRecord
100
AcDbLayerTableRecord
  2
0
 70
     0
 62
     7
  6
CONTINUOUS
  0
LAYER
  5
22
330
2
100
AcDbSymbolTableRecord
100
AcDbLayerTableRecord
  2
CSLAYER1
 70
     0
 62
     7
  6
CONTINUOUS
  0
LAYER
  5
19C
330
2
100
AcDbSymbolTableRecord
100
AcDbLayerTableRecord
  2
DEFPOINTS
 70
     0
 62
     7
  6
CONTINUOUS
  0
ENDTAB
  0
TABLE
  2
STYLE
  5
3
330
0
100
AcDbSymbolTable
 70
     3
  0
STYLE
  5
11
330
3
100
AcDbSymbolTableRecord
100
AcDbTextStyleTableRecord
  2
STANDARD
 70
     0
 40
0.0
 41
1.0
 50
0.0
 71
     0
 42
0.2
  3
txt
  4
extfont.shx
  0
STYLE
  5
3A
330
3
100
AcDbSymbolTableRecord
100
AcDbTextStyleTableRecord
  2
FX_FONT
 70
     0
 40
1.0
 41
1.0
 50
0.0
 71
     0
 42
1.0
  3
monotxt
  4
bigfont
  0
STYLE
  5
194
330
3
100
AcDbSymbolTableRecord
100
AcDbTextStyleTableRecord
  2
GOTHIC
 70
     0
 40
0.0
 41
1.0
 50
0.0
 71
     0
 42
0.2
  3
txt.shx
  4
extfont.shx
  0
ENDTAB
  0
TABLE
  2
VIEW
  5
6
330
0
100
AcDbSymbolTable
 70
     0
  0
ENDTAB
  0
TABLE
  2
UCS
  5
7
330
0
100
AcDbSymbolTable
 70
     0
  0
ENDTAB
  0
TABLE
  2
APPID
  5
9
330
0
100
AcDbSymbolTable
 70
     1
  0
APPID
  5
12
330
9
100
AcDbSymbolTableRecord
100
AcDbRegAppTableRecord
  2
ACAD
 70
     0
  0
ENDTAB
  0
TABLE
  2
DIMSTYLE
  5
A
330
0
100
AcDbSymbolTable
 70
     1
  0
DIMSTYLE
105
191
330
A
100
AcDbSymbolTableRecord
100
AcDbDimStyleTableRecord
  2
STANDARD
 70
     0
  3

  4

  5

  6

  7

 40
1.0
 41
0.18
 42
0.0625
 43
0.38
 44
0.18
 45
0.0
 46
0.0
 47
0.0
 48
0.0
140
0.18
141
0.09
142
0.0
143
25.4
144
1.0
145
0.0
146
1.0
147
0.09
 71
     0
 72
     0
 73
     1
 74
     1
 75
     0
 76
     0
 77
     0
 78
     0
170
     0
171
     2
172
     0
173
     0
174
     0
175
     0
176
     0
177
     0
178
     0
270
     2
271
     4
272
     4
273
     2
274
     2
340
11
275
     0
280
     0
281
     0
282
     0
283
     1
284
     0
285
     0
286
     0
287
     3
288
     0
  0
ENDTAB
  0
TABLE
  2
BLOCK_RECORD
  5
1
330
0
100
AcDbSymbolTable
 70
    21
  0
BLOCK_RECORD
  5
1E
102
{ACAD_XDICTIONARY
360
19A
102
}
330
1
100
AcDbSymbolTableRecord
100
AcDbBlockTableRecord
  2
*MODEL_SPACE
  0
BLOCK_RECORD
  5
1A
102
{ACAD_XDICTIONARY
360
198
102
}
330
1
100
AcDbSymbolTableRecord
100
AcDbBlockTableRecord
  2
*PAPER_SPACE
  0
BLOCK_RECORD
  5
3F
330
1
100
AcDbSymbolTableRecord
100
AcDbBlockTableRecord
  2
FXDIM0000
  0
BLOCK_RECORD
  5
47
330
1
100
AcDbSymbolTableRecord
100
AcDbBlockTableRecord
  2
FXDIM0001
  0
BLOCK_RECORD
  5
4C
330
1
100
AcDbSymbolTableRecord
100
AcDbBlockTableRecord
  2
FXDIM0002
  0
BLOCK_RECORD
  5
56
330
1
100
AcDbSymbolTableRecord
100
AcDbBlockTableRecord
  2
FXDIM0003
  0
BLOCK_RECORD
  5
60
330
1
100
AcDbSymbolTableRecord
100
AcDbBlockTableRecord
  2
*D4
  0
BLOCK_RECORD
  5
6B
330
1
100
AcDbSymbolTableRecord
100
AcDbBlockTableRecord
  2
*D5
  0
BLOCK_RECORD
  5
76
330
1
100
AcDbSymbolTableRecord
100
AcDbBlockTableRecord
  2
*D6
  0
BLOCK_RECORD
  5
83
330
1
100
AcDbSymbolTableRecord
100
AcDbBlockTableRecord
  2
*D7
  0
BLOCK_RECORD
  5
8E
330
1
100
AcDbSymbolTableRecord
100
AcDbBlockTableRecord
  2
*D8
  0
BLOCK_RECORD
  5
99
330
1
100
AcDbSymbolTableRecord
100
AcDbBlockTableRecord
  2
*D9
  0
BLOCK_RECORD
  5
A4
330
1
100
AcDbSymbolTableRecord
100
AcDbBlockTableRecord
  2
*D10
  0
BLOCK_RECORD
  5
AF
330
1
100
AcDbSymbolTableRecord
100
AcDbBlockTableRecord
  2
*D11
  0
BLOCK_RECORD
  5
B6
330
1
100
AcDbSymbolTableRecord
100
AcDbBlockTableRecord
  2
*D12
  0
BLOCK_RECORD
  5
C3
330
1
100
AcDbSymbolTableRecord
100
AcDbBlockTableRecord
  2
*D13
  0
BLOCK_RECORD
  5
CD
330
1
100
AcDbSymbolTableRecord
100
AcDbBlockTableRecord
  2
*D14
  0
BLOCK_RECORD
  5
D8
330
1
100
AcDbSymbolTableRecord
100
AcDbBlockTableRecord
  2
*D15
  0
BLOCK_RECORD
  5
E2
330
1
100
AcDbSymbolTableRecord
100
AcDbBlockTableRecord
  2
*D16
  0
BLOCK_RECORD
  5
19D
330
1
100
AcDbSymbolTableRecord
100
AcDbBlockTableRecord
  2
*D17
  0
BLOCK_RECORD
  5
1AA
330
1
100
AcDbSymbolTableRecord
100
AcDbBlockTableRecord
  2
*D18
  0
BLOCK_RECORD
  5
1B8
330
1
100
AcDbSymbolTableRecord
100
AcDbBlockTableRecord
  2
*D19
  0
BLOCK_RECORD
  5
1C7
330
1
100
AcDbSymbolTableRecord
100
AcDbBlockTableRecord
  2
*D20
  0
ENDTAB
  0
ENDSEC
  0
SECTION
  2
BLOCKS
  0
BLOCK
  5
1F
330
1E
100
AcDbEntity
  8
0
100
AcDbBlockBegin
  2
*MODEL_SPACE
 70
     0
 10
0.0
 20
0.0
 30
0.0
  3
*MODEL_SPACE
  1

  0
ENDBLK
  5
20
330
1E
100
AcDbEntity
  8
0
100
AcDbBlockEnd
  0
BLOCK
  5
1B
330
1A
100
AcDbEntity
 67
     1
  8
0
100
AcDbBlockBegin
  2
*PAPER_SPACE
 70
     0
 10
0.0
 20
0.0
 30
0.0
  3
*PAPER_SPACE
  1

  0
ENDBLK
  5
1C
330
1A
100
AcDbEntity
 67
     1
  8
0
100
AcDbBlockEnd
  0
BLOCK
  5
40
330
3F
100
AcDbEntity
  8
0
100
AcDbBlockBegin
  2
FXDIM0000
 70
     0
 10
0.0
 20
0.0
 30
0.0
  3
FXDIM0000
  1

  0
LINE
  5
41
330
3F
100
AcDbEntity
  8
CSLAYER1
  6
CONTINUOUS
 62
     4
100
AcDbLine
 10
179.5679129999999
 20
133.527108
 30
0.0
 11
172.688811
 21
107.8539469999999
 31
0.0
  0
LINE
  5
42
330
3F
100
AcDbEntity
  8
CSLAYER1
  6
CONTINUOUS
 62
     4
100
AcDbLine
 10
179.5679129999999
 20
133.527108
 30
0.0
 11
179.5679129999999
 21
130.527108
 31
0.0
  0
LINE
  5
43
330
3F
100
AcDbEntity
  8
CSLAYER1
  6
CONTINUOUS
 62
     4
100
AcDbLine
 10
179.5679129999999
 20
133.527108
 30
0.0
 11
178.0679129999999
 21
130.929032
 31
0.0
  0
LINE
  5
44
330
3F
100
AcDbEntity
  8
CSLAYER1
  6
CONTINUOUS
 62
     4
100
AcDbLine
 10
172.688811
 20
107.8539469999999
 30
0.0
 11
158.688811
 21
107.8539469999999
 31
0.0
  0
TEXT
  5
45
330
3F
100
AcDbEntity
  8
CSLAYER1
 62
     4
100
AcDbText
 10
158.8888269999999
 20
108.8539509999999
 30
0.0
 40
3.2
  1
%%c4.1
 41
1.142857232142865
 51
15.0
  7
FX_FONT
 72
     5
 11
171.688828
 21
108.8539509999999
 31
0.0
100
AcDbText
  0
ENDBLK
  5
46
330
3F
100
AcDbEntity
  8
0
100
AcDbBlockEnd
  0
BLOCK
  5
48
330
47
100
AcDbEntity
  8
0
100
AcDbBlockBegin
  2
FXDIM0001
 70
     0
 10
0.0
 20
0.0
 30
0.0
  3
FXDIM0001
  1

  0
LINE
  5
49
330
47
100
AcDbEntity
  8
CSLAYER1
  6
CONTINUOUS
 62
     4
100
AcDbLine
 10
163.5963849999999
 20
74.31505
 30
0.0
 11
163.6653149999999
 21
74.257211
 31
0.0
  0
LINE
  5
4A
330
47
100
AcDbEntity
  8
CSLAYER1
  6
CONTINUOUS
 62
     4
100
AcDbLine
 10
164.88196
 20
75.847139
 30
0.0
 11
164.9508899999998
 21
75.789299
 31
0.0
  0
ENDBLK
  5
4B
330
47
100
AcDbEntity
  8
0
100
AcDbBlockEnd
  0
BLOCK
  5
4D
330
4C
100
AcDbEntity
  8
0
100
AcDbBlockBegin
  2
FXDIM0002
 70
     0
 10
0.0
 20
0.0
 30
0.0
  3
FXDIM0002
  1

  0
LINE
  5
4E
330
4C
100
AcDbEntity
  8
CSLAYER1
  6
CONTINUOUS
 62
     4
100
AcDbLine
 10
187.0677629999999
 20
83.65394700000001
 30
0.0
 11
188.5677629999999
 21
86.252024
 31
0.0
  0
LINE
  5
4F
330
4C
100
AcDbEntity
  8
CSLAYER1
  6
CONTINUOUS
 62
     4
100
AcDbLine
 10
185.5677629999999
 20
86.252024
 30
0.0
 11
194.5677629999999
 21
86.252024
 31
0.0
  0
LINE
  5
50
330
4C
100
AcDbEntity
  8
CSLAYER1
  6
CONTINUOUS
 62
     4
100
AcDbLine
 10
185.5677629999999
 20
86.252024
 30
0.0
 11
187.0677629999999
 21
83.65394700000001
 31
0.0
  0
LINE
  5
51
330
4C
100
AcDbEntity
  8
CSLAYER1
  6
CONTINUOUS
 62
     4
100
AcDbLine
 10
190.0677629999999
 20
83.65394700000001
 30
0.0
 11
191.5677629999999
 21
86.252024
 31
0.0
  0
LINE
  5
52
330
4C
100
AcDbEntity
  8
CSLAYER1
  6
CONTINUOUS
 62
     4
100
AcDbLine
 10
188.5677629999999
 20
86.252024
 30
0.0
 11
190.0677629999999
 21
83.65394700000001
 31
0.0
  0
LINE
  5
53
330
4C
100
AcDbEntity
  8
CSLAYER1
  6
CONTINUOUS
 62
     4
100
AcDbLine
 10
193.0677629999999
 20
83.65394700000001
 30
0.0
 11
194.5677629999999
 21
86.252024
 31
0.0
  0
LINE
  5
54
330
4C
100
AcDbEntity
  8
CSLAYER1
  6
CONTINUOUS
 62
     4
100
AcDbLine
 10
191.5677629999999
 20
86.252024
 30
0.0
 11
193.0677629999999
 21
83.65394700000001
 31
0.0
  0
ENDBLK
  5
55
330
4C
100
AcDbEntity
  8
0
100
AcDbBlockEnd
  0
BLOCK
  5
57
330
56
100
AcDbEntity
  8
0
100
AcDbBlockBegin
  2
FXDIM0003
 70
     0
 10
0.0
 20
0.0
 30
0.0
  3
FXDIM0003
  1

  0
LINE
  5
58
330
56
100
AcDbEntity
  8
CSLAYER1
  6
CONTINUOUS
 62
     4
100
AcDbLine
 10
187.6677629999999
 20
71.653947
 30
0.0
 11
186.1677629999999
 21
69.05587099999999
 31
0.0
  0
LINE
  5
59
330
56
100
AcDbEntity
  8
CSLAYER1
  6
CONTINUOUS
 62
     4
100
AcDbLine
 10
186.1677629999999
 20
69.05587099999999
 30
0.0
 11
195.1677629999999
 21
69.05587099999999
 31
0.0
  0
LINE
  5
5A
330
56
100
AcDbEntity
  8
CSLAYER1
  6
CONTINUOUS
 62
     4
100
AcDbLine
 10
189.1677629999999
 20
69.05587099999999
 30
0.0
 11
187.6677629999999
 21
71.653947
 31
0.0
  0
LINE
  5
5B
330
56
100
AcDbEntity
  8
CSLAYER1
  6
CONTINUOUS
 62
     4
100
AcDbLine
 10
190.6677629999999
 20
71.653947
 30
0.0
 11
189.1677629999999
 21
69.05587099999999
 31
0.0
  0
LINE
  5
5C
330
56
100
AcDbEntity
  8
CSLAYER1
  6
CONTINUOUS
 62
     4
100
AcDbLine
 10
192.1677629999999
 20
69.05587099999999
 30
0.0
 11
190.6677629999999
 21
71.653947
 31
0.0
  0
LINE
  5
5D
330
56
100
AcDbEntity
  8
CSLAYER1
  6
CONTINUOUS
 62
     4
100
AcDbLine
 10
193.6677629999999
 20
71.653947
 30
0.0
 11
192.1677629999999
 21
69.05587099999999
 31
0.0
  0
LINE
  5
5E
330
56
100
AcDbEntity
  8
CSLAYER1
  6
CONTINUOUS
 62
     4
100
AcDbLine
 10
195.1677629999999
 20
69.05587099999999
 30
0.0
 11
193.6677629999999
 21
71.653947
 31
0.0
  0
ENDBLK
  5
5F
330
56
100
AcDbEntity
  8
0
100
AcDbBlockEnd
  0
BLOCK
  5
61
330
60
100
AcDbEntity
  8
0
100
AcDbBlockBegin
  2
*D4
 70
     1
 10
0.0
 20
0.0
 30
0.0
  3
*D4
  1

  0
TEXT
  5
62
330
60
100
AcDbEntity
  8
CSLAYER1
 62
     4
100
AcDbText
 10
133.4279619999998
 20
66.610766
 30
0.0
 40
3.2
  1
切刃部有効10
 50
319.9999997155404
 41
0.9130435072930428
 51
15.0
  7
FX_FONT
 72
     5
 11
150.587358
 21
52.212323
 31
0.0
100
AcDbText
  0
LINE
  5
63
330
60
100
AcDbEntity
  8
CSLAYER1
  6
CONTINUOUS
 62
     4
100
AcDbLine
 10
141.426103
 20
66.838599
 30
0.0
 11
149.0865479999999
 21
60.41072299999999
 31
0.0
  0
LINE
  5
64
330
60
100
AcDbEntity
  8
CSLAYER1
  6
CONTINUOUS
 62
     4
100
AcDbLine
 10
141.426103
 20
66.838599
 30
0.0
 11
144.1450269999999
 21
65.57074399999999
 31
0.0
  0
LINE
  5
65
330
60
100
AcDbEntity
  8
CSLAYER1
  6
CONTINUOUS
 62
     4
100
AcDbLine
 10
141.426103
 20
66.838599
 30
0.0
 11
143.146833
 21
64.38114200000001
 31
0.0
  0
LINE
  5
66
330
60
100
AcDbEntity
  8
CSLAYER1
  6
CONTINUOUS
 62
     4
100
AcDbLine
 10
149.0865479999999
 20
60.41072299999999
 30
0.0
 11
146.367624
 21
61.678577
 31
0.0
  0
LINE
  5
67
330
60
100
AcDbEntity
  8
CSLAYER1
  6
CONTINUOUS
 62
     4
100
AcDbLine
 10
149.0865479999999
 20
60.41072299999999
 30
0.0
 11
147.3658189999999
 21
62.868179
 31
0.0
  0
LINE
  5
68
330
60
100
AcDbEntity
  8
CSLAYER1
  6
CONTINUOUS
 62
     4
100
AcDbLine
 10
153.624976
 20
81.37664800000001
 30
0.0
 11
140.7833159999998
 21
66.07255399999999
 31
0.0
  0
LINE
  5
69
330
60
100
AcDbEntity
  8
CSLAYER1
  6
CONTINUOUS
 62
     4
100
AcDbLine
 10
161.2854199999999
 20
74.94877199999997
 30
0.0
 11
148.4437599999999
 21
59.64467800000001
 31
0.0
  0
ENDBLK
  5
6A
330
60
100
AcDbEntity
  8
0
100
AcDbBlockEnd
  0
BLOCK
  5
6C
330
6B
100
AcDbEntity
  8
0
100
AcDbBlockBegin
  2
*D5
 70
     1
 10
0.0
 20
0.0
 30
0.0
  3
*D5
  1

  0
TEXT
  5
6D
330
6B
100
AcDbEntity
  8
CSLAYER1
 62
     4
100
AcDbText
 10
167.1177759999999
 20
59.750523
 30
0.0
 40
3.2
  1
13.5
 41
1.090909176136371
 51
15.0
  7
FX_FONT
 72
     5
 11
179.917777
 21
59.750523
 31
0.0
100
AcDbText
  0
LINE
  5
6E
330
6B
100
AcDbEntity
  8
CSLAYER1
  6
CONTINUOUS
 62
     4
100
AcDbLine
 10
166.767763
 20
58.750521
 30
0.0
 11
180.2677629999999
 21
58.750521
 31
0.0
  0
LINE
  5
6F
330
6B
100
AcDbEntity
  8
CSLAYER1
  6
CONTINUOUS
 62
     4
100
AcDbLine
 10
166.767763
 20
58.750521
 30
0.0
 11
169.6655409999999
 21
59.526978
 31
0.0
  0
LINE
  5
70
330
6B
100
AcDbEntity
  8
CSLAYER1
  6
CONTINUOUS
 62
     4
100
AcDbLine
 10
166.767763
 20
58.750521
 30
0.0
 11
169.6655409999999
 21
57.97406399999999
 31
0.0
  0
LINE
  5
71
330
6B
100
AcDbEntity
  8
CSLAYER1
  6
CONTINUOUS
 62
     4
100
AcDbLine
 10
180.2677629999999
 20
58.750521
 30
0.0
 11
177.369986
 21
59.526978
 31
0.0
  0
LINE
  5
72
330
6B
100
AcDbEntity
  8
CSLAYER1
  6
CONTINUOUS
 62
     4
100
AcDbLine
 10
180.2677629999999
 20
58.750521
 30
0.0
 11
177.369986
 21
57.97406399999999
 31
0.0
  0
LINE
  5
73
330
6B
100
AcDbEntity
  8
CSLAYER1
  6
CONTINUOUS
 62
     4
100
AcDbLine
 10
166.767763
 20
70.653947
 30
0.0
 11
166.767763
 21
57.75052099999999
 31
0.0
  0
LINE
  5
74
330
6B
100
AcDbEntity
  8
CSLAYER1
  6
CONTINUOUS
 62
     4
100
AcDbLine
 10
180.2677629999999
 20
67.118747
 30
0.0
 11
180.2677629999999
 21
57.75052099999999
 31
0.0
  0
ENDBLK
  5
75
330
6B
100
AcDbEntity
  8
0
100
AcDbBlockEnd
  0
BLOCK
  5
77
330
76
100
AcDbEntity
  8
0
100
AcDbBlockBegin
  2
*D6
 70
     1
 10
0.0
 20
0.0
 30
0.0
  3
*D6
  1

  0
TEXT
  5
78
330
76
100
AcDbEntity
  8
CSLAYER1
 62
     4
100
AcDbText
 10
137.717407
 20
73.99643799999998
 30
0.0
 40
3.2
  1
12  
 50
90.0
 41
1.250000097656252
 51
15.0
  7
FX_FONT
 72
     5
 11
137.717407
 21
86.796439
 31
0.0
100
AcDbText
  0
TEXT
  5
79
330
76
100
AcDbEntity
  8
CSLAYER1
 62
     4
100
AcDbText
 10
136.117407
 20
86.796439
 30
0.0
 40
1.6
  1
  0
 50
90.0
 41
1.607142857142856
 51
15.0
  7
FX_FONT
 72
     5
 11
136.117407
 21
91.596439
 31
0.0
100
AcDbText
  0
TEXT
  5
7A
330
76
100
AcDbEntity
  8
CSLAYER1
 62
     4
100
AcDbText
 10
137.717407
 20
86.796439
 30
0.0
 40
1.6
  1
-0.15
 50
90.0
 41
1.071428571428571
 51
15.0
  7
FX_FONT
 72
     5
 11
137.717407
 21
94.79643900000001
 31
0.0
100
AcDbText
  0
LINE
  5
7B
330
76
100
AcDbEntity
  8
CSLAYER1
  6
CONTINUOUS
 62
     4
100
AcDbLine
 10
138.7174019999999
 20
71.653947
 30
0.0
 11
138.7174019999999
 21
83.65394700000001
 31
0.0
  0
LINE
  5
7C
330
76
100
AcDbEntity
  8
CSLAYER1
  6
CONTINUOUS
 62
     4
100
AcDbLine
 10
138.7174019999999
 20
71.653947
 30
0.0
 11
137.940945
 21
74.551725
 31
0.0
  0
LINE
  5
7D
330
76
100
AcDbEntity
  8
CSLAYER1
  6
CONTINUOUS
 62
     4
100
AcDbLine
 10
138.7174019999999
 20
71.653947
 30
0.0
 11
139.49386
 21
74.551725
 31
0.0
  0
LINE
  5
7E
330
76
100
AcDbEntity
  8
CSLAYER1
  6
CONTINUOUS
 62
     4
100
AcDbLine
 10
138.7174019999999
 20
83.65394700000001
 30
0.0
 11
137.940945
 21
80.75616999999999
 31
0.0
  0
LINE
  5
7F
330
76
100
AcDbEntity
  8
CSLAYER1
  6
CONTINUOUS
 62
     4
100
AcDbLine
 10
138.7174019999999
 20
83.65394700000001
 30
0.0
 11
139.49386
 21
80.75616999999999
 31
0.0
  0
LINE
  5
80
330
76
100
AcDbEntity
  8
CSLAYER1
  6
CONTINUOUS
 62
     4
100
AcDbLine
 10
165.767763
 20
71.653947
 30
0.0
 11
137.7174019999999
 21
71.653947
 31
0.0
  0
LINE
  5
81
330
76
100
AcDbEntity
  8
CSLAYER1
  6
CONTINUOUS
 62
     4
100
AcDbLine
 10
153.267763
 20
83.65394700000001
 30
0.0
 11
137.7174019999999
 21
83.65394700000001
 31
0.0
  0
ENDBLK
  5
82
330
76
100
AcDbEntity
  8
0
100
AcDbBlockEnd
  0
BLOCK
  5
84
330
83
100
AcDbEntity
  8
0
100
AcDbBlockBegin
  2
*D7
 70
     1
 10
0.0
 20
0.0
 30
0.0
  3
*D7
  1

  0
TEXT
  5
85
330
83
100
AcDbEntity
  8
CSLAYER1
 62
     4
100
AcDbText
 10
153.5416219999999
 20
71.57027099999997
 30
0.0
 40
3.2
  1
40%%d
 50
69.99999617428359
 41
1.285714294221803
 51
15.0
  7
FX_FONT
 72
     5
 11
156.825016
 21
80.59131999999998
 31
0.0
100
AcDbText
  0
ARC
  5
86
330
83
100
AcDbEntity
  8
CSLAYER1
  6
CONTINUOUS
 62
     4
100
AcDbCircle
 10
166.767763
 20
71.653947
 30
0.0
 40
11.904821
100
AcDbArc
 50
140.0
 51
180.0
  0
ARC
  5
87
330
83
100
AcDbEntity
  8
CSLAYER1
  6
CONTINUOUS
 62
     4
100
AcDbCircle
 10
166.767763
 20
71.653947
 30
0.0
 40
11.904821
100
AcDbArc
 50
122.277672
 51
140.0
  0
LINE
  5
88
330
83
100
AcDbEntity
  8
CSLAYER1
  6
CONTINUOUS
 62
     4
100
AcDbLine
 10
157.6481409999999
 20
79.306219
 30
0.0
 11
158.915996
 21
82.02514200000001
 31
0.0
  0
LINE
  5
89
330
83
100
AcDbEntity
  8
CSLAYER1
  6
CONTINUOUS
 62
     4
100
AcDbLine
 10
157.6481409999999
 20
79.306219
 30
0.0
 11
160.1055969999999
 21
81.026948
 31
0.0
  0
ARC
  5
8A
330
83
100
AcDbEntity
  8
CSLAYER1
  6
CONTINUOUS
 62
     4
100
AcDbCircle
 10
166.767763
 20
71.653947
 30
0.0
 40
11.904821
100
AcDbArc
 50
180.0
 51
197.1098459999999
  0
LINE
  5
8B
330
83
100
AcDbEntity
  8
CSLAYER1
  6
CONTINUOUS
 62
     4
100
AcDbLine
 10
154.862942
 20
71.653947
 30
0.0
 11
154.086485
 21
68.75617
 31
0.0
  0
LINE
  5
8C
330
83
100
AcDbEntity
  8
CSLAYER1
  6
CONTINUOUS
 62
     4
100
AcDbLine
 10
154.862942
 20
71.653947
 30
0.0
 11
155.639399
 21
68.75617
 31
0.0
  0
ENDBLK
  5
8D
330
83
100
AcDbEntity
  8
0
100
AcDbBlockEnd
  0
BLOCK
  5
8F
330
8E
100
AcDbEntity
  8
0
100
AcDbBlockBegin
  2
*D8
 70
     1
 10
0.0
 20
0.0
 30
0.0
  3
*D8
  1

  0
TEXT
  5
90
330
8E
100
AcDbEntity
  8
CSLAYER1
 62
     4
100
AcDbText
 10
164.067776
 20
162.8931879999998
 30
0.0
 40
3.2
  1
26
 41
1.2000001875
 51
15.0
  7
FX_FONT
 72
     5
 11
170.467777
 21
162.8931879999998
 31
0.0
100
AcDbText
  0
LINE
  5
91
330
8E
100
AcDbEntity
  8
CSLAYER1
  6
CONTINUOUS
 62
     4
100
AcDbLine
 10
154.267763
 20
161.893183
 30
0.0
 11
180.2677629999999
 21
161.893183
 31
0.0
  0
LINE
  5
92
330
8E
100
AcDbEntity
  8
CSLAYER1
  6
CONTINUOUS
 62
     4
100
AcDbLine
 10
154.267763
 20
161.893183
 30
0.0
 11
157.1655409999999
 21
162.6696399999999
 31
0.0
  0
LINE
  5
93
330
8E
100
AcDbEntity
  8
CSLAYER1
  6
CONTINUOUS
 62
     4
100
AcDbLine
 10
154.267763
 20
161.893183
 30
0.0
 11
157.1655409999999
 21
161.116726
 31
0.0
  0
LINE
  5
94
330
8E
100
AcDbEntity
  8
CSLAYER1
  6
CONTINUOUS
 62
     4
100
AcDbLine
 10
180.2677629999999
 20
161.893183
 30
0.0
 11
177.369986
 21
162.6696399999999
 31
0.0
  0
LINE
  5
95
330
8E
100
AcDbEntity
  8
CSLAYER1
  6
CONTINUOUS
 62
     4
100
AcDbLine
 10
180.2677629999999
 20
161.893183
 30
0.0
 11
177.369986
 21
161.116726
 31
0.0
  0
LINE
  5
96
330
8E
100
AcDbEntity
  8
CSLAYER1
  6
CONTINUOUS
 62
     4
100
AcDbLine
 10
154.267763
 20
139.953947
 30
0.0
 11
154.267763
 21
162.8931829999999
 31
0.0
  0
LINE
  5
97
330
8E
100
AcDbEntity
  8
CSLAYER1
  6
CONTINUOUS
 62
     4
100
AcDbLine
 10
180.2677629999999
 20
151.01698
 30
0.0
 11
180.2677629999999
 21
162.8931829999999
 31
0.0
  0
ENDBLK
  5
98
330
8E
100
AcDbEntity
  8
0
100
AcDbBlockEnd
  0
BLOCK
  5
9A
330
99
100
AcDbEntity
  8
0
100
AcDbBlockBegin
  2
*D9
 70
     1
 10
0.0
 20
0.0
 30
0.0
  3
*D9
  1

  0
TEXT
  5
9B
330
99
100
AcDbEntity
  8
CSLAYER1
 62
     4
100
AcDbText
 10
135.920181
 20
124.253949
 30
0.0
 40
3.2
  1
22.5~24
 50
90.0
 41
1.05
 51
15.0
  7
FX_FONT
 72
     5
 11
135.920181
 21
146.653949
 31
0.0
100
AcDbText
  0
LINE
  5
9C
330
99
100
AcDbEntity
  8
CSLAYER1
  6
CONTINUOUS
 62
     4
100
AcDbLine
 10
136.920184
 20
123.9539469999999
 30
0.0
 11
136.920184
 21
146.9539469999999
 31
0.0
  0
LINE
  5
9D
330
99
100
AcDbEntity
  8
CSLAYER1
  6
CONTINUOUS
 62
     4
100
AcDbLine
 10
136.920184
 20
123.9539469999999
 30
0.0
 11
136.143727
 21
126.851725
 31
0.0
  0
LINE
  5
9E
330
99
100
AcDbEntity
  8
CSLAYER1
  6
CONTINUOUS
 62
     4
100
AcDbLine
 10
136.920184
 20
123.9539469999999
 30
0.0
 11
137.696641
 21
126.851725
 31
0.0
  0
LINE
  5
9F
330
99
100
AcDbEntity
  8
CSLAYER1
  6
CONTINUOUS
 62
     4
100
AcDbLine
 10
136.920184
 20
146.9539469999999
 30
0.0
 11
136.143727
 21
144.05617
 31
0.0
  0
LINE
  5
A0
330
99
100
AcDbEntity
  8
CSLAYER1
  6
CONTINUOUS
 62
     4
100
AcDbLine
 10
136.920184
 20
146.9539469999999
 30
0.0
 11
137.696641
 21
144.05617
 31
0.0
  0
LINE
  5
A1
330
99
100
AcDbEntity
  8
CSLAYER1
  6
CONTINUOUS
 62
     4
100
AcDbLine
 10
161.267763
 20
123.9539469999999
 30
0.0
 11
135.920184
 21
123.9539469999999
 31
0.0
  0
LINE
  5
A2
330
99
100
AcDbEntity
  8
CSLAYER1
  6
CONTINUOUS
 62
     4
100
AcDbLine
 10
161.267763
 20
146.9539469999999
 30
0.0
 11
135.920184
 21
146.9539469999999
 31
0.0
  0
ENDBLK
  5
A3
330
99
100
AcDbEntity
  8
0
100
AcDbBlockEnd
  0
BLOCK
  5
A5
330
A4
100
AcDbEntity
  8
0
100
AcDbBlockBegin
  2
*D10
 70
     1
 10
0.0
 20
0.0
 30
0.0
  3
*D10
  1

  0
TEXT
  5
A6
330
A4
100
AcDbEntity
  8
CSLAYER1
 62
     4
100
AcDbText
 10
141.920181
 20
133.853949
 30
0.0
 40
3.2
  1
7
 50
90.0
 41
1.499999999999954
 51
15.0
  7
FX_FONT
 72
     5
 11
141.920181
 21
137.0539489999998
 31
0.0
100
AcDbText
  0
LINE
  5
A7
330
A4
100
AcDbEntity
  8
CSLAYER1
  6
CONTINUOUS
 62
     4
100
AcDbLine
 10
142.920184
 20
131.953947
 30
0.0
 11
142.920184
 21
138.953947
 31
0.0
  0
LINE
  5
A8
330
A4
100
AcDbEntity
  8
CSLAYER1
  6
CONTINUOUS
 62
     4
100
AcDbLine
 10
142.920184
 20
131.953947
 30
0.0
 11
142.143727
 21
134.851725
 31
0.0
  0
LINE
  5
A9
330
A4
100
AcDbEntity
  8
CSLAYER1
  6
CONTINUOUS
 62
     4
100
AcDbLine
 10
142.920184
 20
131.953947
 30
0.0
 11
143.6966409999999
 21
134.851725
 31
0.0
  0
LINE
  5
AA
330
A4
100
AcDbEntity
  8
CSLAYER1
  6
CONTINUOUS
 62
     4
100
AcDbLine
 10
142.920184
 20
138.953947
 30
0.0
 11
142.143727
 21
136.05617
 31
0.0
  0
LINE
  5
AB
330
A4
100
AcDbEntity
  8
CSLAYER1
  6
CONTINUOUS
 62
     4
100
AcDbLine
 10
142.920184
 20
138.953947
 30
0.0
 11
143.6966409999999
 21
136.05617
 31
0.0
  0
LINE
  5
AC
330
A4
100
AcDbEntity
  8
CSLAYER1
  6
CONTINUOUS
 62
     4
100
AcDbLine
 10
153.267763
 20
131.953947
 30
0.0
 11
141.920184
 21
131.953947
 31
0.0
  0
LINE
  5
AD
330
A4
100
AcDbEntity
  8
CSLAYER1
  6
CONTINUOUS
 62
     4
100
AcDbLine
 10
153.267763
 20
138.953947
 30
0.0
 11
141.920184
 21
138.953947
 31
0.0
  0
ENDBLK
  5
AE
330
A4
100
AcDbEntity
  8
0
100
AcDbBlockEnd
  0
BLOCK
  5
B0
330
AF
100
AcDbEntity
  8
0
100
AcDbBlockBegin
  2
*D11
 70
     1
 10
0.0
 20
0.0
 30
0.0
  3
*D11
  1

  0
TEXT
  5
B1
330
AF
100
AcDbEntity
  8
CSLAYER1
 62
     4
100
AcDbText
 10
156.991195
 20
127.9682969999999
 30
0.0
 40
3.2
  1
R8
 50
45.76343106947855
 41
1.199999952250456
 51
15.0
  7
FX_FONT
 72
     5
 11
161.455979
 21
132.553676
 31
0.0
100
AcDbText
  0
LINE
  5
B2
330
AF
100
AcDbEntity
  8
CSLAYER1
  6
CONTINUOUS
 62
     4
100
AcDbLine
 10
156.686783
 20
126.222223
 30
0.0
 11
162.267763
 21
131.953947
 31
0.0
  0
LINE
  5
B3
330
AF
100
AcDbEntity
  8
CSLAYER1
  6
CONTINUOUS
 62
     4
100
AcDbLine
 10
156.686783
 20
126.222223
 30
0.0
 11
158.152033
 21
128.840055
 31
0.0
  0
LINE
  5
B4
330
AF
100
AcDbEntity
  8
CSLAYER1
  6
CONTINUOUS
 62
     4
100
AcDbLine
 10
156.686783
 20
126.222223
 30
0.0
 11
159.264643
 21
127.756707
 31
0.0
  0
ENDBLK
  5
B5
330
AF
100
AcDbEntity
  8
0
100
AcDbBlockEnd
  0
BLOCK
  5
B7
330
B6
100
AcDbEntity
  8
0
100
AcDbBlockBegin
  2
*D12
 70
     1
 10
0.0
 20
0.0
 30
0.0
  3
*D12
  1

  0
TEXT
  5
B8
330
B6
100
AcDbEntity
  8
CSLAYER1
 62
     4
100
AcDbText
 10
79.683143
 20
144.40184
 30
0.0
 40
3.2
  1
(0.8)
 41
1.153846225961538
 51
15.0
  7
FX_FONT
 72
     5
 11
95.683144
 21
144.40184
 31
0.0
100
AcDbText
  0
LINE
  5
B9
330
B6
100
AcDbEntity
  8
CSLAYER1
  6
CONTINUOUS
 62
     4
100
AcDbLine
 10
91.399489
 20
143.4018209999998
 30
0.0
 11
92.199489
 21
143.4018209999998
 31
0.0
  0
LINE
  5
BA
330
B6
100
AcDbEntity
  8
CSLAYER1
  6
CONTINUOUS
 62
     4
100
AcDbLine
 10
98.64025599999999
 20
136.161054
 30
0.0
 11
90.69238199999999
 21
144.1089279999999
 31
0.0
  0
LINE
  5
BB
330
B6
100
AcDbEntity
  8
CSLAYER1
  6
CONTINUOUS
 62
     4
100
AcDbLine
 10
99.44025600000001
 20
136.161054
 30
0.0
 11
91.492382
 21
144.1089279999999
 31
0.0
  0
LINE
  5
BC
330
B6
100
AcDbEntity
  8
CSLAYER1
  6
CONTINUOUS
 62
     4
100
AcDbLine
 10
83.966796
 20
143.4018209999998
 30
0.0
 11
91.399489
 21
143.4018209999998
 31
0.0
  0
LINE
  5
BD
330
B6
100
AcDbEntity
  8
CSLAYER1
  6
CONTINUOUS
 62
     4
100
AcDbLine
 10
91.399489
 20
143.4018209999998
 30
0.0
 11
88.501712
 21
144.178278
 31
0.0
  0
LINE
  5
BE
330
B6
100
AcDbEntity
  8
CSLAYER1
  6
CONTINUOUS
 62
     4
100
AcDbLine
 10
91.399489
 20
143.4018209999998
 30
0.0
 11
88.501712
 21
142.6253639999998
 31
0.0
  0
LINE
  5
BF
330
B6
100
AcDbEntity
  8
CSLAYER1
  6
CONTINUOUS
 62
     4
100
AcDbLine
 10
92.199489
 20
143.4018209999998
 30
0.0
 11
98.19948899999999
 21
143.4018209999998
 31
0.0
  0
LINE
  5
C0
330
B6
100
AcDbEntity
  8
CSLAYER1
  6
CONTINUOUS
 62
     4
100
AcDbLine
 10
92.199489
 20
143.4018209999998
 30
0.0
 11
95.09726699999999
 21
144.178278
 31
0.0
  0
LINE
  5
C1
330
B6
100
AcDbEntity
  8
CSLAYER1
  6
CONTINUOUS
 62
     4
100
AcDbLine
 10
92.199489
 20
143.4018209999998
 30
0.0
 11
95.09726699999999
 21
142.6253639999998
 31
0.0
  0
ENDBLK
  5
C2
330
B6
100
AcDbEntity
  8
0
100
AcDbBlockEnd
  0
BLOCK
  5
C4
330
C3
100
AcDbEntity
  8
0
100
AcDbBlockBegin
  2
*D13
 70
     1
 10
0.0
 20
0.0
 30
0.0
  3
*D13
  1

  0
TEXT
  5
C5
330
C3
100
AcDbEntity
  8
CSLAYER1
 62
     4
100
AcDbText
 10
104.1619209999999
 20
158.820325
 30
0.0
 40
3.2
  1
45%%d
 50
337.4999985585441
 41
1.285714224875631
 51
15.0
  7
FX_FONT
 72
     5
 11
113.0311639999999
 21
155.1465639999999
 31
0.0
100
AcDbText
  0
ARC
  5
C6
330
C3
100
AcDbEntity
  8
CSLAYER1
  6
CONTINUOUS
 62
     4
100
AcDbCircle
 10
99.347363
 20
134.6539469999999
 30
0.0
 40
23.169259
100
AcDbArc
 50
45.0
 51
90.0
  0
LINE
  5
C7
330
C3
100
AcDbEntity
  8
CSLAYER1
  6
CONTINUOUS
 62
     4
100
AcDbLine
 10
115.730503
 20
151.0370879999999
 30
0.0
 11
113.132427
 21
152.5370879999998
 31
0.0
  0
LINE
  5
C8
330
C3
100
AcDbEntity
  8
CSLAYER1
  6
CONTINUOUS
 62
     4
100
AcDbLine
 10
115.730503
 20
151.0370879999999
 30
0.0
 11
114.2305029999999
 21
153.635164
 31
0.0
  0
LINE
  5
C9
330
C3
100
AcDbEntity
  8
CSLAYER1
  6
CONTINUOUS
 62
     4
100
AcDbLine
 10
99.347363
 20
157.823207
 30
0.0
 11
102.2451409999999
 21
158.5996639999999
 31
0.0
  0
LINE
  5
CA
330
C3
100
AcDbEntity
  8
CSLAYER1
  6
CONTINUOUS
 62
     4
100
AcDbLine
 10
99.347363
 20
157.823207
 30
0.0
 11
102.2451409999999
 21
157.04675
 31
0.0
  0
LINE
  5
CB
330
C3
100
AcDbEntity
  8
CSLAYER1
  6
CONTINUOUS
 62
     4
100
AcDbLine
 10
108.9862159999998
 20
144.2928
 30
0.0
 11
116.43761
 21
151.7441939999999
 31
0.0
  0
ENDBLK
  5
CC
330
C3
100
AcDbEntity
  8
0
100
AcDbBlockEnd
  0
BLOCK
  5
CE
330
CD
100
AcDbEntity
  8
0
100
AcDbBlockBegin
  2
*D14
 70
     1
 10
0.0
 20
0.0
 30
0.0
  3
*D14
  1

  0
TEXT
  5
CF
330
CD
100
AcDbEntity
  8
CSLAYER1
 62
     4
100
AcDbText
 10
81.04271800000002
 20
130.197381
 30
0.0
 40
3.2
  1
60%%d
 50
300.0000047996592
 41
1.285714367022432
 51
15.0
  7
FX_FONT
 72
     5
 11
85.84271899999997
 21
121.883537
 31
0.0
100
AcDbText
  0
ARC
  5
D0
330
CD
100
AcDbEntity
  8
CSLAYER1
  6
CONTINUOUS
 62
     4
100
AcDbCircle
 10
99.74736300000001
 20
135.4539469999999
 30
0.0
 40
19.826979
100
AcDbArc
 50
180.0
 51
239.9999999999999
  0
LINE
  5
D1
330
CD
100
AcDbEntity
  8
CSLAYER1
  6
CONTINUOUS
 62
     4
100
AcDbLine
 10
79.920384
 20
135.4539469999999
 30
0.0
 11
79.143927
 21
132.55617
 31
0.0
  0
LINE
  5
D2
330
CD
100
AcDbEntity
  8
CSLAYER1
  6
CONTINUOUS
 62
     4
100
AcDbLine
 10
79.920384
 20
135.4539469999999
 30
0.0
 11
80.69684100000001
 21
132.55617
 31
0.0
  0
LINE
  5
D3
330
CD
100
AcDbEntity
  8
CSLAYER1
  6
CONTINUOUS
 62
     4
100
AcDbLine
 10
89.83387399999998
 20
118.28328
 30
0.0
 11
86.936096
 21
119.059737
 31
0.0
  0
LINE
  5
D4
330
CD
100
AcDbEntity
  8
CSLAYER1
  6
CONTINUOUS
 62
     4
100
AcDbLine
 10
89.83387399999998
 20
118.28328
 30
0.0
 11
87.71255299999998
 21
120.4045999999999
 31
0.0
  0
LINE
  5
D5
330
CD
100
AcDbEntity
  8
CSLAYER1
  6
CONTINUOUS
 62
     4
100
AcDbLine
 10
95.72400700000001
 20
135.4539469999999
 30
0.0
 11
78.920384
 21
135.4539469999999
 31
0.0
  0
LINE
  5
D6
330
CD
100
AcDbEntity
  8
CSLAYER1
  6
CONTINUOUS
 62
     4
100
AcDbLine
 10
98.850513
 20
133.900557
 30
0.0
 11
89.33387399999999
 21
117.417254
 31
0.0
  0
ENDBLK
  5
D7
330
CD
100
AcDbEntity
  8
0
100
AcDbBlockEnd
  0
BLOCK
  5
D9
330
D8
100
AcDbEntity
  8
0
100
AcDbBlockBegin
  2
*D15
 70
     1
 10
0.0
 20
0.0
 30
0.0
  3
*D15
  1

  0
TEXT
  5
DA
330
D8
100
AcDbEntity
  8
CSLAYER1
 62
     4
100
AcDbText
 10
97.445845
 20
116.161507
 30
0.0
 40
3.2
  1
75%%d
 50
7.499997107265593
 41
1.285714321855749
 51
15.0
  7
FX_FONT
 72
     5
 11
106.9637159999998
 21
117.414558
 31
0.0
100
AcDbText
  0
ARC
  5
DB
330
D8
100
AcDbEntity
  8
CSLAYER1
  6
CONTINUOUS
 62
     4
100
AcDbCircle
 10
99.74736300000001
 20
135.4539469999999
 30
0.0
 40
19.826979
100
AcDbArc
 50
239.9999999999999
 51
315.0
  0
LINE
  5
DC
330
D8
100
AcDbEntity
  8
CSLAYER1
  6
CONTINUOUS
 62
     4
100
AcDbLine
 10
89.83387399999998
 20
118.28328
 30
0.0
 11
92.73165099999999
 21
117.5068229999999
 31
0.0
  0
LINE
  5
DD
330
D8
100
AcDbEntity
  8
CSLAYER1
  6
CONTINUOUS
 62
     4
100
AcDbLine
 10
89.83387399999998
 20
118.28328
 30
0.0
 11
91.955194
 21
116.161959
 31
0.0
  0
LINE
  5
DE
330
D8
100
AcDbEntity
  8
CSLAYER1
  6
CONTINUOUS
 62
     4
100
AcDbLine
 10
113.767154
 20
121.434156
 30
0.0
 11
112.267154
 21
118.83608
 31
0.0
  0
LINE
  5
DF
330
D8
100
AcDbEntity
  8
CSLAYER1
  6
CONTINUOUS
 62
     4
100
AcDbLine
 10
113.767154
 20
121.434156
 30
0.0
 11
111.1690779999999
 21
119.934156
 31
0.0
  0
LINE
  5
E0
330
D8
100
AcDbEntity
  8
CSLAYER1
  6
CONTINUOUS
 62
     4
100
AcDbLine
 10
108.914732
 20
126.286578
 30
0.0
 11
114.474261
 21
120.7270489999999
 31
0.0
  0
ENDBLK
  5
E1
330
D8
100
AcDbEntity
  8
0
100
AcDbBlockEnd
  0
BLOCK
  5
E3
330
E2
100
AcDbEntity
  8
0
100
AcDbBlockBegin
  2
*D16
 70
     1
 10
0.0
 20
0.0
 30
0.0
  3
*D16
  1

  0
TEXT
  5
E4
330
E2
100
AcDbEntity
  8
CSLAYER1
 62
     4
100
AcDbText
 10
68.788246
 20
34.725657
 30
0.0
 40
3.2
  1
7
 50
90.0
 41
1.500000000000001
 51
15.0
  7
FX_FONT
 72
     5
 11
68.788246
 21
37.925657
 31
0.0
100
AcDbText
  0
LINE
  5
E5
330
E2
100
AcDbEntity
  8
CSLAYER1
  6
CONTINUOUS
 62
     4
100
AcDbLine
 10
69.78824200000001
 20
32.825658
 30
0.0
 11
69.78824200000001
 21
39.825658
 31
0.0
  0
LINE
  5
E6
330
E2
100
AcDbEntity
  8
CSLAYER1
  6
CONTINUOUS
 62
     4
100
AcDbLine
 10
69.78824200000001
 20
32.825658
 30
0.0
 11
69.011785
 21
35.72343499999998
 31
0.0
  0
LINE
  5
E7
330
E2
100
AcDbEntity
  8
CSLAYER1
  6
CONTINUOUS
 62
     4
100
AcDbLine
 10
69.78824200000001
 20
32.825658
 30
0.0
 11
70.5647
 21
35.72343499999998
 31
0.0
  0
LINE
  5
E8
330
E2
100
AcDbEntity
  8
CSLAYER1
  6
CONTINUOUS
 62
     4
100
AcDbLine
 10
69.78824200000001
 20
39.825658
 30
0.0
 11
69.011785
 21
36.92788
 31
0.0
  0
LINE
  5
E9
330
E2
100
AcDbEntity
  8
CSLAYER1
  6
CONTINUOUS
 62
     4
100
AcDbLine
 10
69.78824200000001
 20
39.825658
 30
0.0
 11
70.5647
 21
36.92788
 31
0.0
  0
LINE
  5
EA
330
E2
100
AcDbEntity
  8
CSLAYER1
  6
CONTINUOUS
 62
     4
100
AcDbLine
 10
79.24454899999997
 20
32.825658
 30
0.0
 11
68.78824200000001
 21
32.825658
 31
0.0
  0
LINE
  5
EB
330
E2
100
AcDbEntity
  8
CSLAYER1
  6
CONTINUOUS
 62
     4
100
AcDbLine
 10
79.24454899999997
 20
39.825658
 30
0.0
 11
68.78824200000001
 21
39.825658
 31
0.0
  0
ENDBLK
  5
EC
330
E2
100
AcDbEntity
  8
0
100
AcDbBlockEnd
  0
BLOCK
  5
1A8
330
19D
100
AcDbEntity
  8
0
100
AcDbBlockBegin
  2
*D17
 70
     1
 10
0.0
 20
0.0
 30
0.0
  3
*D17
  1

  0
ARC
  5
19E
330
19D
100
AcDbEntity
  8
CSLAYER1
 62
     0
100
AcDbCircle
 10
166.767763
 20
71.65394700000002
 30
0.0
 40
11.90482166312668
100
AcDbArc
 50
140.8663144483173
 51
159.0753378711184
  0
ARC
  5
19F
330
19D
100
AcDbEntity
  8
CSLAYER1
 62
     0
100
AcDbCircle
 10
166.767763
 20
71.65394700000002
 30
0.0
 40
11.90482166312668
100
AcDbArc
 50
160.9192601725029
 51
179.1336839101385
  0
SOLID
  5
1A0
330
19D
100
AcDbEntity
  8
CSLAYER1
 62
     0
100
AcDbTrace
 10
157.510358239098
 20
79.1865697046945
 30
0.0
 11
157.5566111581149
 21
79.14835102493675
 31
0.0
 12
157.6481407378796
 22
79.30621912186612
 32
0.0
 13
157.6481407378796
 23
79.30621912186612
 33
0.0
  0
SOLID
  5
1A1
330
19D
100
AcDbEntity
  8
CSLAYER1
 62
     0
100
AcDbTrace
 10
154.8943012727349
 20
71.83371505729262
 30
0.0
 11
154.8343029873501
 21
71.83416865501569
 31
0.0
 12
154.8629413368733
 22
71.653947
 32
0.0
 13
154.8629413368733
 23
71.653947
 33
0.0
  0
MTEXT
  5
1A2
330
19D
100
AcDbEntity
  8
CSLAYER1
 62
     0
100
AcDbMText
 10
155.5808899897153
 20
75.72563597174305
 30
0.0
 40
0.18
 41
0.0
 71
     5
 72
     1
  1
\A1;40°
1001
ACAD
1000
MTEXTBEGIN
1070
    73
1070
     1
1070
    44
1040
1.0
1070
    74
1070
     0
1000
MTEXTEND
  0
POINT
  5
1A3
330
19D
100
AcDbEntity
  8
DEFPOINTS
 62
     0
100
AcDbPoint
 10
156.1292258866508
 20
76.9968214060425
 30
0.0
  0
POINT
  5
1A4
330
19D
100
AcDbEntity
  8
DEFPOINTS
 62
     0
100
AcDbPoint
 10
166.767763
 20
71.65394699999997
 30
0.0
  0
POINT
  5
1A5
330
19D
100
AcDbEntity
  8
DEFPOINTS
 62
     0
100
AcDbPoint
 10
137.7174019999999
 20
71.653947
 30
0.0
  0
POINT
  5
1A6
330
19D
100
AcDbEntity
  8
DEFPOINTS
 62
     0
100
AcDbPoint
 10
165.7677629999999
 20
71.653947
 30
0.0
  0
POINT
  5
1A7
330
19D
100
AcDbEntity
  8
DEFPOINTS
 62
     0
100
AcDbPoint
 10
154.267763
 20
82.14269300000003
 30
0.0
  0
ENDBLK
  5
1A9
330
19D
100
AcDbEntity
  8
0
100
AcDbBlockEnd
  0
BLOCK
  5
1B6
330
1AA
100
AcDbEntity
  8
0
100
AcDbBlockBegin
  2
*D18
 70
     1
 10
0.0
 20
0.0
 30
0.0
  3
*D18
  1

  0
LINE
  5
1AB
330
1AA
100
AcDbEntity
  8
CSLAYER1
 62
     0
100
AcDbLine
 10
108.3233031738241
 20
143.6298871738241
 30
0.0
 11
115.8577830336886
 21
151.1643670336885
 31
0.0
  0
ARC
  5
1AC
330
1AA
100
AcDbEntity
  8
CSLAYER1
 62
     0
100
AcDbCircle
 10
99.347363
 20
134.6539469999999
 30
0.0
 40
23.16925993211885
100
AcDbArc
 50
45.4451271330564
 51
66.48443689575036
  0
ARC
  5
1AD
330
1AA
100
AcDbEntity
  8
CSLAYER1
 62
     0
100
AcDbCircle
 10
99.347363
 20
134.6539469999999
 30
0.0
 40
23.16925993211885
100
AcDbArc
 50
68.50816013101162
 51
89.55487286694344
  0
SOLID
  5
1AE
330
1AA
100
AcDbEntity
  8
CSLAYER1
 62
     0
100
AcDbTrace
 10
115.6238617836405
 20
151.1851671079075
 30
0.0
 11
115.5816005004211
 21
151.1425762175594
 31
0.0
 12
115.730503813075
 22
151.037087813075
 32
0.0
 13
115.730503813075
 23
151.037087813075
 33
0.0
  0
SOLID
  5
1AF
330
1AA
100
AcDbEntity
  8
CSLAYER1
 62
     0
100
AcDbTrace
 10
99.52724510826627
 20
157.7925079561476
 30
0.0
 11
99.52747817570202
 21
157.8525075034757
 31
0.0
 12
99.347363
 22
157.8232069321188
 32
0.0
 13
99.347363
 23
157.8232069321188
 33
0.0
  0
MTEXT
  5
1B0
330
1AA
100
AcDbEntity
  8
CSLAYER1
 62
     0
100
AcDbMText
 10
108.2138549161822
 20
156.0595520347184
 30
0.0
 40
0.18
 41
0.0
 71
     5
 72
     1
  1
\A1;45°
1001
ACAD
1000
MTEXTBEGIN
1070
    73
1070
     1
1070
    44
1040
1.0
1070
    74
1070
     0
1000
MTEXTEND
  0
POINT
  5
1B1
330
1AA
100
AcDbEntity
  8
DEFPOINTS
 62
     0
100
AcDbPoint
 10
110.9319929660594
 20
154.7191146880997
 30
0.0
  0
POINT
  5
1B2
330
1AA
100
AcDbEntity
  8
DEFPOINTS
 62
     0
100
AcDbPoint
 10
100.147363
 20
135.4539469999999
 30
0.0
  0
POINT
  5
1B3
330
1AA
100
AcDbEntity
  8
DEFPOINTS
 62
     0
100
AcDbPoint
 10
99.347363
 20
158.681637
 30
0.0
  0
POINT
  5
1B4
330
1AA
100
AcDbEntity
  8
DEFPOINTS
 62
     0
100
AcDbPoint
 10
99.347363
 20
135.837556
 30
0.0
  0
POINT
  5
1B5
330
1AA
100
AcDbEntity
  8
DEFPOINTS
 62
     0
100
AcDbPoint
 10
108.279109
 20
143.5856929999999
 30
0.0
  0
ENDBLK
  5
1B7
330
1AA
100
AcDbEntity
  8
0
100
AcDbBlockEnd
  0
BLOCK
  5
1C5
330
1B8
100
AcDbEntity
  8
0
100
AcDbBlockBegin
  2
*D19
 70
     1
 10
0.0
 20
0.0
 30
0.0
  3
*D19
  1

  0
LINE
  5
1B9
330
1B8
100
AcDbEntity
  8
CSLAYER1
 62
     0
100
AcDbLine
 10
96.66150699999995
 20
135.4539469999999
 30
0.0
 11
79.74038467807686
 21
135.4539469999999
 31
0.0
  0
LINE
  5
1BA
330
1B8
100
AcDbEntity
  8
CSLAYER1
 62
     0
100
AcDbLine
 10
99.31926298762308
 20
134.7124564194091
 30
0.0
 11
89.74386987705178
 21
118.1273978077046
 31
0.0
  0
ARC
  5
1BB
330
1B8
100
AcDbEntity
  8
CSLAYER1
 62
     0
100
AcDbCircle
 10
99.74736299999996
 20
135.4539469999999
 30
0.0
 40
19.82697832192314
100
AcDbArc
 50
180.5201637668919
 51
209.4011580157377
  0
ARC
  5
1BC
330
1B8
100
AcDbEntity
  8
CSLAYER1
 62
     0
100
AcDbCircle
 10
99.74736299999996
 20
135.4539469999999
 30
0.0
 40
19.82697832192314
100
AcDbArc
 50
210.6024645840492
 51
239.4798231315323
  0
SOLID
  5
1BD
330
1B8
100
AcDbEntity
  8
CSLAYER1
 62
     0
100
AcDbTrace
 10
79.89120205568134
 20
135.2738126763684
 30
0.0
 11
79.95120143752908
 21
135.2740850325447
 31
0.0
 12
79.92038467807683
 22
135.4539469999999
 32
0.0
 13
79.92038467807683
 23
135.4539469999999
 33
0.0
  0
SOLID
  5
1BE
330
1B8
100
AcDbEntity
  8
CSLAYER1
 62
     0
100
AcDbTrace
 10
89.69351328609926
 20
118.3999014721762
 30
0.0
 11
89.66327771595743
 21
118.3480766682865
 31
0.0
 12
89.83386991269723
 22
118.2832823598059
 32
0.0
 13
89.83386991269723
 23
118.2832823598059
 33
0.0
  0
MTEXT
  5
1BF
330
1B8
100
AcDbEntity
  8
CSLAYER1
 62
     0
100
AcDbMText
 10
82.5766949594942
 20
125.5404598022092
 30
0.0
 40
0.18
 41
0.0
 71
     5
 72
     1
  1
\A1;60°
1001
ACAD
1000
MTEXTBEGIN
1070
    73
1070
     1
1070
    44
1040
1.0
1070
    74
1070
     0
1000
MTEXTEND
  0
POINT
  5
1C0
330
1B8
100
AcDbEntity
  8
DEFPOINTS
 62
     0
100
AcDbPoint
 10
81.1160972615289
 20
128.6727224527309
 30
0.0
  0
POINT
  5
1C1
330
1B8
100
AcDbEntity
  8
DEFPOINTS
 62
     0
100
AcDbPoint
 10
99.34653
 20
135.4539469999999
 30
0.0
  0
POINT
  5
1C2
330
1B8
100
AcDbEntity
  8
DEFPOINTS
 62
     0
100
AcDbPoint
 10
99.35051300000001
 20
134.7665829999999
 30
0.0
  0
POINT
  5
1C3
330
1B8
100
AcDbEntity
  8
DEFPOINTS
 62
     0
100
AcDbPoint
 10
99.74736299999998
 20
135.4539469999999
 30
0.0
  0
POINT
  5
1C4
330
1B8
100
AcDbEntity
  8
DEFPOINTS
 62
     0
100
AcDbPoint
 10
96.724007
 20
135.4539469999999
 30
0.0
  0
ENDBLK
  5
1C6
330
1B8
100
AcDbEntity
  8
0
100
AcDbBlockEnd
  0
BLOCK
  5
1D4
330
1C7
100
AcDbEntity
  8
0
100
AcDbBlockBegin
  2
*D20
 70
     1
 10
0.0
 20
0.0
 30
0.0
  3
*D20
  1

  0
LINE
  5
1C8
330
1C7
100
AcDbEntity
  8
CSLAYER1
 62
     0
100
AcDbLine
 10
99.31926298762313
 20
134.7124564194091
 30
0.0
 11
89.74386976386808
 21
118.1273976116657
 31
0.0
  0
LINE
  5
1C9
330
1C7
100
AcDbEntity
  8
CSLAYER1
 62
     0
100
AcDbLine
 10
108.2518201764359
 20
126.9494908287877
 30
0.0
 11
113.8944340386387
 21
121.3068776335399
 31
0.0
  0
ARC
  5
1CA
330
1C7
100
AcDbEntity
  8
CSLAYER1
 62
     0
100
AcDbCircle
 10
99.74736300000001
 20
135.4539469999999
 30
0.0
 40
19.8269785482896
100
AcDbArc
 50
240.5201506593757
 51
276.3995528183528
  0
ARC
  5
1CB
330
1C7
100
AcDbEntity
  8
CSLAYER1
 62
     0
100
AcDbCircle
 10
99.74736300000001
 20
135.4539469999999
 30
0.0
 40
19.8269785482896
100
AcDbArc
 50
278.6032274956336
 51
314.4798396252173
  0
SOLID
  5
1CC
330
1C7
100
AcDbEntity
  8
CSLAYER1
 62
     0
100
AcDbTrace
 10
89.97527936229378
 20
118.1679420772649
 30
0.0
 11
90.00504319776579
 21
118.220039237437
 31
0.0
 12
89.83386979951353
 22
118.283282163767
 32
0.0
 13
89.83386979951353
 23
118.283282163767
 33
0.0
  0
SOLID
  5
1CD
330
1C7
100
AcDbEntity
  8
CSLAYER1
 62
     0
100
AcDbTrace
 10
113.6181824602889
 20
121.3287659605372
 30
0.0
 11
113.6604158476824
 21
121.2861474083646
 31
0.0
 12
113.7671548105029
 22
121.4341568466313
 32
0.0
 13
113.7671548105029
 23
121.4341568466313
 33
0.0
  0
MTEXT
  5
1CE
330
1C7
100
AcDbEntity
  8
CSLAYER1
 62
     0
100
AcDbMText
 10
102.3353013465287
 20
115.7965907823164
 30
0.0
 40
0.18
 41
0.0
 71
     5
 72
     1
  1
\A1;75°
1001
ACAD
1000
MTEXTBEGIN
1070
    73
1070
     1
1070
    44
1040
1.0
1070
    74
1070
     0
1000
MTEXTEND
  0
POINT
  5
1CF
330
1C7
100
AcDbEntity
  8
DEFPOINTS
 62
     0
100
AcDbPoint
 10
98.01932533628805
 20
115.7024163204013
 30
0.0
  0
POINT
  5
1D0
330
1C7
100
AcDbEntity
  8
DEFPOINTS
 62
     0
100
AcDbPoint
 10
99.74736300000001
 20
135.4539469999999
 30
0.0
  0
POINT
  5
1D1
330
1C7
100
AcDbEntity
  8
DEFPOINTS
 62
     0
100
AcDbPoint
 10
108.207626
 20
126.993685
 30
0.0
  0
POINT
  5
1D2
330
1C7
100
AcDbEntity
  8
DEFPOINTS
 62
     0
100
AcDbPoint
 10
99.74736300000001
 20
135.4539469999999
 30
0.0
  0
POINT
  5
1D3
330
1C7
100
AcDbEntity
  8
DEFPOINTS
 62
     0
100
AcDbPoint
 10
99.35051300000001
 20
134.7665829999999
 30
0.0
  0
ENDBLK
  5
1D5
330
1C7
100
AcDbEntity
  8
0
100
AcDbBlockEnd
  0
ENDSEC
  0
SECTION
  2
ENTITIES
  0
POINT
  5
ED
330
1E
100
AcDbEntity
  8
CSLAYER1
 62
     3
100
AcDbPoint
 10
245.665714
 20
43.5
 30
0.0
  0
POINT
  5
EE
330
1E
100
AcDbEntity
  8
CSLAYER1
 62
     3
100
AcDbPoint
 10
267.132571
 20
43.5
 30
0.0
  0
POINT
  5
EF
330
1E
100
AcDbEntity
  8
CSLAYER1
 62
     3
100
AcDbPoint
 10
266.165714
 20
53.5
 30
0.0
  0
POINT
  5
F0
330
1E
100
AcDbEntity
  8
CSLAYER1
 62
     3
100
AcDbPoint
 10
245.665714
 20
53.5
 30
0.0
  0
TEXT
  5
F1
330
1E
100
AcDbEntity
  8
CSLAYER1
 62
     3
100
AcDbText
 10
233.265695
 20
51.00000399999998
 30
0.0
 40
5.0
  1
刃開キハ
 41
1.110447761194029
  7
FX_FONT
 72
     5
 11
258.065695
 21
51.00000399999998
 31
0.0
100
AcDbText
  0
TEXT
  5
F2
330
1E
100
AcDbEntity
  8
CSLAYER1
 62
     3
100
AcDbText
 10
233.165695
 20
41.00000399999998
 30
0.0
 40
5.0
  1
切刃部有効
 41
0.872093023255814
  7
FX_FONT
 72
     5
 11
258.165695
 21
41.00000399999998
 31
0.0
100
AcDbText
  0
TEXT
  5
F3
330
1E
100
AcDbEntity
  8
CSLAYER1
 62
     3
100
AcDbText
 10
263.6657099999999
 20
51.00000399999998
 30
0.0
 40
5.0
  1
7
 41
1.500000000000016
  7
FX_FONT
 72
     5
 11
268.66571
 21
51.00000399999998
 31
0.0
100
AcDbText
  0
TEXT
  5
F4
330
1E
100
AcDbEntity
  8
CSLAYER1
 62
     3
100
AcDbText
 10
242.45
 20
17.25
 30
0.0
 40
3.5
  1
N20HS
 41
1.169387755102042
  7
FX_FONT
 72
     5
 11
261.55
 21
17.25
 31
0.0
100
AcDbText
  0
POINT
  5
F5
330
1E
100
AcDbEntity
  8
CSLAYER1
 62
     3
100
AcDbPoint
 10
180.2677629999999
 20
135.4539469999999
 30
0.0
  0
POINT
  5
F6
330
1E
100
AcDbEntity
  8
CSLAYER1
 62
     3
100
AcDbPoint
 10
180.2677629999999
 20
77.653947
 30
0.0
  0
INSERT
  5
F7
330
1E
100
AcDbEntity
  8
CSLAYER1
100
AcDbBlockReference
  2
FXDIM0000
 10
0.0
 20
0.0
 30
0.0
  0
INSERT
  5
F8
330
1E
100
AcDbEntity
  8
CSLAYER1
100
AcDbBlockReference
  2
FXDIM0001
 10
0.0
 20
0.0
 30
0.0
  0
INSERT
  5
F9
330
1E
100
AcDbEntity
  8
CSLAYER1
100
AcDbBlockReference
  2
FXDIM0002
 10
0.0
 20
0.0
 30
0.0
  0
INSERT
  5
FA
330
1E
100
AcDbEntity
  8
CSLAYER1
100
AcDbBlockReference
  2
FXDIM0003
 10
0.0
 20
0.0
 30
0.0
  0
POINT
  5
FB
330
1E
100
AcDbEntity
  8
CSLAYER1
 62
     3
100
AcDbPoint
 10
252.0
 20
19.0
 30
0.0
  0
LINE
  5
FC
330
1E
100
AcDbEntity
  8
CSLAYER1
  6
CONTINUOUS
 62
     3
100
AcDbLine
 10
233.165714
 20
40.0
 30
0.0
 11
278.758286
 21
40.0
 31
0.0
  0
LINE
  5
FD
330
1E
100
AcDbEntity
  8
CSLAYER1
  6
CONTINUOUS
 62
     3
100
AcDbLine
 10
154.267763
 20
138.953947
 30
0.0
 11
154.267763
 21
131.953947
 31
0.0
  0
ARC
  5
FE
330
1E
100
AcDbEntity
  8
CSLAYER1
  6
CONTINUOUS
 62
     3
100
AcDbCircle
 10
162.267763
 20
131.953947
 30
0.0
 40
8.0
100
AcDbArc
 50
180.0
 51
270.0
  0
LINE
  5
FF
330
1E
100
AcDbEntity
  8
CSLAYER1
  6
CONTINUOUS
 62
     3
100
AcDbLine
 10
162.267763
 20
123.9539469999999
 30
0.0
 11
190.267763
 21
123.9539469999999
 31
0.0
  0
LINE
  5
100
330
1E
100
AcDbEntity
  8
CSLAYER1
  6
CONTINUOUS
 62
     3
100
AcDbLine
 10
190.267763
 20
123.9539469999999
 30
0.0
 11
232.593647
 21
125.646983
 31
0.0
  0
ARC
  5
101
330
1E
100
AcDbEntity
  8
CSLAYER1
  6
CONTINUOUS
 62
     3
100
AcDbCircle
 10
232.273903
 20
133.64059
 30
0.0
 40
8.0
100
AcDbArc
 50
272.29061
 51
2.244828
  0
LINE
  5
102
330
1E
100
AcDbEntity
  8
CSLAYER1
  6
CONTINUOUS
 62
     3
100
AcDbLine
 10
240.2677629999999
 20
133.953947
 30
0.0
 11
193.5677629999999
 21
133.953947
 31
0.0
  0
LINE
  5
103
330
1E
100
AcDbEntity
  8
CSLAYER1
  6
CONTINUOUS
 62
     3
100
AcDbLine
 10
193.926006
 20
133.953947
 30
0.0
 11
190.876139
 21
123.978282
 31
0.0
  0
ARC
  5
104
330
1E
100
AcDbEntity
  8
CSLAYER1
  6
CONTINUOUS
 62
     3
100
AcDbCircle
 10
180.2677629999999
 20
135.4539469999999
 30
0.0
 40
12.5
100
AcDbArc
 50
293.0739179999999
 51
0.0
  0
ARC
  5
105
330
1E
100
AcDbEntity
  8
CSLAYER1
  6
CONTINUOUS
 62
     3
100
AcDbCircle
 10
193.5677629999999
 20
134.753947
 30
0.0
 40
0.8
100
AcDbArc
 50
180.0
 51
270.0
  0
LINE
  5
106
330
1E
100
AcDbEntity
  8
CSLAYER1
  6
CONTINUOUS
 62
     3
100
AcDbLine
 10
192.7677629999999
 20
134.753947
 30
0.0
 11
192.7677629999999
 21
136.1539469999998
 31
0.0
  0
ARC
  5
107
330
1E
100
AcDbEntity
  8
CSLAYER1
  6
CONTINUOUS
 62
     3
100
AcDbCircle
 10
193.5677629999999
 20
136.1539469999998
 30
0.0
 40
0.8
100
AcDbArc
 50
90.0
 51
180.0
  0
LINE
  5
108
330
1E
100
AcDbEntity
  8
CSLAYER1
  6
CONTINUOUS
 62
     3
100
AcDbLine
 10
193.5677629999999
 20
136.953947
 30
0.0
 11
240.2677629999999
 21
136.953947
 31
0.0
  0
ARC
  5
109
330
1E
100
AcDbEntity
  8
CSLAYER1
  6
CONTINUOUS
 62
     3
100
AcDbCircle
 10
232.273903
 20
137.267304
 30
0.0
 40
8.0
100
AcDbArc
 50
357.7551719999998
 51
87.70939
  0
LINE
  5
10A
330
1E
100
AcDbEntity
  8
CSLAYER1
  6
CONTINUOUS
 62
     3
100
AcDbLine
 10
232.593647
 20
145.260912
 30
0.0
 11
190.267763
 21
146.9539469999999
 31
0.0
  0
LINE
  5
10B
330
1E
100
AcDbEntity
  8
CSLAYER1
  6
CONTINUOUS
 62
     3
100
AcDbLine
 10
190.267763
 20
146.9539469999999
 30
0.0
 11
162.267763
 21
146.9539469999999
 31
0.0
  0
ARC
  5
10C
330
1E
100
AcDbEntity
  8
CSLAYER1
  6
CONTINUOUS
 62
     3
100
AcDbCircle
 10
162.267763
 20
138.953947
 30
0.0
 40
8.0
100
AcDbArc
 50
90.0
 51
180.0
  0
LINE
  5
10D
330
1E
100
AcDbEntity
  8
CSLAYER1
  6
CONTINUOUS
 62
     3
100
AcDbLine
 10
166.4475389999998
 20
136.424129
 30
0.0
 11
165.6574639999998
 21
135.6340539999999
 31
0.0
  0
ARC
  5
10E
330
1E
100
AcDbEntity
  8
CSLAYER1
  6
CONTINUOUS
 62
     3
100
AcDbCircle
 10
165.013665
 20
132.703947
 30
0.0
 40
3.0
100
AcDbArc
 50
66.44353599999999
 51
90.0
  0
LINE
  5
10F
330
1E
100
AcDbEntity
  8
CSLAYER1
  6
CONTINUOUS
 62
     3
100
AcDbLine
 10
165.013665
 20
135.7039469999999
 30
0.0
 11
161.928208
 21
135.7039469999999
 31
0.0
  0
LINE
  5
110
330
1E
100
AcDbEntity
  8
CSLAYER1
  6
CONTINUOUS
 62
     3
100
AcDbLine
 10
161.928208
 20
135.203947
 30
0.0
 11
165.013665
 21
135.203947
 31
0.0
  0
ARC
  5
111
330
1E
100
AcDbEntity
  8
CSLAYER1
  6
CONTINUOUS
 62
     3
100
AcDbCircle
 10
165.013665
 20
138.203947
 30
0.0
 40
3.0
100
AcDbArc
 50
270.0
 51
349.78052
  0
LINE
  5
112
330
1E
100
AcDbEntity
  8
CSLAYER1
  6
CONTINUOUS
 62
     3
100
AcDbLine
 10
166.4475389999998
 20
136.424129
 30
0.0
 11
169.666827
 21
146.9539469999999
 31
0.0
  0
LINE
  5
113
330
1E
100
AcDbEntity
  8
CSLAYER1
  6
CONTINUOUS
 62
     3
100
AcDbLine
 10
161.928208
 20
135.4539469999999
 30
0.0
 11
154.267763
 21
135.4539469999999
 31
0.0
  0
ARC
  5
114
330
1E
100
AcDbEntity
  8
CSLAYER1
  6
CONTINUOUS
 62
     3
100
AcDbCircle
 10
180.2677629999999
 20
135.4539469999999
 30
0.0
 40
12.5
100
AcDbArc
 50
113.0739179999999
 51
169.7805199999999
  0
CIRCLE
  5
115
330
1E
100
AcDbEntity
  8
CSLAYER1
  6
CONTINUOUS
 62
     3
100
AcDbCircle
 10
180.2677629999999
 20
135.4539469999999
 30
0.0
 40
2.049999999999998
  0
CIRCLE
  5
116
330
1E
100
AcDbEntity
  8
CSLAYER1
  6
CONTINUOUS
 62
     3
100
AcDbCircle
 10
180.2677629999999
 20
135.4539469999999
 30
0.0
 40
8.55
  0
LINE
  5
117
330
1E
100
AcDbEntity
  8
CSLAYER1
  6
CONTINUOUS
 62
     3
100
AcDbLine
 10
230.767763
 20
133.953947
 30
0.0
 11
230.767763
 21
136.953947
 31
0.0
  0
LINE
  5
118
330
1E
100
AcDbEntity
  8
CSLAYER1
  6
CONTINUOUS
 62
     3
100
AcDbLine
 10
236.767763
 20
136.953947
 30
0.0
 11
236.767763
 21
133.953947
 31
0.0
  0
LINE
  5
119
330
1E
100
AcDbEntity
  8
CSLAYER1
  6
CONTINUOUS
 62
     3
100
AcDbLine
 10
235.117089
 20
83.000523
 30
0.0
 11
200.2677629999999
 21
83.65394700000001
 31
0.0
  0
LINE
  5
11A
330
1E
100
AcDbEntity
  8
CSLAYER1
  6
CONTINUOUS
 62
     3
100
AcDbLine
 10
200.2677629999999
 20
83.65394700000001
 30
0.0
 11
154.267763
 21
83.65394700000001
 31
0.0
  0
LINE
  5
11B
330
1E
100
AcDbEntity
  8
CSLAYER1
  6
CONTINUOUS
 62
     3
100
AcDbLine
 10
154.267763
 20
83.65394700000001
 30
0.0
 11
154.267763
 21
82.14269300000003
 31
0.0
  0
LINE
  5
11C
330
1E
100
AcDbEntity
  8
CSLAYER1
  6
CONTINUOUS
 62
     3
100
AcDbLine
 10
154.267763
 20
82.14269300000003
 30
0.0
 11
166.767763
 21
71.653947
 31
0.0
  0
LINE
  5
11D
330
1E
100
AcDbEntity
  8
CSLAYER1
  6
CONTINUOUS
 62
     3
100
AcDbLine
 10
166.767763
 20
71.653947
 30
0.0
 11
200.2677629999999
 21
71.653947
 31
0.0
  0
LINE
  5
11E
330
1E
100
AcDbEntity
  8
CSLAYER1
  6
CONTINUOUS
 62
     3
100
AcDbLine
 10
200.2677629999999
 20
71.653947
 30
0.0
 11
235.117089
 21
72.307372
 31
0.0
  0
ARC
  5
11F
330
1E
100
AcDbEntity
  8
CSLAYER1
  6
CONTINUOUS
 62
     3
100
AcDbCircle
 10
235.018669
 20
77.55645
 30
0.0
 40
5.25
100
AcDbArc
 50
271.0741699999999
 51
1.064100999999998
  0
ARC
  5
120
330
1E
100
AcDbEntity
  8
CSLAYER1
  6
CONTINUOUS
 62
     3
100
AcDbCircle
 10
235.018669
 20
77.75144499999997
 30
0.0
 40
5.25
100
AcDbArc
 50
358.935899
 51
88.92583
  0
LINE
  5
121
330
1E
100
AcDbEntity
  8
CSLAYER1
  6
CONTINUOUS
 62
     3
100
AcDbLine
 10
233.165714
 20
50.0
 30
0.0
 11
274.165714
 21
50.0
 31
0.0
  0
LINE
  5
122
330
1E
100
AcDbEntity
  8
CSLAYER1
  6
CONTINUOUS
 62
     3
100
AcDbLine
 10
190.9313399999999
 20
83.65394700000001
 30
0.0
 11
190.9313399999999
 21
78.653947
 31
0.0
  0
LINE
  5
123
330
1E
100
AcDbEntity
  8
CSLAYER1
  6
CONTINUOUS
 62
     3
100
AcDbLine
 10
189.9313399999999
 20
77.653947
 30
0.0
 11
170.666827
 21
77.653947
 31
0.0
  0
ARC
  5
124
330
1E
100
AcDbEntity
  8
CSLAYER1
  6
CONTINUOUS
 62
     3
100
AcDbCircle
 10
170.666827
 20
76.653947
 30
0.0
 40
1.0
100
AcDbArc
 50
90.0
 51
180.0
  0
LINE
  5
125
330
1E
100
AcDbEntity
  8
CSLAYER1
  6
CONTINUOUS
 62
     3
100
AcDbLine
 10
169.666827
 20
76.653947
 30
0.0
 11
169.666827
 21
71.653947
 31
0.0
  0
LINE
  5
126
330
1E
100
AcDbEntity
  8
CSLAYER1
  6
CONTINUOUS
 62
     3
100
AcDbLine
 10
165.916835
 20
74.978775
 30
0.0
 11
155.578168
 21
83.65394700000001
 31
0.0
  0
LINE
  5
127
330
1E
100
AcDbEntity
  8
CSLAYER1
  6
CONTINUOUS
 62
     3
100
AcDbLine
 10
165.916835
 20
74.978775
 30
0.0
 11
164.6312599999999
 21
73.446686
 31
0.0
  0
LINE
  5
128
330
1E
100
AcDbEntity
  8
CSLAYER1
  6
CONTINUOUS
 62
     3
100
AcDbLine
 10
175.3687839999999
 20
71.653947
 30
0.0
 11
175.3687839999999
 21
77.153947
 31
0.0
  0
LINE
  5
129
330
1E
100
AcDbEntity
  8
CSLAYER1
  6
CONTINUOUS
 62
     3
100
AcDbLine
 10
175.3687839999999
 20
77.153947
 30
0.0
 11
175.868784
 21
77.653947
 31
0.0
  0
LINE
  5
12A
330
1E
100
AcDbEntity
  8
CSLAYER1
  6
CONTINUOUS
 62
     3
100
AcDbLine
 10
184.666743
 20
77.653947
 30
0.0
 11
185.166743
 21
78.153947
 31
0.0
  0
LINE
  5
12B
330
1E
100
AcDbEntity
  8
CSLAYER1
  6
CONTINUOUS
 62
     3
100
AcDbLine
 10
185.166743
 20
78.153947
 30
0.0
 11
185.166743
 21
83.65394700000001
 31
0.0
  0
ARC
  5
12C
330
1E
100
AcDbEntity
  8
CSLAYER1
  6
CONTINUOUS
 62
     3
100
AcDbCircle
 10
189.9313399999999
 20
78.653947
 30
0.0
 40
1.0
100
AcDbArc
 50
270.0
 51
0.0
  0
LINE
  5
12D
330
1E
100
AcDbEntity
  8
CSLAYER1
  6
CENTER
 62
     4
100
AcDbLine
 10
148.6961699999999
 20
135.4539469999999
 30
0.0
 11
154.267763
 21
135.4539469999999
 31
0.0
  0
LINE
  5
12E
330
1E
100
AcDbEntity
  8
CSLAYER1
  6
CENTER
 62
     4
100
AcDbLine
 10
161.928208
 20
135.4539469999999
 30
0.0
 11
242.571569
 21
135.4539469999999
 31
0.0
  0
LINE
  5
12F
330
1E
100
AcDbEntity
  8
CSLAYER1
  6
CENTER
 62
     4
100
AcDbLine
 10
233.7677629999999
 20
131.528233
 30
0.0
 11
233.7677629999999
 21
140.1270899999999
 31
0.0
  0
LINE
  5
130
330
1E
100
AcDbEntity
  8
CSLAYER1
  6
CENTER
 62
     4
100
AcDbLine
 10
198.2677629999999
 20
141.6134899999998
 30
0.0
 11
198.2677629999999
 21
129.5135709999998
 31
0.0
  0
LINE
  5
131
330
1E
100
AcDbEntity
  8
CSLAYER1
  6
CENTER
 62
     4
100
AcDbLine
 10
180.2677629999999
 20
120.768054
 30
0.0
 11
180.2677629999999
 21
150.01698
 31
0.0
  0
LINE
  5
132
330
1E
100
AcDbEntity
  8
CSLAYER1
  6
CENTER
 62
     4
100
AcDbLine
 10
180.2677629999999
 20
87.31569300000002
 30
0.0
 11
180.2677629999999
 21
68.118747
 31
0.0
  0
LINE
  5
133
330
1E
100
AcDbEntity
  8
CSLAYER1
  6
CENTER
 62
     4
100
AcDbLine
 10
171.166827
 20
77.653947
 30
0.0
 11
165.267763
 21
77.653947
 31
0.0
  0
LINE
  5
134
330
1E
100
AcDbEntity
  8
CSLAYER1
  6
CENTER
 62
     4
100
AcDbLine
 10
190.9313399999999
 20
77.653947
 30
0.0
 11
196.267763
 21
77.653947
 31
0.0
  0
LINE
  5
135
330
1E
100
AcDbEntity
  8
CSLAYER1
  6
CENTER
 62
     4
100
AcDbLine
 10
233.8600459999999
 20
77.653947
 30
0.0
 11
245.2407819999999
 21
77.653947
 31
0.0
  0
LINE
  5
136
330
1E
100
AcDbEntity
  8
CSLAYER1
  6
CONTINUOUS
 62
     3
100
AcDbLine
 10
166.618042
 20
135.6689969999999
 30
0.0
 11
163.689788
 21
129.389335
 31
0.0
  0
LINE
  5
137
330
1E
100
AcDbEntity
  8
CSLAYER1
  6
CONTINUOUS
 62
     3
100
AcDbLine
 10
154.267763
 20
134.553947
 30
0.0
 11
162.2099039999999
 21
128.992801
 31
0.0
  0
ARC
  5
138
330
1E
100
AcDbEntity
  8
CSLAYER1
  6
CONTINUOUS
 62
     3
100
AcDbCircle
 10
162.78348
 20
129.811953
 30
0.0
 40
1.0
100
AcDbArc
 50
235.0
 51
335.0
  0
LINE
  5
139
330
1E
100
AcDbEntity
  8
CSLAYER1
  6
CONTINUOUS
 62
     3
100
AcDbLine
 10
166.186899
 20
136.1634889999999
 30
0.0
 11
163.689788
 21
141.51856
 31
0.0
  0
LINE
  5
13A
330
1E
100
AcDbEntity
  8
CSLAYER1
  6
CONTINUOUS
 62
     3
100
AcDbLine
 10
154.267763
 20
136.353947
 30
0.0
 11
162.2099039999999
 21
141.9150939999999
 31
0.0
  0
ARC
  5
13B
330
1E
100
AcDbEntity
  8
CSLAYER1
  6
CONTINUOUS
 62
     3
100
AcDbCircle
 10
162.78348
 20
141.0959419999999
 30
0.0
 40
1.0
100
AcDbArc
 50
25.0
 51
125.0
  0
LINE
  5
13C
330
1E
100
AcDbEntity
  8
CSLAYER1
  6
DASHED
 62
     4
100
AcDbLine
 10
166.517763
 20
83.65394700000001
 30
0.0
 11
163.718899
 21
75.96413100000003
 31
0.0
  0
ARC
  5
13D
330
1E
100
AcDbEntity
  8
CSLAYER1
  6
DASHED
 62
     4
100
AcDbCircle
 10
162.779206
 20
76.30615099999999
 30
0.0
 40
1.0
100
AcDbArc
 50
230.0
 51
340.0
  0
TEXT
  5
13E
330
1E
100
AcDbEntity
  8
CSLAYER1
 62
     3
100
AcDbText
 10
262.1325679999999
 20
41.0
 30
0.0
 40
5.0
  1
10
 41
1.200000000000006
  7
FX_FONT
 72
     5
 11
272.132568
 21
41.0
 31
0.0
100
AcDbText
  0
LINE
  5
13F
330
1E
100
AcDbEntity
  8
CSLAYER1
  6
CONTINUOUS
 62
     3
100
AcDbLine
 10
161.928208
 20
135.7039469999999
 30
0.0
 11
161.928208
 21
135.203947
 31
0.0
  0
LINE
  5
140
330
1E
100
AcDbEntity
  8
CSLAYER1
  6
CONTINUOUS
 62
     3
100
AcDbLine
 10
163.189784
 20
142.00968
 30
0.0
 11
163.228893
 21
135.7039469999999
 31
0.0
  0
LINE
  5
141
330
1E
100
AcDbEntity
  8
CSLAYER1
  6
CONTINUOUS
 62
     3
100
AcDbLine
 10
163.189784
 20
128.898215
 30
0.0
 11
163.228893
 21
135.203947
 31
0.0
  0
DIMENSION
  5
142
330
1E
100
AcDbEntity
  8
CSLAYER1
 62
     4
100
AcDbDimension
  2
*D4
 10
149.0865479999999
 20
60.41072299999999
 30
0.0
 11
142.00766
 21
59.41154499999999
 31
0.0
 70
     1
100
AcDbAlignedDimension
 13
154.267763
 23
82.14269300000003
 33
0.0
 14
161.928208
 24
75.71481700000003
 34
0.0
  0
DIMENSION
  5
143
330
1E
100
AcDbEntity
  8
CSLAYER1
 62
     4
100
AcDbDimension
  2
*D5
 10
180.2677629999999
 20
58.750521
 30
0.0
 11
173.517776
 21
59.750523
 31
0.0
 52
270.0
100
AcDbAlignedDimension
 13
166.767763
 23
71.653947
 33
0.0
 14
180.2677629999999
 24
68.118747
 34
0.0
100
AcDbRotatedDimension
  0
DIMENSION
  5
144
330
1E
100
AcDbEntity
  8
CSLAYER1
 62
     4
100
AcDbDimension
  2
*D6
 10
138.7174019999999
 20
83.65394700000001
 30
0.0
 11
137.717407
 21
84.396439
 31
0.0
100
AcDbAlignedDimension
 13
166.767763
 23
71.653947
 33
0.0
 14
154.267763
 24
83.65394700000001
 34
0.0
 50
90.0
100
AcDbRotatedDimension
  0
DIMENSION
  5
146
330
1E
100
AcDbEntity
  8
CSLAYER1
 62
     4
100
AcDbDimension
  2
*D8
 10
180.2677629999999
 20
161.893183
 30
0.0
 11
167.267776
 21
162.8931879999998
 31
0.0
100
AcDbAlignedDimension
 13
154.267763
 23
138.953947
 33
0.0
 14
180.2677629999999
 24
150.01698
 34
0.0
100
AcDbRotatedDimension
  0
DIMENSION
  5
147
330
1E
100
AcDbEntity
  8
CSLAYER1
 62
     4
100
AcDbDimension
  2
*D9
 10
136.920184
 20
146.9539469999999
 30
0.0
 11
135.920181
 21
135.453949
 31
0.0
 70
     1
100
AcDbAlignedDimension
 13
162.267763
 23
123.9539469999999
 33
0.0
 14
162.267763
 24
146.9539469999999
 34
0.0
  0
DIMENSION
  5
148
330
1E
100
AcDbEntity
  8
CSLAYER1
 62
     4
100
AcDbDimension
  2
*D10
 10
142.920184
 20
138.953947
 30
0.0
 11
141.920181
 21
135.453949
 31
0.0
 70
     1
100
AcDbAlignedDimension
 13
154.267763
 23
131.953947
 33
0.0
 14
154.267763
 24
138.953947
 34
0.0
  0
DIMENSION
  5
149
330
1E
100
AcDbEntity
  8
CSLAYER1
 62
     4
100
AcDbDimension
  2
*D11
 10
162.267763
 20
131.953947
 30
0.0
 11
159.223587
 21
130.260986
 31
0.0
 70
     4
100
AcDbRadialDimension
 15
156.686783
 25
126.222223
 35
0.0
 40
0.0
  0
LINE
  5
14A
330
1E
100
AcDbEntity
  8
CSLAYER1
  6
CONTINUOUS
 62
     3
100
AcDbLine
 10
108.3473629999998
 20
126.8539469999999
 30
0.0
 11
99.74736300000001
 21
135.4539469999999
 31
0.0
  0
LINE
  5
14B
330
1E
100
AcDbEntity
  8
CSLAYER1
  6
CONTINUOUS
 62
     3
100
AcDbLine
 10
99.74736300000001
 20
135.4539469999999
 30
0.0
 11
99.35051300000001
 21
134.7665829999999
 31
0.0
  0
LINE
  5
14C
330
1E
100
AcDbEntity
  8
CSLAYER1
  6
CONTINUOUS
 62
     3
100
AcDbLine
 10
108.3473629999998
 20
143.6539469999999
 30
0.0
 11
100.147363
 21
135.4539469999999
 31
0.0
  0
LINE
  5
14D
330
1E
100
AcDbEntity
  8
CSLAYER1
  6
CONTINUOUS
 62
     3
100
AcDbLine
 10
100.147363
 20
135.4539469999999
 30
0.0
 11
99.34653
 21
135.4539469999999
 31
0.0
  0
LINE
  5
14E
330
1E
100
AcDbEntity
  8
CSLAYER1
  6
CENTER
 62
     4
100
AcDbLine
 10
99.34653
 20
135.4539469999999
 30
0.0
 11
96.724007
 21
135.4539469999999
 31
0.0
  0
LINE
  5
14F
330
1E
100
AcDbEntity
  8
CSLAYER1
  6
CENTER
 62
     4
100
AcDbLine
 10
100.147363
 20
135.4539469999999
 30
0.0
 11
120.418563
 21
135.4539469999999
 31
0.0
  0
LINE
  5
150
330
1E
100
AcDbEntity
  8
CSLAYER1
  6
CONTINUOUS
 62
     3
100
AcDbLine
 10
100.234274
 20
146.9539469999999
 30
0.0
 11
108.3473629999998
 21
146.9539469999999
 31
0.0
  0
ARC
  5
151
330
1E
100
AcDbEntity
  8
CSLAYER1
  6
CONTINUOUS
 62
     3
100
AcDbCircle
 10
174.3473629999999
 20
135.4539469999999
 30
0.0
 40
75.0
100
AcDbArc
 50
180.525115
 51
188.820148
  0
ARC
  5
152
330
1E
100
AcDbEntity
  8
CSLAYER1
  6
CONTINUOUS
 62
     3
100
AcDbCircle
 10
174.3473629999999
 20
135.4539469999999
 30
0.0
 40
75.0
100
AcDbArc
 50
171.179852
 51
180.0
  0
LINE
  5
153
330
1E
100
AcDbEntity
  8
CSLAYER1
  6
CONTINUOUS
 62
     3
100
AcDbLine
 10
100.234274
 20
123.9539469999999
 30
0.0
 11
108.3473629999998
 21
123.9539469999999
 31
0.0
  0
DIMENSION
  5
154
330
1E
100
AcDbEntity
  8
CSLAYER1
 62
     4
100
AcDbDimension
  2
*D12
 10
92.199489
 20
143.4018209999998
 30
0.0
 11
87.68314399999999
 21
144.40184
 31
0.0
 70
     1
 52
135.0
100
AcDbAlignedDimension
 13
99.347363
 23
135.4539469999999
 33
0.0
 14
100.147363
 24
135.4539469999999
 34
0.0
  0
LINE
  5
159
330
1E
100
AcDbEntity
  8
CSLAYER1
  6
CONTINUOUS
 62
     3
100
AcDbLine
 10
101.347363
 20
136.6539469999999
 30
0.0
 11
101.347363
 21
146.9539469999999
 31
0.0
  0
LINE
  5
15A
330
1E
100
AcDbEntity
  8
CSLAYER1
  6
CONTINUOUS
 62
     3
100
AcDbLine
 10
101.347363
 20
133.853947
 30
0.0
 11
101.347363
 21
123.9539469999999
 31
0.0
  0
LINE
  5
15B
330
1E
100
AcDbEntity
  8
CSLAYER1
  6
CONTINUOUS
 62
     3
100
AcDbLine
 10
108.3473629999998
 20
143.6539469999999
 30
0.0
 11
108.3473629999998
 21
146.9539469999999
 31
0.0
  0
LINE
  5
15C
330
1E
100
AcDbEntity
  8
CSLAYER1
  6
CONTINUOUS
 62
     3
100
AcDbLine
 10
108.3473629999998
 20
126.8539469999999
 30
0.0
 11
108.3473629999998
 21
123.9539469999999
 31
0.0
  0
POINT
  5
15D
330
1E
100
AcDbEntity
  8
CSLAYER1
 62
     3
100
AcDbPoint
 10
106.0078949999998
 20
36.325658
 30
0.0
  0
LINE
  5
15E
330
1E
100
AcDbEntity
  8
CSLAYER1
  6
CONTINUOUS
 62
     3
100
AcDbLine
 10
80.71570300000002
 20
43.293801
 30
0.0
 11
80.244549
 21
39.825658
 31
0.0
  0
LINE
  5
15F
330
1E
100
AcDbEntity
  8
CSLAYER1
  6
CONTINUOUS
 62
     3
100
AcDbLine
 10
106.0078949999998
 20
47.93129299999999
 30
0.0
 11
89.719809
 21
50.144061
 31
0.0
  0
ARC
  5
160
330
1E
100
AcDbEntity
  8
CSLAYER1
  6
CONTINUOUS
 62
     3
100
AcDbCircle
 10
88.642886
 20
42.216878
 30
0.0
 40
8.0
100
AcDbArc
 50
82.26361999999998
 51
172.26362
  0
LINE
  5
161
330
1E
100
AcDbEntity
  8
CSLAYER1
  6
CONTINUOUS
 62
     3
100
AcDbLine
 10
92.444064
 20
39.147424
 30
0.0
 11
91.554824
 21
38.470896
 31
0.0
  0
ARC
  5
162
330
1E
100
AcDbEntity
  8
CSLAYER1
  6
CONTINUOUS
 62
     3
100
AcDbCircle
 10
90.52244899999999
 20
35.654125
 30
0.0
 40
3.0
100
AcDbArc
 50
12.934931
 51
82.26361999999998
  0
LINE
  5
163
330
1E
100
AcDbEntity
  8
CSLAYER1
  6
CONTINUOUS
 62
     3
100
AcDbLine
 10
90.92629499999999
 20
38.626819
 30
0.0
 11
87.86892100000001
 21
39.042169
 31
0.0
  0
LINE
  5
164
330
1E
100
AcDbEntity
  8
CSLAYER1
  6
CONTINUOUS
 62
     3
100
AcDbLine
 10
92.444064
 20
39.147424
 30
0.0
 11
97.05152599999999
 21
49.14803299999999
 31
0.0
  0
LINE
  5
165
330
1E
100
AcDbEntity
  8
CSLAYER1
  6
CONTINUOUS
 62
     3
100
AcDbLine
 10
87.83526700000001
 20
38.794444
 30
0.0
 11
80.244549
 21
39.825658
 31
0.0
  0
ARC
  5
166
330
1E
100
AcDbEntity
  8
CSLAYER1
  6
CONTINUOUS
 62
     3
100
AcDbCircle
 10
106.0078949999998
 20
36.325658
 30
0.0
 40
12.5
100
AcDbArc
 50
120.810298
 51
177.5169
  0
CIRCLE
  5
167
330
1E
100
AcDbEntity
  8
CSLAYER1
  6
CONTINUOUS
 62
     3
100
AcDbCircle
 10
106.0078949999998
 20
36.325658
 30
0.0
 40
2.049999999999998
  0
CIRCLE
  5
168
330
1E
100
AcDbEntity
  8
CSLAYER1
  6
CONTINUOUS
 62
     3
100
AcDbCircle
 10
106.0078949999998
 20
36.325658
 30
0.0
 40
8.55
  0
LINE
  5
169
330
1E
100
AcDbEntity
  8
CSLAYER1
  6
CENTER
 62
     4
100
AcDbLine
 10
76.99977
 20
36.325658
 30
0.0
 11
117.665605
 21
36.325658
 31
0.0
  0
LINE
  5
16A
330
1E
100
AcDbEntity
  8
CSLAYER1
  6
CENTER
 62
     4
100
AcDbLine
 10
106.0078949999998
 20
21.639764
 30
0.0
 11
106.0078949999998
 21
50.888691
 31
0.0
  0
LINE
  5
16B
330
1E
100
AcDbEntity
  8
CSLAYER1
  6
CONTINUOUS
 62
     3
100
AcDbLine
 10
92.15071
 20
38.924242
 30
0.0
 11
90.397204
 21
44.566721
 31
0.0
  0
LINE
  5
16C
330
1E
100
AcDbEntity
  8
CSLAYER1
  6
CONTINUOUS
 62
     3
100
AcDbLine
 10
80.36570299999999
 20
40.71746599999999
 30
0.0
 11
88.98416899999999
 21
45.15886
 31
0.0
  0
ARC
  5
16D
330
1E
100
AcDbEntity
  8
CSLAYER1
  6
CONTINUOUS
 62
     3
100
AcDbCircle
 10
89.442254
 20
44.269952
 30
0.0
 40
1.0
100
AcDbArc
 50
17.26361999999999
 51
117.26362
  0
LINE
  5
16E
330
1E
100
AcDbEntity
  8
CSLAYER1
  6
CONTINUOUS
 62
     3
100
AcDbLine
 10
87.86892100000001
 20
39.042169
 30
0.0
 11
87.83526700000001
 21
38.794444
 31
0.0
  0
LINE
  5
16F
330
1E
100
AcDbEntity
  8
CSLAYER1
  6
CONTINUOUS
 62
     3
100
AcDbLine
 10
89.967863
 20
45.120678
 30
0.0
 11
89.157767
 21
38.867076
 31
0.0
  0
LINE
  5
170
330
1E
100
AcDbEntity
  8
CSLAYER1
  6
CONTINUOUS
 62
     3
100
AcDbLine
 10
34.087495
 20
24.225658
 30
0.0
 11
25.487495
 21
32.825658
 31
0.0
  0
LINE
  5
171
330
1E
100
AcDbEntity
  8
CSLAYER1
  6
CONTINUOUS
 62
     3
100
AcDbLine
 10
25.487495
 20
32.825658
 30
0.0
 11
25.090645
 21
32.13829299999999
 31
0.0
  0
LINE
  5
172
330
1E
100
AcDbEntity
  8
CSLAYER1
  6
CONTINUOUS
 62
     3
100
AcDbLine
 10
34.087495
 20
48.02565799999999
 30
0.0
 11
25.887495
 21
39.825658
 31
0.0
  0
LINE
  5
173
330
1E
100
AcDbEntity
  8
CSLAYER1
  6
CONTINUOUS
 62
     3
100
AcDbLine
 10
25.887495
 20
39.825658
 30
0.0
 11
25.086661
 21
39.825658
 31
0.0
  0
LINE
  5
174
330
1E
100
AcDbEntity
  8
CSLAYER1
  6
CENTER
 62
     4
100
AcDbLine
 10
21.04310299999998
 20
36.325658
 30
0.0
 11
41.51067499999999
 21
36.325658
 31
0.0
  0
LINE
  5
175
330
1E
100
AcDbEntity
  8
CSLAYER1
  6
CONTINUOUS
 62
     3
100
AcDbLine
 10
25.97440499999999
 20
51.325658
 30
0.0
 11
34.087495
 21
51.325658
 31
0.0
  0
ARC
  5
176
330
1E
100
AcDbEntity
  8
CSLAYER1
  6
CONTINUOUS
 62
     3
100
AcDbCircle
 10
100.0874949999999
 20
32.825658
 30
0.0
 40
75.0
100
AcDbArc
 50
180.525115
 51
188.820148
  0
ARC
  5
177
330
1E
100
AcDbEntity
  8
CSLAYER1
  6
CONTINUOUS
 62
     3
100
AcDbCircle
 10
100.0874949999999
 20
39.825658
 30
0.0
 40
75.0
100
AcDbArc
 50
171.179852
 51
180.0
  0
LINE
  5
178
330
1E
100
AcDbEntity
  8
CSLAYER1
  6
CONTINUOUS
 62
     3
100
AcDbLine
 10
25.97440499999999
 20
21.32565799999998
 30
0.0
 11
34.087495
 21
21.32565799999998
 31
0.0
  0
LINE
  5
179
330
1E
100
AcDbEntity
  8
CSLAYER1
  6
CONTINUOUS
 62
     3
100
AcDbLine
 10
27.087495
 20
41.02565799999999
 30
0.0
 11
27.087495
 21
51.325658
 31
0.0
  0
LINE
  5
17A
330
1E
100
AcDbEntity
  8
CSLAYER1
  6
CONTINUOUS
 62
     3
100
AcDbLine
 10
27.087495
 20
31.225658
 30
0.0
 11
27.087495
 21
21.32565799999998
 31
0.0
  0
LINE
  5
17B
330
1E
100
AcDbEntity
  8
CSLAYER1
  6
CONTINUOUS
 62
     3
100
AcDbLine
 10
34.087495
 20
48.02565799999999
 30
0.0
 11
34.087495
 21
51.325658
 31
0.0
  0
LINE
  5
17C
330
1E
100
AcDbEntity
  8
CSLAYER1
  6
CONTINUOUS
 62
     3
100
AcDbLine
 10
34.087495
 20
24.225658
 30
0.0
 11
34.087495
 21
21.32565799999998
 31
0.0
  0
LINE
  5
17D
330
1E
100
AcDbEntity
  8
CSLAYER1
  6
CONTINUOUS
 62
     3
100
AcDbLine
 10
80.71570300000002
 20
29.357515
 30
0.0
 11
80.244549
 21
32.825658
 31
0.0
  0
LINE
  5
17E
330
1E
100
AcDbEntity
  8
CSLAYER1
  6
CONTINUOUS
 62
     3
100
AcDbLine
 10
112.4278569999999
 20
25.592187
 30
0.0
 11
89.719809
 21
22.50725499999999
 31
0.0
  0
ARC
  5
17F
330
1E
100
AcDbEntity
  8
CSLAYER1
  6
CONTINUOUS
 62
     3
100
AcDbCircle
 10
88.642886
 20
30.434438
 30
0.0
 40
8.0
100
AcDbArc
 50
187.73638
 51
277.7363799999999
  0
ARC
  5
180
330
1E
100
AcDbEntity
  8
CSLAYER1
  6
CONTINUOUS
 62
     3
100
AcDbCircle
 10
90.52244899999999
 20
36.997191
 30
0.0
 40
3.0
100
AcDbArc
 50
277.7363799999999
 51
357.5169
  0
LINE
  5
181
330
1E
100
AcDbEntity
  8
CSLAYER1
  6
CONTINUOUS
 62
     3
100
AcDbLine
 10
90.92629499999999
 20
34.024497
 30
0.0
 11
87.86892100000001
 21
33.609147
 31
0.0
  0
LINE
  5
182
330
1E
100
AcDbEntity
  8
CSLAYER1
  6
CONTINUOUS
 62
     3
100
AcDbLine
 10
87.83526700000001
 20
33.85687199999999
 30
0.0
 11
80.244549
 21
32.825658
 31
0.0
  0
LINE
  5
183
330
1E
100
AcDbEntity
  8
CSLAYER1
  6
CONTINUOUS
 62
     3
100
AcDbLine
 10
92.45346600000001
 20
34.70128799999999
 30
0.0
 11
90.397204
 21
28.084595
 31
0.0
  0
LINE
  5
184
330
1E
100
AcDbEntity
  8
CSLAYER1
  6
CONTINUOUS
 62
     3
100
AcDbLine
 10
80.36570299999999
 20
31.93385
 30
0.0
 11
88.98416899999999
 21
27.492455
 31
0.0
  0
ARC
  5
185
330
1E
100
AcDbEntity
  8
CSLAYER1
  6
CONTINUOUS
 62
     3
100
AcDbCircle
 10
89.442254
 20
28.381364
 30
0.0
 40
1.0
100
AcDbArc
 50
242.7363799999999
 51
342.73638
  0
LINE
  5
186
330
1E
100
AcDbEntity
  8
CSLAYER1
  6
CONTINUOUS
 62
     3
100
AcDbLine
 10
87.86892100000001
 20
33.609147
 30
0.0
 11
87.83526700000001
 21
33.85687199999999
 31
0.0
  0
LINE
  5
187
330
1E
100
AcDbEntity
  8
CSLAYER1
  6
CONTINUOUS
 62
     3
100
AcDbLine
 10
89.967863
 20
27.530637
 30
0.0
 11
89.157767
 21
33.784239
 31
0.0
  0
LINE
  5
188
330
1E
100
AcDbEntity
  8
CSLAYER1
  6
CONTINUOUS
 62
     3
100
AcDbLine
 10
110.9827569999999
 20
48.607138
 30
0.0
 11
99.605429
 21
47.06150599999999
 31
0.0
  0
DIMENSION
  5
189
330
1E
100
AcDbEntity
  8
CSLAYER1
 62
     4
100
AcDbDimension
  2
*D16
 10
69.78824200000001
 20
39.825658
 30
0.0
 11
68.788246
 21
36.325657
 31
0.0
 70
     1
100
AcDbAlignedDimension
 13
80.244549
 23
32.825658
 33
0.0
 14
80.244549
 24
39.825658
 34
0.0
  0
LINE
  5
18A
330
1E
100
AcDbEntity
  8
CSLAYER1
  6
DOT
 62
     3
100
AcDbLine
 10
4.0
 20
1.0
 30
0.0
 11
283.0
 21
1.0
 31
0.0
  0
LINE
  5
18B
330
1E
100
AcDbEntity
  8
CSLAYER1
  6
DOT
 62
     3
100
AcDbLine
 10
283.0
 20
1.0
 30
0.0
 11
283.0
 21
195.0
 31
0.0
  0
LINE
  5
18C
330
1E
100
AcDbEntity
  8
CSLAYER1
  6
DOT
 62
     3
100
AcDbLine
 10
283.0
 20
195.0
 30
0.0
 11
4.0
 21
195.0
 31
0.0
  0
LINE
  5
18D
330
1E
100
AcDbEntity
  8
CSLAYER1
  6
DOT
 62
     3
100
AcDbLine
 10
4.0
 20
195.0
 30
0.0
 11
4.0
 21
1.0
 31
0.0
  0
LINE
  5
18E
330
1E
100
AcDbEntity
  8
CSLAYER1
  6
DOT
 62
     3
100
AcDbLine
 10
4.0
 20
98.0
 30
0.0
 11
0.0
 21
98.0
 31
0.0
  0
LINE
  5
18F
330
1E
100
AcDbEntity
  8
CSLAYER1
  6
DOT
 62
     3
100
AcDbLine
 10
283.0
 20
98.0
 30
0.0
 11
287.0
 21
98.0
 31
0.0
  0
LINE
  5
190
330
1E
100
AcDbEntity
  8
CSLAYER1
  6
DOT
 62
     3
100
AcDbLine
 10
143.5
 20
195.0
 30
0.0
 11
143.5
 21
199.0
 31
0.0
  0
ENDSEC
  0
SECTION
  2
OBJECTS
  0
DICTIONARY
  5
C
330
0
100
AcDbDictionary
  3
ACAD_GROUP
350
D
  3
ACAD_LAYOUT
350
19
  3
ACAD_MLINESTYLE
350
16
  3
ACAD_PLOTSETTINGS
350
18
1001
ACAD
1000
TREAT_AS_HARD
1070
     0
1000
TREAT_AS_HARD
1070
     0
  0
DICTIONARY
  5
19A
330
1E
100
AcDbDictionary
  3
ACAD_LAYOUTSELFREF
350
1E3
1001
ACAD
1000
TREAT_AS_HARD
1070
     0
  0
DICTIONARY
  5
198
330
1A
100
AcDbDictionary
  3
ACAD_LAYOUTSELFREF
350
1E2
1001
ACAD
1000
TREAT_AS_HARD
1070
     0
  0
DICTIONARY
  5
D
102
{ACAD_REACTORS
330
C
102
}
330
C
100
AcDbDictionary
1001
ACAD
1000
TREAT_AS_HARD
1070
     0
1000
TREAT_AS_HARD
1070
     0
  0
DICTIONARY
  5
19
102
{ACAD_REACTORS
330
C
102
}
330
C
100
AcDbDictionary
1001
ACAD
1000
TREAT_AS_HARD
1070
     0
1000
TREAT_AS_HARD
1070
     0
  0
DICTIONARY
  5
16
102
{ACAD_REACTORS
330
C
102
}
330
C
100
AcDbDictionary
  3
STANDARD
350
17
1001
ACAD
1000
TREAT_AS_HARD
1070
     0
1000
TREAT_AS_HARD
1070
     0
  0
DICTIONARY
  5
18
102
{ACAD_REACTORS
330
C
102
}
330
C
100
AcDbDictionary
1001
ACAD
1000
TREAT_AS_HARD
1070
     0
1000
TREAT_AS_HARD
1070
     0
  0
XRECORD
  5
1E3
102
{ACAD_REACTORS
330
19A
102
}
330
19A
100
AcDbXrecord
340
1E
  0
XRECORD
  5
1E2
102
{ACAD_REACTORS
330
198
102
}
330
198
100
AcDbXrecord
340
1A
  0
MLINESTYLE
  5
17
102
{ACAD_REACTORS
330
16
102
}
330
16
100
AcDbMlineStyle
  2
STANDARD
 70
     0
  3

 62
   256
 51
90.0
 52
90.0
 71
     2
 49
0.5
 62
   256
  6
BYLAYER
 49
-0.5
 62
   256
  6
BYLAYER
  0
ENDSEC
  0
EOF
