  0
SECTION
  2
HEADER
  9
$ACADVER
  1
AC1012
  9
$DWGCODEPAGE
  3
dos932
  9
$INSBASE
 10
0.0
 20
0.0
 30
0.0
  9
$EXTMIN
 10
-0.0090630292066862
 20
0.9869389666558276
 30
-0.0015258207003583
  9
$EXTMAX
 10
287.0163123253922
 20
199.0155034058442
 30
0.0000000349246037
  9
$LIMMIN
 10
0.0
 20
0.0
  9
$LIMMAX
 10
297.0
 20
210.0
  9
$ORTHOMODE
 70
     0
  9
$REGENMODE
 70
     1
  9
$FILLMODE
 70
     1
  9
$QTEXTMODE
 70
     0
  9
$MIRRTEXT
 70
     1
  9
$DRAGMODE
 70
     2
  9
$LTSCALE
 40
15.0
  9
$OSMODE
 70
    37
  9
$ATTMODE
 70
     1
  9
$TEXTSIZE
 40
0.2
  9
$TRACEWID
 40
0.05
  9
$TEXTSTYLE
  7
GOTHIC
  9
$CLAYER
  8
CSLAYER1
  9
$CELTYPE
  6
BYLAYER
  9
$CECOLOR
 62
   256
  9
$CELTSCALE
 40
1.0
  9
$DELOBJ
 70
     1
  9
$DISPSILH
 70
     0
  9
$DIMSCALE
 40
1.0
  9
$DIMASZ
 40
0.18
  9
$DIMEXO
 40
0.0625
  9
$DIMDLI
 40
0.38
  9
$DIMRND
 40
0.0
  9
$DIMDLE
 40
0.0
  9
$DIMEXE
 40
0.18
  9
$DIMTP
 40
0.0
  9
$DIMTM
 40
0.0
  9
$DIMTXT
 40
0.18
  9
$DIMCEN
 40
0.09
  9
$DIMTSZ
 40
0.0
  9
$DIMTOL
 70
     0
  9
$DIMLIM
 70
     0
  9
$DIMTIH
 70
     1
  9
$DIMTOH
 70
     1
  9
$DIMSE1
 70
     0
  9
$DIMSE2
 70
     0
  9
$DIMTAD
 70
     0
  9
$DIMZIN
 70
     0
  9
$DIMBLK
  1

  9
$DIMASO
 70
     1
  9
$DIMSHO
 70
     1
  9
$DIMPOST
  1

  9
$DIMAPOST
  1

  9
$DIMALT
 70
     0
  9
$DIMALTD
 70
     2
  9
$DIMALTF
 40
25.4
  9
$DIMLFAC
 40
1.0
  9
$DIMTOFL
 70
     0
  9
$DIMTVP
 40
0.0
  9
$DIMTIX
 70
     0
  9
$DIMSOXD
 70
     0
  9
$DIMSAH
 70
     0
  9
$DIMBLK1
  1

  9
$DIMBLK2
  1

  9
$DIMSTYLE
  2
STANDARD
  9
$DIMCLRD
 70
     0
  9
$DIMCLRE
 70
     0
  9
$DIMCLRT
 70
     0
  9
$DIMTFAC
 40
1.0
  9
$DIMGAP
 40
0.09
  9
$DIMJUST
 70
     0
  9
$DIMSD1
 70
     0
  9
$DIMSD2
 70
     0
  9
$DIMTOLJ
 70
     1
  9
$DIMTZIN
 70
     0
  9
$DIMALTZ
 70
     0
  9
$DIMALTTZ
 70
     0
  9
$DIMFIT
 70
     3
  9
$DIMUPT
 70
     0
  9
$DIMUNIT
 70
     2
  9
$DIMDEC
 70
     4
  9
$DIMTDEC
 70
     4
  9
$DIMALTU
 70
     2
  9
$DIMALTTD
 70
     2
  9
$DIMTXSTY
  7
STANDARD
  9
$DIMAUNIT
 70
     0
  9
$LUNITS
 70
     2
  9
$LUPREC
 70
     4
  9
$SKETCHINC
 40
0.1
  9
$FILLETRAD
 40
0.0
  9
$AUNITS
 70
     0
  9
$AUPREC
 70
     0
  9
$MENU
  1
ACAD
  9
$ELEVATION
 40
0.0
  9
$PELEVATION
 40
0.0
  9
$THICKNESS
 40
0.0
  9
$LIMCHECK
 70
     0
  9
$BLIPMODE
 70
     1
  9
$CHAMFERA
 40
0.0
  9
$CHAMFERB
 40
0.0
  9
$CHAMFERC
 40
0.0
  9
$CHAMFERD
 40
0.0
  9
$SKPOLY
 70
     0
  9
$TDCREATE
 40
2453476.999999999
  9
$TDUPDATE
 40
2453516.552139050
  9
$TDINDWG
 40
0.0552809954
  9
$TDUSRTIMER
 40
0.0552808796
  9
$USRTIMER
 70
     1
  9
$ANGBASE
 50
0.0
  9
$ANGDIR
 70
     0
  9
$PDMODE
 70
     0
  9
$PDSIZE
 40
0.0
  9
$PLINEWID
 40
0.0
  9
$COORDS
 70
     0
  9
$SPLFRAME
 70
     0
  9
$SPLINETYPE
 70
     6
  9
$SPLINESEGS
 70
     8
  9
$ATTDIA
 70
     0
  9
$ATTREQ
 70
     1
  9
$HANDLING
 70
-16383
  9
$HANDSEED
  5
1C5
  9
$SURFTAB1
 70
     6
  9
$SURFTAB2
 70
     6
  9
$SURFTYPE
 70
     6
  9
$SURFU
 70
     6
  9
$SURFV
 70
     6
  9
$UCSNAME
  2

  9
$UCSORG
 10
0.0
 20
0.0
 30
0.0
  9
$UCSXDIR
 10
1.0
 20
0.0
 30
0.0
  9
$UCSYDIR
 10
0.0
 20
1.0
 30
0.0
  9
$PUCSNAME
  2

  9
$PUCSORG
 10
0.0
 20
0.0
 30
0.0
  9
$PUCSXDIR
 10
1.0
 20
0.0
 30
0.0
  9
$PUCSYDIR
 10
0.0
 20
1.0
 30
0.0
  9
$USERI1
 70
     0
  9
$USERI2
 70
     0
  9
$USERI3
 70
     0
  9
$USERI4
 70
     0
  9
$USERI5
 70
     0
  9
$USERR1
 40
0.0
  9
$USERR2
 40
0.0
  9
$USERR3
 40
0.0
  9
$USERR4
 40
0.0
  9
$USERR5
 40
0.0
  9
$WORLDVIEW
 70
     1
  9
$SHADEDGE
 70
     3
  9
$SHADEDIF
 70
    70
  9
$TILEMODE
 70
     1
  9
$MAXACTVP
 70
    64
  9
$PINSBASE
 10
0.0
 20
0.0
 30
0.0
  9
$PLIMCHECK
 70
     0
  9
$PEXTMIN
 10
1.000000000000000E+20
 20
1.000000000000000E+20
 30
1.000000000000000E+20
  9
$PEXTMAX
 10
-1.000000000000000E+20
 20
-1.000000000000000E+20
 30
-1.000000000000000E+20
  9
$PLIMMIN
 10
0.0
 20
0.0
  9
$PLIMMAX
 10
12.0
 20
9.0
  9
$UNITMODE
 70
     0
  9
$VISRETAIN
 70
     1
  9
$PLINEGEN
 70
     0
  9
$PSLTSCALE
 70
     1
  9
$TREEDEPTH
 70
  3020
  9
$PICKSTYLE
 70
     3
  9
$CMLSTYLE
  2
STANDARD
  9
$CMLJUST
 70
     0
  9
$CMLSCALE
 40
1.0
  9
$SAVEIMAGES
 70
     1
  0
ENDSEC
  0
SECTION
  2
CLASSES
  0
CLASS
  1
ACDBDICTIONARYWDFLT
  2
AcDbDictionaryWithDefault
  3
AutoCAD 2000
 90
    32768
280
     0
281
     0
  0
CLASS
  1
ACDBPLACEHOLDER
  2
AcDbPlaceHolder
  3
AutoCAD 2000
 90
    32768
280
     0
281
     0
  0
CLASS
  1
LAYOUT
  2
AcDbLayout
  3
AutoCAD 2000
 90
    32768
280
     0
281
     0
  0
CLASS
  1
DICTIONARYVAR
  2
AcDbDictionaryVar
  3
AutoCAD 2000
 90
    32768
280
     0
281
     0
  0
CLASS
  1
LONG_TRANSACTION
  2
AcDbLongTransaction
  3
AutoCAD 2000
 90
    32768
280
     0
281
     0
  0
CLASS
  1
LWPOLYLINE
  2
AcDbPolyline
  3
AutoCAD 2000
 90
    32768
280
     0
281
     1
  0
CLASS
  1
HATCH
  2
AcDbHatch
  3
AutoCAD 2000
 90
    32768
280
     0
281
     1
  0
CLASS
  1
XRECORD
  2
AcDbXrecord
  3
AutoCAD 2000
 90
    32768
280
     0
281
     0
  0
CLASS
  1
LONG_TRANSACTION
  2
AcDbLongTransaction
  3
AutoCAD 2000
 90
    32768
280
     0
281
     0
  0
CLASS
  1
LWPOLYLINE
  2
AcDbPolyline
  3
AutoCAD 2000
 90
    32768
280
     0
281
     1
  0
CLASS
  1
HATCH
  2
AcDbHatch
  3
AutoCAD 2000
 90
    32768
280
     0
281
     1
  0
CLASS
  1
XRECORD
  2
AcDbXrecord
  3
AutoCAD 2000
 90
    32768
280
     0
281
     0
  0
ENDSEC
  0
SECTION
  2
TABLES
  0
TABLE
  2
VPORT
  5
8
330
0
100
AcDbSymbolTable
 70
     2
  0
VPORT
  5
1C2
330
8
100
AcDbSymbolTableRecord
100
AcDbViewportTableRecord
  2
*ACTIVE
 70
     0
 10
0.0
 20
0.0
 11
1.0
 21
1.0
 12
143.5036246480927
 22
100.00122118625
 13
0.0
 23
0.0
 14
1.0
 24
1.0
 15
0.0
 25
0.0
 16
0.0
 26
0.0
 36
1.0
 17
0.0
 27
0.0
 37
0.0
 40
199.5156375138256
 41
1.510025062656641
 42
50.0
 43
0.0
 44
0.0
 50
0.0
 51
0.0
 71
     0
 72
   100
 73
     1
 74
     1
 75
     0
 76
     0
 77
     0
 78
     0
  0
ENDTAB
  0
TABLE
  2
LTYPE
  5
5
330
0
100
AcDbSymbolTable
 70
     4
  0
LTYPE
  5
13
330
5
100
AcDbSymbolTableRecord
100
AcDbLinetypeTableRecord
  2
BYBLOCK
 70
     0
  3

 72
    65
 73
     0
 40
0.0
  0
LTYPE
  5
14
330
5
100
AcDbSymbolTableRecord
100
AcDbLinetypeTableRecord
  2
BYLAYER
 70
     0
  3

 72
    65
 73
     0
 40
0.0
  0
LTYPE
  5
15
330
5
100
AcDbSymbolTableRecord
100
AcDbLinetypeTableRecord
  2
CONTINUOUS
 70
     0
  3
Solid line
 72
    65
 73
     0
 40
0.0
  0
LTYPE
  5
23
330
5
100
AcDbSymbolTableRecord
100
AcDbLinetypeTableRecord
  2
DASHED
 70
     0
  3
__ __ __ __ __ __ __ __ __ __ __ __ __ __ __
 72
    65
 73
     2
 40
0.75
 49
0.5
 74
     0
 49
-0.25
 74
     0
  0
LTYPE
  5
25
330
5
100
AcDbSymbolTableRecord
100
AcDbLinetypeTableRecord
  2
DOT
 70
     0
  3
...............................................
 72
    65
 73
     2
 40
0.25
 49
0.0
 74
     0
 49
-0.25
 74
     0
  0
LTYPE
  5
28
330
5
100
AcDbSymbolTableRecord
100
AcDbLinetypeTableRecord
  2
CENTER
 70
     0
  3
____ _ ____ _ ____ _ ____ _ ____ _ ____ _ ____ 
 72
    65
 73
     4
 40
2.0
 49
1.25
 74
     0
 49
-0.25
 74
     0
 49
0.25
 74
     0
 49
-0.25
 74
     0
  0
ENDTAB
  0
TABLE
  2
LAYER
  5
2
330
0
100
AcDbSymbolTable
 70
     3
  0
LAYER
  5
10
330
2
100
AcDbSymbolTableRecord
100
AcDbLayerTableRecord
  2
0
 70
     0
 62
     7
  6
CONTINUOUS
  0
LAYER
  5
22
330
2
100
AcDbSymbolTableRecord
100
AcDbLayerTableRecord
  2
CSLAYER1
 70
     0
 62
     7
  6
CONTINUOUS
  0
LAYER
  5
198
330
2
100
AcDbSymbolTableRecord
100
AcDbLayerTableRecord
  2
DEFPOINTS
 70
     0
 62
     7
  6
CONTINUOUS
  0
ENDTAB
  0
TABLE
  2
STYLE
  5
3
330
0
100
AcDbSymbolTable
 70
     3
  0
STYLE
  5
11
330
3
100
AcDbSymbolTableRecord
100
AcDbTextStyleTableRecord
  2
STANDARD
 70
     0
 40
0.0
 41
1.0
 50
0.0
 71
     0
 42
0.2
  3
txt
  4
extfont.shx
  0
STYLE
  5
3A
330
3
100
AcDbSymbolTableRecord
100
AcDbTextStyleTableRecord
  2
FX_FONT
 70
     0
 40
1.0
 41
1.0
 50
0.0
 71
     0
 42
1.0
  3
monotxt
  4
bigfont
  0
STYLE
  5
190
330
3
100
AcDbSymbolTableRecord
100
AcDbTextStyleTableRecord
  2
GOTHIC
 70
     0
 40
0.0
 41
1.0
 50
0.0
 71
     0
 42
0.2
  3
txt.shx
  4
extfont.shx
  0
ENDTAB
  0
TABLE
  2
VIEW
  5
6
330
0
100
AcDbSymbolTable
 70
     0
  0
ENDTAB
  0
TABLE
  2
UCS
  5
7
330
0
100
AcDbSymbolTable
 70
     0
  0
ENDTAB
  0
TABLE
  2
APPID
  5
9
330
0
100
AcDbSymbolTable
 70
     1
  0
APPID
  5
12
330
9
100
AcDbSymbolTableRecord
100
AcDbRegAppTableRecord
  2
ACAD
 70
     0
  0
ENDTAB
  0
TABLE
  2
DIMSTYLE
  5
A
330
0
100
AcDbSymbolTable
 70
     1
  0
DIMSTYLE
105
18D
330
A
100
AcDbSymbolTableRecord
100
AcDbDimStyleTableRecord
  2
STANDARD
 70
     0
  3

  4

  5

  6

  7

 40
1.0
 41
0.18
 42
0.0625
 43
0.38
 44
0.18
 45
0.0
 46
0.0
 47
0.0
 48
0.0
140
0.18
141
0.09
142
0.0
143
25.4
144
1.0
145
0.0
146
1.0
147
0.09
 71
     0
 72
     0
 73
     1
 74
     1
 75
     0
 76
     0
 77
     0
 78
     0
170
     0
171
     2
172
     0
173
     0
174
     0
175
     0
176
     0
177
     0
178
     0
270
     2
271
     4
272
     4
273
     2
274
     2
340
11
275
     0
280
     0
281
     0
282
     0
283
     1
284
     0
285
     0
286
     0
287
     3
288
     0
  0
ENDTAB
  0
TABLE
  2
BLOCK_RECORD
  5
1
330
0
100
AcDbSymbolTable
 70
    18
  0
BLOCK_RECORD
  5
1E
102
{ACAD_XDICTIONARY
360
196
102
}
330
1
100
AcDbSymbolTableRecord
100
AcDbBlockTableRecord
  2
*MODEL_SPACE
  0
BLOCK_RECORD
  5
1A
102
{ACAD_XDICTIONARY
360
194
102
}
330
1
100
AcDbSymbolTableRecord
100
AcDbBlockTableRecord
  2
*PAPER_SPACE
  0
BLOCK_RECORD
  5
3F
330
1
100
AcDbSymbolTableRecord
100
AcDbBlockTableRecord
  2
FXDIM0000
  0
BLOCK_RECORD
  5
47
330
1
100
AcDbSymbolTableRecord
100
AcDbBlockTableRecord
  2
FXDIM0001
  0
BLOCK_RECORD
  5
51
330
1
100
AcDbSymbolTableRecord
100
AcDbBlockTableRecord
  2
FXDIM0002
  0
BLOCK_RECORD
  5
5B
330
1
100
AcDbSymbolTableRecord
100
AcDbBlockTableRecord
  2
*D3
  0
BLOCK_RECORD
  5
66
330
1
100
AcDbSymbolTableRecord
100
AcDbBlockTableRecord
  2
*D4
  0
BLOCK_RECORD
  5
73
330
1
100
AcDbSymbolTableRecord
100
AcDbBlockTableRecord
  2
*D5
  0
BLOCK_RECORD
  5
7F
330
1
100
AcDbSymbolTableRecord
100
AcDbBlockTableRecord
  2
*D6
  0
BLOCK_RECORD
  5
8A
330
1
100
AcDbSymbolTableRecord
100
AcDbBlockTableRecord
  2
*D7
  0
BLOCK_RECORD
  5
95
330
1
100
AcDbSymbolTableRecord
100
AcDbBlockTableRecord
  2
*D8
  0
BLOCK_RECORD
  5
A0
330
1
100
AcDbSymbolTableRecord
100
AcDbBlockTableRecord
  2
*D9
  0
BLOCK_RECORD
  5
AB
330
1
100
AcDbSymbolTableRecord
100
AcDbBlockTableRecord
  2
*D10
  0
BLOCK_RECORD
  5
B2
330
1
100
AcDbSymbolTableRecord
100
AcDbBlockTableRecord
  2
*D11
  0
BLOCK_RECORD
  5
BD
330
1
100
AcDbSymbolTableRecord
100
AcDbBlockTableRecord
  2
*D12
  0
BLOCK_RECORD
  5
C7
330
1
100
AcDbSymbolTableRecord
100
AcDbBlockTableRecord
  2
*D13
  0
BLOCK_RECORD
  5
D4
330
1
100
AcDbSymbolTableRecord
100
AcDbBlockTableRecord
  2
*D14
  0
BLOCK_RECORD
  5
DF
330
1
100
AcDbSymbolTableRecord
100
AcDbBlockTableRecord
  2
*D15
  0
BLOCK_RECORD
  5
199
330
1
100
AcDbSymbolTableRecord
100
AcDbBlockTableRecord
  2
*D16
  0
BLOCK_RECORD
  5
1A8
330
1
100
AcDbSymbolTableRecord
100
AcDbBlockTableRecord
  2
*D17
  0
ENDTAB
  0
ENDSEC
  0
SECTION
  2
BLOCKS
  0
BLOCK
  5
1F
330
1E
100
AcDbEntity
  8
0
100
AcDbBlockBegin
  2
*MODEL_SPACE
 70
     0
 10
0.0
 20
0.0
 30
0.0
  3
*MODEL_SPACE
  1

  0
ENDBLK
  5
20
330
1E
100
AcDbEntity
  8
0
100
AcDbBlockEnd
  0
BLOCK
  5
1B
330
1A
100
AcDbEntity
 67
     1
  8
0
100
AcDbBlockBegin
  2
*PAPER_SPACE
 70
     0
 10
0.0
 20
0.0
 30
0.0
  3
*PAPER_SPACE
  1

  0
ENDBLK
  5
1C
330
1A
100
AcDbEntity
 67
     1
  8
0
100
AcDbBlockEnd
  0
BLOCK
  5
40
330
3F
100
AcDbEntity
  8
0
100
AcDbBlockBegin
  2
FXDIM0000
 70
     0
 10
0.0
 20
0.0
 30
0.0
  3
FXDIM0000
  1

  0
LINE
  5
41
330
3F
100
AcDbEntity
  8
CSLAYER1
  6
CONTINUOUS
 62
     4
100
AcDbLine
 10
184.257387
 20
130.0731609999999
 30
0.0
 11
178.735653
 21
109.4657669999999
 31
0.0
  0
LINE
  5
42
330
3F
100
AcDbEntity
  8
CSLAYER1
  6
CONTINUOUS
 62
     4
100
AcDbLine
 10
184.257387
 20
130.0731609999999
 30
0.0
 11
184.257387
 21
127.073161
 31
0.0
  0
LINE
  5
43
330
3F
100
AcDbEntity
  8
CSLAYER1
  6
CONTINUOUS
 62
     4
100
AcDbLine
 10
184.257387
 20
130.0731609999999
 30
0.0
 11
182.757387
 21
127.475084
 31
0.0
  0
LINE
  5
44
330
3F
100
AcDbEntity
  8
CSLAYER1
  6
CONTINUOUS
 62
     4
100
AcDbLine
 10
178.735653
 20
109.4657669999999
 30
0.0
 11
164.735653
 21
109.4657669999999
 31
0.0
  0
TEXT
  5
45
330
3F
100
AcDbEntity
  8
CSLAYER1
 62
     4
100
AcDbText
 10
164.935641
 20
110.4657669999999
 30
0.0
 40
3.2
  1
%%c4.1
 41
1.142857142857135
 51
15.0
  7
FX_FONT
 72
     5
 11
177.7356409999999
 21
110.4657669999999
 31
0.0
100
AcDbText
  0
ENDBLK
  5
46
330
3F
100
AcDbEntity
  8
0
100
AcDbBlockEnd
  0
BLOCK
  5
48
330
47
100
AcDbEntity
  8
0
100
AcDbBlockBegin
  2
FXDIM0001
 70
     0
 10
0.0
 20
0.0
 30
0.0
  3
FXDIM0001
  1

  0
LINE
  5
49
330
47
100
AcDbEntity
  8
CSLAYER1
  6
CONTINUOUS
 62
     4
100
AcDbLine
 10
192.357237
 20
79.0
 30
0.0
 11
193.8572369999999
 21
81.598076
 31
0.0
  0
LINE
  5
4A
330
47
100
AcDbEntity
  8
CSLAYER1
  6
CONTINUOUS
 62
     4
100
AcDbLine
 10
190.8572369999999
 20
81.598076
 30
0.0
 11
199.8572369999999
 21
81.598076
 31
0.0
  0
LINE
  5
4B
330
47
100
AcDbEntity
  8
CSLAYER1
  6
CONTINUOUS
 62
     4
100
AcDbLine
 10
190.8572369999999
 20
81.598076
 30
0.0
 11
192.357237
 21
79.0
 31
0.0
  0
LINE
  5
4C
330
47
100
AcDbEntity
  8
CSLAYER1
  6
CONTINUOUS
 62
     4
100
AcDbLine
 10
195.357237
 20
79.0
 30
0.0
 11
196.857237
 21
81.598076
 31
0.0
  0
LINE
  5
4D
330
47
100
AcDbEntity
  8
CSLAYER1
  6
CONTINUOUS
 62
     4
100
AcDbLine
 10
193.8572369999999
 20
81.598076
 30
0.0
 11
195.357237
 21
79.0
 31
0.0
  0
LINE
  5
4E
330
47
100
AcDbEntity
  8
CSLAYER1
  6
CONTINUOUS
 62
     4
100
AcDbLine
 10
198.357237
 20
79.0
 30
0.0
 11
199.8572369999999
 21
81.598076
 31
0.0
  0
LINE
  5
4F
330
47
100
AcDbEntity
  8
CSLAYER1
  6
CONTINUOUS
 62
     4
100
AcDbLine
 10
196.857237
 20
81.598076
 30
0.0
 11
198.357237
 21
79.0
 31
0.0
  0
ENDBLK
  5
50
330
47
100
AcDbEntity
  8
0
100
AcDbBlockEnd
  0
BLOCK
  5
52
330
51
100
AcDbEntity
  8
0
100
AcDbBlockBegin
  2
FXDIM0002
 70
     0
 10
0.0
 20
0.0
 30
0.0
  3
FXDIM0002
  1

  0
LINE
  5
53
330
51
100
AcDbEntity
  8
CSLAYER1
  6
CONTINUOUS
 62
     4
100
AcDbLine
 10
194.157237
 20
67.0
 30
0.0
 11
192.657237
 21
64.40192399999999
 31
0.0
  0
LINE
  5
54
330
51
100
AcDbEntity
  8
CSLAYER1
  6
CONTINUOUS
 62
     4
100
AcDbLine
 10
192.657237
 20
64.40192399999999
 30
0.0
 11
201.657237
 21
64.40192399999999
 31
0.0
  0
LINE
  5
55
330
51
100
AcDbEntity
  8
CSLAYER1
  6
CONTINUOUS
 62
     4
100
AcDbLine
 10
195.657237
 20
64.40192399999999
 30
0.0
 11
194.157237
 21
67.0
 31
0.0
  0
LINE
  5
56
330
51
100
AcDbEntity
  8
CSLAYER1
  6
CONTINUOUS
 62
     4
100
AcDbLine
 10
197.157237
 20
67.0
 30
0.0
 11
195.657237
 21
64.40192399999999
 31
0.0
  0
LINE
  5
57
330
51
100
AcDbEntity
  8
CSLAYER1
  6
CONTINUOUS
 62
     4
100
AcDbLine
 10
198.657237
 20
64.40192399999999
 30
0.0
 11
197.157237
 21
67.0
 31
0.0
  0
LINE
  5
58
330
51
100
AcDbEntity
  8
CSLAYER1
  6
CONTINUOUS
 62
     4
100
AcDbLine
 10
200.157237
 20
67.0
 30
0.0
 11
198.657237
 21
64.40192399999999
 31
0.0
  0
LINE
  5
59
330
51
100
AcDbEntity
  8
CSLAYER1
  6
CONTINUOUS
 62
     4
100
AcDbLine
 10
201.657237
 20
64.40192399999999
 30
0.0
 11
200.157237
 21
67.0
 31
0.0
  0
ENDBLK
  5
5A
330
51
100
AcDbEntity
  8
0
100
AcDbBlockEnd
  0
BLOCK
  5
5C
330
5B
100
AcDbEntity
  8
0
100
AcDbBlockBegin
  2
*D3
 70
     1
 10
0.0
 20
0.0
 30
0.0
  3
*D3
  1

  0
TEXT
  5
5D
330
5B
100
AcDbEntity
  8
CSLAYER1
 62
     4
100
AcDbText
 10
174.2572299999999
 20
91.28289800000001
 30
0.0
 40
3.2
  1
15
 41
1.200000000000011
 51
15.0
  7
FX_FONT
 72
     5
 11
180.65723
 21
91.28289800000001
 31
0.0
100
AcDbText
  0
LINE
  5
5E
330
5B
100
AcDbEntity
  8
CSLAYER1
  6
CONTINUOUS
 62
     4
100
AcDbLine
 10
169.957237
 20
90.282899
 30
0.0
 11
184.957237
 21
90.282899
 31
0.0
  0
LINE
  5
5F
330
5B
100
AcDbEntity
  8
CSLAYER1
  6
CONTINUOUS
 62
     4
100
AcDbLine
 10
169.957237
 20
90.282899
 30
0.0
 11
172.8550139999999
 21
91.059356
 31
0.0
  0
LINE
  5
60
330
5B
100
AcDbEntity
  8
CSLAYER1
  6
CONTINUOUS
 62
     4
100
AcDbLine
 10
169.957237
 20
90.282899
 30
0.0
 11
172.8550139999999
 21
89.50644200000002
 31
0.0
  0
LINE
  5
61
330
5B
100
AcDbEntity
  8
CSLAYER1
  6
CONTINUOUS
 62
     4
100
AcDbLine
 10
184.957237
 20
90.282899
 30
0.0
 11
182.0594589999999
 21
91.059356
 31
0.0
  0
LINE
  5
62
330
5B
100
AcDbEntity
  8
CSLAYER1
  6
CONTINUOUS
 62
     4
100
AcDbLine
 10
184.957237
 20
90.282899
 30
0.0
 11
182.0594589999999
 21
89.50644200000002
 31
0.0
  0
LINE
  5
63
330
5B
100
AcDbEntity
  8
CSLAYER1
  6
CONTINUOUS
 62
     4
100
AcDbLine
 10
169.957237
 20
80.0
 30
0.0
 11
169.957237
 21
91.282899
 31
0.0
  0
LINE
  5
64
330
5B
100
AcDbEntity
  8
CSLAYER1
  6
CONTINUOUS
 62
     4
100
AcDbLine
 10
184.957237
 20
83.66174499999997
 30
0.0
 11
184.957237
 21
91.282899
 31
0.0
  0
ENDBLK
  5
65
330
5B
100
AcDbEntity
  8
0
100
AcDbBlockEnd
  0
BLOCK
  5
67
330
66
100
AcDbEntity
  8
0
100
AcDbBlockBegin
  2
*D4
 70
     1
 10
0.0
 20
0.0
 30
0.0
  3
*D4
  1

  0
TEXT
  5
68
330
66
100
AcDbEntity
  8
CSLAYER1
 62
     4
100
AcDbText
 10
137.172562
 20
69.83416899999999
 30
0.0
 40
3.2
  1
12  
 50
90.0
 41
1.250000000000002
 51
15.0
  7
FX_FONT
 72
     5
 11
137.172562
 21
82.63416900000001
 31
0.0
100
AcDbText
  0
TEXT
  5
69
330
66
100
AcDbEntity
  8
CSLAYER1
 62
     4
100
AcDbText
 10
135.572562
 20
82.63416900000001
 30
0.0
 40
1.6
  1
  0
 50
90.0
 41
1.607142857142846
 51
15.0
  7
FX_FONT
 72
     5
 11
135.572562
 21
87.43416899999997
 31
0.0
100
AcDbText
  0
TEXT
  5
6A
330
66
100
AcDbEntity
  8
CSLAYER1
 62
     4
100
AcDbText
 10
137.172562
 20
82.63416900000001
 30
0.0
 40
1.6
  1
-0.15
 50
90.0
 41
1.071428571428569
 51
15.0
  7
FX_FONT
 72
     5
 11
137.172562
 21
90.63416899999999
 31
0.0
100
AcDbText
  0
LINE
  5
6B
330
66
100
AcDbEntity
  8
CSLAYER1
  6
CONTINUOUS
 62
     4
100
AcDbLine
 10
138.172558
 20
67.0
 30
0.0
 11
138.172558
 21
79.0
 31
0.0
  0
LINE
  5
6C
330
66
100
AcDbEntity
  8
CSLAYER1
  6
CONTINUOUS
 62
     4
100
AcDbLine
 10
138.172558
 20
67.0
 30
0.0
 11
137.3961009999999
 21
69.89777700000001
 31
0.0
  0
LINE
  5
6D
330
66
100
AcDbEntity
  8
CSLAYER1
  6
CONTINUOUS
 62
     4
100
AcDbLine
 10
138.172558
 20
67.0
 30
0.0
 11
138.949015
 21
69.89777700000001
 31
0.0
  0
LINE
  5
6E
330
66
100
AcDbEntity
  8
CSLAYER1
  6
CONTINUOUS
 62
     4
100
AcDbLine
 10
138.172558
 20
79.0
 30
0.0
 11
137.3961009999999
 21
76.102223
 31
0.0
  0
LINE
  5
6F
330
66
100
AcDbEntity
  8
CSLAYER1
  6
CONTINUOUS
 62
     4
100
AcDbLine
 10
138.172558
 20
79.0
 30
0.0
 11
138.949015
 21
76.102223
 31
0.0
  0
LINE
  5
70
330
66
100
AcDbEntity
  8
CSLAYER1
  6
CONTINUOUS
 62
     4
100
AcDbLine
 10
168.957237
 20
67.0
 30
0.0
 11
137.172558
 21
67.0
 31
0.0
  0
LINE
  5
71
330
66
100
AcDbEntity
  8
CSLAYER1
  6
CONTINUOUS
 62
     4
100
AcDbLine
 10
168.957237
 20
79.0
 30
0.0
 11
137.172558
 21
79.0
 31
0.0
  0
ENDBLK
  5
72
330
66
100
AcDbEntity
  8
0
100
AcDbBlockEnd
  0
BLOCK
  5
74
330
73
100
AcDbEntity
  8
0
100
AcDbBlockBegin
  2
*D5
 70
     1
 10
0.0
 20
0.0
 30
0.0
  3
*D5
  1

  0
TEXT
  5
75
330
73
100
AcDbEntity
  8
CSLAYER1
 62
     4
100
AcDbText
 10
142.9976649999999
 20
75.083914
 30
0.0
 40
3.2
  1
3
 50
90.0
 41
1.499999999999994
 51
15.0
  7
FX_FONT
 72
     5
 11
142.9976649999999
 21
78.283914
 31
0.0
100
AcDbText
  0
LINE
  5
76
330
73
100
AcDbEntity
  8
CSLAYER1
  6
CONTINUOUS
 62
     4
100
AcDbLine
 10
144.172558
 20
76.0
 30
0.0
 11
144.172558
 21
79.0
 31
0.0
  0
LINE
  5
77
330
73
100
AcDbEntity
  8
CSLAYER1
  6
CONTINUOUS
 62
     4
100
AcDbLine
 10
148.957237
 20
76.0
 30
0.0
 11
143.172558
 21
76.0
 31
0.0
  0
LINE
  5
78
330
73
100
AcDbEntity
  8
CSLAYER1
  6
CONTINUOUS
 62
     4
100
AcDbLine
 10
144.172558
 20
70.0
 30
0.0
 11
144.172558
 21
76.0
 31
0.0
  0
LINE
  5
79
330
73
100
AcDbEntity
  8
CSLAYER1
  6
CONTINUOUS
 62
     4
100
AcDbLine
 10
144.172558
 20
76.0
 30
0.0
 11
143.3961009999999
 21
73.10222299999998
 31
0.0
  0
LINE
  5
7A
330
73
100
AcDbEntity
  8
CSLAYER1
  6
CONTINUOUS
 62
     4
100
AcDbLine
 10
144.172558
 20
76.0
 30
0.0
 11
144.949015
 21
73.10222299999998
 31
0.0
  0
LINE
  5
7B
330
73
100
AcDbEntity
  8
CSLAYER1
  6
CONTINUOUS
 62
     4
100
AcDbLine
 10
144.172558
 20
79.0
 30
0.0
 11
144.172558
 21
85.0
 31
0.0
  0
LINE
  5
7C
330
73
100
AcDbEntity
  8
CSLAYER1
  6
CONTINUOUS
 62
     4
100
AcDbLine
 10
144.172558
 20
79.0
 30
0.0
 11
143.3961009999999
 21
81.897777
 31
0.0
  0
LINE
  5
7D
330
73
100
AcDbEntity
  8
CSLAYER1
  6
CONTINUOUS
 62
     4
100
AcDbLine
 10
144.172558
 20
79.0
 30
0.0
 11
144.949015
 21
81.897777
 31
0.0
  0
ENDBLK
  5
7E
330
73
100
AcDbEntity
  8
0
100
AcDbBlockEnd
  0
BLOCK
  5
80
330
7F
100
AcDbEntity
  8
0
100
AcDbBlockBegin
  2
*D6
 70
     1
 10
0.0
 20
0.0
 30
0.0
  3
*D6
  1

  0
TEXT
  5
81
330
7F
100
AcDbEntity
  8
CSLAYER1
 62
     4
100
AcDbText
 10
174.2572299999999
 20
57.917625
 30
0.0
 40
3.2
  1
15
 41
1.200000000000011
 51
15.0
  7
FX_FONT
 72
     5
 11
180.65723
 21
57.917625
 31
0.0
100
AcDbText
  0
LINE
  5
82
330
7F
100
AcDbEntity
  8
CSLAYER1
  6
CONTINUOUS
 62
     4
100
AcDbLine
 10
169.957237
 20
56.917627
 30
0.0
 11
184.957237
 21
56.917627
 31
0.0
  0
LINE
  5
83
330
7F
100
AcDbEntity
  8
CSLAYER1
  6
CONTINUOUS
 62
     4
100
AcDbLine
 10
169.957237
 20
56.917627
 30
0.0
 11
172.8550139999999
 21
57.69408399999999
 31
0.0
  0
LINE
  5
84
330
7F
100
AcDbEntity
  8
CSLAYER1
  6
CONTINUOUS
 62
     4
100
AcDbLine
 10
169.957237
 20
56.917627
 30
0.0
 11
172.8550139999999
 21
56.14117
 31
0.0
  0
LINE
  5
85
330
7F
100
AcDbEntity
  8
CSLAYER1
  6
CONTINUOUS
 62
     4
100
AcDbLine
 10
184.957237
 20
56.917627
 30
0.0
 11
182.0594589999999
 21
57.69408399999999
 31
0.0
  0
LINE
  5
86
330
7F
100
AcDbEntity
  8
CSLAYER1
  6
CONTINUOUS
 62
     4
100
AcDbLine
 10
184.957237
 20
56.917627
 30
0.0
 11
182.0594589999999
 21
56.14117
 31
0.0
  0
LINE
  5
87
330
7F
100
AcDbEntity
  8
CSLAYER1
  6
CONTINUOUS
 62
     4
100
AcDbLine
 10
169.957237
 20
66.0
 30
0.0
 11
169.957237
 21
55.917627
 31
0.0
  0
LINE
  5
88
330
7F
100
AcDbEntity
  8
CSLAYER1
  6
CONTINUOUS
 62
     4
100
AcDbLine
 10
184.957237
 20
62.4648
 30
0.0
 11
184.957237
 21
55.917627
 31
0.0
  0
ENDBLK
  5
89
330
7F
100
AcDbEntity
  8
0
100
AcDbBlockEnd
  0
BLOCK
  5
8B
330
8A
100
AcDbEntity
  8
0
100
AcDbBlockBegin
  2
*D7
 70
     1
 10
0.0
 20
0.0
 30
0.0
  3
*D7
  1

  0
TEXT
  5
8C
330
8A
100
AcDbEntity
  8
CSLAYER1
 62
     4
100
AcDbText
 10
133.5028839999999
 20
120.7999999999999
 30
0.0
 40
3.2
  1
22.5~24
 50
90.0
 41
1.05
 51
15.0
  7
FX_FONT
 72
     5
 11
133.5028839999999
 21
143.1999999999999
 31
0.0
100
AcDbText
  0
LINE
  5
8D
330
8A
100
AcDbEntity
  8
CSLAYER1
  6
CONTINUOUS
 62
     4
100
AcDbLine
 10
134.5028879999998
 20
120.5
 30
0.0
 11
134.5028879999998
 21
143.5
 31
0.0
  0
LINE
  5
8E
330
8A
100
AcDbEntity
  8
CSLAYER1
  6
CONTINUOUS
 62
     4
100
AcDbLine
 10
134.5028879999998
 20
120.5
 30
0.0
 11
133.7264299999999
 21
123.397777
 31
0.0
  0
LINE
  5
8F
330
8A
100
AcDbEntity
  8
CSLAYER1
  6
CONTINUOUS
 62
     4
100
AcDbLine
 10
134.5028879999998
 20
120.5
 30
0.0
 11
135.279345
 21
123.397777
 31
0.0
  0
LINE
  5
90
330
8A
100
AcDbEntity
  8
CSLAYER1
  6
CONTINUOUS
 62
     4
100
AcDbLine
 10
134.5028879999998
 20
143.5
 30
0.0
 11
133.7264299999999
 21
140.602223
 31
0.0
  0
LINE
  5
91
330
8A
100
AcDbEntity
  8
CSLAYER1
  6
CONTINUOUS
 62
     4
100
AcDbLine
 10
134.5028879999998
 20
143.5
 30
0.0
 11
135.279345
 21
140.602223
 31
0.0
  0
LINE
  5
92
330
8A
100
AcDbEntity
  8
CSLAYER1
  6
CONTINUOUS
 62
     4
100
AcDbLine
 10
162.7322139999999
 20
120.5
 30
0.0
 11
133.5028879999998
 21
120.5
 31
0.0
  0
LINE
  5
93
330
8A
100
AcDbEntity
  8
CSLAYER1
  6
CONTINUOUS
 62
     4
100
AcDbLine
 10
162.7322139999999
 20
143.5
 30
0.0
 11
133.5028879999998
 21
143.5
 31
0.0
  0
ENDBLK
  5
94
330
8A
100
AcDbEntity
  8
0
100
AcDbBlockEnd
  0
BLOCK
  5
96
330
95
100
AcDbEntity
  8
0
100
AcDbBlockBegin
  2
*D8
 70
     1
 10
0.0
 20
0.0
 30
0.0
  3
*D8
  1

  0
TEXT
  5
97
330
95
100
AcDbEntity
  8
CSLAYER1
 62
     4
100
AcDbText
 10
139.5028839999999
 20
128.8
 30
0.0
 40
3.2
  1
12
 50
90.0
 41
1.199999999999979
 51
15.0
  7
FX_FONT
 72
     5
 11
139.5028839999999
 21
135.1999999999998
 31
0.0
100
AcDbText
  0
LINE
  5
98
330
95
100
AcDbEntity
  8
CSLAYER1
  6
CONTINUOUS
 62
     4
100
AcDbLine
 10
140.5028879999998
 20
126.0
 30
0.0
 11
140.5028879999998
 21
138.0
 31
0.0
  0
LINE
  5
99
330
95
100
AcDbEntity
  8
CSLAYER1
  6
CONTINUOUS
 62
     4
100
AcDbLine
 10
140.5028879999998
 20
126.0
 30
0.0
 11
139.72643
 21
128.897777
 31
0.0
  0
LINE
  5
9A
330
95
100
AcDbEntity
  8
CSLAYER1
  6
CONTINUOUS
 62
     4
100
AcDbLine
 10
140.5028879999998
 20
126.0
 30
0.0
 11
141.279345
 21
128.897777
 31
0.0
  0
LINE
  5
9B
330
95
100
AcDbEntity
  8
CSLAYER1
  6
CONTINUOUS
 62
     4
100
AcDbLine
 10
140.5028879999998
 20
138.0
 30
0.0
 11
139.72643
 21
135.102223
 31
0.0
  0
LINE
  5
9C
330
95
100
AcDbEntity
  8
CSLAYER1
  6
CONTINUOUS
 62
     4
100
AcDbLine
 10
140.5028879999998
 20
138.0
 30
0.0
 11
141.279345
 21
135.102223
 31
0.0
  0
LINE
  5
9D
330
95
100
AcDbEntity
  8
CSLAYER1
  6
CONTINUOUS
 62
     4
100
AcDbLine
 10
148.957237
 20
126.0
 30
0.0
 11
139.5028879999999
 21
126.0
 31
0.0
  0
LINE
  5
9E
330
95
100
AcDbEntity
  8
CSLAYER1
  6
CONTINUOUS
 62
     4
100
AcDbLine
 10
148.957237
 20
138.0
 30
0.0
 11
139.5028879999999
 21
138.0
 31
0.0
  0
ENDBLK
  5
9F
330
95
100
AcDbEntity
  8
0
100
AcDbBlockEnd
  0
BLOCK
  5
A1
330
A0
100
AcDbEntity
  8
0
100
AcDbBlockBegin
  2
*D9
 70
     1
 10
0.0
 20
0.0
 30
0.0
  3
*D9
  1

  0
TEXT
  5
A2
330
A0
100
AcDbEntity
  8
CSLAYER1
 62
     4
100
AcDbText
 10
164.2572299999999
 20
164.4252929999999
 30
0.0
 40
3.2
  1
35
 41
1.200000000000001
 51
15.0
  7
FX_FONT
 72
     5
 11
170.6572299999999
 21
164.4252929999999
 31
0.0
100
AcDbText
  0
LINE
  5
A3
330
A0
100
AcDbEntity
  8
CSLAYER1
  6
CONTINUOUS
 62
     4
100
AcDbLine
 10
149.957237
 20
163.4252899999999
 30
0.0
 11
184.957237
 21
163.4252899999999
 31
0.0
  0
LINE
  5
A4
330
A0
100
AcDbEntity
  8
CSLAYER1
  6
CONTINUOUS
 62
     4
100
AcDbLine
 10
149.957237
 20
163.4252899999999
 30
0.0
 11
152.8550139999999
 21
164.2017469999998
 31
0.0
  0
LINE
  5
A5
330
A0
100
AcDbEntity
  8
CSLAYER1
  6
CONTINUOUS
 62
     4
100
AcDbLine
 10
149.957237
 20
163.4252899999999
 30
0.0
 11
152.8550139999999
 21
162.6488329999999
 31
0.0
  0
LINE
  5
A6
330
A0
100
AcDbEntity
  8
CSLAYER1
  6
CONTINUOUS
 62
     4
100
AcDbLine
 10
184.957237
 20
163.4252899999999
 30
0.0
 11
182.0594589999999
 21
164.2017469999998
 31
0.0
  0
LINE
  5
A7
330
A0
100
AcDbEntity
  8
CSLAYER1
  6
CONTINUOUS
 62
     4
100
AcDbLine
 10
184.957237
 20
163.4252899999999
 30
0.0
 11
182.0594589999999
 21
162.6488329999999
 31
0.0
  0
LINE
  5
A8
330
A0
100
AcDbEntity
  8
CSLAYER1
  6
CONTINUOUS
 62
     4
100
AcDbLine
 10
149.957237
 20
139.0
 30
0.0
 11
149.957237
 21
164.4252899999998
 31
0.0
  0
LINE
  5
A9
330
A0
100
AcDbEntity
  8
CSLAYER1
  6
CONTINUOUS
 62
     4
100
AcDbLine
 10
184.957237
 20
147.563033
 30
0.0
 11
184.957237
 21
164.4252899999998
 31
0.0
  0
ENDBLK
  5
AA
330
A0
100
AcDbEntity
  8
0
100
AcDbBlockEnd
  0
BLOCK
  5
AC
330
AB
100
AcDbEntity
  8
0
100
AcDbBlockBegin
  2
*D10
 70
     1
 10
0.0
 20
0.0
 30
0.0
  3
*D10
  1

  0
TEXT
  5
AD
330
AB
100
AcDbEntity
  8
CSLAYER1
 62
     4
100
AcDbText
 10
153.664293
 20
109.6482919999999
 30
0.0
 40
3.2
  1
R20
 50
71.54638155556361
 41
1.125000002743027
 51
15.0
  7
FX_FONT
 72
     5
 11
156.7030469999999
 21
118.754662
 31
0.0
100
AcDbText
  0
LINE
  5
AE
330
AB
100
AcDbEntity
  8
CSLAYER1
  6
CONTINUOUS
 62
     4
100
AcDbLine
 10
157.4014769999999
 20
121.528396
 30
0.0
 11
163.732214
 21
140.5
 31
0.0
  0
LINE
  5
AF
330
AB
100
AcDbEntity
  8
CSLAYER1
  6
CONTINUOUS
 62
     4
100
AcDbLine
 10
157.4014769999999
 20
121.528396
 30
0.0
 11
157.582198
 21
124.522948
 31
0.0
  0
LINE
  5
B0
330
AB
100
AcDbEntity
  8
CSLAYER1
  6
CONTINUOUS
 62
     4
100
AcDbLine
 10
157.4014769999999
 20
121.528396
 30
0.0
 11
159.0552619999999
 21
124.0313929999999
 31
0.0
  0
ENDBLK
  5
B1
330
AB
100
AcDbEntity
  8
0
100
AcDbBlockEnd
  0
BLOCK
  5
B3
330
B2
100
AcDbEntity
  8
0
100
AcDbBlockBegin
  2
*D11
 70
     1
 10
0.0
 20
0.0
 30
0.0
  3
*D11
  1

  0
TEXT
  5
B4
330
B2
100
AcDbEntity
  8
CSLAYER1
 62
     4
100
AcDbText
 10
99.604639
 20
148.383362
 30
0.0
 40
3.2
  1
60%%d
 50
299.999999630951
 41
1.285714300058158
 51
15.0
  7
FX_FONT
 72
     5
 11
104.404639
 21
140.0695179999999
 31
0.0
100
AcDbText
  0
ARC
  5
B5
330
B2
100
AcDbEntity
  8
CSLAYER1
  6
CONTINUOUS
 62
     4
100
AcDbCircle
 10
80.827808
 20
132.0
 30
0.0
 40
23.45289699999999
100
AcDbArc
 50
0.0
 51
60.0
  0
LINE
  5
B6
330
B2
100
AcDbEntity
  8
CSLAYER1
  6
CONTINUOUS
 62
     4
100
AcDbLine
 10
104.280706
 20
132.0
 30
0.0
 11
103.5042489999999
 21
134.8977769999999
 31
0.0
  0
LINE
  5
B7
330
B2
100
AcDbEntity
  8
CSLAYER1
  6
CONTINUOUS
 62
     4
100
AcDbLine
 10
104.280706
 20
132.0
 30
0.0
 11
105.0571629999998
 21
134.8977769999999
 31
0.0
  0
LINE
  5
B8
330
B2
100
AcDbEntity
  8
CSLAYER1
  6
CONTINUOUS
 62
     4
100
AcDbLine
 10
92.55425700000001
 20
152.310805
 30
0.0
 11
95.452034
 21
151.534348
 31
0.0
  0
LINE
  5
B9
330
B2
100
AcDbEntity
  8
CSLAYER1
  6
CONTINUOUS
 62
     4
100
AcDbLine
 10
92.55425700000001
 20
152.310805
 30
0.0
 11
94.675577
 21
150.189485
 31
0.0
  0
LINE
  5
BA
330
B2
100
AcDbEntity
  8
CSLAYER1
  6
CONTINUOUS
 62
     4
100
AcDbLine
 10
89.253523
 20
132.0
 30
0.0
 11
105.280706
 21
132.0
 31
0.0
  0
LINE
  5
BB
330
B2
100
AcDbEntity
  8
CSLAYER1
  6
CONTINUOUS
 62
     4
100
AcDbLine
 10
81.82780799999997
 20
133.732051
 30
0.0
 11
93.05425699999998
 21
153.1768299999999
 31
0.0
  0
ENDBLK
  5
BC
330
B2
100
AcDbEntity
  8
0
100
AcDbBlockEnd
  0
BLOCK
  5
BE
330
BD
100
AcDbEntity
  8
0
100
AcDbBlockBegin
  2
*D12
 70
     1
 10
0.0
 20
0.0
 30
0.0
  3
*D12
  1

  0
TEXT
  5
BF
330
BD
100
AcDbEntity
  8
CSLAYER1
 62
     4
100
AcDbText
 10
73.91486
 20
155.9414999999999
 30
0.0
 40
3.2
  1
70%%d
 50
5.000005223318843
 41
1.285714282298947
 51
15.0
  7
FX_FONT
 72
     5
 11
83.478329
 21
156.778196
 31
0.0
100
AcDbText
  0
ARC
  5
C0
330
BD
100
AcDbEntity
  8
CSLAYER1
  6
CONTINUOUS
 62
     4
100
AcDbCircle
 10
80.827808
 20
132.0
 30
0.0
 40
23.45289699999999
100
AcDbArc
 50
60.0
 51
130.0
  0
LINE
  5
C1
330
BD
100
AcDbEntity
  8
CSLAYER1
  6
CONTINUOUS
 62
     4
100
AcDbLine
 10
92.55425700000001
 20
152.310805
 30
0.0
 11
89.656479
 21
153.087262
 31
0.0
  0
LINE
  5
C2
330
BD
100
AcDbEntity
  8
CSLAYER1
  6
CONTINUOUS
 62
     4
100
AcDbLine
 10
92.55425700000001
 20
152.310805
 30
0.0
 11
90.43293699999999
 21
154.432125
 31
0.0
  0
LINE
  5
C3
330
BD
100
AcDbEntity
  8
CSLAYER1
  6
CONTINUOUS
 62
     4
100
AcDbLine
 10
65.752576
 20
149.965962
 30
0.0
 11
67.47330600000001
 21
152.423418
 31
0.0
  0
LINE
  5
C4
330
BD
100
AcDbEntity
  8
CSLAYER1
  6
CONTINUOUS
 62
     4
100
AcDbLine
 10
65.752576
 20
149.965962
 30
0.0
 11
68.4715
 21
151.2338169999999
 31
0.0
  0
LINE
  5
C5
330
BD
100
AcDbEntity
  8
CSLAYER1
  6
CONTINUOUS
 62
     4
100
AcDbLine
 10
75.68502099999998
 20
138.128936
 30
0.0
 11
65.10978900000001
 21
150.732006
 31
0.0
  0
ENDBLK
  5
C6
330
BD
100
AcDbEntity
  8
0
100
AcDbBlockEnd
  0
BLOCK
  5
C8
330
C7
100
AcDbEntity
  8
0
100
AcDbBlockBegin
  2
*D13
 70
     1
 10
0.0
 20
0.0
 30
0.0
  3
*D13
  1

  0
TEXT
  5
C9
330
C7
100
AcDbEntity
  8
CSLAYER1
 62
     4
100
AcDbText
 10
72.835155
 20
148.314056
 30
0.0
 40
3.2
  1
0.5
 41
1.125000000000001
 51
15.0
  7
FX_FONT
 72
     5
 11
82.435155
 21
148.314056
 31
0.0
100
AcDbText
  0
LINE
  5
CA
330
C7
100
AcDbEntity
  8
CSLAYER1
  6
CONTINUOUS
 62
     4
100
AcDbLine
 10
80.827808
 20
147.314049
 30
0.0
 11
81.32780799999997
 21
147.314049
 31
0.0
  0
LINE
  5
CB
330
C7
100
AcDbEntity
  8
CSLAYER1
  6
CONTINUOUS
 62
     4
100
AcDbLine
 10
80.827808
 20
133.0
 30
0.0
 11
80.827808
 21
148.314049
 31
0.0
  0
LINE
  5
CC
330
C7
100
AcDbEntity
  8
CSLAYER1
  6
CONTINUOUS
 62
     4
100
AcDbLine
 10
81.32780799999997
 20
144.5
 30
0.0
 11
81.32780799999997
 21
148.314049
 31
0.0
  0
LINE
  5
CD
330
C7
100
AcDbEntity
  8
CSLAYER1
  6
CONTINUOUS
 62
     4
100
AcDbLine
 10
74.44250699999997
 20
147.314049
 30
0.0
 11
80.827808
 21
147.314049
 31
0.0
  0
LINE
  5
CE
330
C7
100
AcDbEntity
  8
CSLAYER1
  6
CONTINUOUS
 62
     4
100
AcDbLine
 10
80.827808
 20
147.314049
 30
0.0
 11
77.93003099999999
 21
148.0905059999998
 31
0.0
  0
LINE
  5
CF
330
C7
100
AcDbEntity
  8
CSLAYER1
  6
CONTINUOUS
 62
     4
100
AcDbLine
 10
80.827808
 20
147.314049
 30
0.0
 11
77.93003099999999
 21
146.5375919999999
 31
0.0
  0
LINE
  5
D0
330
C7
100
AcDbEntity
  8
CSLAYER1
  6
CONTINUOUS
 62
     4
100
AcDbLine
 10
81.32780799999997
 20
147.314049
 30
0.0
 11
87.32780799999998
 21
147.314049
 31
0.0
  0
LINE
  5
D1
330
C7
100
AcDbEntity
  8
CSLAYER1
  6
CONTINUOUS
 62
     4
100
AcDbLine
 10
81.32780799999997
 20
147.314049
 30
0.0
 11
84.225586
 21
148.0905059999998
 31
0.0
  0
LINE
  5
D2
330
C7
100
AcDbEntity
  8
CSLAYER1
  6
CONTINUOUS
 62
     4
100
AcDbLine
 10
81.32780799999997
 20
147.314049
 30
0.0
 11
84.225586
 21
146.5375919999999
 31
0.0
  0
ENDBLK
  5
D3
330
C7
100
AcDbEntity
  8
0
100
AcDbBlockEnd
  0
BLOCK
  5
D5
330
D4
100
AcDbEntity
  8
0
100
AcDbBlockBegin
  2
*D14
 70
     1
 10
0.0
 20
0.0
 30
0.0
  3
*D14
  1

  0
TEXT
  5
D6
330
D4
100
AcDbEntity
  8
CSLAYER1
 62
     4
100
AcDbText
 10
150.670836
 20
91.28289800000001
 30
0.0
 40
3.108788999999998
  1
切刃部有効17
 41
0.6778630857056603
 51
15.0
  7
FX_FONT
 72
     5
 11
166.8270579999999
 21
91.28289800000001
 31
0.0
100
AcDbText
  0
LINE
  5
D7
330
D4
100
AcDbEntity
  8
CSLAYER1
  6
CONTINUOUS
 62
     4
100
AcDbLine
 10
149.957237
 20
90.282899
 30
0.0
 11
166.957237
 21
90.282899
 31
0.0
  0
LINE
  5
D8
330
D4
100
AcDbEntity
  8
CSLAYER1
  6
CONTINUOUS
 62
     4
100
AcDbLine
 10
149.957237
 20
90.282899
 30
0.0
 11
152.8550139999999
 21
91.059356
 31
0.0
  0
LINE
  5
D9
330
D4
100
AcDbEntity
  8
CSLAYER1
  6
CONTINUOUS
 62
     4
100
AcDbLine
 10
149.957237
 20
90.282899
 30
0.0
 11
152.8550139999999
 21
89.50644200000002
 31
0.0
  0
LINE
  5
DA
330
D4
100
AcDbEntity
  8
CSLAYER1
  6
CONTINUOUS
 62
     4
100
AcDbLine
 10
166.957237
 20
90.282899
 30
0.0
 11
164.059459
 21
91.059356
 31
0.0
  0
LINE
  5
DB
330
D4
100
AcDbEntity
  8
CSLAYER1
  6
CONTINUOUS
 62
     4
100
AcDbLine
 10
166.957237
 20
90.282899
 30
0.0
 11
164.059459
 21
89.50644200000002
 31
0.0
  0
LINE
  5
DC
330
D4
100
AcDbEntity
  8
CSLAYER1
  6
CONTINUOUS
 62
     4
100
AcDbLine
 10
149.957237
 20
77.0
 30
0.0
 11
149.957237
 21
91.282899
 31
0.0
  0
LINE
  5
DD
330
D4
100
AcDbEntity
  8
CSLAYER1
  6
CONTINUOUS
 62
     4
100
AcDbLine
 10
166.957237
 20
76.0
 30
0.0
 11
166.957237
 21
91.282899
 31
0.0
  0
ENDBLK
  5
DE
330
D4
100
AcDbEntity
  8
0
100
AcDbBlockEnd
  0
BLOCK
  5
E0
330
DF
100
AcDbEntity
  8
0
100
AcDbBlockBegin
  2
*D15
 70
     1
 10
0.0
 20
0.0
 30
0.0
  3
*D15
  1

  0
TEXT
  5
E1
330
DF
100
AcDbEntity
  8
CSLAYER1
 62
     4
100
AcDbText
 10
54.37325699999998
 20
32.998682
 30
0.0
 40
3.2
  1
8
 50
90.0
 41
1.499999999999994
 51
15.0
  7
FX_FONT
 72
     5
 11
54.37325699999998
 21
36.19868199999999
 31
0.0
100
AcDbText
  0
LINE
  5
E2
330
DF
100
AcDbEntity
  8
CSLAYER1
  6
CONTINUOUS
 62
     4
100
AcDbLine
 10
55.373257
 20
30.598684
 30
0.0
 11
55.373257
 21
38.598684
 31
0.0
  0
LINE
  5
E3
330
DF
100
AcDbEntity
  8
CSLAYER1
  6
CONTINUOUS
 62
     4
100
AcDbLine
 10
55.373257
 20
30.598684
 30
0.0
 11
54.596799
 21
33.496462
 31
0.0
  0
LINE
  5
E4
330
DF
100
AcDbEntity
  8
CSLAYER1
  6
CONTINUOUS
 62
     4
100
AcDbLine
 10
55.373257
 20
30.598684
 30
0.0
 11
56.149714
 21
33.496462
 31
0.0
  0
LINE
  5
E5
330
DF
100
AcDbEntity
  8
CSLAYER1
  6
CONTINUOUS
 62
     4
100
AcDbLine
 10
55.373257
 20
38.598684
 30
0.0
 11
54.596799
 21
35.700907
 31
0.0
  0
LINE
  5
E6
330
DF
100
AcDbEntity
  8
CSLAYER1
  6
CONTINUOUS
 62
     4
100
AcDbLine
 10
55.373257
 20
38.598684
 30
0.0
 11
56.149714
 21
35.700907
 31
0.0
  0
LINE
  5
E7
330
DF
100
AcDbEntity
  8
CSLAYER1
  6
CONTINUOUS
 62
     4
100
AcDbLine
 10
64.91024399999999
 20
30.598684
 30
0.0
 11
54.37325699999998
 21
30.598684
 31
0.0
  0
LINE
  5
E8
330
DF
100
AcDbEntity
  8
CSLAYER1
  6
CONTINUOUS
 62
     4
100
AcDbLine
 10
64.91024399999999
 20
38.598684
 30
0.0
 11
54.37325699999998
 21
38.598684
 31
0.0
  0
ENDBLK
  5
E9
330
DF
100
AcDbEntity
  8
0
100
AcDbBlockEnd
  0
BLOCK
  5
1A6
330
199
100
AcDbEntity
  8
0
100
AcDbBlockBegin
  2
*D16
 70
     1
 10
0.0
 20
0.0
 30
0.0
  3
*D16
  1

  0
LINE
  5
19A
330
199
100
AcDbEntity
  8
CSLAYER1
 62
     0
100
AcDbLine
 10
88.316023
 20
132.0
 30
0.0
 11
104.4607056013119
 21
132.0
 31
0.0
  0
LINE
  5
19B
330
199
100
AcDbEntity
  8
CSLAYER1
 62
     0
100
AcDbLine
 10
81.35905801092773
 20
132.9201515814274
 30
0.0
 11
92.64426093272259
 21
152.466687302122
 31
0.0
  0
ARC
  5
19C
330
199
100
AcDbEntity
  8
CSLAYER1
 62
     0
100
AcDbCircle
 10
80.82780799999994
 20
132.0
 30
0.0
 40
23.45289760131199
100
AcDbArc
 50
0.4397437707012852
 51
29.49350898777815
  0
ARC
  5
19D
330
199
100
AcDbEntity
  8
CSLAYER1
 62
     0
100
AcDbCircle
 10
80.82780799999994
 20
132.0
 30
0.0
 40
23.45289760131199
100
AcDbArc
 50
30.50907776312979
 51
59.56024466172248
  0
SOLID
  5
19E
330
199
100
AcDbEntity
  8
CSLAYER1
 62
     0
100
AcDbTrace
 10
104.310014634213
 20
132.1801137990004
 30
0.0
 11
104.250015076002
 21
132.1798835502656
 31
0.0
 12
104.2807056013119
 22
132.0
 32
0.0
 13
104.2807056013119
 23
132.0
 33
0.0
  0
SOLID
  5
19F
330
199
100
AcDbEntity
  8
CSLAYER1
 62
     0
100
AcDbTrace
 10
92.69469933932423
 20
152.194282169551
 30
0.0
 11
92.72489853015057
 21
152.2461281807133
 31
0.0
 12
92.55426090125075
 22
152.3108027476111
 32
0.0
 13
92.55426090125075
 23
152.3108027476111
 33
0.0
  0
MTEXT
  5
1A0
330
199
100
AcDbEntity
  8
CSLAYER1
 62
     0
100
AcDbMText
 10
101.1386142988309
 20
143.7264467503584
 30
0.0
 40
0.18
 41
0.0
 71
     5
 72
     1
  1
\A1;60°
1001
ACAD
1000
MTEXTBEGIN
1070
    73
1070
     1
1070
    44
1040
1.0
1070
    74
1070
     0
1000
MTEXTEND
  0
POINT
  5
1A1
330
199
100
AcDbEntity
  8
DEFPOINTS
 62
     0
100
AcDbPoint
 10
102.8663233518174
 20
140.0213619158674
 30
0.0
  0
POINT
  5
1A2
330
199
100
AcDbEntity
  8
DEFPOINTS
 62
     0
100
AcDbPoint
 10
80.82780799999998
 20
132.0
 30
0.0
  0
POINT
  5
1A3
330
199
100
AcDbEntity
  8
DEFPOINTS
 62
     0
100
AcDbPoint
 10
81.32780799999997
 20
132.866025
 30
0.0
  0
POINT
  5
1A4
330
199
100
AcDbEntity
  8
DEFPOINTS
 62
     0
100
AcDbPoint
 10
80.82780799999998
 20
132.0
 30
0.0
  0
POINT
  5
1A5
330
199
100
AcDbEntity
  8
DEFPOINTS
 62
     0
100
AcDbPoint
 10
88.253523
 20
132.0
 30
0.0
  0
ENDBLK
  5
1A7
330
199
100
AcDbEntity
  8
0
100
AcDbBlockEnd
  0
BLOCK
  5
1B5
330
1A8
100
AcDbEntity
  8
0
100
AcDbBlockBegin
  2
*D17
 70
     1
 10
0.0
 20
0.0
 30
0.0
  3
*D17
  1

  0
LINE
  5
1A9
330
1A8
100
AcDbEntity
  8
CSLAYER1
 62
     0
100
AcDbLine
 10
81.35905801092773
 20
132.9201515814274
 30
0.0
 11
92.64426077959006
 21
152.4666870368887
 31
0.0
  0
LINE
  5
1AA
330
1A8
100
AcDbEntity
  8
CSLAYER1
 62
     0
100
AcDbLine
 10
76.28763377366187
 20
137.41076877708
 30
0.0
 11
65.63687416069726
 21
150.1038494151979
 31
0.0
  0
ARC
  5
1AB
330
1A8
100
AcDbEntity
  8
CSLAYER1
 62
     0
100
AcDbCircle
 10
80.82780799999994
 20
132.0
 30
0.0
 40
23.45289729504691
100
AcDbArc
 50
60.43973220886758
 51
94.11036123294294
  0
ARC
  5
1AC
330
1A8
100
AcDbEntity
  8
CSLAYER1
 62
     0
100
AcDbCircle
 10
80.82780799999994
 20
132.0
 30
0.0
 40
23.45289729504691
100
AcDbArc
 50
95.89083835496609
 51
129.5602571003813
  0
SOLID
  5
1AD
330
1A8
100
AcDbEntity
  8
CSLAYER1
 62
     0
100
AcDbTrace
 10
92.41293216236263
 20
152.426241777457
 30
0.0
 11
92.38313177399946
 21
152.374165517478
 31
0.0
 12
92.55426074811815
 22
152.3108024823779
 32
0.0
 13
92.55426074811815
 23
152.3108024823779
 33
0.0
  0
SOLID
  5
1AE
330
1A8
100
AcDbEntity
  8
CSLAYER1
 62
     0
100
AcDbTrace
 10
65.91010221463948
 20
150.0580780305371
 30
0.0
 11
65.87171162209525
 21
150.1041883591426
 31
0.0
 12
65.75257593255101
 22
149.9659614172071
 32
0.0
 13
65.75257593255101
 23
149.9659614172071
 33
0.0
  0
MTEXT
  5
1AF
330
1A8
100
AcDbEntity
  8
CSLAYER1
 62
     0
100
AcDbMText
 10
78.78375549636358
 20
155.3636521309146
 30
0.0
 40
0.18
 41
0.0
 71
     5
 72
     1
  1
\A1;70°
1001
ACAD
1000
MTEXTBEGIN
1070
    73
1070
     1
1070
    44
1040
1.0
1070
    74
1070
     0
1000
MTEXTEND
  0
POINT
  5
1B0
330
1A8
100
AcDbEntity
  8
DEFPOINTS
 62
     0
100
AcDbPoint
 10
83.55052620812896
 20
155.2943168410481
 30
0.0
  0
POINT
  5
1B1
330
1A8
100
AcDbEntity
  8
DEFPOINTS
 62
     0
100
AcDbPoint
 10
80.82780799999998
 20
132.0
 30
0.0
  0
POINT
  5
1B2
330
1A8
100
AcDbEntity
  8
DEFPOINTS
 62
     0
100
AcDbPoint
 10
76.32780799999998
 20
137.3628909999998
 30
0.0
  0
POINT
  5
1B3
330
1A8
100
AcDbEntity
  8
DEFPOINTS
 62
     0
100
AcDbPoint
 10
80.82780799999998
 20
132.0
 30
0.0
  0
POINT
  5
1B4
330
1A8
100
AcDbEntity
  8
DEFPOINTS
 62
     0
100
AcDbPoint
 10
81.32780799999997
 20
132.866025
 30
0.0
  0
ENDBLK
  5
1B6
330
1A8
100
AcDbEntity
  8
0
100
AcDbBlockEnd
  0
ENDSEC
  0
SECTION
  2
ENTITIES
  0
POINT
  5
EA
330
1E
100
AcDbEntity
  8
CSLAYER1
 62
     3
100
AcDbPoint
 10
250.4999999999999
 20
43.5
 30
0.0
  0
POINT
  5
EB
330
1E
100
AcDbEntity
  8
CSLAYER1
 62
     3
100
AcDbPoint
 10
271.0
 20
43.5
 30
0.0
  0
POINT
  5
EC
330
1E
100
AcDbEntity
  8
CSLAYER1
 62
     3
100
AcDbPoint
 10
271.0
 20
53.5
 30
0.0
  0
POINT
  5
ED
330
1E
100
AcDbEntity
  8
CSLAYER1
 62
     3
100
AcDbPoint
 10
250.4999999999999
 20
53.5
 30
0.0
  0
TEXT
  5
EE
330
1E
100
AcDbEntity
  8
CSLAYER1
 62
     3
100
AcDbText
 10
238.099985
 20
51.00000399999998
 30
0.0
 40
5.0
  1
刃開キハ
 41
1.11044776119403
  7
FX_FONT
 72
     5
 11
262.899985
 21
51.00000399999998
 31
0.0
100
AcDbText
  0
TEXT
  5
EF
330
1E
100
AcDbEntity
  8
CSLAYER1
 62
     3
100
AcDbText
 10
237.999985
 20
41.00000399999998
 30
0.0
 40
5.0
  1
切刃部有効
 41
0.872093023255811
  7
FX_FONT
 72
     5
 11
262.9999849999999
 21
41.00000399999998
 31
0.0
100
AcDbText
  0
TEXT
  5
F0
330
1E
100
AcDbEntity
  8
CSLAYER1
 62
     3
100
AcDbText
 10
268.5
 20
51.00000399999998
 30
0.0
 40
5.0
  1
8
 41
1.499999999999983
  7
FX_FONT
 72
     5
 11
273.4999999999999
 21
51.00000399999998
 31
0.0
100
AcDbText
  0
TEXT
  5
F1
330
1E
100
AcDbEntity
  8
CSLAYER1
 62
     3
100
AcDbText
 10
266.0
 20
41.00000399999998
 30
0.0
 40
5.0
  1
17
 41
1.199999999999999
  7
FX_FONT
 72
     5
 11
276.0
 21
41.00000399999998
 31
0.0
100
AcDbText
  0
POINT
  5
F2
330
1E
100
AcDbEntity
  8
CSLAYER1
 62
     3
100
AcDbPoint
 10
184.957237
 20
132.0
 30
0.0
  0
POINT
  5
F3
330
1E
100
AcDbEntity
  8
CSLAYER1
 62
     3
100
AcDbPoint
 10
184.957237
 20
73.0
 30
0.0
  0
INSERT
  5
F4
330
1E
100
AcDbEntity
  8
CSLAYER1
100
AcDbBlockReference
  2
FXDIM0000
 10
0.0
 20
0.0
 30
0.0
  0
INSERT
  5
F5
330
1E
100
AcDbEntity
  8
CSLAYER1
100
AcDbBlockReference
  2
FXDIM0001
 10
0.0
 20
0.0
 30
0.0
  0
INSERT
  5
F6
330
1E
100
AcDbEntity
  8
CSLAYER1
100
AcDbBlockReference
  2
FXDIM0002
 10
0.0
 20
0.0
 30
0.0
  0
POINT
  5
F7
330
1E
100
AcDbEntity
  8
CSLAYER1
 62
     3
100
AcDbPoint
 10
252.0
 20
19.0
 30
0.0
  0
TEXT
  5
F8
330
1E
100
AcDbEntity
  8
CSLAYER1
 62
     3
100
AcDbText
 10
240.0
 20
17.0
 30
0.0
 40
4.0
  1
N20BFB
 41
1.058823529411764
  7
FX_FONT
 72
     5
 11
264.0
 21
17.0
 31
0.0
100
AcDbText
  0
LINE
  5
F9
330
1E
100
AcDbEntity
  8
CSLAYER1
  6
CONTINUOUS
 62
     3
100
AcDbLine
 10
279.0
 20
40.0
 30
0.0
 11
238.0
 21
40.0
 31
0.0
  0
LINE
  5
FA
330
1E
100
AcDbEntity
  8
CSLAYER1
  6
CONTINUOUS
 62
     3
100
AcDbLine
 10
238.0
 20
50.0
 30
0.0
 11
279.0
 21
50.0
 31
0.0
  0
ARC
  5
FB
330
1E
100
AcDbEntity
  8
CSLAYER1
  6
CONTINUOUS
 62
     3
100
AcDbCircle
 10
239.7081419999999
 20
73.097498
 30
0.0
 40
5.25
100
AcDbArc
 50
358.935899
 51
88.92583
  0
LINE
  5
FC
330
1E
100
AcDbEntity
  8
CSLAYER1
  6
CONTINUOUS
 62
     3
100
AcDbLine
 10
239.806562
 20
78.346575
 30
0.0
 11
204.957237
 21
79.0
 31
0.0
  0
LINE
  5
FD
330
1E
100
AcDbEntity
  8
CSLAYER1
  6
CONTINUOUS
 62
     3
100
AcDbLine
 10
204.957237
 20
79.0
 30
0.0
 11
169.957237
 21
79.0
 31
0.0
  0
LINE
  5
FE
330
1E
100
AcDbEntity
  8
CSLAYER1
  6
CONTINUOUS
 62
     3
100
AcDbLine
 10
169.957237
 20
79.0
 30
0.0
 11
169.957237
 21
78.0
 31
0.0
  0
LINE
  5
FF
330
1E
100
AcDbEntity
  8
CSLAYER1
  6
CONTINUOUS
 62
     3
100
AcDbLine
 10
167.957237
 20
76.0
 30
0.0
 11
149.957237
 21
76.0
 31
0.0
  0
LINE
  5
100
330
1E
100
AcDbEntity
  8
CSLAYER1
  6
CONTINUOUS
 62
     3
100
AcDbLine
 10
149.957237
 20
76.0
 30
0.0
 11
149.957237
 21
73.3
 31
0.0
  0
ARC
  5
101
330
1E
100
AcDbEntity
  8
CSLAYER1
  6
CONTINUOUS
 62
     3
100
AcDbCircle
 10
159.269057
 20
91.0
 30
0.0
 40
20.0
100
AcDbArc
 50
242.2515209999999
 51
270.0
  0
LINE
  5
102
330
1E
100
AcDbEntity
  8
CSLAYER1
  6
CONTINUOUS
 62
     3
100
AcDbLine
 10
159.269057
 20
71.0
 30
0.0
 11
167.957237
 21
71.0
 31
0.0
  0
LINE
  5
103
330
1E
100
AcDbEntity
  8
CSLAYER1
  6
CONTINUOUS
 62
     3
100
AcDbLine
 10
169.957237
 20
69.0
 30
0.0
 11
169.957237
 21
67.0
 31
0.0
  0
LINE
  5
104
330
1E
100
AcDbEntity
  8
CSLAYER1
  6
CONTINUOUS
 62
     3
100
AcDbLine
 10
169.957237
 20
67.0
 30
0.0
 11
204.957237
 21
67.0
 31
0.0
  0
LINE
  5
105
330
1E
100
AcDbEntity
  8
CSLAYER1
  6
CONTINUOUS
 62
     3
100
AcDbLine
 10
204.957237
 20
67.0
 30
0.0
 11
239.806562
 21
67.653425
 31
0.0
  0
ARC
  5
106
330
1E
100
AcDbEntity
  8
CSLAYER1
  6
CONTINUOUS
 62
     3
100
AcDbCircle
 10
239.7081419999999
 20
72.902502
 30
0.0
 40
5.25
100
AcDbArc
 50
271.0741699999999
 51
1.064100999999998
  0
LINE
  5
107
330
1E
100
AcDbEntity
  8
CSLAYER1
  6
CONTINUOUS
 62
     3
100
AcDbLine
 10
76.32780799999998
 20
143.5
 30
0.0
 11
81.32780799999997
 21
143.5
 31
0.0
  0
LINE
  5
108
330
1E
100
AcDbEntity
  8
CSLAYER1
  6
CONTINUOUS
 62
     3
100
AcDbLine
 10
81.32780799999997
 20
120.5
 30
0.0
 11
76.32780799999998
 21
120.5
 31
0.0
  0
LINE
  5
109
330
1E
100
AcDbEntity
  8
CSLAYER1
  6
CONTINUOUS
 62
     3
100
AcDbLine
 10
76.32780799999998
 20
120.5
 30
0.0
 11
76.32780799999998
 21
126.637109
 31
0.0
  0
LINE
  5
10A
330
1E
100
AcDbEntity
  8
CSLAYER1
  6
CONTINUOUS
 62
     3
100
AcDbLine
 10
76.32780799999998
 20
126.637109
 30
0.0
 11
80.827808
 21
132.0
 31
0.0
  0
LINE
  5
10B
330
1E
100
AcDbEntity
  8
CSLAYER1
  6
CONTINUOUS
 62
     3
100
AcDbLine
 10
80.827808
 20
132.0
 30
0.0
 11
81.32780799999997
 21
131.1339749999999
 31
0.0
  0
LINE
  5
10C
330
1E
100
AcDbEntity
  8
CSLAYER1
  6
CONTINUOUS
 62
     3
100
AcDbLine
 10
81.32780799999997
 20
131.1339749999999
 30
0.0
 11
81.32780799999997
 21
120.5
 31
0.0
  0
LINE
  5
10D
330
1E
100
AcDbEntity
  8
CSLAYER1
  6
CONTINUOUS
 62
     3
100
AcDbLine
 10
81.32780799999997
 20
127.0
 30
0.0
 11
76.63231
 21
127.0
 31
0.0
  0
LINE
  5
10E
330
1E
100
AcDbEntity
  8
CSLAYER1
  6
CONTINUOUS
 62
     3
100
AcDbLine
 10
80.827808
 20
132.0
 30
0.0
 11
81.32780799999997
 21
132.866025
 31
0.0
  0
LINE
  5
10F
330
1E
100
AcDbEntity
  8
CSLAYER1
  6
CONTINUOUS
 62
     3
100
AcDbLine
 10
81.32780799999997
 20
132.866025
 30
0.0
 11
81.32780799999997
 21
143.5
 31
0.0
  0
LINE
  5
110
330
1E
100
AcDbEntity
  8
CSLAYER1
  6
CONTINUOUS
 62
     3
100
AcDbLine
 10
76.32780799999998
 20
143.5
 30
0.0
 11
76.32780799999998
 21
137.3628909999998
 31
0.0
  0
LINE
  5
111
330
1E
100
AcDbEntity
  8
CSLAYER1
  6
CONTINUOUS
 62
     3
100
AcDbLine
 10
76.32780799999998
 20
137.3628909999998
 30
0.0
 11
80.827808
 21
132.0
 31
0.0
  0
LINE
  5
112
330
1E
100
AcDbEntity
  8
CSLAYER1
  6
CONTINUOUS
 62
     3
100
AcDbLine
 10
81.32780799999997
 20
137.0
 30
0.0
 11
76.63231
 21
137.0
 31
0.0
  0
LINE
  5
113
330
1E
100
AcDbEntity
  8
CSLAYER1
  6
CONTINUOUS
 62
     3
100
AcDbLine
 10
149.957237
 20
138.0
 30
0.0
 11
149.957237
 21
126.0
 31
0.0
  0
LINE
  5
114
330
1E
100
AcDbEntity
  8
CSLAYER1
  6
CONTINUOUS
 62
     3
100
AcDbLine
 10
149.957237
 20
132.0
 30
0.0
 11
166.957237
 21
132.0
 31
0.0
  0
LINE
  5
115
330
1E
100
AcDbEntity
  8
CSLAYER1
  6
CONTINUOUS
 62
     3
100
AcDbLine
 10
166.957237
 20
132.4
 30
0.0
 11
170.566831
 21
132.4
 31
0.0
  0
LINE
  5
116
330
1E
100
AcDbEntity
  8
CSLAYER1
  6
CONTINUOUS
 62
     3
100
AcDbLine
 10
170.566831
 20
132.4
 30
0.0
 11
171.1370119999999
 21
132.9701819999999
 31
0.0
  0
LINE
  5
117
330
1E
100
AcDbEntity
  8
CSLAYER1
  6
CONTINUOUS
 62
     3
100
AcDbLine
 10
171.1370119999999
 20
132.9701819999999
 30
0.0
 11
174.356301
 21
143.5
 31
0.0
  0
LINE
  5
118
330
1E
100
AcDbEntity
  8
CSLAYER1
  6
CONTINUOUS
 62
     3
100
AcDbLine
 10
169.957237
 20
143.5
 30
0.0
 11
169.957237
 21
132.4
 31
0.0
  0
LINE
  5
119
330
1E
100
AcDbEntity
  8
CSLAYER1
  6
CONTINUOUS
 62
     3
100
AcDbLine
 10
169.957237
 20
131.6
 30
0.0
 11
169.957237
 21
120.5
 31
0.0
  0
LINE
  5
11A
330
1E
100
AcDbEntity
  8
CSLAYER1
  6
CONTINUOUS
 62
     3
100
AcDbLine
 10
163.732214
 20
120.5
 30
0.0
 11
194.957237
 21
120.5
 31
0.0
  0
LINE
  5
11B
330
1E
100
AcDbEntity
  8
CSLAYER1
  6
CONTINUOUS
 62
     3
100
AcDbLine
 10
194.957237
 20
120.5
 30
0.0
 11
235.330174
 21
121.711188
 31
0.0
  0
ARC
  5
11C
330
1E
100
AcDbEntity
  8
CSLAYER1
  6
CONTINUOUS
 62
     3
100
AcDbCircle
 10
235.030309
 20
131.7066909999998
 30
0.0
 40
10.0
100
AcDbArc
 50
271.718358
 51
353.0692789999998
  0
LINE
  5
11D
330
1E
100
AcDbEntity
  8
CSLAYER1
  6
CONTINUOUS
 62
     3
100
AcDbLine
 10
244.957237
 20
130.4999999999999
 30
0.0
 11
198.2572369999999
 21
130.4999999999999
 31
0.0
  0
LINE
  5
11E
330
1E
100
AcDbEntity
  8
CSLAYER1
  6
CONTINUOUS
 62
     3
100
AcDbLine
 10
198.6154799999999
 20
130.4999999999999
 30
0.0
 11
195.558173
 21
120.5
 31
0.0
  0
ARC
  5
11F
330
1E
100
AcDbEntity
  8
CSLAYER1
  6
CONTINUOUS
 62
     3
100
AcDbCircle
 10
184.957237
 20
132.0
 30
0.0
 40
12.5
100
AcDbArc
 50
293.0739179999999
 51
0.0
  0
LINE
  5
120
330
1E
100
AcDbEntity
  8
CSLAYER1
  6
CONTINUOUS
 62
     3
100
AcDbLine
 10
197.457237
 20
132.6999999999999
 30
0.0
 11
197.457237
 21
131.3
 31
0.0
  0
ARC
  5
121
330
1E
100
AcDbEntity
  8
CSLAYER1
  6
CONTINUOUS
 62
     3
100
AcDbCircle
 10
198.2572369999999
 20
131.3
 30
0.0
 40
0.8
100
AcDbArc
 50
180.0
 51
270.0
  0
ARC
  5
122
330
1E
100
AcDbEntity
  8
CSLAYER1
  6
CONTINUOUS
 62
     3
100
AcDbCircle
 10
198.2572369999999
 20
132.6999999999999
 30
0.0
 40
0.8
100
AcDbArc
 50
90.0
 51
180.0
  0
LINE
  5
123
330
1E
100
AcDbEntity
  8
CSLAYER1
  6
CONTINUOUS
 62
     3
100
AcDbLine
 10
198.2572369999999
 20
133.4999999999999
 30
0.0
 11
244.957237
 21
133.4999999999999
 31
0.0
  0
ARC
  5
124
330
1E
100
AcDbEntity
  8
CSLAYER1
  6
CONTINUOUS
 62
     3
100
AcDbCircle
 10
235.030309
 20
132.293309
 30
0.0
 40
10.0
100
AcDbArc
 50
6.930721000000001
 51
88.28164200000001
  0
LINE
  5
125
330
1E
100
AcDbEntity
  8
CSLAYER1
  6
CONTINUOUS
 62
     3
100
AcDbLine
 10
235.330174
 20
142.288812
 30
0.0
 11
194.957237
 21
143.5
 31
0.0
  0
LINE
  5
126
330
1E
100
AcDbEntity
  8
CSLAYER1
  6
CONTINUOUS
 62
     3
100
AcDbLine
 10
194.957237
 20
143.5
 30
0.0
 11
163.732214
 21
143.5
 31
0.0
  0
ARC
  5
127
330
1E
100
AcDbEntity
  8
CSLAYER1
  6
CONTINUOUS
 62
     3
100
AcDbCircle
 10
163.732214
 20
123.5
 30
0.0
 40
20.0
100
AcDbArc
 50
90.0
 51
133.5311519999999
  0
LINE
  5
128
330
1E
100
AcDbEntity
  8
CSLAYER1
  6
CONTINUOUS
 62
     3
100
AcDbLine
 10
149.957237
 20
137.0
 30
0.0
 11
165.957237
 21
137.0
 31
0.0
  0
LINE
  5
129
330
1E
100
AcDbEntity
  8
CSLAYER1
  6
CONTINUOUS
 62
     3
100
AcDbLine
 10
166.957237
 20
136.0
 30
0.0
 11
166.957237
 21
128.0
 31
0.0
  0
LINE
  5
12A
330
1E
100
AcDbEntity
  8
CSLAYER1
  6
CONTINUOUS
 62
     3
100
AcDbLine
 10
165.957237
 20
127.0
 30
0.0
 11
149.957237
 21
127.0
 31
0.0
  0
ARC
  5
12B
330
1E
100
AcDbEntity
  8
CSLAYER1
  6
CONTINUOUS
 62
     3
100
AcDbCircle
 10
163.732214
 20
140.5
 30
0.0
 40
20.0
100
AcDbArc
 50
226.468848
 51
270.0
  0
ARC
  5
12C
330
1E
100
AcDbEntity
  8
CSLAYER1
  6
CONTINUOUS
 62
     3
100
AcDbCircle
 10
165.957237
 20
128.0
 30
0.0
 40
1.0
100
AcDbArc
 50
270.0
 51
0.0
  0
LINE
  5
12D
330
1E
100
AcDbEntity
  8
CSLAYER1
  6
CONTINUOUS
 62
     3
100
AcDbLine
 10
166.957237
 20
131.6
 30
0.0
 11
169.676857
 21
131.6
 31
0.0
  0
ARC
  5
12E
330
1E
100
AcDbEntity
  8
CSLAYER1
  6
CONTINUOUS
 62
     3
100
AcDbCircle
 10
169.676857
 20
134.5999999999999
 30
0.0
 40
3.0
100
AcDbArc
 50
270.0
 51
350.3434439999998
  0
ARC
  5
12F
330
1E
100
AcDbEntity
  8
CSLAYER1
  6
CONTINUOUS
 62
     3
100
AcDbCircle
 10
169.676857
 20
129.4
 30
0.0
 40
3.0
100
AcDbArc
 50
60.073565
 51
90.0
  0
ARC
  5
130
330
1E
100
AcDbEntity
  8
CSLAYER1
  6
CONTINUOUS
 62
     3
100
AcDbCircle
 10
165.957237
 20
136.0
 30
0.0
 40
1.0
100
AcDbArc
 50
0.0
 51
90.0
  0
ARC
  5
131
330
1E
100
AcDbEntity
  8
CSLAYER1
  6
CONTINUOUS
 62
     3
100
AcDbCircle
 10
184.957237
 20
132.0
 30
0.0
 40
12.5
100
AcDbArc
 50
113.0739179999999
 51
170.343444
  0
CIRCLE
  5
132
330
1E
100
AcDbEntity
  8
CSLAYER1
  6
CONTINUOUS
 62
     3
100
AcDbCircle
 10
184.957237
 20
132.0
 30
0.0
 40
2.049999999999998
  0
CIRCLE
  5
133
330
1E
100
AcDbEntity
  8
CSLAYER1
  6
CONTINUOUS
 62
     3
100
AcDbCircle
 10
184.957237
 20
132.0
 30
0.0
 40
8.55
  0
LINE
  5
134
330
1E
100
AcDbEntity
  8
CSLAYER1
  6
CONTINUOUS
 62
     3
100
AcDbLine
 10
235.457237
 20
133.4999999999999
 30
0.0
 11
235.457237
 21
130.4999999999999
 31
0.0
  0
LINE
  5
135
330
1E
100
AcDbEntity
  8
CSLAYER1
  6
CONTINUOUS
 62
     3
100
AcDbLine
 10
241.457237
 20
130.4999999999999
 30
0.0
 11
241.457237
 21
133.4999999999999
 31
0.0
  0
LINE
  5
136
330
1E
100
AcDbEntity
  8
CSLAYER1
  6
CONTINUOUS
 62
     3
100
AcDbLine
 10
195.620814
 20
79.0
 30
0.0
 11
195.620814
 21
74.0
 31
0.0
  0
LINE
  5
137
330
1E
100
AcDbEntity
  8
CSLAYER1
  6
CONTINUOUS
 62
     3
100
AcDbLine
 10
194.6208139999999
 20
73.0
 30
0.0
 11
175.356301
 21
73.0
 31
0.0
  0
ARC
  5
138
330
1E
100
AcDbEntity
  8
CSLAYER1
  6
CONTINUOUS
 62
     3
100
AcDbCircle
 10
175.356301
 20
72.0
 30
0.0
 40
1.0
100
AcDbArc
 50
90.0
 51
180.0
  0
LINE
  5
139
330
1E
100
AcDbEntity
  8
CSLAYER1
  6
CONTINUOUS
 62
     3
100
AcDbLine
 10
174.356301
 20
72.0
 30
0.0
 11
174.356301
 21
67.0
 31
0.0
  0
ARC
  5
13A
330
1E
100
AcDbEntity
  8
CSLAYER1
  6
CONTINUOUS
 62
     3
100
AcDbCircle
 10
167.957237
 20
69.0
 30
0.0
 40
2.0
100
AcDbArc
 50
0.0
 51
90.0
  0
ARC
  5
13B
330
1E
100
AcDbEntity
  8
CSLAYER1
  6
CONTINUOUS
 62
     3
100
AcDbCircle
 10
167.957237
 20
78.0
 30
0.0
 40
2.0
100
AcDbArc
 50
270.0
 51
0.0
  0
LINE
  5
13C
330
1E
100
AcDbEntity
  8
CSLAYER1
  6
CONTINUOUS
 62
     3
100
AcDbLine
 10
180.0582569999999
 20
72.5
 30
0.0
 11
180.0582569999999
 21
67.0
 31
0.0
  0
LINE
  5
13D
330
1E
100
AcDbEntity
  8
CSLAYER1
  6
CONTINUOUS
 62
     3
100
AcDbLine
 10
180.0582569999999
 20
72.5
 30
0.0
 11
180.558257
 21
73.0
 31
0.0
  0
LINE
  5
13E
330
1E
100
AcDbEntity
  8
CSLAYER1
  6
CONTINUOUS
 62
     3
100
AcDbLine
 10
189.3562159999999
 20
73.0
 30
0.0
 11
189.8562159999999
 21
73.5
 31
0.0
  0
LINE
  5
13F
330
1E
100
AcDbEntity
  8
CSLAYER1
  6
CONTINUOUS
 62
     3
100
AcDbLine
 10
189.8562159999999
 20
73.5
 30
0.0
 11
189.8562159999999
 21
79.0
 31
0.0
  0
ARC
  5
140
330
1E
100
AcDbEntity
  8
CSLAYER1
  6
CONTINUOUS
 62
     3
100
AcDbCircle
 10
194.6208139999999
 20
74.0
 30
0.0
 40
1.0
100
AcDbArc
 50
270.0
 51
0.0
  0
LINE
  5
141
330
1E
100
AcDbEntity
  8
CSLAYER1
  6
CENTER
 62
     4
100
AcDbLine
 10
69.890951
 20
132.0
 30
0.0
 11
88.253523
 21
132.0
 31
0.0
  0
LINE
  5
142
330
1E
100
AcDbEntity
  8
CSLAYER1
  6
CENTER
 62
     4
100
AcDbLine
 10
145.8337939999998
 20
132.0
 30
0.0
 11
149.957237
 21
132.0
 31
0.0
  0
LINE
  5
143
330
1E
100
AcDbEntity
  8
CSLAYER1
  6
CENTER
 62
     4
100
AcDbLine
 10
166.957237
 20
132.0
 30
0.0
 11
247.261043
 21
132.0
 31
0.0
  0
LINE
  5
144
330
1E
100
AcDbEntity
  8
CSLAYER1
  6
CENTER
 62
     4
100
AcDbLine
 10
238.457237
 20
135.635886
 30
0.0
 11
238.457237
 21
128.047203
 31
0.0
  0
LINE
  5
145
330
1E
100
AcDbEntity
  8
CSLAYER1
  6
CENTER
 62
     4
100
AcDbLine
 10
202.957237
 20
126.125078
 30
0.0
 11
202.957237
 21
138.224998
 31
0.0
  0
LINE
  5
146
330
1E
100
AcDbEntity
  8
CSLAYER1
  6
CENTER
 62
     4
100
AcDbLine
 10
184.957237
 20
146.563033
 30
0.0
 11
184.957237
 21
117.314107
 31
0.0
  0
LINE
  5
147
330
1E
100
AcDbEntity
  8
CSLAYER1
  6
CENTER
 62
     4
100
AcDbLine
 10
184.957237
 20
82.66174499999998
 30
0.0
 11
184.957237
 21
63.46479999999999
 31
0.0
  0
LINE
  5
148
330
1E
100
AcDbEntity
  8
CSLAYER1
  6
CENTER
 62
     4
100
AcDbLine
 10
174.356301
 20
73.0
 30
0.0
 11
168.457237
 21
73.0
 31
0.0
  0
LINE
  5
149
330
1E
100
AcDbEntity
  8
CSLAYER1
  6
DASHED
 62
     4
100
AcDbLine
 10
166.957237
 20
75.0
 30
0.0
 11
166.957237
 21
71.0
 31
0.0
  0
ARC
  5
14A
330
1E
100
AcDbEntity
  8
CSLAYER1
  6
DASHED
 62
     4
100
AcDbCircle
 10
166.457237
 20
75.0
 30
0.0
 40
0.5
100
AcDbArc
 50
0.0
 51
90.0
  0
LINE
  5
14B
330
1E
100
AcDbEntity
  8
CSLAYER1
  6
DASHED
 62
     4
100
AcDbLine
 10
166.457237
 20
75.5
 30
0.0
 11
149.957237
 21
75.5
 31
0.0
  0
ARC
  5
14C
330
1E
100
AcDbEntity
  8
CSLAYER1
  6
DASHED
 62
     4
100
AcDbCircle
 10
166.457237
 20
76.0
 30
0.0
 40
0.5
100
AcDbArc
 50
270.0
 51
0.0
  0
LINE
  5
14D
330
1E
100
AcDbEntity
  8
CSLAYER1
  6
CENTER
 62
     4
100
AcDbLine
 10
195.620814
 20
73.0
 30
0.0
 11
200.957237
 21
73.0
 31
0.0
  0
LINE
  5
14E
330
1E
100
AcDbEntity
  8
CSLAYER1
  6
CENTER
 62
     4
100
AcDbLine
 10
238.5495189999999
 20
73.0
 30
0.0
 11
249.930256
 21
73.0
 31
0.0
  0
DIMENSION
  5
14F
330
1E
100
AcDbEntity
  8
CSLAYER1
 62
     4
100
AcDbDimension
  2
*D3
 10
184.957237
 20
90.282899
 30
0.0
 11
177.45723
 21
91.28289800000001
 31
0.0
100
AcDbAlignedDimension
 13
169.957237
 23
79.0
 33
0.0
 14
184.957237
 24
82.66174499999998
 34
0.0
100
AcDbRotatedDimension
  0
DIMENSION
  5
150
330
1E
100
AcDbEntity
  8
CSLAYER1
 62
     4
100
AcDbDimension
  2
*D4
 10
138.172558
 20
79.0
 30
0.0
 11
137.172562
 21
80.23416899999999
 31
0.0
 70
     1
100
AcDbAlignedDimension
 13
169.957237
 23
67.0
 33
0.0
 14
169.957237
 24
79.0
 34
0.0
  0
DIMENSION
  5
151
330
1E
100
AcDbEntity
  8
CSLAYER1
 62
     4
100
AcDbDimension
  2
*D5
 10
144.172558
 20
79.0
 30
0.0
 11
142.9976649999999
 21
76.683914
 31
0.0
100
AcDbAlignedDimension
 13
149.957237
 23
76.0
 33
0.0
 14
169.957237
 24
79.0
 34
0.0
 50
90.0
100
AcDbRotatedDimension
  0
DIMENSION
  5
152
330
1E
100
AcDbEntity
  8
CSLAYER1
 62
     4
100
AcDbDimension
  2
*D6
 10
184.957237
 20
56.917627
 30
0.0
 11
177.45723
 21
57.917625
 31
0.0
 52
270.0
100
AcDbAlignedDimension
 13
169.957237
 23
67.0
 33
0.0
 14
184.957237
 24
63.46479999999999
 34
0.0
100
AcDbRotatedDimension
  0
DIMENSION
  5
153
330
1E
100
AcDbEntity
  8
CSLAYER1
 62
     4
100
AcDbDimension
  2
*D7
 10
134.5028879999998
 20
143.5
 30
0.0
 11
133.5028839999999
 21
132.0
 31
0.0
 70
     1
100
AcDbAlignedDimension
 13
163.732214
 23
120.5
 33
0.0
 14
163.732214
 24
143.5
 34
0.0
  0
DIMENSION
  5
154
330
1E
100
AcDbEntity
  8
CSLAYER1
 62
     4
100
AcDbDimension
  2
*D8
 10
140.5028879999998
 20
138.0
 30
0.0
 11
139.5028839999999
 21
132.0
 31
0.0
 70
     1
100
AcDbAlignedDimension
 13
149.957237
 23
126.0
 33
0.0
 14
149.957237
 24
138.0
 34
0.0
  0
DIMENSION
  5
155
330
1E
100
AcDbEntity
  8
CSLAYER1
 62
     4
100
AcDbDimension
  2
*D9
 10
184.957237
 20
163.4252899999999
 30
0.0
 11
167.45723
 21
164.4252929999999
 31
0.0
100
AcDbAlignedDimension
 13
149.957237
 23
138.0
 33
0.0
 14
184.957237
 24
146.563033
 34
0.0
100
AcDbRotatedDimension
  0
DIMENSION
  5
156
330
1E
100
AcDbEntity
  8
CSLAYER1
 62
     4
100
AcDbDimension
  2
*D10
 10
163.732214
 20
140.5
 30
0.0
 11
155.18367
 21
114.201477
 31
0.0
 70
     4
100
AcDbRadialDimension
 15
157.4014769999999
 25
121.528396
 35
0.0
 40
0.0
  0
DIMENSION
  5
159
330
1E
100
AcDbEntity
  8
CSLAYER1
 62
     4
100
AcDbDimension
  2
*D13
 10
81.32780799999997
 20
147.314049
 30
0.0
 11
77.63515500000003
 21
148.314056
 31
0.0
100
AcDbAlignedDimension
 13
80.827808
 23
132.0
 33
0.0
 14
81.32780799999997
 24
143.5
 34
0.0
100
AcDbRotatedDimension
  0
POINT
  5
15A
330
1E
100
AcDbEntity
  8
CSLAYER1
 62
     3
100
AcDbPoint
 10
100.6809209999999
 20
34.598684
 30
0.0
  0
LINE
  5
15B
330
1E
100
AcDbEntity
  8
CSLAYER1
  6
CONTINUOUS
 62
     3
100
AcDbLine
 10
30.735703
 20
50.09868400000001
 30
0.0
 11
35.735703
 21
50.09868400000001
 31
0.0
  0
LINE
  5
15C
330
1E
100
AcDbEntity
  8
CSLAYER1
  6
CONTINUOUS
 62
     3
100
AcDbLine
 10
35.735703
 20
19.09868399999998
 30
0.0
 11
30.735703
 21
19.09868399999998
 31
0.0
  0
LINE
  5
15D
330
1E
100
AcDbEntity
  8
CSLAYER1
  6
CONTINUOUS
 62
     3
100
AcDbLine
 10
30.735703
 20
19.09868399999998
 30
0.0
 11
30.735703
 21
25.235793
 31
0.0
  0
LINE
  5
15E
330
1E
100
AcDbEntity
  8
CSLAYER1
  6
CONTINUOUS
 62
     3
100
AcDbLine
 10
30.735703
 20
25.235793
 30
0.0
 11
35.235703
 21
30.598684
 31
0.0
  0
LINE
  5
15F
330
1E
100
AcDbEntity
  8
CSLAYER1
  6
CONTINUOUS
 62
     3
100
AcDbLine
 10
35.235703
 20
30.598684
 30
0.0
 11
35.735703
 21
29.732659
 31
0.0
  0
LINE
  5
160
330
1E
100
AcDbEntity
  8
CSLAYER1
  6
CONTINUOUS
 62
     3
100
AcDbLine
 10
35.735703
 20
29.732659
 30
0.0
 11
35.735703
 21
19.09868399999998
 31
0.0
  0
LINE
  5
161
330
1E
100
AcDbEntity
  8
CSLAYER1
  6
CONTINUOUS
 62
     3
100
AcDbLine
 10
35.735703
 20
25.598684
 30
0.0
 11
31.040205
 21
25.598684
 31
0.0
  0
LINE
  5
162
330
1E
100
AcDbEntity
  8
CSLAYER1
  6
CONTINUOUS
 62
     3
100
AcDbLine
 10
35.235703
 20
38.598684
 30
0.0
 11
35.735703
 21
39.46470999999998
 31
0.0
  0
LINE
  5
163
330
1E
100
AcDbEntity
  8
CSLAYER1
  6
CONTINUOUS
 62
     3
100
AcDbLine
 10
35.735703
 20
39.46470999999998
 30
0.0
 11
35.735703
 21
50.09868400000001
 31
0.0
  0
LINE
  5
164
330
1E
100
AcDbEntity
  8
CSLAYER1
  6
CONTINUOUS
 62
     3
100
AcDbLine
 10
30.735703
 20
50.09868400000001
 30
0.0
 11
30.735703
 21
43.961575
 31
0.0
  0
LINE
  5
165
330
1E
100
AcDbEntity
  8
CSLAYER1
  6
CONTINUOUS
 62
     3
100
AcDbLine
 10
30.735703
 20
43.961575
 30
0.0
 11
35.235703
 21
38.598684
 31
0.0
  0
LINE
  5
166
330
1E
100
AcDbEntity
  8
CSLAYER1
  6
CONTINUOUS
 62
     3
100
AcDbLine
 10
35.735703
 20
43.598684
 30
0.0
 11
31.040205
 21
43.598684
 31
0.0
  0
LINE
  5
167
330
1E
100
AcDbEntity
  8
CSLAYER1
  6
CONTINUOUS
 62
     3
100
AcDbLine
 10
66.59595799999999
 20
44.559372
 30
0.0
 11
65.91024399999999
 21
38.598684
 31
0.0
  0
LINE
  5
168
330
1E
100
AcDbEntity
  8
CSLAYER1
  6
CONTINUOUS
 62
     3
100
AcDbLine
 10
65.91024399999999
 20
38.598684
 30
0.0
 11
82.798858
 21
36.655827
 31
0.0
  0
LINE
  5
169
330
1E
100
AcDbEntity
  8
CSLAYER1
  6
CONTINUOUS
 62
     3
100
AcDbLine
 10
82.84457299999997
 20
37.053206
 30
0.0
 11
86.43051599999997
 21
36.640681
 31
0.0
  0
LINE
  5
16A
330
1E
100
AcDbEntity
  8
CSLAYER1
  6
CONTINUOUS
 62
     3
100
AcDbLine
 10
86.43051599999997
 20
36.640681
 30
0.0
 11
87.062126
 21
37.14196299999999
 31
0.0
  0
LINE
  5
16B
330
1E
100
AcDbEntity
  8
CSLAYER1
  6
CONTINUOUS
 62
     3
100
AcDbLine
 10
87.062126
 20
37.14196299999999
 30
0.0
 11
91.46372900000001
 21
47.234871
 31
0.0
  0
LINE
  5
16C
330
1E
100
AcDbEntity
  8
CSLAYER1
  6
CONTINUOUS
 62
     3
100
AcDbLine
 10
87.09348799999999
 20
47.737621
 30
0.0
 11
85.824916
 21
36.710349
 31
0.0
  0
LINE
  5
16D
330
1E
100
AcDbEntity
  8
CSLAYER1
  6
CONTINUOUS
 62
     3
100
AcDbLine
 10
100.6809209999999
 20
46.17453
 30
0.0
 11
80.90925199999999
 21
48.449052
 31
0.0
  0
ARC
  5
16E
330
1E
100
AcDbEntity
  8
CSLAYER1
  6
CONTINUOUS
 62
     3
100
AcDbCircle
 10
78.623538
 20
28.580094
 30
0.0
 40
20.0
100
AcDbArc
 50
83.437572
 51
126.968724
  0
LINE
  5
16F
330
1E
100
AcDbEntity
  8
CSLAYER1
  6
CONTINUOUS
 62
     3
100
AcDbLine
 10
66.481672
 20
43.565924
 30
0.0
 11
82.376839
 21
41.737352
 31
0.0
  0
LINE
  5
170
330
1E
100
AcDbEntity
  8
CSLAYER1
  6
CONTINUOUS
 62
     3
100
AcDbLine
 10
83.256001
 20
40.629619
 30
0.0
 11
82.798858
 21
36.655827
 31
0.0
  0
ARC
  5
171
330
1E
100
AcDbEntity
  8
CSLAYER1
  6
CONTINUOUS
 62
     3
100
AcDbCircle
 10
85.203517
 20
33.76204899999999
 30
0.0
 40
3.0
100
AcDbArc
 50
16.19328199999999
 51
83.437572
  0
ARC
  5
172
330
1E
100
AcDbEntity
  8
CSLAYER1
  6
CONTINUOUS
 62
     3
100
AcDbCircle
 10
82.262553
 20
40.743904
 30
0.0
 40
1.0
100
AcDbArc
 50
353.4375719999998
 51
83.437572
  0
ARC
  5
173
330
1E
100
AcDbEntity
  8
CSLAYER1
  6
CONTINUOUS
 62
     3
100
AcDbCircle
 10
100.6809209999999
 20
34.598684
 30
0.0
 40
12.5
100
AcDbArc
 50
119.636346
 51
176.9058719999999
  0
CIRCLE
  5
174
330
1E
100
AcDbEntity
  8
CSLAYER1
  6
CONTINUOUS
 62
     3
100
AcDbCircle
 10
100.6809209999999
 20
34.598684
 30
0.0
 40
2.049999999999998
  0
CIRCLE
  5
175
330
1E
100
AcDbEntity
  8
CSLAYER1
  6
CONTINUOUS
 62
     3
100
AcDbCircle
 10
100.6809209999999
 20
34.598684
 30
0.0
 40
8.55
  0
LINE
  5
176
330
1E
100
AcDbEntity
  8
CSLAYER1
  6
CENTER
 62
     4
100
AcDbLine
 10
24.29884599999999
 20
34.598684
 30
0.0
 11
42.661417
 21
34.598684
 31
0.0
  0
LINE
  5
177
330
1E
100
AcDbEntity
  8
CSLAYER1
  6
CENTER
 62
     4
100
AcDbLine
 10
60.694003
 20
34.598684
 30
0.0
 11
111.8048829999999
 21
34.598684
 31
0.0
  0
LINE
  5
178
330
1E
100
AcDbEntity
  8
CSLAYER1
  6
CENTER
 62
     4
100
AcDbLine
 10
100.6809209999999
 20
49.16171699999999
 30
0.0
 11
100.6809209999999
 21
19.91279099999998
 31
0.0
  0
DIMENSION
  5
179
330
1E
100
AcDbEntity
  8
CSLAYER1
 62
     4
100
AcDbDimension
  2
*D14
 10
166.957237
 20
90.282899
 30
0.0
 11
158.7489469999999
 21
91.28289800000001
 31
0.0
100
AcDbAlignedDimension
 13
149.957237
 23
76.0
 33
0.0
 14
166.957237
 24
75.0
 34
0.0
100
AcDbRotatedDimension
  0
LINE
  5
17A
330
1E
100
AcDbEntity
  8
CSLAYER1
  6
CONTINUOUS
 62
     3
100
AcDbLine
 10
66.59595799999999
 20
24.637997
 30
0.0
 11
65.91024399999999
 21
30.598684
 31
0.0
  0
LINE
  5
17B
330
1E
100
AcDbEntity
  8
CSLAYER1
  6
CONTINUOUS
 62
     3
100
AcDbLine
 10
65.91024399999999
 20
30.598684
 30
0.0
 11
82.798858
 21
32.54154099999999
 31
0.0
  0
LINE
  5
17C
330
1E
100
AcDbEntity
  8
CSLAYER1
  6
CONTINUOUS
 62
     3
100
AcDbLine
 10
82.84457299999997
 20
32.144162
 30
0.0
 11
85.546374
 21
32.454976
 31
0.0
  0
LINE
  5
17D
330
1E
100
AcDbEntity
  8
CSLAYER1
  6
CONTINUOUS
 62
     3
100
AcDbLine
 10
87.09348799999999
 20
21.459747
 30
0.0
 11
85.82341600000003
 21
32.500064
 31
0.0
  0
LINE
  5
17E
330
1E
100
AcDbEntity
  8
CSLAYER1
  6
CONTINUOUS
 62
     3
100
AcDbLine
 10
111.929686
 20
24.31689
 30
0.0
 11
80.90925199999999
 21
20.74831599999999
 31
0.0
  0
ARC
  5
17F
330
1E
100
AcDbEntity
  8
CSLAYER1
  6
CONTINUOUS
 62
     3
100
AcDbCircle
 10
78.623538
 20
40.61727499999999
 30
0.0
 40
20.0
100
AcDbArc
 50
233.031276
 51
276.5624279999999
  0
LINE
  5
180
330
1E
100
AcDbEntity
  8
CSLAYER1
  6
CONTINUOUS
 62
     3
100
AcDbLine
 10
66.481672
 20
25.631445
 30
0.0
 11
82.376839
 21
27.46001599999999
 31
0.0
  0
LINE
  5
181
330
1E
100
AcDbEntity
  8
CSLAYER1
  6
CONTINUOUS
 62
     3
100
AcDbLine
 10
83.256001
 20
28.56775
 30
0.0
 11
82.798858
 21
32.54154099999999
 31
0.0
  0
ARC
  5
182
330
1E
100
AcDbEntity
  8
CSLAYER1
  6
CONTINUOUS
 62
     3
100
AcDbCircle
 10
85.203517
 20
35.43532
 30
0.0
 40
3.0
100
AcDbArc
 50
276.5624279999999
 51
356.905872
  0
ARC
  5
183
330
1E
100
AcDbEntity
  8
CSLAYER1
  6
CONTINUOUS
 62
     3
100
AcDbCircle
 10
82.262553
 20
28.453464
 30
0.0
 40
1.0
100
AcDbArc
 50
276.5624279999999
 51
6.562427999999998
  0
LINE
  5
184
330
1E
100
AcDbEntity
  8
CSLAYER1
  6
CONTINUOUS
 62
     3
100
AcDbLine
 10
109.3011149999999
 20
47.16619199999999
 30
0.0
 11
94.49975399999999
 21
45.463452
 31
0.0
  0
DIMENSION
  5
185
330
1E
100
AcDbEntity
  8
CSLAYER1
 62
     4
100
AcDbDimension
  2
*D15
 10
55.373257
 20
38.598684
 30
0.0
 11
54.37325699999998
 21
34.598682
 31
0.0
 70
     1
100
AcDbAlignedDimension
 13
65.91024399999999
 23
30.598684
 33
0.0
 14
65.91024399999999
 24
38.598684
 34
0.0
  0
LINE
  5
186
330
1E
100
AcDbEntity
  8
CSLAYER1
  6
DOT
 62
     3
100
AcDbLine
 10
4.0
 20
1.0
 30
0.0
 11
283.0
 21
1.0
 31
0.0
  0
LINE
  5
187
330
1E
100
AcDbEntity
  8
CSLAYER1
  6
DOT
 62
     3
100
AcDbLine
 10
283.0
 20
1.0
 30
0.0
 11
283.0
 21
195.0
 31
0.0
  0
LINE
  5
188
330
1E
100
AcDbEntity
  8
CSLAYER1
  6
DOT
 62
     3
100
AcDbLine
 10
283.0
 20
195.0
 30
0.0
 11
4.0
 21
195.0
 31
0.0
  0
LINE
  5
189
330
1E
100
AcDbEntity
  8
CSLAYER1
  6
DOT
 62
     3
100
AcDbLine
 10
4.0
 20
195.0
 30
0.0
 11
4.0
 21
1.0
 31
0.0
  0
LINE
  5
18A
330
1E
100
AcDbEntity
  8
CSLAYER1
  6
DOT
 62
     3
100
AcDbLine
 10
283.0
 20
98.0
 30
0.0
 11
287.0
 21
98.0
 31
0.0
  0
LINE
  5
18B
330
1E
100
AcDbEntity
  8
CSLAYER1
  6
DOT
 62
     3
100
AcDbLine
 10
4.0
 20
98.0
 30
0.0
 11
0.0
 21
98.0
 31
0.0
  0
LINE
  5
18C
330
1E
100
AcDbEntity
  8
CSLAYER1
  6
DOT
 62
     3
100
AcDbLine
 10
143.5
 20
195.0
 30
0.0
 11
143.5
 21
199.0
 31
0.0
  0
ENDSEC
  0
SECTION
  2
OBJECTS
  0
DICTIONARY
  5
C
330
0
100
AcDbDictionary
  3
ACAD_GROUP
350
D
  3
ACAD_LAYOUT
350
19
  3
ACAD_MLINESTYLE
350
16
  3
ACAD_PLOTSETTINGS
350
18
1001
ACAD
1000
TREAT_AS_HARD
1070
     0
1000
TREAT_AS_HARD
1070
     0
  0
DICTIONARY
  5
196
330
1E
100
AcDbDictionary
  3
ACAD_LAYOUTSELFREF
350
1C4
1001
ACAD
1000
TREAT_AS_HARD
1070
     0
  0
DICTIONARY
  5
194
330
1A
100
AcDbDictionary
  3
ACAD_LAYOUTSELFREF
350
1C3
1001
ACAD
1000
TREAT_AS_HARD
1070
     0
  0
DICTIONARY
  5
D
102
{ACAD_REACTORS
330
C
102
}
330
C
100
AcDbDictionary
1001
ACAD
1000
TREAT_AS_HARD
1070
     0
1000
TREAT_AS_HARD
1070
     0
  0
DICTIONARY
  5
19
102
{ACAD_REACTORS
330
C
102
}
330
C
100
AcDbDictionary
1001
ACAD
1000
TREAT_AS_HARD
1070
     0
1000
TREAT_AS_HARD
1070
     0
  0
DICTIONARY
  5
16
102
{ACAD_REACTORS
330
C
102
}
330
C
100
AcDbDictionary
  3
STANDARD
350
17
1001
ACAD
1000
TREAT_AS_HARD
1070
     0
1000
TREAT_AS_HARD
1070
     0
  0
DICTIONARY
  5
18
102
{ACAD_REACTORS
330
C
102
}
330
C
100
AcDbDictionary
1001
ACAD
1000
TREAT_AS_HARD
1070
     0
1000
TREAT_AS_HARD
1070
     0
  0
XRECORD
  5
1C4
102
{ACAD_REACTORS
330
196
102
}
330
196
100
AcDbXrecord
340
1E
  0
XRECORD
  5
1C3
102
{ACAD_REACTORS
330
194
102
}
330
194
100
AcDbXrecord
340
1A
  0
MLINESTYLE
  5
17
102
{ACAD_REACTORS
330
16
102
}
330
16
100
AcDbMlineStyle
  2
STANDARD
 70
     0
  3

 62
   256
 51
90.0
 52
90.0
 71
     2
 49
0.5
 62
   256
  6
BYLAYER
 49
-0.5
 62
   256
  6
BYLAYER
  0
ENDSEC
  0
EOF
