  0
SECTION
  2
HEADER
  9
$ACADVER
  1
AC1012
  9
$DWGCODEPAGE
  3
dos932
  9
$INSBASE
 10
0.0
 20
0.0
 30
0.0
  9
$EXTMIN
 10
-0.0090630292066862
 20
0.9869389666558276
 30
-0.0015258207003583
  9
$EXTMAX
 10
287.0163123253922
 20
199.0155034058442
 30
0.0000000349246037
  9
$LIMMIN
 10
0.0
 20
0.0
  9
$LIMMAX
 10
297.0
 20
210.0
  9
$ORTHOMODE
 70
     0
  9
$REGENMODE
 70
     1
  9
$FILLMODE
 70
     1
  9
$QTEXTMODE
 70
     0
  9
$MIRRTEXT
 70
     1
  9
$DRAGMODE
 70
     2
  9
$LTSCALE
 40
15.0
  9
$OSMODE
 70
    37
  9
$ATTMODE
 70
     1
  9
$TEXTSIZE
 40
0.2
  9
$TRACEWID
 40
0.05
  9
$TEXTSTYLE
  7
GOTHIC
  9
$CLAYER
  8
CSLAYER1
  9
$CELTYPE
  6
BYLAYER
  9
$CECOLOR
 62
   256
  9
$CELTSCALE
 40
1.0
  9
$DELOBJ
 70
     1
  9
$DISPSILH
 70
     0
  9
$DIMSCALE
 40
1.0
  9
$DIMASZ
 40
0.18
  9
$DIMEXO
 40
0.0625
  9
$DIMDLI
 40
0.38
  9
$DIMRND
 40
0.0
  9
$DIMDLE
 40
0.0
  9
$DIMEXE
 40
0.18
  9
$DIMTP
 40
0.0
  9
$DIMTM
 40
0.0
  9
$DIMTXT
 40
0.18
  9
$DIMCEN
 40
0.09
  9
$DIMTSZ
 40
0.0
  9
$DIMTOL
 70
     0
  9
$DIMLIM
 70
     0
  9
$DIMTIH
 70
     1
  9
$DIMTOH
 70
     1
  9
$DIMSE1
 70
     0
  9
$DIMSE2
 70
     0
  9
$DIMTAD
 70
     0
  9
$DIMZIN
 70
     0
  9
$DIMBLK
  1

  9
$DIMASO
 70
     1
  9
$DIMSHO
 70
     1
  9
$DIMPOST
  1

  9
$DIMAPOST
  1

  9
$DIMALT
 70
     0
  9
$DIMALTD
 70
     2
  9
$DIMALTF
 40
25.4
  9
$DIMLFAC
 40
1.0
  9
$DIMTOFL
 70
     0
  9
$DIMTVP
 40
0.0
  9
$DIMTIX
 70
     0
  9
$DIMSOXD
 70
     0
  9
$DIMSAH
 70
     0
  9
$DIMBLK1
  1

  9
$DIMBLK2
  1

  9
$DIMSTYLE
  2
STANDARD
  9
$DIMCLRD
 70
     0
  9
$DIMCLRE
 70
     0
  9
$DIMCLRT
 70
     0
  9
$DIMTFAC
 40
1.0
  9
$DIMGAP
 40
0.09
  9
$DIMJUST
 70
     0
  9
$DIMSD1
 70
     0
  9
$DIMSD2
 70
     0
  9
$DIMTOLJ
 70
     1
  9
$DIMTZIN
 70
     0
  9
$DIMALTZ
 70
     0
  9
$DIMALTTZ
 70
     0
  9
$DIMFIT
 70
     3
  9
$DIMUPT
 70
     0
  9
$DIMUNIT
 70
     2
  9
$DIMDEC
 70
     4
  9
$DIMTDEC
 70
     4
  9
$DIMALTU
 70
     2
  9
$DIMALTTD
 70
     2
  9
$DIMTXSTY
  7
STANDARD
  9
$DIMAUNIT
 70
     0
  9
$LUNITS
 70
     2
  9
$LUPREC
 70
     4
  9
$SKETCHINC
 40
0.1
  9
$FILLETRAD
 40
0.0
  9
$AUNITS
 70
     0
  9
$AUPREC
 70
     0
  9
$MENU
  1
ACAD
  9
$ELEVATION
 40
0.0
  9
$PELEVATION
 40
0.0
  9
$THICKNESS
 40
0.0
  9
$LIMCHECK
 70
     0
  9
$BLIPMODE
 70
     1
  9
$CHAMFERA
 40
0.0
  9
$CHAMFERB
 40
0.0
  9
$CHAMFERC
 40
0.0
  9
$CHAMFERD
 40
0.0
  9
$SKPOLY
 70
     0
  9
$TDCREATE
 40
2453476.999999999
  9
$TDUPDATE
 40
2453516.485904919
  9
$TDINDWG
 40
0.0007947801
  9
$TDUSRTIMER
 40
0.0007947801
  9
$USRTIMER
 70
     1
  9
$ANGBASE
 50
0.0
  9
$ANGDIR
 70
     0
  9
$PDMODE
 70
     0
  9
$PDSIZE
 40
0.0
  9
$PLINEWID
 40
0.0
  9
$COORDS
 70
     0
  9
$SPLFRAME
 70
     0
  9
$SPLINETYPE
 70
     6
  9
$SPLINESEGS
 70
     8
  9
$ATTDIA
 70
     0
  9
$ATTREQ
 70
     1
  9
$HANDLING
 70
-16383
  9
$HANDSEED
  5
1FC
  9
$SURFTAB1
 70
     6
  9
$SURFTAB2
 70
     6
  9
$SURFTYPE
 70
     6
  9
$SURFU
 70
     6
  9
$SURFV
 70
     6
  9
$UCSNAME
  2

  9
$UCSORG
 10
0.0
 20
0.0
 30
0.0
  9
$UCSXDIR
 10
1.0
 20
0.0
 30
0.0
  9
$UCSYDIR
 10
0.0
 20
1.0
 30
0.0
  9
$PUCSNAME
  2

  9
$PUCSORG
 10
0.0
 20
0.0
 30
0.0
  9
$PUCSXDIR
 10
1.0
 20
0.0
 30
0.0
  9
$PUCSYDIR
 10
0.0
 20
1.0
 30
0.0
  9
$USERI1
 70
     0
  9
$USERI2
 70
     0
  9
$USERI3
 70
     0
  9
$USERI4
 70
     0
  9
$USERI5
 70
     0
  9
$USERR1
 40
0.0
  9
$USERR2
 40
0.0
  9
$USERR3
 40
0.0
  9
$USERR4
 40
0.0
  9
$USERR5
 40
0.0
  9
$WORLDVIEW
 70
     1
  9
$SHADEDGE
 70
     3
  9
$SHADEDIF
 70
    70
  9
$TILEMODE
 70
     1
  9
$MAXACTVP
 70
    64
  9
$PINSBASE
 10
0.0
 20
0.0
 30
0.0
  9
$PLIMCHECK
 70
     0
  9
$PEXTMIN
 10
1.000000000000000E+20
 20
1.000000000000000E+20
 30
1.000000000000000E+20
  9
$PEXTMAX
 10
-1.000000000000000E+20
 20
-1.000000000000000E+20
 30
-1.000000000000000E+20
  9
$PLIMMIN
 10
0.0
 20
0.0
  9
$PLIMMAX
 10
12.0
 20
9.0
  9
$UNITMODE
 70
     0
  9
$VISRETAIN
 70
     1
  9
$PLINEGEN
 70
     0
  9
$PSLTSCALE
 70
     1
  9
$TREEDEPTH
 70
  3020
  9
$PICKSTYLE
 70
     3
  9
$CMLSTYLE
  2
STANDARD
  9
$CMLJUST
 70
     0
  9
$CMLSCALE
 40
1.0
  9
$SAVEIMAGES
 70
     1
  0
ENDSEC
  0
SECTION
  2
CLASSES
  0
CLASS
  1
ACDBDICTIONARYWDFLT
  2
AcDbDictionaryWithDefault
  3
AutoCAD 2000
 90
    32768
280
     0
281
     0
  0
CLASS
  1
ACDBPLACEHOLDER
  2
AcDbPlaceHolder
  3
AutoCAD 2000
 90
    32768
280
     0
281
     0
  0
CLASS
  1
LAYOUT
  2
AcDbLayout
  3
AutoCAD 2000
 90
    32768
280
     0
281
     0
  0
CLASS
  1
DICTIONARYVAR
  2
AcDbDictionaryVar
  3
AutoCAD 2000
 90
    32768
280
     0
281
     0
  0
CLASS
  1
LONG_TRANSACTION
  2
AcDbLongTransaction
  3
AutoCAD 2000
 90
    32768
280
     0
281
     0
  0
CLASS
  1
LWPOLYLINE
  2
AcDbPolyline
  3
AutoCAD 2000
 90
    32768
280
     0
281
     1
  0
CLASS
  1
HATCH
  2
AcDbHatch
  3
AutoCAD 2000
 90
    32768
280
     0
281
     1
  0
CLASS
  1
XRECORD
  2
AcDbXrecord
  3
AutoCAD 2000
 90
    32768
280
     0
281
     0
  0
CLASS
  1
LONG_TRANSACTION
  2
AcDbLongTransaction
  3
AutoCAD 2000
 90
    32768
280
     0
281
     0
  0
CLASS
  1
LWPOLYLINE
  2
AcDbPolyline
  3
AutoCAD 2000
 90
    32768
280
     0
281
     1
  0
CLASS
  1
HATCH
  2
AcDbHatch
  3
AutoCAD 2000
 90
    32768
280
     0
281
     1
  0
CLASS
  1
XRECORD
  2
AcDbXrecord
  3
AutoCAD 2000
 90
    32768
280
     0
281
     0
  0
ENDSEC
  0
SECTION
  2
TABLES
  0
TABLE
  2
VPORT
  5
8
330
0
100
AcDbSymbolTable
 70
     2
  0
VPORT
  5
1F9
330
8
100
AcDbSymbolTableRecord
100
AcDbViewportTableRecord
  2
*ACTIVE
 70
     0
 10
0.0
 20
0.0
 11
1.0
 21
1.0
 12
143.5036246480927
 22
100.00122118625
 13
0.0
 23
0.0
 14
1.0
 24
1.0
 15
0.0
 25
0.0
 16
0.0
 26
0.0
 36
1.0
 17
0.0
 27
0.0
 37
0.0
 40
199.5156375138256
 41
1.510025062656641
 42
50.0
 43
0.0
 44
0.0
 50
0.0
 51
0.0
 71
     0
 72
   100
 73
     1
 74
     1
 75
     0
 76
     0
 77
     0
 78
     0
  0
ENDTAB
  0
TABLE
  2
LTYPE
  5
5
330
0
100
AcDbSymbolTable
 70
     4
  0
LTYPE
  5
13
330
5
100
AcDbSymbolTableRecord
100
AcDbLinetypeTableRecord
  2
BYBLOCK
 70
     0
  3

 72
    65
 73
     0
 40
0.0
  0
LTYPE
  5
14
330
5
100
AcDbSymbolTableRecord
100
AcDbLinetypeTableRecord
  2
BYLAYER
 70
     0
  3

 72
    65
 73
     0
 40
0.0
  0
LTYPE
  5
15
330
5
100
AcDbSymbolTableRecord
100
AcDbLinetypeTableRecord
  2
CONTINUOUS
 70
     0
  3
Solid line
 72
    65
 73
     0
 40
0.0
  0
LTYPE
  5
23
330
5
100
AcDbSymbolTableRecord
100
AcDbLinetypeTableRecord
  2
DASHED
 70
     0
  3
__ __ __ __ __ __ __ __ __ __ __ __ __ __ __
 72
    65
 73
     2
 40
0.75
 49
0.5
 74
     0
 49
-0.25
 74
     0
  0
LTYPE
  5
25
330
5
100
AcDbSymbolTableRecord
100
AcDbLinetypeTableRecord
  2
DOT
 70
     0
  3
...............................................
 72
    65
 73
     2
 40
0.25
 49
0.0
 74
     0
 49
-0.25
 74
     0
  0
LTYPE
  5
28
330
5
100
AcDbSymbolTableRecord
100
AcDbLinetypeTableRecord
  2
CENTER
 70
     0
  3
____ _ ____ _ ____ _ ____ _ ____ _ ____ _ ____ 
 72
    65
 73
     4
 40
2.0
 49
1.25
 74
     0
 49
-0.25
 74
     0
 49
0.25
 74
     0
 49
-0.25
 74
     0
  0
ENDTAB
  0
TABLE
  2
LAYER
  5
2
330
0
100
AcDbSymbolTable
 70
     3
  0
LAYER
  5
10
330
2
100
AcDbSymbolTableRecord
100
AcDbLayerTableRecord
  2
0
 70
     0
 62
     7
  6
CONTINUOUS
  0
LAYER
  5
22
330
2
100
AcDbSymbolTableRecord
100
AcDbLayerTableRecord
  2
CSLAYER1
 70
     0
 62
     7
  6
CONTINUOUS
  0
LAYER
  5
1D2
330
2
100
AcDbSymbolTableRecord
100
AcDbLayerTableRecord
  2
DEFPOINTS
 70
     0
 62
     7
  6
CONTINUOUS
  0
ENDTAB
  0
TABLE
  2
STYLE
  5
3
330
0
100
AcDbSymbolTable
 70
     3
  0
STYLE
  5
11
330
3
100
AcDbSymbolTableRecord
100
AcDbTextStyleTableRecord
  2
STANDARD
 70
     0
 40
0.0
 41
1.0
 50
0.0
 71
     0
 42
0.2
  3
txt
  4
extfont.shx
  0
STYLE
  5
3A
330
3
100
AcDbSymbolTableRecord
100
AcDbTextStyleTableRecord
  2
FX_FONT
 70
     0
 40
1.0
 41
1.0
 50
0.0
 71
     0
 42
1.0
  3
monotxt
  4
bigfont
  0
STYLE
  5
1CA
330
3
100
AcDbSymbolTableRecord
100
AcDbTextStyleTableRecord
  2
GOTHIC
 70
     0
 40
0.0
 41
1.0
 50
0.0
 71
     0
 42
0.2
  3
txt.shx
  4
extfont.shx
  0
ENDTAB
  0
TABLE
  2
VIEW
  5
6
330
0
100
AcDbSymbolTable
 70
     0
  0
ENDTAB
  0
TABLE
  2
UCS
  5
7
330
0
100
AcDbSymbolTable
 70
     0
  0
ENDTAB
  0
TABLE
  2
APPID
  5
9
330
0
100
AcDbSymbolTable
 70
     1
  0
APPID
  5
12
330
9
100
AcDbSymbolTableRecord
100
AcDbRegAppTableRecord
  2
ACAD
 70
     0
  0
ENDTAB
  0
TABLE
  2
DIMSTYLE
  5
A
330
0
100
AcDbSymbolTable
 70
     1
  0
DIMSTYLE
105
1C7
330
A
100
AcDbSymbolTableRecord
100
AcDbDimStyleTableRecord
  2
STANDARD
 70
     0
  3

  4

  5

  6

  7

 40
1.0
 41
0.18
 42
0.0625
 43
0.38
 44
0.18
 45
0.0
 46
0.0
 47
0.0
 48
0.0
140
0.18
141
0.09
142
0.0
143
25.4
144
1.0
145
0.0
146
1.0
147
0.09
 71
     0
 72
     0
 73
     1
 74
     1
 75
     0
 76
     0
 77
     0
 78
     0
170
     0
171
     2
172
     0
173
     0
174
     0
175
     0
176
     0
177
     0
178
     0
270
     2
271
     4
272
     4
273
     2
274
     2
340
11
275
     0
280
     0
281
     0
282
     0
283
     1
284
     0
285
     0
286
     0
287
     3
288
     0
  0
ENDTAB
  0
TABLE
  2
BLOCK_RECORD
  5
1
330
0
100
AcDbSymbolTable
 70
    20
  0
BLOCK_RECORD
  5
1E
102
{ACAD_XDICTIONARY
360
1D0
102
}
330
1
100
AcDbSymbolTableRecord
100
AcDbBlockTableRecord
  2
*MODEL_SPACE
  0
BLOCK_RECORD
  5
1A
102
{ACAD_XDICTIONARY
360
1CE
102
}
330
1
100
AcDbSymbolTableRecord
100
AcDbBlockTableRecord
  2
*PAPER_SPACE
  0
BLOCK_RECORD
  5
3F
330
1
100
AcDbSymbolTableRecord
100
AcDbBlockTableRecord
  2
FXDIM0000
  0
BLOCK_RECORD
  5
47
330
1
100
AcDbSymbolTableRecord
100
AcDbBlockTableRecord
  2
FXDIM0001
  0
BLOCK_RECORD
  5
51
330
1
100
AcDbSymbolTableRecord
100
AcDbBlockTableRecord
  2
FXDIM0002
  0
BLOCK_RECORD
  5
5B
330
1
100
AcDbSymbolTableRecord
100
AcDbBlockTableRecord
  2
*D3
  0
BLOCK_RECORD
  5
65
330
1
100
AcDbSymbolTableRecord
100
AcDbBlockTableRecord
  2
*D4
  0
BLOCK_RECORD
  5
6C
330
1
100
AcDbSymbolTableRecord
100
AcDbBlockTableRecord
  2
*D5
  0
BLOCK_RECORD
  5
73
330
1
100
AcDbSymbolTableRecord
100
AcDbBlockTableRecord
  2
*D6
  0
BLOCK_RECORD
  5
7E
330
1
100
AcDbSymbolTableRecord
100
AcDbBlockTableRecord
  2
*D7
  0
BLOCK_RECORD
  5
8B
330
1
100
AcDbSymbolTableRecord
100
AcDbBlockTableRecord
  2
*D8
  0
BLOCK_RECORD
  5
96
330
1
100
AcDbSymbolTableRecord
100
AcDbBlockTableRecord
  2
*D9
  0
BLOCK_RECORD
  5
A1
330
1
100
AcDbSymbolTableRecord
100
AcDbBlockTableRecord
  2
*D10
  0
BLOCK_RECORD
  5
AC
330
1
100
AcDbSymbolTableRecord
100
AcDbBlockTableRecord
  2
*D11
  0
BLOCK_RECORD
  5
B7
330
1
100
AcDbSymbolTableRecord
100
AcDbBlockTableRecord
  2
*D12
  0
BLOCK_RECORD
  5
BE
330
1
100
AcDbSymbolTableRecord
100
AcDbBlockTableRecord
  2
*D13
  0
BLOCK_RECORD
  5
C9
330
1
100
AcDbSymbolTableRecord
100
AcDbBlockTableRecord
  2
*D14
  0
BLOCK_RECORD
  5
D6
330
1
100
AcDbSymbolTableRecord
100
AcDbBlockTableRecord
  2
BLKF0000
  0
BLOCK_RECORD
  5
F9
330
1
100
AcDbSymbolTableRecord
100
AcDbBlockTableRecord
  2
BLKF0001
  0
BLOCK_RECORD
  5
10C
330
1
100
AcDbSymbolTableRecord
100
AcDbBlockTableRecord
  2
BLKF0002
  0
BLOCK_RECORD
  5
1D3
330
1
100
AcDbSymbolTableRecord
100
AcDbBlockTableRecord
  2
*D18
  0
BLOCK_RECORD
  5
1E1
330
1
100
AcDbSymbolTableRecord
100
AcDbBlockTableRecord
  2
*D19
  0
ENDTAB
  0
ENDSEC
  0
SECTION
  2
BLOCKS
  0
BLOCK
  5
1F
330
1E
100
AcDbEntity
  8
0
100
AcDbBlockBegin
  2
*MODEL_SPACE
 70
     0
 10
0.0
 20
0.0
 30
0.0
  3
*MODEL_SPACE
  1

  0
ENDBLK
  5
20
330
1E
100
AcDbEntity
  8
0
100
AcDbBlockEnd
  0
BLOCK
  5
1B
330
1A
100
AcDbEntity
 67
     1
  8
0
100
AcDbBlockBegin
  2
*PAPER_SPACE
 70
     0
 10
0.0
 20
0.0
 30
0.0
  3
*PAPER_SPACE
  1

  0
ENDBLK
  5
1C
330
1A
100
AcDbEntity
 67
     1
  8
0
100
AcDbBlockEnd
  0
BLOCK
  5
40
330
3F
100
AcDbEntity
  8
0
100
AcDbBlockBegin
  2
FXDIM0000
 70
     0
 10
0.0
 20
0.0
 30
0.0
  3
FXDIM0000
  1

  0
LINE
  5
41
330
3F
100
AcDbEntity
  8
CSLAYER1
  6
CONTINUOUS
 62
     4
100
AcDbLine
 10
173.2551759999999
 20
121.896672
 30
0.0
 11
166.3760729999999
 21
96.223512
 31
0.0
  0
LINE
  5
42
330
3F
100
AcDbEntity
  8
CSLAYER1
  6
CONTINUOUS
 62
     4
100
AcDbLine
 10
173.2551759999999
 20
121.896672
 30
0.0
 11
173.2551759999999
 21
118.896672
 31
0.0
  0
LINE
  5
43
330
3F
100
AcDbEntity
  8
CSLAYER1
  6
CONTINUOUS
 62
     4
100
AcDbLine
 10
173.2551759999999
 20
121.896672
 30
0.0
 11
171.755176
 21
119.2985959999999
 31
0.0
  0
LINE
  5
44
330
3F
100
AcDbEntity
  8
CSLAYER1
  6
CONTINUOUS
 62
     4
100
AcDbLine
 10
166.3760729999999
 20
96.223512
 30
0.0
 11
152.376073
 21
96.223512
 31
0.0
  0
TEXT
  5
45
330
3F
100
AcDbEntity
  8
CSLAYER1
 62
     4
100
AcDbText
 10
152.5760679999999
 20
97.223511
 30
0.0
 40
3.2
  1
%%c4.1
 41
1.142857142857143
 51
15.0
  7
FX_FONT
 72
     5
 11
165.3760679999999
 21
97.223511
 31
0.0
100
AcDbText
  0
ENDBLK
  5
46
330
3F
100
AcDbEntity
  8
0
100
AcDbBlockEnd
  0
BLOCK
  5
48
330
47
100
AcDbEntity
  8
0
100
AcDbBlockBegin
  2
FXDIM0001
 70
     0
 10
0.0
 20
0.0
 30
0.0
  3
FXDIM0001
  1

  0
LINE
  5
49
330
47
100
AcDbEntity
  8
CSLAYER1
  6
CONTINUOUS
 62
     4
100
AcDbLine
 10
183.155026
 20
73.22351199999999
 30
0.0
 11
184.6550259999999
 21
75.82158800000001
 31
0.0
  0
LINE
  5
4A
330
47
100
AcDbEntity
  8
CSLAYER1
  6
CONTINUOUS
 62
     4
100
AcDbLine
 10
181.6550259999999
 20
75.82158800000001
 30
0.0
 11
190.6550259999999
 21
75.82158800000001
 31
0.0
  0
LINE
  5
4B
330
47
100
AcDbEntity
  8
CSLAYER1
  6
CONTINUOUS
 62
     4
100
AcDbLine
 10
181.6550259999999
 20
75.82158800000001
 30
0.0
 11
183.155026
 21
73.22351199999999
 31
0.0
  0
LINE
  5
4C
330
47
100
AcDbEntity
  8
CSLAYER1
  6
CONTINUOUS
 62
     4
100
AcDbLine
 10
186.1550259999999
 20
73.22351199999999
 30
0.0
 11
187.6550259999999
 21
75.82158800000001
 31
0.0
  0
LINE
  5
4D
330
47
100
AcDbEntity
  8
CSLAYER1
  6
CONTINUOUS
 62
     4
100
AcDbLine
 10
184.6550259999999
 20
75.82158800000001
 30
0.0
 11
186.1550259999999
 21
73.22351199999999
 31
0.0
  0
LINE
  5
4E
330
47
100
AcDbEntity
  8
CSLAYER1
  6
CONTINUOUS
 62
     4
100
AcDbLine
 10
189.1550259999999
 20
73.22351199999999
 30
0.0
 11
190.6550259999999
 21
75.82158800000001
 31
0.0
  0
LINE
  5
4F
330
47
100
AcDbEntity
  8
CSLAYER1
  6
CONTINUOUS
 62
     4
100
AcDbLine
 10
187.6550259999999
 20
75.82158800000001
 30
0.0
 11
189.1550259999999
 21
73.22351199999999
 31
0.0
  0
ENDBLK
  5
50
330
47
100
AcDbEntity
  8
0
100
AcDbBlockEnd
  0
BLOCK
  5
52
330
51
100
AcDbEntity
  8
0
100
AcDbBlockBegin
  2
FXDIM0002
 70
     0
 10
0.0
 20
0.0
 30
0.0
  3
FXDIM0002
  1

  0
LINE
  5
53
330
51
100
AcDbEntity
  8
CSLAYER1
  6
CONTINUOUS
 62
     4
100
AcDbLine
 10
184.355026
 20
61.223512
 30
0.0
 11
182.855026
 21
58.625435
 31
0.0
  0
LINE
  5
54
330
51
100
AcDbEntity
  8
CSLAYER1
  6
CONTINUOUS
 62
     4
100
AcDbLine
 10
182.855026
 20
58.625435
 30
0.0
 11
191.855026
 21
58.625435
 31
0.0
  0
LINE
  5
55
330
51
100
AcDbEntity
  8
CSLAYER1
  6
CONTINUOUS
 62
     4
100
AcDbLine
 10
185.855026
 20
58.625435
 30
0.0
 11
184.355026
 21
61.223512
 31
0.0
  0
LINE
  5
56
330
51
100
AcDbEntity
  8
CSLAYER1
  6
CONTINUOUS
 62
     4
100
AcDbLine
 10
187.355026
 20
61.223512
 30
0.0
 11
185.855026
 21
58.625435
 31
0.0
  0
LINE
  5
57
330
51
100
AcDbEntity
  8
CSLAYER1
  6
CONTINUOUS
 62
     4
100
AcDbLine
 10
188.855026
 20
58.625435
 30
0.0
 11
187.355026
 21
61.223512
 31
0.0
  0
LINE
  5
58
330
51
100
AcDbEntity
  8
CSLAYER1
  6
CONTINUOUS
 62
     4
100
AcDbLine
 10
190.355026
 20
61.223512
 30
0.0
 11
188.855026
 21
58.625435
 31
0.0
  0
LINE
  5
59
330
51
100
AcDbEntity
  8
CSLAYER1
  6
CONTINUOUS
 62
     4
100
AcDbLine
 10
191.855026
 20
58.625435
 30
0.0
 11
190.355026
 21
61.223512
 31
0.0
  0
ENDBLK
  5
5A
330
51
100
AcDbEntity
  8
0
100
AcDbBlockEnd
  0
BLOCK
  5
5C
330
5B
100
AcDbEntity
  8
0
100
AcDbBlockBegin
  2
*D3
 70
     1
 10
0.0
 20
0.0
 30
0.0
  3
*D3
  1

  0
TEXT
  5
5D
330
5B
100
AcDbEntity
  8
CSLAYER1
 62
     4
100
AcDbText
 10
78.888818
 20
145.2118199999999
 30
0.0
 40
3.2
  1
35%%d
 50
342.5000043331512
 41
1.285714293367145
 51
15.0
  7
FX_FONT
 72
     5
 11
88.044501
 21
142.3250449999999
 31
0.0
100
AcDbText
  0
ARC
  5
5E
330
5B
100
AcDbEntity
  8
CSLAYER1
  6
CONTINUOUS
 62
     4
100
AcDbCircle
 10
77.17806
 20
123.823512
 30
0.0
 40
19.91281899999998
100
AcDbArc
 50
55.0
 51
90.0
  0
LINE
  5
5F
330
5B
100
AcDbEntity
  8
CSLAYER1
  6
CONTINUOUS
 62
     4
100
AcDbLine
 10
88.599584
 20
140.1351379999999
 30
0.0
 11
85.780506
 21
141.1611979999999
 31
0.0
  0
LINE
  5
60
330
5B
100
AcDbEntity
  8
CSLAYER1
  6
CONTINUOUS
 62
     4
100
AcDbLine
 10
88.599584
 20
140.1351379999999
 30
0.0
 11
86.671221
 21
142.4332709999999
 31
0.0
  0
LINE
  5
61
330
5B
100
AcDbEntity
  8
CSLAYER1
  6
CONTINUOUS
 62
     4
100
AcDbLine
 10
77.17806
 20
143.73633
 30
0.0
 11
80.075838
 21
144.512787
 31
0.0
  0
LINE
  5
62
330
5B
100
AcDbEntity
  8
CSLAYER1
  6
CONTINUOUS
 62
     4
100
AcDbLine
 10
77.17806
 20
143.73633
 30
0.0
 11
80.075838
 21
142.9598729999999
 31
0.0
  0
LINE
  5
63
330
5B
100
AcDbEntity
  8
CSLAYER1
  6
CONTINUOUS
 62
     4
100
AcDbLine
 10
78.883043
 20
126.25848
 30
0.0
 11
89.17315999999997
 21
140.9542899999999
 31
0.0
  0
ENDBLK
  5
64
330
5B
100
AcDbEntity
  8
0
100
AcDbBlockEnd
  0
BLOCK
  5
66
330
65
100
AcDbEntity
  8
0
100
AcDbBlockBegin
  2
*D4
 70
     1
 10
0.0
 20
0.0
 30
0.0
  3
*D4
  1

  0
TEXT
  5
67
330
65
100
AcDbEntity
  8
CSLAYER1
 62
     4
100
AcDbText
 10
82.084799
 20
129.195121
 30
0.0
 40
3.2
  1
R10
 50
325.6732071250053
 41
1.125000002121177
 51
15.0
  7
FX_FONT
 72
     5
 11
90.01281199999999
 21
123.7815629999999
 31
0.0
100
AcDbText
  0
LINE
  5
68
330
65
100
AcDbEntity
  8
CSLAYER1
  6
CONTINUOUS
 62
     4
100
AcDbLine
 10
79.919713
 20
129.462634
 30
0.0
 11
88.17806
 21
123.823512
 31
0.0
  0
LINE
  5
69
330
65
100
AcDbEntity
  8
CSLAYER1
  6
CONTINUOUS
 62
     4
100
AcDbLine
 10
79.919713
 20
129.462634
 30
0.0
 11
82.750652
 21
128.4697669999999
 31
0.0
  0
LINE
  5
6A
330
65
100
AcDbEntity
  8
CSLAYER1
  6
CONTINUOUS
 62
     4
100
AcDbLine
 10
79.919713
 20
129.462634
 30
0.0
 11
81.87494499999997
 21
127.1873169999998
 31
0.0
  0
ENDBLK
  5
6B
330
65
100
AcDbEntity
  8
0
100
AcDbBlockEnd
  0
BLOCK
  5
6D
330
6C
100
AcDbEntity
  8
0
100
AcDbBlockBegin
  2
*D5
 70
     1
 10
0.0
 20
0.0
 30
0.0
  3
*D5
  1

  0
TEXT
  5
6E
330
6C
100
AcDbEntity
  8
CSLAYER1
 62
     4
100
AcDbText
 10
82.878793
 20
116.0593409999999
 30
0.0
 40
3.2
  1
R75
 50
7.214335340454698
 41
1.125000024162133
 51
15.0
  7
FX_FONT
 72
     5
 11
92.402793
 21
117.2649229999999
 31
0.0
100
AcDbText
  0
LINE
  5
6F
330
6C
100
AcDbEntity
  8
CSLAYER1
  6
CONTINUOUS
 62
     4
100
AcDbLine
 10
77.771812
 20
114.404901
 30
0.0
 11
97.76094399999999
 21
116.935198
 31
0.0
  0
LINE
  5
70
330
6C
100
AcDbEntity
  8
CSLAYER1
  6
CONTINUOUS
 62
     4
100
AcDbLine
 10
77.771812
 20
114.404901
 30
0.0
 11
80.54914000000001
 21
115.539119
 31
0.0
  0
LINE
  5
71
330
6C
100
AcDbEntity
  8
CSLAYER1
  6
CONTINUOUS
 62
     4
100
AcDbLine
 10
77.771812
 20
114.404901
 30
0.0
 11
80.74415700000001
 21
113.9984979999999
 31
0.0
  0
ENDBLK
  5
72
330
6C
100
AcDbEntity
  8
0
100
AcDbBlockEnd
  0
BLOCK
  5
74
330
73
100
AcDbEntity
  8
0
100
AcDbBlockBegin
  2
*D6
 70
     1
 10
0.0
 20
0.0
 30
0.0
  3
*D6
  1

  0
TEXT
  5
75
330
73
100
AcDbEntity
  8
CSLAYER1
 62
     4
100
AcDbText
 10
130.7805529999999
 20
47.09662999999999
 30
0.0
 40
3.2
  1
切刃部有効16
 50
345.0000018329881
 41
0.9130434911589887
 51
15.0
  7
FX_FONT
 72
     5
 11
152.4172919999999
 21
41.299084
 31
0.0
100
AcDbText
  0
LINE
  5
76
330
73
100
AcDbEntity
  8
CSLAYER1
  6
CONTINUOUS
 62
     4
100
AcDbLine
 10
134.7588129999999
 20
50.922016
 30
0.0
 11
150.213626
 21
46.78091099999998
 31
0.0
  0
LINE
  5
77
330
73
100
AcDbEntity
  8
CSLAYER1
  6
CONTINUOUS
 62
     4
100
AcDbLine
 10
134.7588129999999
 20
50.922016
 30
0.0
 11
137.7588129999999
 21
50.922016
 31
0.0
  0
LINE
  5
78
330
73
100
AcDbEntity
  8
CSLAYER1
  6
CONTINUOUS
 62
     4
100
AcDbLine
 10
134.7588129999999
 20
50.922016
 30
0.0
 11
137.356889
 21
49.422016
 31
0.0
  0
LINE
  5
79
330
73
100
AcDbEntity
  8
CSLAYER1
  6
CONTINUOUS
 62
     4
100
AcDbLine
 10
150.213626
 20
46.78091099999998
 30
0.0
 11
147.213626
 21
46.78091099999998
 31
0.0
  0
LINE
  5
7A
330
73
100
AcDbEntity
  8
CSLAYER1
  6
CONTINUOUS
 62
     4
100
AcDbLine
 10
150.213626
 20
46.78091099999998
 30
0.0
 11
147.61555
 21
48.28091099999999
 31
0.0
  0
LINE
  5
7B
330
73
100
AcDbEntity
  8
CSLAYER1
  6
CONTINUOUS
 62
     4
100
AcDbLine
 10
138.696206
 20
65.61657
 30
0.0
 11
134.4999939999999
 21
49.95609
 31
0.0
  0
LINE
  5
7C
330
73
100
AcDbEntity
  8
CSLAYER1
  6
CONTINUOUS
 62
     4
100
AcDbLine
 10
154.1510199999999
 20
61.475465
 30
0.0
 11
149.954807
 21
45.81498599999998
 31
0.0
  0
ENDBLK
  5
7D
330
73
100
AcDbEntity
  8
0
100
AcDbBlockEnd
  0
BLOCK
  5
7F
330
7E
100
AcDbEntity
  8
0
100
AcDbBlockBegin
  2
*D7
 70
     1
 10
0.0
 20
0.0
 30
0.0
  3
*D7
  1

  0
TEXT
  5
80
330
7E
100
AcDbEntity
  8
CSLAYER1
 62
     4
100
AcDbText
 10
128.4779359999999
 20
63.90693800000001
 30
0.0
 40
3.2
  1
12  
 50
90.0
 41
1.249999999999996
 51
15.0
  7
FX_FONT
 72
     5
 11
128.4779359999999
 21
76.70693799999998
 31
0.0
100
AcDbText
  0
TEXT
  5
81
330
7E
100
AcDbEntity
  8
CSLAYER1
 62
     4
100
AcDbText
 10
126.877936
 20
76.70693799999998
 30
0.0
 40
1.6
  1
  0
 50
90.0
 41
1.607142857142865
 51
15.0
  7
FX_FONT
 72
     5
 11
126.877936
 21
81.506938
 31
0.0
100
AcDbText
  0
TEXT
  5
82
330
7E
100
AcDbEntity
  8
CSLAYER1
 62
     4
100
AcDbText
 10
128.4779359999999
 20
76.70693799999998
 30
0.0
 40
1.6
  1
-0.15
 50
90.0
 41
1.071428571428571
 51
15.0
  7
FX_FONT
 72
     5
 11
128.4779359999999
 21
84.70693799999997
 31
0.0
100
AcDbText
  0
LINE
  5
83
330
7E
100
AcDbEntity
  8
CSLAYER1
  6
CONTINUOUS
 62
     4
100
AcDbLine
 10
129.4779389999999
 20
61.223512
 30
0.0
 11
129.4779389999999
 21
73.22351199999999
 31
0.0
  0
LINE
  5
84
330
7E
100
AcDbEntity
  8
CSLAYER1
  6
CONTINUOUS
 62
     4
100
AcDbLine
 10
129.4779389999999
 20
61.223512
 30
0.0
 11
128.701482
 21
64.121289
 31
0.0
  0
LINE
  5
85
330
7E
100
AcDbEntity
  8
CSLAYER1
  6
CONTINUOUS
 62
     4
100
AcDbLine
 10
129.4779389999999
 20
61.223512
 30
0.0
 11
130.2543959999999
 21
64.121289
 31
0.0
  0
LINE
  5
86
330
7E
100
AcDbEntity
  8
CSLAYER1
  6
CONTINUOUS
 62
     4
100
AcDbLine
 10
129.4779389999999
 20
73.22351199999999
 30
0.0
 11
128.701482
 21
70.325734
 31
0.0
  0
LINE
  5
87
330
7E
100
AcDbEntity
  8
CSLAYER1
  6
CONTINUOUS
 62
     4
100
AcDbLine
 10
129.4779389999999
 20
73.22351199999999
 30
0.0
 11
130.2543959999999
 21
70.325734
 31
0.0
  0
LINE
  5
88
330
7E
100
AcDbEntity
  8
CSLAYER1
  6
CONTINUOUS
 62
     4
100
AcDbLine
 10
157.9550259999999
 20
61.223512
 30
0.0
 11
128.4779389999999
 21
61.223512
 31
0.0
  0
LINE
  5
89
330
7E
100
AcDbEntity
  8
CSLAYER1
  6
CONTINUOUS
 62
     4
100
AcDbLine
 10
157.9550259999999
 20
73.22351199999999
 30
0.0
 11
128.4779389999999
 21
73.22351199999999
 31
0.0
  0
ENDBLK
  5
8A
330
7E
100
AcDbEntity
  8
0
100
AcDbBlockEnd
  0
BLOCK
  5
8C
330
8B
100
AcDbEntity
  8
0
100
AcDbBlockBegin
  2
*D8
 70
     1
 10
0.0
 20
0.0
 30
0.0
  3
*D8
  1

  0
TEXT
  5
8D
330
8B
100
AcDbEntity
  8
CSLAYER1
 62
     4
100
AcDbText
 10
163.2550169999998
 20
47.052387
 30
0.0
 40
3.2
  1
15
 41
1.200000000000001
 51
15.0
  7
FX_FONT
 72
     5
 11
169.6550169999999
 21
47.052387
 31
0.0
100
AcDbText
  0
LINE
  5
8E
330
8B
100
AcDbEntity
  8
CSLAYER1
  6
CONTINUOUS
 62
     4
100
AcDbLine
 10
158.955026
 20
46.052388
 30
0.0
 11
173.955026
 21
46.052388
 31
0.0
  0
LINE
  5
8F
330
8B
100
AcDbEntity
  8
CSLAYER1
  6
CONTINUOUS
 62
     4
100
AcDbLine
 10
158.955026
 20
46.052388
 30
0.0
 11
161.852803
 21
46.828845
 31
0.0
  0
LINE
  5
90
330
8B
100
AcDbEntity
  8
CSLAYER1
  6
CONTINUOUS
 62
     4
100
AcDbLine
 10
158.955026
 20
46.052388
 30
0.0
 11
161.852803
 21
45.27593099999999
 31
0.0
  0
LINE
  5
91
330
8B
100
AcDbEntity
  8
CSLAYER1
  6
CONTINUOUS
 62
     4
100
AcDbLine
 10
173.955026
 20
46.052388
 30
0.0
 11
171.0572479999999
 21
46.828845
 31
0.0
  0
LINE
  5
92
330
8B
100
AcDbEntity
  8
CSLAYER1
  6
CONTINUOUS
 62
     4
100
AcDbLine
 10
173.955026
 20
46.052388
 30
0.0
 11
171.0572479999999
 21
45.27593099999999
 31
0.0
  0
LINE
  5
93
330
8B
100
AcDbEntity
  8
CSLAYER1
  6
CONTINUOUS
 62
     4
100
AcDbLine
 10
158.955026
 20
60.223512
 30
0.0
 11
158.955026
 21
45.05238799999999
 31
0.0
  0
LINE
  5
94
330
8B
100
AcDbEntity
  8
CSLAYER1
  6
CONTINUOUS
 62
     4
100
AcDbLine
 10
173.955026
 20
56.68831199999999
 30
0.0
 11
173.955026
 21
45.05238799999999
 31
0.0
  0
ENDBLK
  5
95
330
8B
100
AcDbEntity
  8
0
100
AcDbBlockEnd
  0
BLOCK
  5
97
330
96
100
AcDbEntity
  8
0
100
AcDbBlockBegin
  2
*D9
 70
     1
 10
0.0
 20
0.0
 30
0.0
  3
*D9
  1

  0
TEXT
  5
98
330
96
100
AcDbEntity
  8
CSLAYER1
 62
     4
100
AcDbText
 10
163.2550169999998
 20
85.248299
 30
0.0
 40
3.2
  1
15
 41
1.200000000000001
 51
15.0
  7
FX_FONT
 72
     5
 11
169.6550169999999
 21
85.248299
 31
0.0
100
AcDbText
  0
LINE
  5
99
330
96
100
AcDbEntity
  8
CSLAYER1
  6
CONTINUOUS
 62
     4
100
AcDbLine
 10
158.955026
 20
84.24829499999999
 30
0.0
 11
173.955026
 21
84.24829499999999
 31
0.0
  0
LINE
  5
9A
330
96
100
AcDbEntity
  8
CSLAYER1
  6
CONTINUOUS
 62
     4
100
AcDbLine
 10
158.955026
 20
84.24829499999999
 30
0.0
 11
161.852803
 21
85.024753
 31
0.0
  0
LINE
  5
9B
330
96
100
AcDbEntity
  8
CSLAYER1
  6
CONTINUOUS
 62
     4
100
AcDbLine
 10
158.955026
 20
84.24829499999999
 30
0.0
 11
161.852803
 21
83.47183800000001
 31
0.0
  0
LINE
  5
9C
330
96
100
AcDbEntity
  8
CSLAYER1
  6
CONTINUOUS
 62
     4
100
AcDbLine
 10
173.955026
 20
84.24829499999999
 30
0.0
 11
171.0572479999999
 21
85.024753
 31
0.0
  0
LINE
  5
9D
330
96
100
AcDbEntity
  8
CSLAYER1
  6
CONTINUOUS
 62
     4
100
AcDbLine
 10
173.955026
 20
84.24829499999999
 30
0.0
 11
171.0572479999999
 21
83.47183800000001
 31
0.0
  0
LINE
  5
9E
330
96
100
AcDbEntity
  8
CSLAYER1
  6
CONTINUOUS
 62
     4
100
AcDbLine
 10
158.955026
 20
74.223512
 30
0.0
 11
158.955026
 21
85.248295
 31
0.0
  0
LINE
  5
9F
330
96
100
AcDbEntity
  8
CSLAYER1
  6
CONTINUOUS
 62
     4
100
AcDbLine
 10
173.955026
 20
77.885257
 30
0.0
 11
173.955026
 21
85.248295
 31
0.0
  0
ENDBLK
  5
A0
330
96
100
AcDbEntity
  8
0
100
AcDbBlockEnd
  0
BLOCK
  5
A2
330
A1
100
AcDbEntity
  8
0
100
AcDbBlockBegin
  2
*D10
 70
     1
 10
0.0
 20
0.0
 30
0.0
  3
*D10
  1

  0
TEXT
  5
A3
330
A1
100
AcDbEntity
  8
CSLAYER1
 62
     4
100
AcDbText
 10
142.9232639999999
 20
51.71507899999999
 30
0.0
 40
3.2
  1
15%%d
 50
82.50000289273456
 41
1.285714321855763
 51
15.0
  7
FX_FONT
 72
     5
 11
144.1763149999998
 21
61.23295
 31
0.0
100
AcDbText
  0
ARC
  5
A4
330
A1
100
AcDbEntity
  8
CSLAYER1
  6
CONTINUOUS
 62
     4
100
AcDbCircle
 10
158.955026
 20
61.223512
 30
0.0
 40
14.052639
100
AcDbArc
 50
165.0
 51
180.0
  0
ARC
  5
A5
330
A1
100
AcDbEntity
  8
CSLAYER1
  6
CONTINUOUS
 62
     4
100
AcDbCircle
 10
158.955026
 20
61.223512
 30
0.0
 40
14.052639
100
AcDbArc
 50
139.724828
 51
165.0
  0
LINE
  5
A6
330
A1
100
AcDbEntity
  8
CSLAYER1
  6
CONTINUOUS
 62
     4
100
AcDbLine
 10
145.3812179999999
 20
64.860602
 30
0.0
 11
145.3812179999999
 21
67.860602
 31
0.0
  0
LINE
  5
A7
330
A1
100
AcDbEntity
  8
CSLAYER1
  6
CONTINUOUS
 62
     4
100
AcDbLine
 10
145.3812179999999
 20
64.860602
 30
0.0
 11
146.881218
 21
67.458679
 31
0.0
  0
ARC
  5
A8
330
A1
100
AcDbEntity
  8
CSLAYER1
  6
CONTINUOUS
 62
     4
100
AcDbCircle
 10
158.955026
 20
61.223512
 30
0.0
 40
14.052639
100
AcDbArc
 50
180.0
 51
205.2751719999998
  0
LINE
  5
A9
330
A1
100
AcDbEntity
  8
CSLAYER1
  6
CONTINUOUS
 62
     4
100
AcDbLine
 10
144.902386
 20
61.223512
 30
0.0
 11
144.125929
 21
58.325734
 31
0.0
  0
LINE
  5
AA
330
A1
100
AcDbEntity
  8
CSLAYER1
  6
CONTINUOUS
 62
     4
100
AcDbLine
 10
144.902386
 20
61.223512
 30
0.0
 11
145.678843
 21
58.325734
 31
0.0
  0
ENDBLK
  5
AB
330
A1
100
AcDbEntity
  8
0
100
AcDbBlockEnd
  0
BLOCK
  5
AD
330
AC
100
AcDbEntity
  8
0
100
AcDbBlockBegin
  2
*D11
 70
     1
 10
0.0
 20
0.0
 30
0.0
  3
*D11
  1

  0
TEXT
  5
AE
330
AC
100
AcDbEntity
  8
CSLAYER1
 62
     4
100
AcDbText
 10
153.2550169999999
 20
152.133087
 30
0.0
 40
3.2
  1
35
 41
1.200000000000001
 51
15.0
  7
FX_FONT
 72
     5
 11
159.6550169999999
 21
152.133087
 31
0.0
100
AcDbText
  0
LINE
  5
AF
330
AC
100
AcDbEntity
  8
CSLAYER1
  6
CONTINUOUS
 62
     4
100
AcDbLine
 10
138.955026
 20
151.1330929999999
 30
0.0
 11
173.955026
 21
151.1330929999999
 31
0.0
  0
LINE
  5
B0
330
AC
100
AcDbEntity
  8
CSLAYER1
  6
CONTINUOUS
 62
     4
100
AcDbLine
 10
138.955026
 20
151.1330929999999
 30
0.0
 11
141.852803
 21
151.9095499999998
 31
0.0
  0
LINE
  5
B1
330
AC
100
AcDbEntity
  8
CSLAYER1
  6
CONTINUOUS
 62
     4
100
AcDbLine
 10
138.955026
 20
151.1330929999999
 30
0.0
 11
141.852803
 21
150.356636
 31
0.0
  0
LINE
  5
B2
330
AC
100
AcDbEntity
  8
CSLAYER1
  6
CONTINUOUS
 62
     4
100
AcDbLine
 10
173.955026
 20
151.1330929999999
 30
0.0
 11
171.0572479999999
 21
151.9095499999998
 31
0.0
  0
LINE
  5
B3
330
AC
100
AcDbEntity
  8
CSLAYER1
  6
CONTINUOUS
 62
     4
100
AcDbLine
 10
173.955026
 20
151.1330929999999
 30
0.0
 11
171.0572479999999
 21
150.356636
 31
0.0
  0
LINE
  5
B4
330
AC
100
AcDbEntity
  8
CSLAYER1
  6
CONTINUOUS
 62
     4
100
AcDbLine
 10
138.955026
 20
124.823512
 30
0.0
 11
138.955026
 21
152.1330929999999
 31
0.0
  0
LINE
  5
B5
330
AC
100
AcDbEntity
  8
CSLAYER1
  6
CONTINUOUS
 62
     4
100
AcDbLine
 10
173.955026
 20
139.3865449999998
 30
0.0
 11
173.955026
 21
152.1330929999999
 31
0.0
  0
ENDBLK
  5
B6
330
AC
100
AcDbEntity
  8
0
100
AcDbBlockEnd
  0
BLOCK
  5
B8
330
B7
100
AcDbEntity
  8
0
100
AcDbBlockBegin
  2
*D12
 70
     1
 10
0.0
 20
0.0
 30
0.0
  3
*D12
  1

  0
TEXT
  5
B9
330
B7
100
AcDbEntity
  8
CSLAYER1
 62
     4
100
AcDbText
 10
143.7248909999999
 20
101.4187519999999
 30
0.0
 40
3.2
  1
R20
 50
66.71632245263848
 41
1.125000043124485
 51
15.0
  7
FX_FONT
 72
     5
 11
147.5196159999998
 21
110.236919
 31
0.0
100
AcDbText
  0
LINE
  5
BA
330
B7
100
AcDbEntity
  8
CSLAYER1
  6
CONTINUOUS
 62
     4
100
AcDbLine
 10
149.1532169999999
 20
113.9523309999999
 30
0.0
 11
157.0588929999999
 21
132.323512
 31
0.0
  0
LINE
  5
BB
330
B7
100
AcDbEntity
  8
CSLAYER1
  6
CONTINUOUS
 62
     4
100
AcDbLine
 10
149.1532169999999
 20
113.9523309999999
 30
0.0
 11
149.5854399999998
 21
116.9210309999999
 31
0.0
  0
LINE
  5
BC
330
B7
100
AcDbEntity
  8
CSLAYER1
  6
CONTINUOUS
 62
     4
100
AcDbLine
 10
149.1532169999999
 20
113.9523309999999
 30
0.0
 11
151.011883
 21
116.3071889999999
 31
0.0
  0
ENDBLK
  5
BD
330
B7
100
AcDbEntity
  8
0
100
AcDbBlockEnd
  0
BLOCK
  5
BF
330
BE
100
AcDbEntity
  8
0
100
AcDbBlockBegin
  2
*D13
 70
     1
 10
0.0
 20
0.0
 30
0.0
  3
*D13
  1

  0
TEXT
  5
C0
330
BE
100
AcDbEntity
  8
CSLAYER1
 62
     4
100
AcDbText
 10
124.957855
 20
112.623509
 30
0.0
 40
3.2
  1
22.5~24
 50
90.0
 41
1.05
 51
15.0
  7
FX_FONT
 72
     5
 11
124.957855
 21
135.023509
 31
0.0
100
AcDbText
  0
LINE
  5
C1
330
BE
100
AcDbEntity
  8
CSLAYER1
  6
CONTINUOUS
 62
     4
100
AcDbLine
 10
125.957851
 20
112.323512
 30
0.0
 11
125.957851
 21
135.323512
 31
0.0
  0
LINE
  5
C2
330
BE
100
AcDbEntity
  8
CSLAYER1
  6
CONTINUOUS
 62
     4
100
AcDbLine
 10
125.957851
 20
112.323512
 30
0.0
 11
125.1813939999999
 21
115.2212889999999
 31
0.0
  0
LINE
  5
C3
330
BE
100
AcDbEntity
  8
CSLAYER1
  6
CONTINUOUS
 62
     4
100
AcDbLine
 10
125.957851
 20
112.323512
 30
0.0
 11
126.734308
 21
115.2212889999999
 31
0.0
  0
LINE
  5
C4
330
BE
100
AcDbEntity
  8
CSLAYER1
  6
CONTINUOUS
 62
     4
100
AcDbLine
 10
125.957851
 20
135.323512
 30
0.0
 11
125.1813939999999
 21
132.425734
 31
0.0
  0
LINE
  5
C5
330
BE
100
AcDbEntity
  8
CSLAYER1
  6
CONTINUOUS
 62
     4
100
AcDbLine
 10
125.957851
 20
135.323512
 30
0.0
 11
126.734308
 21
132.425734
 31
0.0
  0
LINE
  5
C6
330
BE
100
AcDbEntity
  8
CSLAYER1
  6
CONTINUOUS
 62
     4
100
AcDbLine
 10
156.0588929999999
 20
112.323512
 30
0.0
 11
124.957851
 21
112.323512
 31
0.0
  0
LINE
  5
C7
330
BE
100
AcDbEntity
  8
CSLAYER1
  6
CONTINUOUS
 62
     4
100
AcDbLine
 10
156.0588929999999
 20
135.323512
 30
0.0
 11
124.957851
 21
135.323512
 31
0.0
  0
ENDBLK
  5
C8
330
BE
100
AcDbEntity
  8
0
100
AcDbBlockEnd
  0
BLOCK
  5
CA
330
C9
100
AcDbEntity
  8
0
100
AcDbBlockBegin
  2
*D14
 70
     1
 10
0.0
 20
0.0
 30
0.0
  3
*D14
  1

  0
TEXT
  5
CB
330
C9
100
AcDbEntity
  8
CSLAYER1
 62
     4
100
AcDbText
 10
50.509731
 20
63.212363
 30
0.0
 40
3.2
  1
5
 50
90.0
 41
1.499999999999998
 51
15.0
  7
FX_FONT
 72
     5
 11
50.509731
 21
66.412363
 31
0.0
100
AcDbText
  0
LINE
  5
CC
330
C9
100
AcDbEntity
  8
CSLAYER1
  6
CONTINUOUS
 62
     4
100
AcDbLine
 10
51.50973
 20
62.312366
 30
0.0
 11
51.50973
 21
67.31236599999999
 31
0.0
  0
LINE
  5
CD
330
C9
100
AcDbEntity
  8
CSLAYER1
  6
CONTINUOUS
 62
     4
100
AcDbLine
 10
57.708777
 20
62.312366
 30
0.0
 11
50.50972999999999
 21
62.312366
 31
0.0
  0
LINE
  5
CE
330
C9
100
AcDbEntity
  8
CSLAYER1
  6
CONTINUOUS
 62
     4
100
AcDbLine
 10
57.708777
 20
67.31236599999999
 30
0.0
 11
50.50972999999999
 21
67.31236599999999
 31
0.0
  0
LINE
  5
CF
330
C9
100
AcDbEntity
  8
CSLAYER1
  6
CONTINUOUS
 62
     4
100
AcDbLine
 10
51.50973
 20
56.31236600000001
 30
0.0
 11
51.50973
 21
62.312366
 31
0.0
  0
LINE
  5
D0
330
C9
100
AcDbEntity
  8
CSLAYER1
  6
CONTINUOUS
 62
     4
100
AcDbLine
 10
51.50973
 20
62.312366
 30
0.0
 11
50.73327299999998
 21
59.414589
 31
0.0
  0
LINE
  5
D1
330
C9
100
AcDbEntity
  8
CSLAYER1
  6
CONTINUOUS
 62
     4
100
AcDbLine
 10
51.50973
 20
62.312366
 30
0.0
 11
52.286187
 21
59.414589
 31
0.0
  0
LINE
  5
D2
330
C9
100
AcDbEntity
  8
CSLAYER1
  6
CONTINUOUS
 62
     4
100
AcDbLine
 10
51.50973
 20
67.31236599999999
 30
0.0
 11
51.50973
 21
73.312366
 31
0.0
  0
LINE
  5
D3
330
C9
100
AcDbEntity
  8
CSLAYER1
  6
CONTINUOUS
 62
     4
100
AcDbLine
 10
51.50973
 20
67.31236599999999
 30
0.0
 11
50.73327299999998
 21
70.210144
 31
0.0
  0
LINE
  5
D4
330
C9
100
AcDbEntity
  8
CSLAYER1
  6
CONTINUOUS
 62
     4
100
AcDbLine
 10
51.50973
 20
67.31236599999999
 30
0.0
 11
52.286187
 21
70.210144
 31
0.0
  0
ENDBLK
  5
D5
330
C9
100
AcDbEntity
  8
0
100
AcDbBlockEnd
  0
BLOCK
  5
D7
330
D6
100
AcDbEntity
  8
0
100
AcDbBlockBegin
  2
BLKF0000
 70
     0
 10
0.0
 20
0.0
 30
0.0
  3
BLKF0000
  1

  0
LINE
  5
D8
330
D6
100
AcDbEntity
  8
CSLAYER1
  6
CONTINUOUS
 62
     3
100
AcDbLine
 10
157.7071389999999
 20
133.2802969999999
 30
0.0
 11
157.658003
 21
133.220438
 31
0.0
  0
LINE
  5
D9
330
D6
100
AcDbEntity
  8
CSLAYER1
  6
CONTINUOUS
 62
     3
100
AcDbLine
 10
157.658003
 20
133.220438
 30
0.0
 11
157.449399
 21
132.8865899999998
 31
0.0
  0
LINE
  5
DA
330
D6
100
AcDbEntity
  8
CSLAYER1
  6
CONTINUOUS
 62
     3
100
AcDbLine
 10
157.449399
 20
132.8865899999998
 30
0.0
 11
157.249121
 21
132.483766
 31
0.0
  0
LINE
  5
DB
330
D6
100
AcDbEntity
  8
CSLAYER1
  6
CONTINUOUS
 62
     3
100
AcDbLine
 10
157.249121
 20
132.483766
 30
0.0
 11
157.0586909999998
 21
132.015032
 31
0.0
  0
LINE
  5
DC
330
D6
100
AcDbEntity
  8
CSLAYER1
  6
CONTINUOUS
 62
     3
100
AcDbLine
 10
157.0586909999998
 20
132.015032
 30
0.0
 11
156.879559
 21
131.483956
 31
0.0
  0
LINE
  5
DD
330
D6
100
AcDbEntity
  8
CSLAYER1
  6
CONTINUOUS
 62
     3
100
AcDbLine
 10
156.879559
 20
131.483956
 30
0.0
 11
156.713089
 21
130.8945799999999
 31
0.0
  0
LINE
  5
DE
330
D6
100
AcDbEntity
  8
CSLAYER1
  6
CONTINUOUS
 62
     3
100
AcDbLine
 10
156.713089
 20
130.8945799999999
 30
0.0
 11
156.5605469999999
 21
130.251388
 31
0.0
  0
LINE
  5
DF
330
D6
100
AcDbEntity
  8
CSLAYER1
  6
CONTINUOUS
 62
     3
100
AcDbLine
 10
156.5605469999999
 20
130.251388
 30
0.0
 11
156.4230939999999
 21
129.559276
 31
0.0
  0
LINE
  5
E0
330
D6
100
AcDbEntity
  8
CSLAYER1
  6
CONTINUOUS
 62
     3
100
AcDbLine
 10
156.4230939999999
 20
129.559276
 30
0.0
 11
156.301777
 21
128.823512
 31
0.0
  0
LINE
  5
E1
330
D6
100
AcDbEntity
  8
CSLAYER1
  6
CONTINUOUS
 62
     3
100
AcDbLine
 10
156.301777
 20
128.823512
 30
0.0
 11
156.197519
 21
128.0496939999999
 31
0.0
  0
LINE
  5
E2
330
D6
100
AcDbEntity
  8
CSLAYER1
  6
CONTINUOUS
 62
     3
100
AcDbLine
 10
156.197519
 20
128.0496939999999
 30
0.0
 11
156.111112
 21
127.2437129999999
 31
0.0
  0
LINE
  5
E3
330
D6
100
AcDbEntity
  8
CSLAYER1
  6
CONTINUOUS
 62
     3
100
AcDbLine
 10
156.111112
 20
127.2437129999999
 30
0.0
 11
156.0432159999999
 21
126.411702
 31
0.0
  0
LINE
  5
E4
330
D6
100
AcDbEntity
  8
CSLAYER1
  6
CONTINUOUS
 62
     3
100
AcDbLine
 10
156.0432159999999
 20
126.411702
 30
0.0
 11
155.994346
 21
125.559993
 31
0.0
  0
LINE
  5
E5
330
D6
100
AcDbEntity
  8
CSLAYER1
  6
CONTINUOUS
 62
     3
100
AcDbLine
 10
155.994346
 20
125.559993
 30
0.0
 11
155.964874
 21
124.695069
 31
0.0
  0
LINE
  5
E6
330
D6
100
AcDbEntity
  8
CSLAYER1
  6
CONTINUOUS
 62
     3
100
AcDbLine
 10
155.964874
 20
124.695069
 30
0.0
 11
155.957851
 21
124.073512
 31
0.0
  0
LINE
  5
E7
330
D6
100
AcDbEntity
  8
CSLAYER1
  6
CONTINUOUS
 62
     3
100
AcDbLine
 10
155.957851
 20
123.573512
 30
0.0
 11
155.964874
 21
122.951954
 31
0.0
  0
LINE
  5
E8
330
D6
100
AcDbEntity
  8
CSLAYER1
  6
CONTINUOUS
 62
     3
100
AcDbLine
 10
155.964874
 20
122.951954
 30
0.0
 11
155.994346
 21
122.08703
 31
0.0
  0
LINE
  5
E9
330
D6
100
AcDbEntity
  8
CSLAYER1
  6
CONTINUOUS
 62
     3
100
AcDbLine
 10
155.994346
 20
122.08703
 30
0.0
 11
156.0432159999999
 21
121.235321
 31
0.0
  0
LINE
  5
EA
330
D6
100
AcDbEntity
  8
CSLAYER1
  6
CONTINUOUS
 62
     3
100
AcDbLine
 10
156.0432159999999
 20
121.235321
 30
0.0
 11
156.111112
 21
120.4033099999999
 31
0.0
  0
LINE
  5
EB
330
D6
100
AcDbEntity
  8
CSLAYER1
  6
CONTINUOUS
 62
     3
100
AcDbLine
 10
156.111112
 20
120.4033099999999
 30
0.0
 11
156.197519
 21
119.5973289999999
 31
0.0
  0
LINE
  5
EC
330
D6
100
AcDbEntity
  8
CSLAYER1
  6
CONTINUOUS
 62
     3
100
AcDbLine
 10
156.197519
 20
119.5973289999999
 30
0.0
 11
156.301777
 21
118.823512
 31
0.0
  0
LINE
  5
ED
330
D6
100
AcDbEntity
  8
CSLAYER1
  6
CONTINUOUS
 62
     3
100
AcDbLine
 10
156.301777
 20
118.823512
 30
0.0
 11
156.4230939999999
 21
118.0877469999999
 31
0.0
  0
LINE
  5
EE
330
D6
100
AcDbEntity
  8
CSLAYER1
  6
CONTINUOUS
 62
     3
100
AcDbLine
 10
156.4230939999999
 20
118.0877469999999
 30
0.0
 11
156.5605469999999
 21
117.395636
 31
0.0
  0
LINE
  5
EF
330
D6
100
AcDbEntity
  8
CSLAYER1
  6
CONTINUOUS
 62
     3
100
AcDbLine
 10
156.5605469999999
 20
117.395636
 30
0.0
 11
156.713089
 21
116.7524439999999
 31
0.0
  0
LINE
  5
F0
330
D6
100
AcDbEntity
  8
CSLAYER1
  6
CONTINUOUS
 62
     3
100
AcDbLine
 10
156.713089
 20
116.7524439999999
 30
0.0
 11
156.879559
 21
116.163067
 31
0.0
  0
LINE
  5
F1
330
D6
100
AcDbEntity
  8
CSLAYER1
  6
CONTINUOUS
 62
     3
100
AcDbLine
 10
156.879559
 20
116.163067
 30
0.0
 11
157.0586909999998
 21
115.6319909999999
 31
0.0
  0
LINE
  5
F2
330
D6
100
AcDbEntity
  8
CSLAYER1
  6
CONTINUOUS
 62
     3
100
AcDbLine
 10
157.0586909999998
 20
115.6319909999999
 30
0.0
 11
157.249121
 21
115.163258
 31
0.0
  0
LINE
  5
F3
330
D6
100
AcDbEntity
  8
CSLAYER1
  6
CONTINUOUS
 62
     3
100
AcDbLine
 10
157.249121
 20
115.163258
 30
0.0
 11
157.449399
 21
114.760434
 31
0.0
  0
LINE
  5
F4
330
D6
100
AcDbEntity
  8
CSLAYER1
  6
CONTINUOUS
 62
     3
100
AcDbLine
 10
157.449399
 20
114.760434
 30
0.0
 11
157.658003
 21
114.426585
 31
0.0
  0
LINE
  5
F5
330
D6
100
AcDbEntity
  8
CSLAYER1
  6
CONTINUOUS
 62
     3
100
AcDbLine
 10
157.658003
 20
114.426585
 30
0.0
 11
157.7071389999999
 21
114.3667259999999
 31
0.0
  0
ARC
  5
F6
330
D6
100
AcDbEntity
  8
CSLAYER1
  6
CONTINUOUS
 62
     3
100
AcDbCircle
 10
155.472907
 20
124.939328
 30
0.0
 40
0.5
100
AcDbArc
 50
358.0484489999999
 51
90.0
  0
ARC
  5
F7
330
D6
100
AcDbEntity
  8
CSLAYER1
  6
CONTINUOUS
 62
     3
100
AcDbCircle
 10
155.472907
 20
122.7076959999999
 30
0.0
 40
0.5
100
AcDbArc
 50
270.0
 51
1.951550999999999
  0
ENDBLK
  5
F8
330
D6
100
AcDbEntity
  8
0
100
AcDbBlockEnd
  0
BLOCK
  5
FA
330
F9
100
AcDbEntity
  8
0
100
AcDbBlockBegin
  2
BLKF0001
 70
     0
 10
0.0
 20
0.0
 30
0.0
  3
BLKF0001
  1

  0
LINE
  5
FB
330
F9
100
AcDbEntity
  8
CSLAYER1
  6
CONTINUOUS
 62
     3
100
AcDbLine
 10
78.088477
 20
75.40555999999998
 30
0.0
 11
78.03519
 21
75.349363
 31
0.0
  0
LINE
  5
FC
330
F9
100
AcDbEntity
  8
CSLAYER1
  6
CONTINUOUS
 62
     3
100
AcDbLine
 10
78.03519
 20
75.349363
 30
0.0
 11
77.803273
 21
75.03126800000003
 31
0.0
  0
LINE
  5
FD
330
F9
100
AcDbEntity
  8
CSLAYER1
  6
CONTINUOUS
 62
     3
100
AcDbLine
 10
77.803273
 20
75.03126800000003
 30
0.0
 11
77.574733
 21
74.64377900000002
 31
0.0
  0
LINE
  5
FE
330
F9
100
AcDbEntity
  8
CSLAYER1
  6
CONTINUOUS
 62
     3
100
AcDbLine
 10
77.574733
 20
74.64377900000002
 30
0.0
 11
77.351309
 21
74.18984399999998
 31
0.0
  0
LINE
  5
FF
330
F9
100
AcDbEntity
  8
CSLAYER1
  6
CONTINUOUS
 62
     3
100
AcDbLine
 10
77.351309
 20
74.18984399999998
 30
0.0
 11
77.13470100000002
 21
73.67291999999998
 31
0.0
  0
LINE
  5
100
330
F9
100
AcDbEntity
  8
CSLAYER1
  6
CONTINUOUS
 62
     3
100
AcDbLine
 10
77.13470100000002
 20
73.67291999999998
 30
0.0
 11
76.92655699999997
 21
73.09694
 31
0.0
  0
LINE
  5
101
330
F9
100
AcDbEntity
  8
CSLAYER1
  6
CONTINUOUS
 62
     3
100
AcDbLine
 10
76.92655699999997
 20
73.09694
 30
0.0
 11
76.728463
 21
72.46628699999998
 31
0.0
  0
LINE
  5
102
330
F9
100
AcDbEntity
  8
CSLAYER1
  6
CONTINUOUS
 62
     3
100
AcDbLine
 10
76.728463
 20
72.46628699999998
 30
0.0
 11
76.541925
 21
71.78576099999998
 31
0.0
  0
LINE
  5
103
330
F9
100
AcDbEntity
  8
CSLAYER1
  6
CONTINUOUS
 62
     3
100
AcDbLine
 10
76.541925
 20
71.78576099999998
 30
0.0
 11
76.368363
 21
71.060541
 31
0.0
  0
LINE
  5
104
330
F9
100
AcDbEntity
  8
CSLAYER1
  6
CONTINUOUS
 62
     3
100
AcDbLine
 10
76.368363
 20
71.060541
 30
0.0
 11
76.20909799999998
 21
70.29614699999999
 31
0.0
  0
LINE
  5
105
330
F9
100
AcDbEntity
  8
CSLAYER1
  6
CONTINUOUS
 62
     3
100
AcDbLine
 10
76.20909799999998
 20
70.29614699999999
 30
0.0
 11
76.065342
 21
69.498397
 31
0.0
  0
LINE
  5
106
330
F9
100
AcDbEntity
  8
CSLAYER1
  6
CONTINUOUS
 62
     3
100
AcDbLine
 10
76.065342
 20
69.498397
 30
0.0
 11
75.93819
 21
68.673361
 31
0.0
  0
LINE
  5
107
330
F9
100
AcDbEntity
  8
CSLAYER1
  6
CONTINUOUS
 62
     3
100
AcDbLine
 10
75.93819
 20
68.673361
 30
0.0
 11
75.828608
 21
67.827318
 31
0.0
  0
LINE
  5
108
330
F9
100
AcDbEntity
  8
CSLAYER1
  6
CONTINUOUS
 62
     3
100
AcDbLine
 10
75.828608
 20
67.827318
 30
0.0
 11
75.737432
 21
66.96670799999999
 31
0.0
  0
LINE
  5
109
330
F9
100
AcDbEntity
  8
CSLAYER1
  6
CONTINUOUS
 62
     3
100
AcDbLine
 10
75.737432
 20
66.96670799999999
 30
0.0
 11
75.68602900000001
 21
66.34724
 31
0.0
  0
ARC
  5
10A
330
F9
100
AcDbEntity
  8
CSLAYER1
  6
CONTINUOUS
 62
     3
100
AcDbCircle
 10
75.26416800000001
 20
67.24548299999999
 30
0.0
 40
0.5
100
AcDbArc
 50
353.952405
 51
85.903956
  0
ENDBLK
  5
10B
330
F9
100
AcDbEntity
  8
0
100
AcDbBlockEnd
  0
BLOCK
  5
10D
330
10C
100
AcDbEntity
  8
0
100
AcDbBlockBegin
  2
BLKF0002
 70
     0
 10
0.0
 20
0.0
 30
0.0
  3
BLKF0002
  1

  0
LINE
  5
10E
330
10C
100
AcDbEntity
  8
CSLAYER1
  6
CONTINUOUS
 62
     3
100
AcDbLine
 10
78.088477
 20
54.219173
 30
0.0
 11
78.03519
 21
54.27537
 31
0.0
  0
LINE
  5
10F
330
10C
100
AcDbEntity
  8
CSLAYER1
  6
CONTINUOUS
 62
     3
100
AcDbLine
 10
78.03519
 20
54.27537
 30
0.0
 11
77.803273
 21
54.593465
 31
0.0
  0
LINE
  5
110
330
10C
100
AcDbEntity
  8
CSLAYER1
  6
CONTINUOUS
 62
     3
100
AcDbLine
 10
77.803273
 20
54.593465
 30
0.0
 11
77.574733
 21
54.980954
 31
0.0
  0
LINE
  5
111
330
10C
100
AcDbEntity
  8
CSLAYER1
  6
CONTINUOUS
 62
     3
100
AcDbLine
 10
77.574733
 20
54.980954
 30
0.0
 11
77.351309
 21
55.434888
 31
0.0
  0
LINE
  5
112
330
10C
100
AcDbEntity
  8
CSLAYER1
  6
CONTINUOUS
 62
     3
100
AcDbLine
 10
77.351309
 20
55.434888
 30
0.0
 11
77.13470100000002
 21
55.951813
 31
0.0
  0
LINE
  5
113
330
10C
100
AcDbEntity
  8
CSLAYER1
  6
CONTINUOUS
 62
     3
100
AcDbLine
 10
77.13470100000002
 20
55.951813
 30
0.0
 11
76.92655699999997
 21
56.527793
 31
0.0
  0
LINE
  5
114
330
10C
100
AcDbEntity
  8
CSLAYER1
  6
CONTINUOUS
 62
     3
100
AcDbLine
 10
76.92655699999997
 20
56.527793
 30
0.0
 11
76.728463
 21
57.158446
 31
0.0
  0
LINE
  5
115
330
10C
100
AcDbEntity
  8
CSLAYER1
  6
CONTINUOUS
 62
     3
100
AcDbLine
 10
76.728463
 20
57.158446
 30
0.0
 11
76.541925
 21
57.838972
 31
0.0
  0
LINE
  5
116
330
10C
100
AcDbEntity
  8
CSLAYER1
  6
CONTINUOUS
 62
     3
100
AcDbLine
 10
76.541925
 20
57.838972
 30
0.0
 11
76.368363
 21
58.56419200000001
 31
0.0
  0
LINE
  5
117
330
10C
100
AcDbEntity
  8
CSLAYER1
  6
CONTINUOUS
 62
     3
100
AcDbLine
 10
76.368363
 20
58.56419200000001
 30
0.0
 11
76.20909799999998
 21
59.328585
 31
0.0
  0
LINE
  5
118
330
10C
100
AcDbEntity
  8
CSLAYER1
  6
CONTINUOUS
 62
     3
100
AcDbLine
 10
76.20909799999998
 20
59.328585
 30
0.0
 11
76.065342
 21
60.126336
 31
0.0
  0
LINE
  5
119
330
10C
100
AcDbEntity
  8
CSLAYER1
  6
CONTINUOUS
 62
     3
100
AcDbLine
 10
76.065342
 20
60.126336
 30
0.0
 11
75.93819
 21
60.95137199999999
 31
0.0
  0
LINE
  5
11A
330
10C
100
AcDbEntity
  8
CSLAYER1
  6
CONTINUOUS
 62
     3
100
AcDbLine
 10
75.93819
 20
60.95137199999999
 30
0.0
 11
75.828608
 21
61.79741400000001
 31
0.0
  0
LINE
  5
11B
330
10C
100
AcDbEntity
  8
CSLAYER1
  6
CONTINUOUS
 62
     3
100
AcDbLine
 10
75.828608
 20
61.79741400000001
 30
0.0
 11
75.737432
 21
62.658024
 31
0.0
  0
LINE
  5
11C
330
10C
100
AcDbEntity
  8
CSLAYER1
  6
CONTINUOUS
 62
     3
100
AcDbLine
 10
75.737432
 20
62.658024
 30
0.0
 11
75.68602900000001
 21
63.277492
 31
0.0
  0
ARC
  5
11D
330
10C
100
AcDbEntity
  8
CSLAYER1
  6
CONTINUOUS
 62
     3
100
AcDbCircle
 10
75.26416800000001
 20
62.379249
 30
0.0
 40
0.5
100
AcDbArc
 50
274.096044
 51
6.047594999999998
  0
ENDBLK
  5
11E
330
10C
100
AcDbEntity
  8
0
100
AcDbBlockEnd
  0
BLOCK
  5
1DF
330
1D3
100
AcDbEntity
  8
0
100
AcDbBlockBegin
  2
*D18
 70
     1
 10
0.0
 20
0.0
 30
0.0
  3
*D18
  1

  0
LINE
  5
1D4
330
1D3
100
AcDbEntity
  8
CSLAYER1
 62
     0
100
AcDbLine
 10
78.34531553697626
 20
125.4905249959729
 30
0.0
 11
88.70283005425717
 21
140.2825827411122
 31
0.0
  0
ARC
  5
1D5
330
1D3
100
AcDbEntity
  8
CSLAYER1
 62
     0
100
AcDbCircle
 10
77.17806000000002
 20
123.8235119999999
 30
0.0
 40
19.91281798216578
100
AcDbArc
 50
55.51791058274748
 51
71.35590394252862
  0
ARC
  5
1D6
330
1D3
100
AcDbEntity
  8
CSLAYER1
 62
     0
100
AcDbCircle
 10
77.17806000000002
 20
123.8235119999999
 30
0.0
 40
19.91281798216578
100
AcDbArc
 50
73.63692582870857
 51
89.48207855690975
  0
SOLID
  5
1D7
330
1D3
100
AcDbEntity
  8
CSLAYER1
 62
     0
100
AcDbTrace
 10
88.46876984656466
 20
140.2623637855483
 30
0.0
 11
88.43457774192529
 21
140.2130596277081
 31
0.0
 12
88.59958626776551
 22
140.13513539271
 32
0.0
 13
88.59958626776551
 23
140.13513539271
 33
0.0
  0
SOLID
  5
1D8
330
1D3
100
AcDbEntity
  8
CSLAYER1
 62
     0
100
AcDbTrace
 10
77.35792257044213
 20
143.7055167422523
 30
0.0
 11
77.35819375255231
 21
143.765516129418
 31
0.0
 12
77.17806000000004
 22
143.7363299821656
 32
0.0
 13
77.17806000000004
 23
143.7363299821656
 33
0.0
  0
MTEXT
  5
1D9
330
1D3
100
AcDbEntity
  8
CSLAYER1
 62
     0
100
AcDbMText
 10
83.16596165158847
 20
142.8147034792559
 30
0.0
 40
0.18
 41
0.0
 71
     5
 72
     1
  1
\A1;35°
1001
ACAD
1000
MTEXTBEGIN
1070
    73
1070
     1
1070
    44
1040
1.0
1070
    74
1070
     0
1000
MTEXTEND
  0
POINT
  5
1DA
330
1D3
100
AcDbEntity
  8
DEFPOINTS
 62
     0
100
AcDbPoint
 10
85.0651265980634
 20
142.1077812079441
 30
0.0
  0
POINT
  5
1DB
330
1D3
100
AcDbEntity
  8
DEFPOINTS
 62
     0
100
AcDbPoint
 10
77.17806000000002
 20
123.8235119999999
 30
0.0
  0
POINT
  5
1DC
330
1D3
100
AcDbEntity
  8
DEFPOINTS
 62
     0
100
AcDbPoint
 10
77.17806000000002
 20
144.5101989999999
 30
0.0
  0
POINT
  5
1DD
330
1D3
100
AcDbEntity
  8
DEFPOINTS
 62
     0
100
AcDbPoint
 10
77.17806000000002
 20
123.8235119999999
 30
0.0
  0
POINT
  5
1DE
330
1D3
100
AcDbEntity
  8
DEFPOINTS
 62
     0
100
AcDbPoint
 10
78.30946700000001
 20
125.439328
 30
0.0
  0
ENDBLK
  5
1E0
330
1D3
100
AcDbEntity
  8
0
100
AcDbBlockEnd
  0
BLOCK
  5
1EC
330
1E1
100
AcDbEntity
  8
0
100
AcDbBlockBegin
  2
*D19
 70
     1
 10
0.0
 20
0.0
 30
0.0
  3
*D19
  1

  0
ARC
  5
1E2
330
1E1
100
AcDbEntity
  8
CSLAYER1
 62
     0
100
AcDbCircle
 10
158.955026
 20
61.223512
 30
0.0
 40
14.05263921240627
100
AcDbArc
 50
165.733905209958
 51
171.7591151282437
  0
ARC
  5
1E3
330
1E1
100
AcDbEntity
  8
CSLAYER1
 62
     0
100
AcDbCircle
 10
158.955026
 20
61.223512
 30
0.0
 40
14.05263921240627
100
AcDbArc
 50
173.2396252524709
 51
179.266094385427
  0
SOLID
  5
1E4
330
1E1
100
AcDbEntity
  8
CSLAYER1
 62
     0
100
AcDbTrace
 10
145.3067190278228
 20
64.69402013105528
 30
0.0
 11
145.3647728449381
 21
64.67886248221581
 31
0.0
 12
145.3812188828988
 22
64.86060275798152
 32
0.0
 13
145.3812188828988
 23
64.86060275798152
 33
0.0
  0
SOLID
  5
1E5
330
1E1
100
AcDbEntity
  8
CSLAYER1
 62
     0
100
AcDbTrace
 10
144.9335389806874
 20
61.4033161736597
 30
0.0
 11
144.873540211225
 21
61.40370044311389
 31
0.0
 12
144.9023867875936
 22
61.22351199999997
 32
0.0
 13
144.9023867875936
 23
61.22351199999997
 33
0.0
  0
MTEXT
  5
1E6
330
1E1
100
AcDbEntity
  8
CSLAYER1
 62
     0
100
AcDbMText
 10
145.0226090705961
 20
63.05774953623195
 30
0.0
 40
0.18
 41
0.0
 71
     5
 72
     1
  1
\A1;15°
1001
ACAD
1000
MTEXTBEGIN
1070
    73
1070
     1
1070
    44
1040
1.0
1070
    74
1070
     0
1000
MTEXTEND
  0
POINT
  5
1E7
330
1E1
100
AcDbEntity
  8
DEFPOINTS
 62
     0
100
AcDbPoint
 10
145.1158779648272
 20
63.66372725579861
 30
0.0
  0
POINT
  5
1E8
330
1E1
100
AcDbEntity
  8
DEFPOINTS
 62
     0
100
AcDbPoint
 10
158.955026
 20
61.223512
 30
0.0
  0
POINT
  5
1E9
330
1E1
100
AcDbEntity
  8
DEFPOINTS
 62
     0
100
AcDbPoint
 10
128.4779389999999
 20
61.223512
 30
0.0
  0
POINT
  5
1EA
330
1E1
100
AcDbEntity
  8
DEFPOINTS
 62
     0
100
AcDbPoint
 10
157.9550259999999
 20
61.22351199999999
 30
0.0
  0
POINT
  5
1EB
330
1E1
100
AcDbEntity
  8
DEFPOINTS
 62
     0
100
AcDbPoint
 10
138.955026
 20
66.58249600000001
 30
0.0
  0
ENDBLK
  5
1ED
330
1E1
100
AcDbEntity
  8
0
100
AcDbBlockEnd
  0
ENDSEC
  0
SECTION
  2
ENTITIES
  0
POINT
  5
11F
330
1E
100
AcDbEntity
  8
CSLAYER1
 62
     3
100
AcDbPoint
 10
250.4999999999999
 20
43.5
 30
0.0
  0
POINT
  5
120
330
1E
100
AcDbEntity
  8
CSLAYER1
 62
     3
100
AcDbPoint
 10
271.0
 20
43.5
 30
0.0
  0
POINT
  5
121
330
1E
100
AcDbEntity
  8
CSLAYER1
 62
     3
100
AcDbPoint
 10
271.0
 20
53.5
 30
0.0
  0
POINT
  5
122
330
1E
100
AcDbEntity
  8
CSLAYER1
 62
     3
100
AcDbPoint
 10
250.4999999999999
 20
53.5
 30
0.0
  0
TEXT
  5
123
330
1E
100
AcDbEntity
  8
CSLAYER1
 62
     3
100
AcDbText
 10
238.099985
 20
51.00000399999998
 30
0.0
 40
5.0
  1
刃開キハ
 41
1.11044776119403
  7
FX_FONT
 72
     5
 11
262.899985
 21
51.00000399999998
 31
0.0
100
AcDbText
  0
TEXT
  5
124
330
1E
100
AcDbEntity
  8
CSLAYER1
 62
     3
100
AcDbText
 10
237.999985
 20
41.00000399999998
 30
0.0
 40
5.0
  1
切刃部有効
 41
0.872093023255811
  7
FX_FONT
 72
     5
 11
262.9999849999999
 21
41.00000399999998
 31
0.0
100
AcDbText
  0
TEXT
  5
125
330
1E
100
AcDbEntity
  8
CSLAYER1
 62
     3
100
AcDbText
 10
268.5
 20
51.00000399999998
 30
0.0
 40
5.0
  1
5
 41
1.499999999999983
  7
FX_FONT
 72
     5
 11
273.4999999999999
 21
51.00000399999998
 31
0.0
100
AcDbText
  0
TEXT
  5
126
330
1E
100
AcDbEntity
  8
CSLAYER1
 62
     3
100
AcDbText
 10
266.0
 20
41.00000399999998
 30
0.0
 40
5.0
  1
16
 41
1.199999999999999
  7
FX_FONT
 72
     5
 11
276.0
 21
41.00000399999998
 31
0.0
100
AcDbText
  0
TEXT
  5
127
330
1E
100
AcDbEntity
  8
CSLAYER1
 62
     3
100
AcDbText
 10
242.45
 20
17.25
 30
0.0
 40
3.5
  1
N12AP
 41
1.169387755102042
  7
FX_FONT
 72
     5
 11
261.55
 21
17.25
 31
0.0
100
AcDbText
  0
POINT
  5
128
330
1E
100
AcDbEntity
  8
CSLAYER1
 62
     3
100
AcDbPoint
 10
173.955026
 20
123.823512
 30
0.0
  0
POINT
  5
129
330
1E
100
AcDbEntity
  8
CSLAYER1
 62
     3
100
AcDbPoint
 10
173.955026
 20
67.223512
 30
0.0
  0
INSERT
  5
12A
330
1E
100
AcDbEntity
  8
CSLAYER1
100
AcDbBlockReference
  2
FXDIM0000
 10
0.0
 20
0.0
 30
0.0
  0
INSERT
  5
12B
330
1E
100
AcDbEntity
  8
CSLAYER1
100
AcDbBlockReference
  2
BLKF0000
 10
0.0
 20
0.0
 30
0.0
  0
INSERT
  5
12C
330
1E
100
AcDbEntity
  8
CSLAYER1
100
AcDbBlockReference
  2
FXDIM0001
 10
0.0
 20
0.0
 30
0.0
  0
INSERT
  5
12D
330
1E
100
AcDbEntity
  8
CSLAYER1
100
AcDbBlockReference
  2
FXDIM0002
 10
0.0
 20
0.0
 30
0.0
  0
POINT
  5
12E
330
1E
100
AcDbEntity
  8
CSLAYER1
 62
     3
100
AcDbPoint
 10
252.0
 20
19.0
 30
0.0
  0
LINE
  5
12F
330
1E
100
AcDbEntity
  8
CSLAYER1
  6
CONTINUOUS
 62
     3
100
AcDbLine
 10
279.0
 20
40.0
 30
0.0
 11
238.0
 21
40.0
 31
0.0
  0
LINE
  5
130
330
1E
100
AcDbEntity
  8
CSLAYER1
  6
CONTINUOUS
 62
     3
100
AcDbLine
 10
238.0
 20
50.0
 30
0.0
 11
279.0
 21
50.0
 31
0.0
  0
LINE
  5
131
330
1E
100
AcDbEntity
  8
CSLAYER1
  6
CONTINUOUS
 62
     3
100
AcDbLine
 10
243.9550259999999
 20
122.323512
 30
0.0
 11
187.255026
 21
122.323512
 31
0.0
  0
LINE
  5
132
330
1E
100
AcDbEntity
  8
CSLAYER1
  6
CONTINUOUS
 62
     3
100
AcDbLine
 10
187.6132679999999
 20
122.323512
 30
0.0
 11
184.8757669999999
 21
113.369549
 31
0.0
  0
LINE
  5
133
330
1E
100
AcDbEntity
  8
CSLAYER1
  6
CONTINUOUS
 62
     3
100
AcDbLine
 10
182.589502
 20
112.323512
 30
0.0
 11
157.0588929999999
 21
112.323512
 31
0.0
  0
LINE
  5
134
330
1E
100
AcDbEntity
  8
CSLAYER1
  6
CONTINUOUS
 62
     3
100
AcDbLine
 10
156.5465429999999
 20
113.9357189999999
 30
0.0
 11
147.907987
 21
114.539785
 31
0.0
  0
ARC
  5
135
330
1E
100
AcDbEntity
  8
CSLAYER1
  6
CONTINUOUS
 62
     3
100
AcDbCircle
 10
156.651178
 20
115.432065
 30
0.0
 40
1.5
100
AcDbArc
 50
266.0
 51
0.0
  0
LINE
  5
136
330
1E
100
AcDbEntity
  8
CSLAYER1
  6
CONTINUOUS
 62
     3
100
AcDbLine
 10
158.151178
 20
115.432065
 30
0.0
 11
158.151178
 21
123.573512
 31
0.0
  0
LINE
  5
137
330
1E
100
AcDbEntity
  8
CSLAYER1
  6
CONTINUOUS
 62
     3
100
AcDbLine
 10
158.151178
 20
124.073512
 30
0.0
 11
158.151178
 21
132.214959
 31
0.0
  0
ARC
  5
138
330
1E
100
AcDbEntity
  8
CSLAYER1
  6
CONTINUOUS
 62
     3
100
AcDbCircle
 10
156.651178
 20
132.214959
 30
0.0
 40
1.5
100
AcDbArc
 50
0.0
 51
94.0
  0
LINE
  5
139
330
1E
100
AcDbEntity
  8
CSLAYER1
  6
CONTINUOUS
 62
     3
100
AcDbLine
 10
156.5465429999999
 20
133.711305
 30
0.0
 11
147.907987
 21
133.1072379999999
 31
0.0
  0
LINE
  5
13A
330
1E
100
AcDbEntity
  8
CSLAYER1
  6
CONTINUOUS
 62
     3
100
AcDbLine
 10
157.0588929999999
 20
135.323512
 30
0.0
 11
182.589502
 21
135.323512
 31
0.0
  0
LINE
  5
13B
330
1E
100
AcDbEntity
  8
CSLAYER1
  6
CONTINUOUS
 62
     3
100
AcDbLine
 10
243.9550259999999
 20
125.323512
 30
0.0
 11
187.255026
 21
125.323512
 31
0.0
  0
ARC
  5
13C
330
1E
100
AcDbEntity
  8
CSLAYER1
  6
CONTINUOUS
 62
     3
100
AcDbCircle
 10
187.255026
 20
124.523512
 30
0.0
 40
0.8
100
AcDbArc
 50
90.0
 51
180.0
  0
LINE
  5
13D
330
1E
100
AcDbEntity
  8
CSLAYER1
  6
CONTINUOUS
 62
     3
100
AcDbLine
 10
186.455026
 20
124.523512
 30
0.0
 11
186.455026
 21
123.123512
 31
0.0
  0
ARC
  5
13E
330
1E
100
AcDbEntity
  8
CSLAYER1
  6
CONTINUOUS
 62
     3
100
AcDbCircle
 10
187.255026
 20
123.123512
 30
0.0
 40
0.8
100
AcDbArc
 50
180.0
 51
270.0
  0
CIRCLE
  5
13F
330
1E
100
AcDbEntity
  8
CSLAYER1
  6
CONTINUOUS
 62
     3
100
AcDbCircle
 10
173.955026
 20
123.823512
 30
0.0
 40
8.55
  0
CIRCLE
  5
140
330
1E
100
AcDbEntity
  8
CSLAYER1
  6
CONTINUOUS
 62
     3
100
AcDbCircle
 10
173.955026
 20
123.823512
 30
0.0
 40
2.049999999999998
  0
ARC
  5
141
330
1E
100
AcDbEntity
  8
CSLAYER1
  6
CONTINUOUS
 62
     3
100
AcDbCircle
 10
173.955026
 20
123.823512
 30
0.0
 40
12.5
100
AcDbArc
 50
293.0739179999999
 51
0.0
  0
ARC
  5
142
330
1E
100
AcDbEntity
  8
CSLAYER1
  6
CONTINUOUS
 62
     3
100
AcDbCircle
 10
173.955026
 20
123.823512
 30
0.0
 40
12.5
100
AcDbArc
 50
113.0739179999999
 51
173.068094
  0
ARC
  5
143
330
1E
100
AcDbEntity
  8
CSLAYER1
  6
CONTINUOUS
 62
     3
100
AcDbCircle
 10
159.5610159999999
 20
122.073512
 30
0.0
 40
2.0
100
AcDbArc
 50
61.044976
 51
90.0
  0
LINE
  5
144
330
1E
100
AcDbEntity
  8
CSLAYER1
  6
CONTINUOUS
 62
     3
100
AcDbLine
 10
159.5610159999999
 20
124.073512
 30
0.0
 11
154.4098389999998
 21
124.073512
 31
0.0
  0
LINE
  5
145
330
1E
100
AcDbEntity
  8
CSLAYER1
  6
CONTINUOUS
 62
     3
100
AcDbLine
 10
154.4098389999998
 20
123.573512
 30
0.0
 11
159.5610159999999
 21
123.573512
 31
0.0
  0
ARC
  5
146
330
1E
100
AcDbEntity
  8
CSLAYER1
  6
CONTINUOUS
 62
     3
100
AcDbCircle
 10
159.5610159999999
 20
125.573512
 30
0.0
 40
2.0
100
AcDbArc
 50
270.0
 51
353.0680939999998
  0
LINE
  5
147
330
1E
100
AcDbEntity
  8
CSLAYER1
  6
CONTINUOUS
 62
     3
100
AcDbLine
 10
159.905482
 20
124.0436239999999
 30
0.0
 11
163.3540899999998
 21
135.323512
 31
0.0
  0
LINE
  5
148
330
1E
100
AcDbEntity
  8
CSLAYER1
  6
CONTINUOUS
 62
     3
100
AcDbLine
 10
158.955026
 20
135.323512
 30
0.0
 11
158.955026
 21
124.073512
 31
0.0
  0
LINE
  5
149
330
1E
100
AcDbEntity
  8
CSLAYER1
  6
CONTINUOUS
 62
     3
100
AcDbLine
 10
158.955026
 20
123.573512
 30
0.0
 11
158.955026
 21
112.323512
 31
0.0
  0
LINE
  5
14A
330
1E
100
AcDbEntity
  8
CSLAYER1
  6
CONTINUOUS
 62
     3
100
AcDbLine
 10
138.955026
 20
123.823512
 30
0.0
 11
154.4098389999998
 21
123.823512
 31
0.0
  0
ARC
  5
14B
330
1E
100
AcDbEntity
  8
CSLAYER1
  6
CONTINUOUS
 62
     3
100
AcDbCircle
 10
157.0588929999999
 20
132.323512
 30
0.0
 40
20.0
100
AcDbArc
 50
205.1506629999999
 51
270.0
  0
ARC
  5
14C
330
1E
100
AcDbEntity
  8
CSLAYER1
  6
CONTINUOUS
 62
     3
100
AcDbCircle
 10
157.0588929999999
 20
115.323512
 30
0.0
 40
20.0
100
AcDbArc
 50
90.0
 51
154.849337
  0
LINE
  5
14D
330
1E
100
AcDbEntity
  8
CSLAYER1
  6
CONTINUOUS
 62
     3
100
AcDbLine
 10
146.955026
 20
70.223512
 30
0.0
 11
157.9550259999999
 21
70.223512
 31
0.0
  0
ARC
  5
14E
330
1E
100
AcDbEntity
  8
CSLAYER1
  6
CONTINUOUS
 62
     3
100
AcDbCircle
 10
157.9550259999999
 20
71.223512
 30
0.0
 40
1.0
100
AcDbArc
 50
270.0
 51
0.0
  0
LINE
  5
14F
330
1E
100
AcDbEntity
  8
CSLAYER1
  6
CONTINUOUS
 62
     3
100
AcDbLine
 10
158.955026
 20
71.223512
 30
0.0
 11
158.955026
 21
73.22351199999999
 31
0.0
  0
LINE
  5
150
330
1E
100
AcDbEntity
  8
CSLAYER1
  6
CONTINUOUS
 62
     3
100
AcDbLine
 10
158.955026
 20
73.22351199999999
 30
0.0
 11
198.955026
 21
73.22351199999999
 31
0.0
  0
LINE
  5
151
330
1E
100
AcDbEntity
  8
CSLAYER1
  6
CONTINUOUS
 62
     3
100
AcDbLine
 10
198.955026
 20
61.223512
 30
0.0
 11
158.955026
 21
61.223512
 31
0.0
  0
LINE
  5
152
330
1E
100
AcDbEntity
  8
CSLAYER1
  6
CONTINUOUS
 62
     3
100
AcDbLine
 10
158.955026
 20
61.223512
 30
0.0
 11
138.955026
 21
66.58249599999999
 31
0.0
  0
LINE
  5
153
330
1E
100
AcDbEntity
  8
CSLAYER1
  6
CONTINUOUS
 62
     3
100
AcDbLine
 10
138.955026
 20
66.58249599999999
 30
0.0
 11
138.955026
 21
67.58249599999999
 31
0.0
  0
ARC
  5
154
330
1E
100
AcDbEntity
  8
CSLAYER1
  6
CONTINUOUS
 62
     3
100
AcDbCircle
 10
127.3364379999998
 20
116.213848
 30
0.0
 40
50.0
100
AcDbArc
 50
283.436747
 51
293.102158
  0
LINE
  5
155
330
1E
100
AcDbEntity
  8
CSLAYER1
  6
CONTINUOUS
 62
     3
100
AcDbLine
 10
163.3540899999998
 20
61.223512
 30
0.0
 11
163.3540899999998
 21
66.223512
 31
0.0
  0
LINE
  5
156
330
1E
100
AcDbEntity
  8
CSLAYER1
  6
CONTINUOUS
 62
     3
100
AcDbLine
 10
164.3540899999998
 20
67.223512
 30
0.0
 11
183.618603
 21
67.223512
 31
0.0
  0
ARC
  5
157
330
1E
100
AcDbEntity
  8
CSLAYER1
  6
CONTINUOUS
 62
     3
100
AcDbCircle
 10
183.618603
 20
68.22351199999999
 30
0.0
 40
1.0
100
AcDbArc
 50
270.0
 51
0.0
  0
LINE
  5
158
330
1E
100
AcDbEntity
  8
CSLAYER1
  6
CONTINUOUS
 62
     3
100
AcDbLine
 10
184.618603
 20
68.22351199999999
 30
0.0
 11
184.618603
 21
73.22351199999999
 31
0.0
  0
LINE
  5
159
330
1E
100
AcDbEntity
  8
CSLAYER1
  6
CONTINUOUS
 62
     3
100
AcDbLine
 10
178.8540049999999
 20
73.22351199999999
 30
0.0
 11
178.8540049999999
 21
67.723512
 31
0.0
  0
LINE
  5
15A
330
1E
100
AcDbEntity
  8
CSLAYER1
  6
CONTINUOUS
 62
     3
100
AcDbLine
 10
178.8540049999999
 20
67.723512
 30
0.0
 11
178.354005
 21
67.223512
 31
0.0
  0
LINE
  5
15B
330
1E
100
AcDbEntity
  8
CSLAYER1
  6
CONTINUOUS
 62
     3
100
AcDbLine
 10
169.556046
 20
67.223512
 30
0.0
 11
169.056046
 21
66.723512
 31
0.0
  0
LINE
  5
15C
330
1E
100
AcDbEntity
  8
CSLAYER1
  6
CONTINUOUS
 62
     3
100
AcDbLine
 10
169.056046
 20
66.723512
 30
0.0
 11
169.056046
 21
61.223512
 31
0.0
  0
ARC
  5
15D
330
1E
100
AcDbEntity
  8
CSLAYER1
  6
CONTINUOUS
 62
     3
100
AcDbCircle
 10
164.3540899999998
 20
66.223512
 30
0.0
 40
1.0
100
AcDbArc
 50
90.0
 51
180.0
  0
LINE
  5
15E
330
1E
100
AcDbEntity
  8
CSLAYER1
  6
CENTER
 62
     4
100
AcDbLine
 10
132.820982
 20
123.823512
 30
0.0
 11
138.955026
 21
123.823512
 31
0.0
  0
LINE
  5
15F
330
1E
100
AcDbEntity
  8
CSLAYER1
  6
CENTER
 62
     4
100
AcDbLine
 10
154.4098389999998
 20
123.823512
 30
0.0
 11
248.350664
 21
123.823512
 31
0.0
  0
LINE
  5
160
330
1E
100
AcDbEntity
  8
CSLAYER1
  6
CENTER
 62
     4
100
AcDbLine
 10
173.955026
 20
138.3865449999998
 30
0.0
 11
173.955026
 21
109.1376179999999
 31
0.0
  0
LINE
  5
161
330
1E
100
AcDbEntity
  8
CSLAYER1
  6
CENTER
 62
     4
100
AcDbLine
 10
173.955026
 20
76.88525699999998
 30
0.0
 11
173.955026
 21
57.688312
 31
0.0
  0
LINE
  5
162
330
1E
100
AcDbEntity
  8
CSLAYER1
  6
CENTER
 62
     4
100
AcDbLine
 10
163.3540899999998
 20
67.223512
 30
0.0
 11
158.248816
 21
67.223512
 31
0.0
  0
LINE
  5
163
330
1E
100
AcDbEntity
  8
CSLAYER1
  6
DASHED
 62
     4
100
AcDbLine
 10
158.151178
 20
70.223512
 30
0.0
 11
156.3432539999999
 21
63.476248
 31
0.0
  0
ARC
  5
164
330
1E
100
AcDbEntity
  8
CSLAYER1
  6
DASHED
 62
     4
100
AcDbCircle
 10
154.894365
 20
63.864477
 30
0.0
 40
1.5
100
AcDbArc
 50
255.0
 51
345.0
  0
LINE
  5
165
330
1E
100
AcDbEntity
  8
CSLAYER1
  6
CENTER
 62
     4
100
AcDbLine
 10
184.618603
 20
67.223512
 30
0.0
 11
189.955026
 21
67.223512
 31
0.0
  0
LINE
  5
166
330
1E
100
AcDbEntity
  8
CSLAYER1
  6
CENTER
 62
     4
100
AcDbLine
 10
93.656182
 20
123.823512
 30
0.0
 11
74.56050999999998
 21
123.823512
 31
0.0
  0
LINE
  5
168
330
1E
100
AcDbEntity
  8
CSLAYER1
  6
CONTINUOUS
 62
     3
100
AcDbLine
 10
77.17806
 20
123.823512
 30
0.0
 11
78.309467
 21
125.439328
 31
0.0
  0
LINE
  5
169
330
1E
100
AcDbEntity
  8
CSLAYER1
  6
CONTINUOUS
 62
     3
100
AcDbLine
 10
78.064971
 20
135.323512
 30
0.0
 11
85.17806
 21
135.323512
 31
0.0
  0
ARC
  5
16A
330
1E
100
AcDbEntity
  8
CSLAYER1
  6
CONTINUOUS
 62
     3
100
AcDbCircle
 10
152.17806
 20
123.823512
 30
0.0
 40
75.0
100
AcDbArc
 50
171.179852
 51
188.820148
  0
LINE
  5
16B
330
1E
100
AcDbEntity
  8
CSLAYER1
  6
CONTINUOUS
 62
     3
100
AcDbLine
 10
78.064971
 20
112.323512
 30
0.0
 11
85.17806
 21
112.323512
 31
0.0
  0
LINE
  5
16C
330
1E
100
AcDbEntity
  8
CSLAYER1
  6
CONTINUOUS
 62
     3
100
AcDbLine
 10
85.17806
 20
135.323512
 30
0.0
 11
85.17806
 21
135.248696
 31
0.0
  0
ARC
  5
16D
330
1E
100
AcDbEntity
  8
CSLAYER1
  6
CONTINUOUS
 62
     3
100
AcDbCircle
 10
88.17806
 20
123.823512
 30
0.0
 40
10.0
100
AcDbArc
 50
119.2987089999999
 51
170.7012909999999
  0
LINE
  5
16E
330
1E
100
AcDbEntity
  8
CSLAYER1
  6
CONTINUOUS
 62
     3
100
AcDbLine
 10
83.284432
 20
132.5443149999999
 30
0.0
 11
85.17806
 21
135.248696
 31
0.0
  0
LINE
  5
16F
330
1E
100
AcDbEntity
  8
CSLAYER1
  6
CONTINUOUS
 62
     3
100
AcDbLine
 10
77.17806
 20
123.823512
 30
0.0
 11
78.309467
 21
122.207696
 31
0.0
  0
LINE
  5
170
330
1E
100
AcDbEntity
  8
CSLAYER1
  6
CONTINUOUS
 62
     3
100
AcDbLine
 10
85.17806
 20
112.323512
 30
0.0
 11
85.17806
 21
112.398328
 31
0.0
  0
ARC
  5
171
330
1E
100
AcDbEntity
  8
CSLAYER1
  6
CONTINUOUS
 62
     3
100
AcDbCircle
 10
88.17806
 20
123.823512
 30
0.0
 40
10.0
100
AcDbArc
 50
189.298709
 51
240.701291
  0
LINE
  5
172
330
1E
100
AcDbEntity
  8
CSLAYER1
  6
CONTINUOUS
 62
     3
100
AcDbLine
 10
83.284432
 20
115.102709
 30
0.0
 11
85.17806
 21
112.398328
 31
0.0
  0
DIMENSION
  5
174
330
1E
100
AcDbEntity
  8
CSLAYER1
 62
     4
100
AcDbDimension
  2
*D4
 10
88.17806
 20
123.823512
 30
0.0
 11
86.048805
 21
126.4883419999998
 31
0.0
 70
     4
100
AcDbRadialDimension
 15
79.919713
 25
129.462634
 35
0.0
 40
0.0
  0
DIMENSION
  5
175
330
1E
100
AcDbEntity
  8
CSLAYER1
 62
     4
100
AcDbDimension
  2
*D5
 10
152.17806
 20
123.823512
 30
0.0
 11
87.640793
 21
116.6621319999999
 31
0.0
 70
     4
100
AcDbRadialDimension
 15
77.771812
 25
114.404901
 35
0.0
 40
0.0
  0
LINE
  5
176
330
1E
100
AcDbEntity
  8
CSLAYER1
  6
CONTINUOUS
 62
     3
100
AcDbLine
 10
139.8057689999999
 20
125.439328
 30
0.0
 11
155.472907
 21
125.439328
 31
0.0
  0
LINE
  5
177
330
1E
100
AcDbEntity
  8
CSLAYER1
  6
CONTINUOUS
 62
     3
100
AcDbLine
 10
139.8057689999999
 20
122.207696
 30
0.0
 11
155.472907
 21
122.207696
 31
0.0
  0
LINE
  5
178
330
1E
100
AcDbEntity
  8
CSLAYER1
  6
CONTINUOUS
 62
     3
100
AcDbLine
 10
154.4098389999998
 20
124.073512
 30
0.0
 11
154.4098389999998
 21
123.573512
 31
0.0
  0
DIMENSION
  5
179
330
1E
100
AcDbEntity
  8
CSLAYER1
 62
     4
100
AcDbDimension
  2
*D6
 10
150.213626
 20
46.78091099999998
 30
0.0
 11
141.5989229999999
 21
44.197857
 31
0.0
 70
     1
100
AcDbAlignedDimension
 13
138.955026
 23
66.58249599999999
 33
0.0
 14
154.4098389999998
 24
62.441391
 34
0.0
  0
DIMENSION
  5
17A
330
1E
100
AcDbEntity
  8
CSLAYER1
 62
     4
100
AcDbDimension
  2
*D7
 10
129.4779389999999
 20
73.22351199999999
 30
0.0
 11
128.4779359999999
 21
74.306938
 31
0.0
 70
     1
100
AcDbAlignedDimension
 13
158.955026
 23
61.223512
 33
0.0
 14
158.955026
 24
73.22351199999999
 34
0.0
  0
DIMENSION
  5
17B
330
1E
100
AcDbEntity
  8
CSLAYER1
 62
     4
100
AcDbDimension
  2
*D8
 10
173.955026
 20
46.052388
 30
0.0
 11
166.455017
 21
47.052387
 31
0.0
 52
270.0
100
AcDbAlignedDimension
 13
158.955026
 23
61.223512
 33
0.0
 14
173.955026
 24
57.688312
 34
0.0
100
AcDbRotatedDimension
  0
DIMENSION
  5
17C
330
1E
100
AcDbEntity
  8
CSLAYER1
 62
     4
100
AcDbDimension
  2
*D9
 10
173.955026
 20
84.24829499999999
 30
0.0
 11
166.455017
 21
85.248299
 31
0.0
100
AcDbAlignedDimension
 13
158.955026
 23
73.22351199999999
 33
0.0
 14
173.955026
 24
76.88525699999998
 34
0.0
100
AcDbRotatedDimension
  0
DIMENSION
  5
17E
330
1E
100
AcDbEntity
  8
CSLAYER1
 62
     4
100
AcDbDimension
  2
*D11
 10
173.955026
 20
151.1330929999999
 30
0.0
 11
156.4550169999999
 21
152.133087
 31
0.0
100
AcDbAlignedDimension
 13
138.955026
 23
123.823512
 33
0.0
 14
173.955026
 24
138.3865449999998
 34
0.0
100
AcDbRotatedDimension
  0
DIMENSION
  5
17F
330
1E
100
AcDbEntity
  8
CSLAYER1
 62
     4
100
AcDbDimension
  2
*D12
 10
157.0588929999999
 20
132.323512
 30
0.0
 11
145.6222529999999
 21
105.827835
 31
0.0
 70
     4
100
AcDbRadialDimension
 15
149.1532169999999
 25
113.9523309999999
 35
0.0
 40
0.0
  0
DIMENSION
  5
180
330
1E
100
AcDbEntity
  8
CSLAYER1
 62
     4
100
AcDbDimension
  2
*D13
 10
125.957851
 20
135.323512
 30
0.0
 11
124.957855
 21
123.823509
 31
0.0
 70
     1
100
AcDbAlignedDimension
 13
157.0588929999999
 23
112.323512
 33
0.0
 14
157.0588929999999
 24
135.323512
 34
0.0
  0
POINT
  5
181
330
1E
100
AcDbEntity
  8
CSLAYER1
 62
     3
100
AcDbPoint
 10
93.619377
 20
64.81236599999999
 30
0.0
  0
INSERT
  5
182
330
1E
100
AcDbEntity
  8
CSLAYER1
100
AcDbBlockReference
  2
BLKF0001
 10
0.0
 20
0.0
 30
0.0
  0
LINE
  5
183
330
1E
100
AcDbEntity
  8
CSLAYER1
  6
CONTINUOUS
 62
     3
100
AcDbLine
 10
77.87375400000001
 20
66.19057399999999
 30
0.0
 11
78.455286
 21
74.31122499999998
 31
0.0
  0
ARC
  5
184
330
1E
100
AcDbEntity
  8
CSLAYER1
  6
CONTINUOUS
 62
     3
100
AcDbCircle
 10
76.959117
 20
74.418368
 30
0.0
 40
1.5
100
AcDbArc
 50
355.9039559999998
 51
89.90395600000002
  0
LINE
  5
185
330
1E
100
AcDbEntity
  8
CSLAYER1
  6
CONTINUOUS
 62
     3
100
AcDbLine
 10
76.96163100000003
 20
75.918366
 30
0.0
 11
68.30199300000001
 21
75.93288199999998
 31
0.0
  0
LINE
  5
186
330
1E
100
AcDbEntity
  8
CSLAYER1
  6
CONTINUOUS
 62
     3
100
AcDbLine
 10
77.58783000000002
 20
77.489859
 30
0.0
 11
93.619377
 21
76.34181600000002
 31
0.0
  0
CIRCLE
  5
187
330
1E
100
AcDbEntity
  8
CSLAYER1
  6
CONTINUOUS
 62
     3
100
AcDbCircle
 10
93.619377
 20
64.81236599999999
 30
0.0
 40
8.55
  0
CIRCLE
  5
188
330
1E
100
AcDbEntity
  8
CSLAYER1
  6
CONTINUOUS
 62
     3
100
AcDbCircle
 10
93.619377
 20
64.81236599999999
 30
0.0
 40
2.049999999999998
  0
ARC
  5
189
330
1E
100
AcDbEntity
  8
CSLAYER1
  6
CONTINUOUS
 62
     3
100
AcDbCircle
 10
93.619377
 20
64.81236599999999
 30
0.0
 40
12.5
100
AcDbArc
 50
117.169962
 51
177.1641379999999
  0
ARC
  5
18A
330
1E
100
AcDbEntity
  8
CSLAYER1
  6
CONTINUOUS
 62
     3
100
AcDbCircle
 10
79.137134
 20
64.09498000000001
 30
0.0
 40
2.0
100
AcDbArc
 50
21.01996499999998
 51
85.903956
  0
LINE
  5
18B
330
1E
100
AcDbEntity
  8
CSLAYER1
  6
CONTINUOUS
 62
     3
100
AcDbLine
 10
79.279991
 20
66.089871
 30
0.0
 11
74.14197099999999
 21
66.457813
 31
0.0
  0
LINE
  5
18C
330
1E
100
AcDbEntity
  8
CSLAYER1
  6
CONTINUOUS
 62
     3
100
AcDbLine
 10
79.621442
 20
66.03545600000001
 30
0.0
 11
83.86694699999997
 21
77.04020200000002
 31
0.0
  0
LINE
  5
18D
330
1E
100
AcDbEntity
  8
CSLAYER1
  6
CONTINUOUS
 62
     3
100
AcDbLine
 10
79.479119
 20
77.354421
 30
0.0
 11
78.67554799999997
 21
66.13315599999999
 31
0.0
  0
LINE
  5
18E
330
1E
100
AcDbEntity
  8
CSLAYER1
  6
CONTINUOUS
 62
     3
100
AcDbLine
 10
58.70877700000001
 20
67.31236599999999
 30
0.0
 11
74.124114
 21
66.208451
 31
0.0
  0
ARC
  5
18F
330
1E
100
AcDbEntity
  8
CSLAYER1
  6
CONTINUOUS
 62
     3
100
AcDbCircle
 10
76.15925799999998
 20
57.54094399999999
 30
0.0
 40
20.0
100
AcDbArc
 50
85.903956
 51
150.7532929999999
  0
LINE
  5
190
330
1E
100
AcDbEntity
  8
CSLAYER1
  6
CENTER
 62
     4
100
AcDbLine
 10
56.26264599999998
 20
64.81236599999999
 30
0.0
 11
104.927079
 21
64.81236599999999
 31
0.0
  0
LINE
  5
191
330
1E
100
AcDbEntity
  8
CSLAYER1
  6
CENTER
 62
     4
100
AcDbLine
 10
93.619377
 20
79.375399
 30
0.0
 11
93.619377
 21
50.126473
 31
0.0
  0
LINE
  5
192
330
1E
100
AcDbEntity
  8
CSLAYER1
  6
CENTER
 62
     4
100
AcDbLine
 10
39.24828699999999
 20
64.81236599999999
 30
0.0
 11
22.002289
 21
64.81236599999999
 31
0.0
  0
LINE
  5
193
330
1E
100
AcDbEntity
  8
CSLAYER1
  6
CONTINUOUS
 62
     3
100
AcDbLine
 10
24.61984
 20
67.31236599999999
 30
0.0
 11
25.751246
 21
68.92818199999999
 31
0.0
  0
LINE
  5
194
330
1E
100
AcDbEntity
  8
CSLAYER1
  6
CONTINUOUS
 62
     3
100
AcDbLine
 10
25.50675
 20
78.812366
 30
0.0
 11
32.61984
 21
78.812366
 31
0.0
  0
ARC
  5
195
330
1E
100
AcDbEntity
  8
CSLAYER1
  6
CONTINUOUS
 62
     3
100
AcDbCircle
 10
99.61984000000001
 20
67.31236599999999
 30
0.0
 40
75.0
100
AcDbArc
 50
171.179852
 51
180.0
  0
LINE
  5
196
330
1E
100
AcDbEntity
  8
CSLAYER1
  6
CONTINUOUS
 62
     3
100
AcDbLine
 10
32.61984
 20
78.812366
 30
0.0
 11
32.61984
 21
78.73755
 31
0.0
  0
ARC
  5
197
330
1E
100
AcDbEntity
  8
CSLAYER1
  6
CONTINUOUS
 62
     3
100
AcDbCircle
 10
35.61984
 20
67.31236599999999
 30
0.0
 40
10.0
100
AcDbArc
 50
119.2987089999999
 51
170.7012909999999
  0
LINE
  5
198
330
1E
100
AcDbEntity
  8
CSLAYER1
  6
CONTINUOUS
 62
     3
100
AcDbLine
 10
30.726212
 20
76.033169
 30
0.0
 11
32.61984
 21
78.73755
 31
0.0
  0
LINE
  5
199
330
1E
100
AcDbEntity
  8
CSLAYER1
  6
CONTINUOUS
 62
     3
100
AcDbLine
 10
59.672762
 20
68.863288
 30
0.0
 11
75.299882
 21
67.744206
 31
0.0
  0
LINE
  5
19A
330
1E
100
AcDbEntity
  8
CSLAYER1
  6
CONTINUOUS
 62
     3
100
AcDbLine
 10
74.14197099999999
 20
66.457813
 30
0.0
 11
74.124114
 21
66.208451
 31
0.0
  0
LINE
  5
19B
330
1E
100
AcDbEntity
  8
CSLAYER1
  6
CONTINUOUS
 62
     3
100
AcDbLine
 10
24.61984
 20
62.312366
 30
0.0
 11
25.751246
 21
60.696551
 31
0.0
  0
LINE
  5
19C
330
1E
100
AcDbEntity
  8
CSLAYER1
  6
CONTINUOUS
 62
     3
100
AcDbLine
 10
25.50675
 20
50.812366
 30
0.0
 11
32.61984
 21
50.812366
 31
0.0
  0
ARC
  5
19D
330
1E
100
AcDbEntity
  8
CSLAYER1
  6
CONTINUOUS
 62
     3
100
AcDbCircle
 10
99.61984000000001
 20
62.312366
 30
0.0
 40
75.0
100
AcDbArc
 50
180.0
 51
188.820148
  0
LINE
  5
19E
330
1E
100
AcDbEntity
  8
CSLAYER1
  6
CONTINUOUS
 62
     3
100
AcDbLine
 10
32.61984
 20
50.812366
 30
0.0
 11
32.61984
 21
50.887182
 31
0.0
  0
ARC
  5
19F
330
1E
100
AcDbEntity
  8
CSLAYER1
  6
CONTINUOUS
 62
     3
100
AcDbCircle
 10
35.61984
 20
62.312366
 30
0.0
 40
10.0
100
AcDbArc
 50
189.298709
 51
240.701291
  0
LINE
  5
1A0
330
1E
100
AcDbEntity
  8
CSLAYER1
  6
CONTINUOUS
 62
     3
100
AcDbLine
 10
30.726212
 20
53.591563
 30
0.0
 11
32.61984
 21
50.887182
 31
0.0
  0
INSERT
  5
1A1
330
1E
100
AcDbEntity
  8
CSLAYER1
100
AcDbBlockReference
  2
BLKF0002
 10
0.0
 20
0.0
 30
0.0
  0
LINE
  5
1A2
330
1E
100
AcDbEntity
  8
CSLAYER1
  6
CONTINUOUS
 62
     3
100
AcDbLine
 10
77.87375400000001
 20
63.434159
 30
0.0
 11
78.455286
 21
55.31350699999999
 31
0.0
  0
ARC
  5
1A3
330
1E
100
AcDbEntity
  8
CSLAYER1
  6
CONTINUOUS
 62
     3
100
AcDbCircle
 10
76.959117
 20
55.206364
 30
0.0
 40
1.5
100
AcDbArc
 50
270.0960439999999
 51
4.096044
  0
LINE
  5
1A4
330
1E
100
AcDbEntity
  8
CSLAYER1
  6
CONTINUOUS
 62
     3
100
AcDbLine
 10
76.96163100000003
 20
53.70636700000001
 30
0.0
 11
68.30199300000001
 21
53.691851
 31
0.0
  0
LINE
  5
1A5
330
1E
100
AcDbEntity
  8
CSLAYER1
  6
CONTINUOUS
 62
     3
100
AcDbLine
 10
77.58783000000002
 20
52.13487399999999
 30
0.0
 11
102.390291
 21
53.911015
 31
0.0
  0
ARC
  5
1A6
330
1E
100
AcDbEntity
  8
CSLAYER1
  6
CONTINUOUS
 62
     3
100
AcDbCircle
 10
79.137134
 20
65.52975299999999
 30
0.0
 40
2.0
100
AcDbArc
 50
274.096044
 51
357.1641379999999
  0
LINE
  5
1A7
330
1E
100
AcDbEntity
  8
CSLAYER1
  6
CONTINUOUS
 62
     3
100
AcDbLine
 10
79.279991
 20
63.534861
 30
0.0
 11
74.14197099999999
 21
63.16691999999999
 31
0.0
  0
LINE
  5
1A8
330
1E
100
AcDbEntity
  8
CSLAYER1
  6
CONTINUOUS
 62
     3
100
AcDbLine
 10
79.479119
 20
52.27031199999998
 30
0.0
 11
78.67554799999997
 21
63.491576
 31
0.0
  0
LINE
  5
1A9
330
1E
100
AcDbEntity
  8
CSLAYER1
  6
CONTINUOUS
 62
     3
100
AcDbLine
 10
58.70877700000001
 20
62.312366
 30
0.0
 11
74.124114
 21
63.41628199999998
 31
0.0
  0
ARC
  5
1AA
330
1E
100
AcDbEntity
  8
CSLAYER1
  6
CONTINUOUS
 62
     3
100
AcDbCircle
 10
76.15925799999998
 20
72.083788
 30
0.0
 40
20.0
100
AcDbArc
 50
209.246707
 51
274.096044
  0
LINE
  5
1AB
330
1E
100
AcDbEntity
  8
CSLAYER1
  6
CONTINUOUS
 62
     3
100
AcDbLine
 10
59.672762
 20
60.76144499999998
 30
0.0
 11
75.299882
 21
61.880527
 31
0.0
  0
LINE
  5
1AC
330
1E
100
AcDbEntity
  8
CSLAYER1
  6
CONTINUOUS
 62
     3
100
AcDbLine
 10
74.14197099999999
 20
63.16691999999999
 30
0.0
 11
74.124114
 21
63.41628199999998
 31
0.0
  0
LINE
  5
1AD
330
1E
100
AcDbEntity
  8
CSLAYER1
  6
CONTINUOUS
 62
     3
100
AcDbLine
 10
87.911482
 20
75.933065
 30
0.0
 11
102.772405
 21
76.99727800000002
 31
0.0
  0
DIMENSION
  5
1AE
330
1E
100
AcDbEntity
  8
CSLAYER1
 62
     4
100
AcDbDimension
  2
*D14
 10
51.50973
 20
67.31236599999999
 30
0.0
 11
50.509731
 21
64.812363
 31
0.0
 70
     1
100
AcDbAlignedDimension
 13
58.70877700000001
 23
62.312366
 33
0.0
 14
58.70877700000001
 24
67.31236599999999
 34
0.0
  0
LINE
  5
1AF
330
1E
100
AcDbEntity
  8
CSLAYER1
  6
CONTINUOUS
 62
     3
100
AcDbLine
 10
182.5702639999999
 20
135.34275
 30
0.0
 11
183.2978559999999
 21
134.615157
 31
0.0
  0
ARC
  5
1B0
330
1E
100
AcDbEntity
  8
CSLAYER1
  6
CONTINUOUS
 62
     3
100
AcDbCircle
 10
184.0049629999999
 20
135.322264
 30
0.0
 40
1.0
100
AcDbArc
 50
225.0
 51
267.137595
  0
LINE
  5
1B1
330
1E
100
AcDbEntity
  8
CSLAYER1
  6
CONTINUOUS
 62
     3
100
AcDbLine
 10
183.955026
 20
134.323512
 30
0.0
 11
237.782204
 21
131.632153
 31
0.0
  0
LINE
  5
1B2
330
1E
100
AcDbEntity
  8
CSLAYER1
  6
CONTINUOUS
 62
     3
100
AcDbLine
 10
240.4550259999999
 20
125.323512
 30
0.0
 11
240.4550259999999
 21
122.323512
 31
0.0
  0
LINE
  5
1B3
330
1E
100
AcDbEntity
  8
CSLAYER1
  6
CONTINUOUS
 62
     3
100
AcDbLine
 10
183.955026
 20
113.323512
 30
0.0
 11
237.782204
 21
116.014871
 31
0.0
  0
ARC
  5
1B4
330
1E
100
AcDbEntity
  8
CSLAYER1
  6
CONTINUOUS
 62
     3
100
AcDbCircle
 10
237.457609
 20
122.506761
 30
0.0
 40
6.5
100
AcDbArc
 50
272.8624049999999
 51
358.384494
  0
ARC
  5
1B5
330
1E
100
AcDbEntity
  8
CSLAYER1
  6
CONTINUOUS
 62
     3
100
AcDbCircle
 10
184.0049629999999
 20
112.324759
 30
0.0
 40
1.0
100
AcDbArc
 50
92.86240499999999
 51
135.0
  0
LINE
  5
1B6
330
1E
100
AcDbEntity
  8
CSLAYER1
  6
CONTINUOUS
 62
     3
100
AcDbLine
 10
183.2978559999999
 20
113.0318659999999
 30
0.0
 11
182.5702639999999
 21
112.304274
 31
0.0
  0
LINE
  5
1B7
330
1E
100
AcDbEntity
  8
CSLAYER1
  6
CONTINUOUS
 62
     3
100
AcDbLine
 10
234.4550259999999
 20
125.323512
 30
0.0
 11
234.4550259999999
 21
122.323512
 31
0.0
  0
ARC
  5
1B8
330
1E
100
AcDbEntity
  8
CSLAYER1
  6
CONTINUOUS
 62
     3
100
AcDbCircle
 10
237.457609
 20
125.1402629999999
 30
0.0
 40
6.5
100
AcDbArc
 50
1.615505999999999
 51
87.137595
  0
LINE
  5
1B9
330
1E
100
AcDbEntity
  8
CSLAYER1
  6
CENTER
 62
     4
100
AcDbLine
 10
237.4550259999999
 20
127.9741229999999
 30
0.0
 11
237.4550259999999
 21
119.284973
 31
0.0
  0
LINE
  5
1BA
330
1E
100
AcDbEntity
  8
CSLAYER1
  6
CENTER
 62
     4
100
AcDbLine
 10
191.955026
 20
117.883135
 30
0.0
 11
191.955026
 21
129.983055
 31
0.0
  0
ARC
  5
1BB
330
1E
100
AcDbEntity
  8
CSLAYER1
  6
CONTINUOUS
 62
     3
100
AcDbCircle
 10
239.457441
 20
67.370932
 30
0.0
 40
4.5
100
AcDbArc
 50
358.122652
 51
88.09084799999999
  0
LINE
  5
1BC
330
1E
100
AcDbEntity
  8
CSLAYER1
  6
CONTINUOUS
 62
     3
100
AcDbLine
 10
239.6073579999999
 20
71.86843399999998
 30
0.0
 11
198.955026
 21
73.22351199999999
 31
0.0
  0
LINE
  5
1BD
330
1E
100
AcDbEntity
  8
CSLAYER1
  6
CONTINUOUS
 62
     3
100
AcDbLine
 10
198.955026
 20
61.223512
 30
0.0
 11
239.617006
 21
62.578911
 31
0.0
  0
ARC
  5
1BE
330
1E
100
AcDbEntity
  8
CSLAYER1
  6
CONTINUOUS
 62
     3
100
AcDbCircle
 10
239.4670889999999
 20
67.076413
 30
0.0
 40
4.5
100
AcDbArc
 50
271.909152
 51
3.752612
  0
LINE
  5
1BF
330
1E
100
AcDbEntity
  8
CSLAYER1
  6
CENTER
 62
     4
100
AcDbLine
 10
250.7128009999999
 20
67.223512
 30
0.0
 11
237.100785
 21
67.223512
 31
0.0
  0
LINE
  5
1C0
330
1E
100
AcDbEntity
  8
CSLAYER1
  6
DOT
 62
     3
100
AcDbLine
 10
4.0
 20
1.0
 30
0.0
 11
283.0
 21
1.0
 31
0.0
  0
LINE
  5
1C1
330
1E
100
AcDbEntity
  8
CSLAYER1
  6
DOT
 62
     3
100
AcDbLine
 10
283.0
 20
1.0
 30
0.0
 11
283.0
 21
195.0
 31
0.0
  0
LINE
  5
1C2
330
1E
100
AcDbEntity
  8
CSLAYER1
  6
DOT
 62
     3
100
AcDbLine
 10
283.0
 20
195.0
 30
0.0
 11
4.0
 21
195.0
 31
0.0
  0
LINE
  5
1C3
330
1E
100
AcDbEntity
  8
CSLAYER1
  6
DOT
 62
     3
100
AcDbLine
 10
4.0
 20
195.0
 30
0.0
 11
4.0
 21
1.0
 31
0.0
  0
LINE
  5
1C4
330
1E
100
AcDbEntity
  8
CSLAYER1
  6
DOT
 62
     3
100
AcDbLine
 10
283.0
 20
98.0
 30
0.0
 11
287.0
 21
98.0
 31
0.0
  0
LINE
  5
1C5
330
1E
100
AcDbEntity
  8
CSLAYER1
  6
DOT
 62
     3
100
AcDbLine
 10
4.0
 20
98.0
 30
0.0
 11
0.0
 21
98.0
 31
0.0
  0
LINE
  5
1C6
330
1E
100
AcDbEntity
  8
CSLAYER1
  6
DOT
 62
     3
100
AcDbLine
 10
143.5
 20
195.0
 30
0.0
 11
143.5
 21
199.0
 31
0.0
  0
ENDSEC
  0
SECTION
  2
OBJECTS
  0
DICTIONARY
  5
C
330
0
100
AcDbDictionary
  3
ACAD_GROUP
350
D
  3
ACAD_LAYOUT
350
19
  3
ACAD_MLINESTYLE
350
16
  3
ACAD_PLOTSETTINGS
350
18
1001
ACAD
1000
TREAT_AS_HARD
1070
     0
1000
TREAT_AS_HARD
1070
     0
  0
DICTIONARY
  5
1D0
330
1E
100
AcDbDictionary
  3
ACAD_LAYOUTSELFREF
350
1FB
1001
ACAD
1000
TREAT_AS_HARD
1070
     0
  0
DICTIONARY
  5
1CE
330
1A
100
AcDbDictionary
  3
ACAD_LAYOUTSELFREF
350
1FA
1001
ACAD
1000
TREAT_AS_HARD
1070
     0
  0
DICTIONARY
  5
D
102
{ACAD_REACTORS
330
C
102
}
330
C
100
AcDbDictionary
1001
ACAD
1000
TREAT_AS_HARD
1070
     0
1000
TREAT_AS_HARD
1070
     0
  0
DICTIONARY
  5
19
102
{ACAD_REACTORS
330
C
102
}
330
C
100
AcDbDictionary
1001
ACAD
1000
TREAT_AS_HARD
1070
     0
1000
TREAT_AS_HARD
1070
     0
  0
DICTIONARY
  5
16
102
{ACAD_REACTORS
330
C
102
}
330
C
100
AcDbDictionary
  3
STANDARD
350
17
1001
ACAD
1000
TREAT_AS_HARD
1070
     0
1000
TREAT_AS_HARD
1070
     0
  0
DICTIONARY
  5
18
102
{ACAD_REACTORS
330
C
102
}
330
C
100
AcDbDictionary
1001
ACAD
1000
TREAT_AS_HARD
1070
     0
1000
TREAT_AS_HARD
1070
     0
  0
XRECORD
  5
1FB
102
{ACAD_REACTORS
330
1D0
102
}
330
1D0
100
AcDbXrecord
340
1E
  0
XRECORD
  5
1FA
102
{ACAD_REACTORS
330
1CE
102
}
330
1CE
100
AcDbXrecord
340
1A
  0
MLINESTYLE
  5
17
102
{ACAD_REACTORS
330
16
102
}
330
16
100
AcDbMlineStyle
  2
STANDARD
 70
     0
  3

 62
   256
 51
90.0
 52
90.0
 71
     2
 49
0.5
 62
   256
  6
BYLAYER
 49
-0.5
 62
   256
  6
BYLAYER
  0
ENDSEC
  0
EOF
