  0
SECTION
  2
HEADER
  9
$ACADVER
  1
AC1012
  9
$DWGCODEPAGE
  3
dos932
  9
$INSBASE
 10
0.0
 20
0.0
 30
0.0
  9
$EXTMIN
 10
-0.0090630292066862
 20
0.9869389666558276
 30
-0.0015258207003583
  9
$EXTMAX
 10
287.0163123253922
 20
199.0155034058442
 30
0.0000000349246037
  9
$LIMMIN
 10
0.0
 20
0.0
  9
$LIMMAX
 10
297.0
 20
210.0
  9
$ORTHOMODE
 70
     0
  9
$REGENMODE
 70
     1
  9
$FILLMODE
 70
     1
  9
$QTEXTMODE
 70
     0
  9
$MIRRTEXT
 70
     1
  9
$DRAGMODE
 70
     2
  9
$LTSCALE
 40
15.0
  9
$OSMODE
 70
    37
  9
$ATTMODE
 70
     1
  9
$TEXTSIZE
 40
0.2
  9
$TRACEWID
 40
0.05
  9
$TEXTSTYLE
  7
GOTHIC
  9
$CLAYER
  8
CSLAYER1
  9
$CELTYPE
  6
BYLAYER
  9
$CECOLOR
 62
   256
  9
$CELTSCALE
 40
1.0
  9
$DELOBJ
 70
     1
  9
$DISPSILH
 70
     0
  9
$DIMSCALE
 40
1.0
  9
$DIMASZ
 40
0.18
  9
$DIMEXO
 40
0.0625
  9
$DIMDLI
 40
0.38
  9
$DIMRND
 40
0.0
  9
$DIMDLE
 40
0.0
  9
$DIMEXE
 40
0.18
  9
$DIMTP
 40
0.0
  9
$DIMTM
 40
0.0
  9
$DIMTXT
 40
0.18
  9
$DIMCEN
 40
0.09
  9
$DIMTSZ
 40
0.0
  9
$DIMTOL
 70
     0
  9
$DIMLIM
 70
     0
  9
$DIMTIH
 70
     1
  9
$DIMTOH
 70
     1
  9
$DIMSE1
 70
     0
  9
$DIMSE2
 70
     0
  9
$DIMTAD
 70
     0
  9
$DIMZIN
 70
     0
  9
$DIMBLK
  1

  9
$DIMASO
 70
     1
  9
$DIMSHO
 70
     1
  9
$DIMPOST
  1

  9
$DIMAPOST
  1

  9
$DIMALT
 70
     0
  9
$DIMALTD
 70
     2
  9
$DIMALTF
 40
25.4
  9
$DIMLFAC
 40
1.0
  9
$DIMTOFL
 70
     0
  9
$DIMTVP
 40
0.0
  9
$DIMTIX
 70
     0
  9
$DIMSOXD
 70
     0
  9
$DIMSAH
 70
     0
  9
$DIMBLK1
  1

  9
$DIMBLK2
  1

  9
$DIMSTYLE
  2
STANDARD
  9
$DIMCLRD
 70
     0
  9
$DIMCLRE
 70
     0
  9
$DIMCLRT
 70
     0
  9
$DIMTFAC
 40
1.0
  9
$DIMGAP
 40
0.09
  9
$DIMJUST
 70
     0
  9
$DIMSD1
 70
     0
  9
$DIMSD2
 70
     0
  9
$DIMTOLJ
 70
     1
  9
$DIMTZIN
 70
     0
  9
$DIMALTZ
 70
     0
  9
$DIMALTTZ
 70
     0
  9
$DIMFIT
 70
     3
  9
$DIMUPT
 70
     0
  9
$DIMUNIT
 70
     2
  9
$DIMDEC
 70
     4
  9
$DIMTDEC
 70
     4
  9
$DIMALTU
 70
     2
  9
$DIMALTTD
 70
     2
  9
$DIMTXSTY
  7
STANDARD
  9
$DIMAUNIT
 70
     0
  9
$LUNITS
 70
     2
  9
$LUPREC
 70
     4
  9
$SKETCHINC
 40
0.1
  9
$FILLETRAD
 40
0.0
  9
$AUNITS
 70
     0
  9
$AUPREC
 70
     0
  9
$MENU
  1
ACAD
  9
$ELEVATION
 40
0.0
  9
$PELEVATION
 40
0.0
  9
$THICKNESS
 40
0.0
  9
$LIMCHECK
 70
     0
  9
$BLIPMODE
 70
     1
  9
$CHAMFERA
 40
0.0
  9
$CHAMFERB
 40
0.0
  9
$CHAMFERC
 40
0.0
  9
$CHAMFERD
 40
0.0
  9
$SKPOLY
 70
     0
  9
$TDCREATE
 40
2453482.000000000
  9
$TDUPDATE
 40
2453516.445894259
  9
$TDINDWG
 40
0.0006668056
  9
$TDUSRTIMER
 40
0.0006668056
  9
$USRTIMER
 70
     1
  9
$ANGBASE
 50
0.0
  9
$ANGDIR
 70
     0
  9
$PDMODE
 70
     0
  9
$PDSIZE
 40
0.0
  9
$PLINEWID
 40
0.0
  9
$COORDS
 70
     0
  9
$SPLFRAME
 70
     0
  9
$SPLINETYPE
 70
     6
  9
$SPLINESEGS
 70
     8
  9
$ATTDIA
 70
     0
  9
$ATTREQ
 70
     1
  9
$HANDLING
 70
-16383
  9
$HANDSEED
  5
232
  9
$SURFTAB1
 70
     6
  9
$SURFTAB2
 70
     6
  9
$SURFTYPE
 70
     6
  9
$SURFU
 70
     6
  9
$SURFV
 70
     6
  9
$UCSNAME
  2

  9
$UCSORG
 10
0.0
 20
0.0
 30
0.0
  9
$UCSXDIR
 10
1.0
 20
0.0
 30
0.0
  9
$UCSYDIR
 10
0.0
 20
1.0
 30
0.0
  9
$PUCSNAME
  2

  9
$PUCSORG
 10
0.0
 20
0.0
 30
0.0
  9
$PUCSXDIR
 10
1.0
 20
0.0
 30
0.0
  9
$PUCSYDIR
 10
0.0
 20
1.0
 30
0.0
  9
$USERI1
 70
     0
  9
$USERI2
 70
     0
  9
$USERI3
 70
     0
  9
$USERI4
 70
     0
  9
$USERI5
 70
     0
  9
$USERR1
 40
0.0
  9
$USERR2
 40
0.0
  9
$USERR3
 40
0.0
  9
$USERR4
 40
0.0
  9
$USERR5
 40
0.0
  9
$WORLDVIEW
 70
     1
  9
$SHADEDGE
 70
     3
  9
$SHADEDIF
 70
    70
  9
$TILEMODE
 70
     1
  9
$MAXACTVP
 70
    64
  9
$PINSBASE
 10
0.0
 20
0.0
 30
0.0
  9
$PLIMCHECK
 70
     0
  9
$PEXTMIN
 10
1.000000000000000E+20
 20
1.000000000000000E+20
 30
1.000000000000000E+20
  9
$PEXTMAX
 10
-1.000000000000000E+20
 20
-1.000000000000000E+20
 30
-1.000000000000000E+20
  9
$PLIMMIN
 10
0.0
 20
0.0
  9
$PLIMMAX
 10
12.0
 20
9.0
  9
$UNITMODE
 70
     0
  9
$VISRETAIN
 70
     1
  9
$PLINEGEN
 70
     0
  9
$PSLTSCALE
 70
     1
  9
$TREEDEPTH
 70
  3020
  9
$PICKSTYLE
 70
     3
  9
$CMLSTYLE
  2
STANDARD
  9
$CMLJUST
 70
     0
  9
$CMLSCALE
 40
1.0
  9
$SAVEIMAGES
 70
     1
  0
ENDSEC
  0
SECTION
  2
CLASSES
  0
CLASS
  1
ACDBDICTIONARYWDFLT
  2
AcDbDictionaryWithDefault
  3
AutoCAD 2000
 90
    32768
280
     0
281
     0
  0
CLASS
  1
ACDBPLACEHOLDER
  2
AcDbPlaceHolder
  3
AutoCAD 2000
 90
    32768
280
     0
281
     0
  0
CLASS
  1
LAYOUT
  2
AcDbLayout
  3
AutoCAD 2000
 90
    32768
280
     0
281
     0
  0
CLASS
  1
DICTIONARYVAR
  2
AcDbDictionaryVar
  3
AutoCAD 2000
 90
    32768
280
     0
281
     0
  0
CLASS
  1
LONG_TRANSACTION
  2
AcDbLongTransaction
  3
AutoCAD 2000
 90
    32768
280
     0
281
     0
  0
CLASS
  1
LWPOLYLINE
  2
AcDbPolyline
  3
AutoCAD 2000
 90
    32768
280
     0
281
     1
  0
CLASS
  1
HATCH
  2
AcDbHatch
  3
AutoCAD 2000
 90
    32768
280
     0
281
     1
  0
CLASS
  1
XRECORD
  2
AcDbXrecord
  3
AutoCAD 2000
 90
    32768
280
     0
281
     0
  0
CLASS
  1
LONG_TRANSACTION
  2
AcDbLongTransaction
  3
AutoCAD 2000
 90
    32768
280
     0
281
     0
  0
CLASS
  1
LWPOLYLINE
  2
AcDbPolyline
  3
AutoCAD 2000
 90
    32768
280
     0
281
     1
  0
CLASS
  1
HATCH
  2
AcDbHatch
  3
AutoCAD 2000
 90
    32768
280
     0
281
     1
  0
CLASS
  1
XRECORD
  2
AcDbXrecord
  3
AutoCAD 2000
 90
    32768
280
     0
281
     0
  0
ENDSEC
  0
SECTION
  2
TABLES
  0
TABLE
  2
VPORT
  5
8
330
0
100
AcDbSymbolTable
 70
     2
  0
VPORT
  5
22F
330
8
100
AcDbSymbolTableRecord
100
AcDbViewportTableRecord
  2
*ACTIVE
 70
     0
 10
0.0
 20
0.0
 11
1.0
 21
1.0
 12
143.5036246480927
 22
100.00122118625
 13
0.0
 23
0.0
 14
1.0
 24
1.0
 15
0.0
 25
0.0
 16
0.0
 26
0.0
 36
1.0
 17
0.0
 27
0.0
 37
0.0
 40
199.5156375138256
 41
1.510025062656641
 42
50.0
 43
0.0
 44
0.0
 50
0.0
 51
0.0
 71
     0
 72
   100
 73
     1
 74
     1
 75
     0
 76
     0
 77
     0
 78
     0
  0
ENDTAB
  0
TABLE
  2
LTYPE
  5
5
330
0
100
AcDbSymbolTable
 70
     3
  0
LTYPE
  5
13
330
5
100
AcDbSymbolTableRecord
100
AcDbLinetypeTableRecord
  2
BYBLOCK
 70
     0
  3

 72
    65
 73
     0
 40
0.0
  0
LTYPE
  5
14
330
5
100
AcDbSymbolTableRecord
100
AcDbLinetypeTableRecord
  2
BYLAYER
 70
     0
  3

 72
    65
 73
     0
 40
0.0
  0
LTYPE
  5
15
330
5
100
AcDbSymbolTableRecord
100
AcDbLinetypeTableRecord
  2
CONTINUOUS
 70
     0
  3
Solid line
 72
    65
 73
     0
 40
0.0
  0
LTYPE
  5
25
330
5
100
AcDbSymbolTableRecord
100
AcDbLinetypeTableRecord
  2
DOT
 70
     0
  3
...............................................
 72
    65
 73
     2
 40
0.25
 49
0.0
 74
     0
 49
-0.25
 74
     0
  0
LTYPE
  5
28
330
5
100
AcDbSymbolTableRecord
100
AcDbLinetypeTableRecord
  2
CENTER
 70
     0
  3
____ _ ____ _ ____ _ ____ _ ____ _ ____ _ ____ 
 72
    65
 73
     4
 40
2.0
 49
1.25
 74
     0
 49
-0.25
 74
     0
 49
0.25
 74
     0
 49
-0.25
 74
     0
  0
ENDTAB
  0
TABLE
  2
LAYER
  5
2
330
0
100
AcDbSymbolTable
 70
     3
  0
LAYER
  5
10
330
2
100
AcDbSymbolTableRecord
100
AcDbLayerTableRecord
  2
0
 70
     0
 62
     7
  6
CONTINUOUS
  0
LAYER
  5
22
330
2
100
AcDbSymbolTableRecord
100
AcDbLayerTableRecord
  2
CSLAYER1
 70
     0
 62
     7
  6
CONTINUOUS
  0
LAYER
  5
214
330
2
100
AcDbSymbolTableRecord
100
AcDbLayerTableRecord
  2
DEFPOINTS
 70
     0
 62
     7
  6
CONTINUOUS
  0
ENDTAB
  0
TABLE
  2
STYLE
  5
3
330
0
100
AcDbSymbolTable
 70
     3
  0
STYLE
  5
11
330
3
100
AcDbSymbolTableRecord
100
AcDbTextStyleTableRecord
  2
STANDARD
 70
     0
 40
0.0
 41
1.0
 50
0.0
 71
     0
 42
0.2
  3
txt
  4
extfont.shx
  0
STYLE
  5
3A
330
3
100
AcDbSymbolTableRecord
100
AcDbTextStyleTableRecord
  2
FX_FONT
 70
     0
 40
1.0
 41
1.0
 50
0.0
 71
     0
 42
1.0
  3
monotxt
  4
bigfont
  0
STYLE
  5
20C
330
3
100
AcDbSymbolTableRecord
100
AcDbTextStyleTableRecord
  2
GOTHIC
 70
     0
 40
0.0
 41
1.0
 50
0.0
 71
     0
 42
0.2
  3
txt.shx
  4
extfont.shx
  0
ENDTAB
  0
TABLE
  2
VIEW
  5
6
330
0
100
AcDbSymbolTable
 70
     0
  0
ENDTAB
  0
TABLE
  2
UCS
  5
7
330
0
100
AcDbSymbolTable
 70
     0
  0
ENDTAB
  0
TABLE
  2
APPID
  5
9
330
0
100
AcDbSymbolTable
 70
     1
  0
APPID
  5
12
330
9
100
AcDbSymbolTableRecord
100
AcDbRegAppTableRecord
  2
ACAD
 70
     0
  0
ENDTAB
  0
TABLE
  2
DIMSTYLE
  5
A
330
0
100
AcDbSymbolTable
 70
     1
  0
DIMSTYLE
105
209
330
A
100
AcDbSymbolTableRecord
100
AcDbDimStyleTableRecord
  2
STANDARD
 70
     0
  3

  4

  5

  6

  7

 40
1.0
 41
0.18
 42
0.0625
 43
0.38
 44
0.18
 45
0.0
 46
0.0
 47
0.0
 48
0.0
140
0.18
141
0.09
142
0.0
143
25.4
144
1.0
145
0.0
146
1.0
147
0.09
 71
     0
 72
     0
 73
     1
 74
     1
 75
     0
 76
     0
 77
     0
 78
     0
170
     0
171
     2
172
     0
173
     0
174
     0
175
     0
176
     0
177
     0
178
     0
270
     2
271
     4
272
     4
273
     2
274
     2
340
11
275
     0
280
     0
281
     0
282
     0
283
     1
284
     0
285
     0
286
     0
287
     3
288
     0
  0
ENDTAB
  0
TABLE
  2
BLOCK_RECORD
  5
1
330
0
100
AcDbSymbolTable
 70
    18
  0
BLOCK_RECORD
  5
1E
102
{ACAD_XDICTIONARY
360
212
102
}
330
1
100
AcDbSymbolTableRecord
100
AcDbBlockTableRecord
  2
*MODEL_SPACE
  0
BLOCK_RECORD
  5
1A
102
{ACAD_XDICTIONARY
360
210
102
}
330
1
100
AcDbSymbolTableRecord
100
AcDbBlockTableRecord
  2
*PAPER_SPACE
  0
BLOCK_RECORD
  5
3F
330
1
100
AcDbSymbolTableRecord
100
AcDbBlockTableRecord
  2
*D0
  0
BLOCK_RECORD
  5
4A
330
1
100
AcDbSymbolTableRecord
100
AcDbBlockTableRecord
  2
*D1
  0
BLOCK_RECORD
  5
55
330
1
100
AcDbSymbolTableRecord
100
AcDbBlockTableRecord
  2
FXDIM0000
  0
BLOCK_RECORD
  5
5D
330
1
100
AcDbSymbolTableRecord
100
AcDbBlockTableRecord
  2
FXDIM0001
  0
BLOCK_RECORD
  5
65
330
1
100
AcDbSymbolTableRecord
100
AcDbBlockTableRecord
  2
FXDIM0002
  0
BLOCK_RECORD
  5
6D
330
1
100
AcDbSymbolTableRecord
100
AcDbBlockTableRecord
  2
*D5
  0
BLOCK_RECORD
  5
77
330
1
100
AcDbSymbolTableRecord
100
AcDbBlockTableRecord
  2
*D6
  0
BLOCK_RECORD
  5
82
330
1
100
AcDbSymbolTableRecord
100
AcDbBlockTableRecord
  2
*D7
  0
BLOCK_RECORD
  5
8C
330
1
100
AcDbSymbolTableRecord
100
AcDbBlockTableRecord
  2
*D8
  0
BLOCK_RECORD
  5
96
330
1
100
AcDbSymbolTableRecord
100
AcDbBlockTableRecord
  2
*D9
  0
BLOCK_RECORD
  5
A0
330
1
100
AcDbSymbolTableRecord
100
AcDbBlockTableRecord
  2
*D10
  0
BLOCK_RECORD
  5
AB
330
1
100
AcDbSymbolTableRecord
100
AcDbBlockTableRecord
  2
*D11
  0
BLOCK_RECORD
  5
B6
330
1
100
AcDbSymbolTableRecord
100
AcDbBlockTableRecord
  2
*D12
  0
BLOCK_RECORD
  5
C1
330
1
100
AcDbSymbolTableRecord
100
AcDbBlockTableRecord
  2
*D13
  0
BLOCK_RECORD
  5
CC
330
1
100
AcDbSymbolTableRecord
100
AcDbBlockTableRecord
  2
*D14
  0
BLOCK_RECORD
  5
D7
330
1
100
AcDbSymbolTableRecord
100
AcDbBlockTableRecord
  2
*D15
  0
BLOCK_RECORD
  5
DE
330
1
100
AcDbSymbolTableRecord
100
AcDbBlockTableRecord
  2
FXDIM0003
  0
BLOCK_RECORD
  5
215
330
1
100
AcDbSymbolTableRecord
100
AcDbBlockTableRecord
  2
*D17
  0
ENDTAB
  0
ENDSEC
  0
SECTION
  2
BLOCKS
  0
BLOCK
  5
1F
330
1E
100
AcDbEntity
  8
0
100
AcDbBlockBegin
  2
*MODEL_SPACE
 70
     0
 10
0.0
 20
0.0
 30
0.0
  3
*MODEL_SPACE
  1

  0
ENDBLK
  5
20
330
1E
100
AcDbEntity
  8
0
100
AcDbBlockEnd
  0
BLOCK
  5
1B
330
1A
100
AcDbEntity
 67
     1
  8
0
100
AcDbBlockBegin
  2
*PAPER_SPACE
 70
     0
 10
0.0
 20
0.0
 30
0.0
  3
*PAPER_SPACE
  1

  0
ENDBLK
  5
1C
330
1A
100
AcDbEntity
 67
     1
  8
0
100
AcDbBlockEnd
  0
BLOCK
  5
40
330
3F
100
AcDbEntity
  8
0
100
AcDbBlockBegin
  2
*D0
 70
     1
 10
0.0
 20
0.0
 30
0.0
  3
*D0
  1

  0
TEXT
  5
41
330
3F
100
AcDbEntity
  8
CSLAYER1
 62
     4
100
AcDbText
 10
259.484283
 20
124.2790649999998
 30
0.0
 40
3.2
  1
27
 50
90.0
 41
1.199999999999998
 51
15.0
  7
FX_FONT
 72
     5
 11
259.484283
 21
130.6790649999999
 31
0.0
100
AcDbText
  0
LINE
  5
42
330
3F
100
AcDbEntity
  8
CSLAYER1
  6
CONTINUOUS
 62
     4
100
AcDbLine
 10
259.9842859999999
 20
113.97907
 30
0.0
 11
259.9842859999999
 21
140.97907
 31
0.0
  0
LINE
  5
43
330
3F
100
AcDbEntity
  8
CSLAYER1
  6
CONTINUOUS
 62
     4
100
AcDbLine
 10
259.9842859999999
 20
113.97907
 30
0.0
 11
259.2078289999999
 21
116.876847
 31
0.0
  0
LINE
  5
44
330
3F
100
AcDbEntity
  8
CSLAYER1
  6
CONTINUOUS
 62
     4
100
AcDbLine
 10
259.9842859999999
 20
113.97907
 30
0.0
 11
260.7607429999999
 21
116.876847
 31
0.0
  0
LINE
  5
45
330
3F
100
AcDbEntity
  8
CSLAYER1
  6
CONTINUOUS
 62
     4
100
AcDbLine
 10
259.9842859999999
 20
140.97907
 30
0.0
 11
259.2078289999999
 21
138.0812919999998
 31
0.0
  0
LINE
  5
46
330
3F
100
AcDbEntity
  8
CSLAYER1
  6
CONTINUOUS
 62
     4
100
AcDbLine
 10
259.9842859999999
 20
140.97907
 30
0.0
 11
260.7607429999999
 21
138.0812919999998
 31
0.0
  0
LINE
  5
47
330
3F
100
AcDbEntity
  8
CSLAYER1
  6
CONTINUOUS
 62
     4
100
AcDbLine
 10
246.0861519999999
 20
113.97907
 30
0.0
 11
260.984286
 21
113.97907
 31
0.0
  0
LINE
  5
48
330
3F
100
AcDbEntity
  8
CSLAYER1
  6
CONTINUOUS
 62
     4
100
AcDbLine
 10
246.0861519999999
 20
140.97907
 30
0.0
 11
260.984286
 21
140.97907
 31
0.0
  0
ENDBLK
  5
49
330
3F
100
AcDbEntity
  8
0
100
AcDbBlockEnd
  0
BLOCK
  5
4B
330
4A
100
AcDbEntity
  8
0
100
AcDbBlockBegin
  2
*D1
 70
     1
 10
0.0
 20
0.0
 30
0.0
  3
*D1
  1

  0
TEXT
  5
4C
330
4A
100
AcDbEntity
  8
CSLAYER1
 62
     4
100
AcDbText
 10
216.8829339999999
 20
140.8248129999998
 30
0.0
 40
3.2
  1
22
 50
45.00000633034858
 41
1.200000026624203
 51
15.0
  7
FX_FONT
 72
     5
 11
221.408417
 21
145.3502969999999
 31
0.0
100
AcDbText
  0
LINE
  5
4D
330
4A
100
AcDbEntity
  8
CSLAYER1
  6
CONTINUOUS
 62
     4
100
AcDbLine
 10
211.72105
 20
134.955834
 30
0.0
 11
227.277399
 21
150.512183
 31
0.0
  0
LINE
  5
4E
330
4A
100
AcDbEntity
  8
CSLAYER1
  6
CONTINUOUS
 62
     4
100
AcDbLine
 10
211.72105
 20
134.955834
 30
0.0
 11
213.2210499999999
 21
137.55391
 31
0.0
  0
LINE
  5
4F
330
4A
100
AcDbEntity
  8
CSLAYER1
  6
CONTINUOUS
 62
     4
100
AcDbLine
 10
211.72105
 20
134.955834
 30
0.0
 11
214.319126
 21
136.455834
 31
0.0
  0
LINE
  5
50
330
4A
100
AcDbEntity
  8
CSLAYER1
  6
CONTINUOUS
 62
     4
100
AcDbLine
 10
227.277399
 20
150.512183
 30
0.0
 11
225.777399
 21
147.914107
 31
0.0
  0
LINE
  5
51
330
4A
100
AcDbEntity
  8
CSLAYER1
  6
CONTINUOUS
 62
     4
100
AcDbLine
 10
227.277399
 20
150.512183
 30
0.0
 11
224.679323
 21
149.012183
 31
0.0
  0
LINE
  5
52
330
4A
100
AcDbEntity
  8
CSLAYER1
  6
CONTINUOUS
 62
     4
100
AcDbLine
 10
223.283725
 20
123.393159
 30
0.0
 11
211.013943
 21
135.6629409999999
 31
0.0
  0
LINE
  5
53
330
4A
100
AcDbEntity
  8
CSLAYER1
  6
CONTINUOUS
 62
     4
100
AcDbLine
 10
238.492637
 20
139.2969459999999
 30
0.0
 11
226.5702919999998
 21
151.21929
 31
0.0
  0
ENDBLK
  5
54
330
4A
100
AcDbEntity
  8
0
100
AcDbBlockEnd
  0
BLOCK
  5
56
330
55
100
AcDbEntity
  8
0
100
AcDbBlockBegin
  2
FXDIM0000
 70
     0
 10
0.0
 20
0.0
 30
0.0
  3
FXDIM0000
  1

  0
LINE
  5
57
330
55
100
AcDbEntity
  8
CSLAYER1
  6
CONTINUOUS
 62
     4
100
AcDbLine
 10
226.414252
 20
117.781402
 30
0.0
 11
215.2640009999999
 21
98.86160400000001
 31
0.0
  0
LINE
  5
58
330
55
100
AcDbEntity
  8
CSLAYER1
  6
CONTINUOUS
 62
     4
100
AcDbLine
 10
226.414252
 20
117.781402
 30
0.0
 11
225.611898
 21
114.8906879999999
 31
0.0
  0
LINE
  5
59
330
55
100
AcDbEntity
  8
CSLAYER1
  6
CONTINUOUS
 62
     4
100
AcDbLine
 10
226.414252
 20
117.781402
 30
0.0
 11
224.2740359999999
 21
115.679148
 31
0.0
  0
LINE
  5
5A
330
55
100
AcDbEntity
  8
CSLAYER1
  6
CONTINUOUS
 62
     4
100
AcDbLine
 10
215.2640009999999
 20
98.86160400000001
 30
0.0
 11
239.664001
 21
98.86160400000001
 31
0.0
  0
TEXT
  5
5B
330
55
100
AcDbEntity
  8
CSLAYER1
 62
     4
100
AcDbText
 10
216.750177
 20
99.36161
 30
0.0
 40
3.2
  1
M4ネジ深１０
 41
0.9292035398230089
 51
15.0
  7
FX_FONT
 72
     5
 11
239.150177
 21
99.36161
 31
0.0
100
AcDbText
  0
ENDBLK
  5
5C
330
55
100
AcDbEntity
  8
0
100
AcDbBlockEnd
  0
BLOCK
  5
5E
330
5D
100
AcDbEntity
  8
0
100
AcDbBlockBegin
  2
FXDIM0001
 70
     0
 10
0.0
 20
0.0
 30
0.0
  3
FXDIM0001
  1

  0
LINE
  5
5F
330
5D
100
AcDbEntity
  8
CSLAYER1
  6
CONTINUOUS
 62
     4
100
AcDbLine
 10
236.9168089999999
 20
131.70819
 30
0.0
 11
245.964108
 21
154.5125529999999
 31
0.0
  0
LINE
  5
60
330
5D
100
AcDbEntity
  8
CSLAYER1
  6
CONTINUOUS
 62
     4
100
AcDbLine
 10
236.9168089999999
 20
131.70819
 30
0.0
 11
237.2637
 21
134.688067
 31
0.0
  0
LINE
  5
61
330
5D
100
AcDbEntity
  8
CSLAYER1
  6
CONTINUOUS
 62
     4
100
AcDbLine
 10
236.9168089999999
 20
131.70819
 30
0.0
 11
238.707164
 21
134.1153939999998
 31
0.0
  0
LINE
  5
62
330
5D
100
AcDbEntity
  8
CSLAYER1
  6
CONTINUOUS
 62
     4
100
AcDbLine
 10
245.964108
 20
154.5125529999999
 30
0.0
 11
270.364109
 21
154.5125529999999
 31
0.0
  0
TEXT
  5
63
330
5D
100
AcDbEntity
  8
CSLAYER1
 62
     4
100
AcDbText
 10
246.964123
 20
155.012558
 30
0.0
 40
3.2
  1
Rc1/8ネジ
 41
0.9813084550233638
 51
15.0
  7
FX_FONT
 72
     5
 11
269.364124
 21
155.012558
 31
0.0
100
AcDbText
  0
ENDBLK
  5
64
330
5D
100
AcDbEntity
  8
0
100
AcDbBlockEnd
  0
BLOCK
  5
66
330
65
100
AcDbEntity
  8
0
100
AcDbBlockBegin
  2
FXDIM0002
 70
     0
 10
0.0
 20
0.0
 30
0.0
  3
FXDIM0002
  1

  0
LINE
  5
67
330
65
100
AcDbEntity
  8
CSLAYER1
  6
CONTINUOUS
 62
     4
100
AcDbLine
 10
168.6333459999999
 20
136.108114
 30
0.0
 11
186.9986219999999
 21
161.4977559999998
 31
0.0
  0
LINE
  5
68
330
65
100
AcDbEntity
  8
CSLAYER1
  6
CONTINUOUS
 62
     4
100
AcDbLine
 10
168.6333459999999
 20
136.108114
 30
0.0
 11
169.7025629999999
 21
138.911108
 31
0.0
  0
LINE
  5
69
330
65
100
AcDbEntity
  8
CSLAYER1
  6
CONTINUOUS
 62
     4
100
AcDbLine
 10
168.6333459999999
 20
136.108114
 30
0.0
 11
170.960812
 21
138.00097
 31
0.0
  0
LINE
  5
6A
330
65
100
AcDbEntity
  8
CSLAYER1
  6
CONTINUOUS
 62
     4
100
AcDbLine
 10
186.9986219999999
 20
161.4977559999998
 30
0.0
 11
211.398623
 21
161.4977559999998
 31
0.0
  0
TEXT
  5
6B
330
65
100
AcDbEntity
  8
CSLAYER1
 62
     4
100
AcDbText
 10
187.998654
 20
161.997757
 30
0.0
 40
3.2
  1
Rc1/8ネジ
 41
0.9813084112149519
 51
15.0
  7
FX_FONT
 72
     5
 11
210.398654
 21
161.997757
 31
0.0
100
AcDbText
  0
ENDBLK
  5
6C
330
65
100
AcDbEntity
  8
0
100
AcDbBlockEnd
  0
BLOCK
  5
6E
330
6D
100
AcDbEntity
  8
0
100
AcDbBlockBegin
  2
*D5
 70
     1
 10
0.0
 20
0.0
 30
0.0
  3
*D5
  1

  0
TEXT
  5
6F
330
6D
100
AcDbEntity
  8
CSLAYER1
 62
     4
100
AcDbText
 10
65.370703
 20
157.4212649999998
 30
0.0
 40
3.2
  1
7
 41
1.500000000000001
 51
15.0
  7
FX_FONT
 72
     5
 11
68.57070300000001
 21
157.4212649999998
 31
0.0
100
AcDbText
  0
LINE
  5
70
330
6D
100
AcDbEntity
  8
CSLAYER1
  6
CONTINUOUS
 62
     4
100
AcDbLine
 10
63.4707
 20
156.921261
 30
0.0
 11
70.47069999999997
 21
156.921261
 31
0.0
  0
LINE
  5
71
330
6D
100
AcDbEntity
  8
CSLAYER1
  6
CONTINUOUS
 62
     4
100
AcDbLine
 10
63.4707
 20
156.921261
 30
0.0
 11
66.368477
 21
157.6977179999999
 31
0.0
  0
LINE
  5
72
330
6D
100
AcDbEntity
  8
CSLAYER1
  6
CONTINUOUS
 62
     4
100
AcDbLine
 10
63.4707
 20
156.921261
 30
0.0
 11
66.368477
 21
156.1448039999999
 31
0.0
  0
LINE
  5
73
330
6D
100
AcDbEntity
  8
CSLAYER1
  6
CONTINUOUS
 62
     4
100
AcDbLine
 10
70.47069999999997
 20
156.921261
 30
0.0
 11
67.57292199999999
 21
157.6977179999999
 31
0.0
  0
LINE
  5
74
330
6D
100
AcDbEntity
  8
CSLAYER1
  6
CONTINUOUS
 62
     4
100
AcDbLine
 10
70.47069999999997
 20
156.921261
 30
0.0
 11
67.57292199999999
 21
156.1448039999999
 31
0.0
  0
LINE
  5
75
330
6D
100
AcDbEntity
  8
CSLAYER1
  6
CONTINUOUS
 62
     4
100
AcDbLine
 10
70.47069999999997
 20
139.51907
 30
0.0
 11
70.47069999999997
 21
157.921261
 31
0.0
  0
ENDBLK
  5
76
330
6D
100
AcDbEntity
  8
0
100
AcDbBlockEnd
  0
BLOCK
  5
78
330
77
100
AcDbEntity
  8
0
100
AcDbBlockBegin
  2
*D6
 70
     1
 10
0.0
 20
0.0
 30
0.0
  3
*D6
  1

  0
TEXT
  5
79
330
77
100
AcDbEntity
  8
CSLAYER1
 62
     4
100
AcDbText
 10
106.770703
 20
163.4212649999998
 30
0.0
 40
3.2
  1
93
 41
1.200000000000001
 51
15.0
  7
FX_FONT
 72
     5
 11
113.170703
 21
163.4212649999998
 31
0.0
100
AcDbText
  0
LINE
  5
7A
330
77
100
AcDbEntity
  8
CSLAYER1
  6
CONTINUOUS
 62
     4
100
AcDbLine
 10
63.4707
 20
162.921261
 30
0.0
 11
156.4707
 21
162.921261
 31
0.0
  0
LINE
  5
7B
330
77
100
AcDbEntity
  8
CSLAYER1
  6
CONTINUOUS
 62
     4
100
AcDbLine
 10
63.4707
 20
162.921261
 30
0.0
 11
66.368477
 21
163.6977179999998
 31
0.0
  0
LINE
  5
7C
330
77
100
AcDbEntity
  8
CSLAYER1
  6
CONTINUOUS
 62
     4
100
AcDbLine
 10
63.4707
 20
162.921261
 30
0.0
 11
66.368477
 21
162.1448039999999
 31
0.0
  0
LINE
  5
7D
330
77
100
AcDbEntity
  8
CSLAYER1
  6
CONTINUOUS
 62
     4
100
AcDbLine
 10
156.4707
 20
162.921261
 30
0.0
 11
153.572922
 21
163.6977179999998
 31
0.0
  0
LINE
  5
7E
330
77
100
AcDbEntity
  8
CSLAYER1
  6
CONTINUOUS
 62
     4
100
AcDbLine
 10
156.4707
 20
162.921261
 30
0.0
 11
153.572922
 21
162.1448039999999
 31
0.0
  0
LINE
  5
7F
330
77
100
AcDbEntity
  8
CSLAYER1
  6
CONTINUOUS
 62
     4
100
AcDbLine
 10
63.4707
 20
134.97907
 30
0.0
 11
63.4707
 21
163.921261
 31
0.0
  0
LINE
  5
80
330
77
100
AcDbEntity
  8
CSLAYER1
  6
CONTINUOUS
 62
     4
100
AcDbLine
 10
156.4707
 20
145.47907
 30
0.0
 11
156.4707
 21
163.921261
 31
0.0
  0
ENDBLK
  5
81
330
77
100
AcDbEntity
  8
0
100
AcDbBlockEnd
  0
BLOCK
  5
83
330
82
100
AcDbEntity
  8
0
100
AcDbBlockBegin
  2
*D7
 70
     1
 10
0.0
 20
0.0
 30
0.0
  3
*D7
  1

  0
TEXT
  5
84
330
82
100
AcDbEntity
  8
CSLAYER1
 62
     4
100
AcDbText
 10
163.2707029999999
 20
163.4212649999998
 30
0.0
 40
3.2
  1
20
 41
1.200000000000001
 51
15.0
  7
FX_FONT
 72
     5
 11
169.6707029999999
 21
163.4212649999998
 31
0.0
100
AcDbText
  0
LINE
  5
85
330
82
100
AcDbEntity
  8
CSLAYER1
  6
CONTINUOUS
 62
     4
100
AcDbLine
 10
156.4707
 20
162.921261
 30
0.0
 11
176.4707
 21
162.921261
 31
0.0
  0
LINE
  5
86
330
82
100
AcDbEntity
  8
CSLAYER1
  6
CONTINUOUS
 62
     4
100
AcDbLine
 10
156.4707
 20
162.921261
 30
0.0
 11
159.368477
 21
163.6977179999998
 31
0.0
  0
LINE
  5
87
330
82
100
AcDbEntity
  8
CSLAYER1
  6
CONTINUOUS
 62
     4
100
AcDbLine
 10
156.4707
 20
162.921261
 30
0.0
 11
159.368477
 21
162.1448039999999
 31
0.0
  0
LINE
  5
88
330
82
100
AcDbEntity
  8
CSLAYER1
  6
CONTINUOUS
 62
     4
100
AcDbLine
 10
176.4707
 20
162.921261
 30
0.0
 11
173.572922
 21
163.6977179999998
 31
0.0
  0
LINE
  5
89
330
82
100
AcDbEntity
  8
CSLAYER1
  6
CONTINUOUS
 62
     4
100
AcDbLine
 10
176.4707
 20
162.921261
 30
0.0
 11
173.572922
 21
162.1448039999999
 31
0.0
  0
LINE
  5
8A
330
82
100
AcDbEntity
  8
CSLAYER1
  6
CONTINUOUS
 62
     4
100
AcDbLine
 10
176.4707
 20
140.47907
 30
0.0
 11
176.4707
 21
163.921261
 31
0.0
  0
ENDBLK
  5
8B
330
82
100
AcDbEntity
  8
0
100
AcDbBlockEnd
  0
BLOCK
  5
8D
330
8C
100
AcDbEntity
  8
0
100
AcDbBlockBegin
  2
*D8
 70
     1
 10
0.0
 20
0.0
 30
0.0
  3
*D8
  1

  0
TEXT
  5
8E
330
8C
100
AcDbEntity
  8
CSLAYER1
 62
     4
100
AcDbText
 10
122.270703
 20
157.4212649999998
 30
0.0
 40
3.2
  1
62
 41
1.200000000000001
 51
15.0
  7
FX_FONT
 72
     5
 11
128.670703
 21
157.4212649999998
 31
0.0
100
AcDbText
  0
LINE
  5
8F
330
8C
100
AcDbEntity
  8
CSLAYER1
  6
CONTINUOUS
 62
     4
100
AcDbLine
 10
94.4707
 20
156.921261
 30
0.0
 11
156.4707
 21
156.921261
 31
0.0
  0
LINE
  5
90
330
8C
100
AcDbEntity
  8
CSLAYER1
  6
CONTINUOUS
 62
     4
100
AcDbLine
 10
94.4707
 20
156.921261
 30
0.0
 11
97.368477
 21
157.6977179999999
 31
0.0
  0
LINE
  5
91
330
8C
100
AcDbEntity
  8
CSLAYER1
  6
CONTINUOUS
 62
     4
100
AcDbLine
 10
94.4707
 20
156.921261
 30
0.0
 11
97.368477
 21
156.1448039999999
 31
0.0
  0
LINE
  5
92
330
8C
100
AcDbEntity
  8
CSLAYER1
  6
CONTINUOUS
 62
     4
100
AcDbLine
 10
156.4707
 20
156.921261
 30
0.0
 11
153.572922
 21
157.6977179999999
 31
0.0
  0
LINE
  5
93
330
8C
100
AcDbEntity
  8
CSLAYER1
  6
CONTINUOUS
 62
     4
100
AcDbLine
 10
156.4707
 20
156.921261
 30
0.0
 11
153.572922
 21
156.1448039999999
 31
0.0
  0
LINE
  5
94
330
8C
100
AcDbEntity
  8
CSLAYER1
  6
CONTINUOUS
 62
     4
100
AcDbLine
 10
94.4707
 20
145.47907
 30
0.0
 11
94.4707
 21
157.921261
 31
0.0
  0
ENDBLK
  5
95
330
8C
100
AcDbEntity
  8
0
100
AcDbBlockEnd
  0
BLOCK
  5
97
330
96
100
AcDbEntity
  8
0
100
AcDbBlockBegin
  2
*D9
 70
     1
 10
0.0
 20
0.0
 30
0.0
  3
*D9
  1

  0
TEXT
  5
98
330
96
100
AcDbEntity
  8
CSLAYER1
 62
     4
100
AcDbText
 10
65.370703
 20
92.32991
 30
0.0
 40
3.2
  1
7
 41
1.500000000000001
 51
15.0
  7
FX_FONT
 72
     5
 11
68.57070300000001
 21
92.32991
 31
0.0
100
AcDbText
  0
LINE
  5
99
330
96
100
AcDbEntity
  8
CSLAYER1
  6
CONTINUOUS
 62
     4
100
AcDbLine
 10
63.4707
 20
91.82991300000001
 30
0.0
 11
70.47069999999997
 21
91.82991300000001
 31
0.0
  0
LINE
  5
9A
330
96
100
AcDbEntity
  8
CSLAYER1
  6
CONTINUOUS
 62
     4
100
AcDbLine
 10
63.4707
 20
91.82991300000001
 30
0.0
 11
66.368477
 21
92.60637
 31
0.0
  0
LINE
  5
9B
330
96
100
AcDbEntity
  8
CSLAYER1
  6
CONTINUOUS
 62
     4
100
AcDbLine
 10
63.4707
 20
91.82991300000001
 30
0.0
 11
66.368477
 21
91.05345599999999
 31
0.0
  0
LINE
  5
9C
330
96
100
AcDbEntity
  8
CSLAYER1
  6
CONTINUOUS
 62
     4
100
AcDbLine
 10
70.47069999999997
 20
91.82991300000001
 30
0.0
 11
67.57292199999999
 21
92.60637
 31
0.0
  0
LINE
  5
9D
330
96
100
AcDbEntity
  8
CSLAYER1
  6
CONTINUOUS
 62
     4
100
AcDbLine
 10
70.47069999999997
 20
91.82991300000001
 30
0.0
 11
67.57292199999999
 21
91.05345599999999
 31
0.0
  0
LINE
  5
9E
330
96
100
AcDbEntity
  8
CSLAYER1
  6
CONTINUOUS
 62
     4
100
AcDbLine
 10
70.47069999999997
 20
74.30466199999997
 30
0.0
 11
70.47069999999997
 21
92.829913
 31
0.0
  0
ENDBLK
  5
9F
330
96
100
AcDbEntity
  8
0
100
AcDbBlockEnd
  0
BLOCK
  5
A1
330
A0
100
AcDbEntity
  8
0
100
AcDbBlockBegin
  2
*D10
 70
     1
 10
0.0
 20
0.0
 30
0.0
  3
*D10
  1

  0
TEXT
  5
A2
330
A0
100
AcDbEntity
  8
CSLAYER1
 62
     4
100
AcDbText
 10
115.170703
 20
98.32990999999999
 30
0.0
 40
3.2
  1
113
 41
1.124999999999987
 51
15.0
  7
FX_FONT
 72
     5
 11
124.7707029999999
 21
98.32990999999999
 31
0.0
100
AcDbText
  0
LINE
  5
A3
330
A0
100
AcDbEntity
  8
CSLAYER1
  6
CONTINUOUS
 62
     4
100
AcDbLine
 10
63.4707
 20
97.829913
 30
0.0
 11
176.4707
 21
97.829913
 31
0.0
  0
LINE
  5
A4
330
A0
100
AcDbEntity
  8
CSLAYER1
  6
CONTINUOUS
 62
     4
100
AcDbLine
 10
63.4707
 20
97.829913
 30
0.0
 11
66.368477
 21
98.60637
 31
0.0
  0
LINE
  5
A5
330
A0
100
AcDbEntity
  8
CSLAYER1
  6
CONTINUOUS
 62
     4
100
AcDbLine
 10
63.4707
 20
97.829913
 30
0.0
 11
66.368477
 21
97.05345600000001
 31
0.0
  0
LINE
  5
A6
330
A0
100
AcDbEntity
  8
CSLAYER1
  6
CONTINUOUS
 62
     4
100
AcDbLine
 10
176.4707
 20
97.829913
 30
0.0
 11
173.572922
 21
98.60637
 31
0.0
  0
LINE
  5
A7
330
A0
100
AcDbEntity
  8
CSLAYER1
  6
CONTINUOUS
 62
     4
100
AcDbLine
 10
176.4707
 20
97.829913
 30
0.0
 11
173.572922
 21
97.05345600000001
 31
0.0
  0
LINE
  5
A8
330
A0
100
AcDbEntity
  8
CSLAYER1
  6
CONTINUOUS
 62
     4
100
AcDbLine
 10
63.4707
 20
73.44974999999998
 30
0.0
 11
63.4707
 21
98.829913
 31
0.0
  0
LINE
  5
A9
330
A0
100
AcDbEntity
  8
CSLAYER1
  6
CONTINUOUS
 62
     4
100
AcDbLine
 10
176.4707
 20
82.77906999999997
 30
0.0
 11
176.4707
 21
98.829913
 31
0.0
  0
ENDBLK
  5
AA
330
A0
100
AcDbEntity
  8
0
100
AcDbBlockEnd
  0
BLOCK
  5
AC
330
AB
100
AcDbEntity
  8
0
100
AcDbBlockBegin
  2
*D11
 70
     1
 10
0.0
 20
0.0
 30
0.0
  3
*D11
  1

  0
TEXT
  5
AD
330
AB
100
AcDbEntity
  8
CSLAYER1
 62
     4
100
AcDbText
 10
45.98221599999999
 20
124.2790649999998
 30
0.0
 40
3.2
  1
17
 50
90.0
 41
1.199999999999998
 51
15.0
  7
FX_FONT
 72
     5
 11
45.98221599999999
 21
130.6790649999999
 31
0.0
100
AcDbText
  0
LINE
  5
AE
330
AB
100
AcDbEntity
  8
CSLAYER1
  6
CONTINUOUS
 62
     4
100
AcDbLine
 10
46.48221599999999
 20
118.9790699999999
 30
0.0
 11
46.48221599999999
 21
135.97907
 31
0.0
  0
LINE
  5
AF
330
AB
100
AcDbEntity
  8
CSLAYER1
  6
CONTINUOUS
 62
     4
100
AcDbLine
 10
46.48221599999999
 20
118.9790699999999
 30
0.0
 11
45.705759
 21
121.876847
 31
0.0
  0
LINE
  5
B0
330
AB
100
AcDbEntity
  8
CSLAYER1
  6
CONTINUOUS
 62
     4
100
AcDbLine
 10
46.48221599999999
 20
118.9790699999999
 30
0.0
 11
47.25867299999999
 21
121.876847
 31
0.0
  0
LINE
  5
B1
330
AB
100
AcDbEntity
  8
CSLAYER1
  6
CONTINUOUS
 62
     4
100
AcDbLine
 10
46.48221599999999
 20
135.97907
 30
0.0
 11
45.705759
 21
133.0812919999999
 31
0.0
  0
LINE
  5
B2
330
AB
100
AcDbEntity
  8
CSLAYER1
  6
CONTINUOUS
 62
     4
100
AcDbLine
 10
46.48221599999999
 20
135.97907
 30
0.0
 11
47.25867299999999
 21
133.0812919999999
 31
0.0
  0
LINE
  5
B3
330
AB
100
AcDbEntity
  8
CSLAYER1
  6
CONTINUOUS
 62
     4
100
AcDbLine
 10
64.4707
 20
118.9790699999999
 30
0.0
 11
45.48221599999999
 21
118.9790699999999
 31
0.0
  0
LINE
  5
B4
330
AB
100
AcDbEntity
  8
CSLAYER1
  6
CONTINUOUS
 62
     4
100
AcDbLine
 10
64.4707
 20
135.97907
 30
0.0
 11
45.48221599999999
 21
135.97907
 31
0.0
  0
ENDBLK
  5
B5
330
AB
100
AcDbEntity
  8
0
100
AcDbBlockEnd
  0
BLOCK
  5
B7
330
B6
100
AcDbEntity
  8
0
100
AcDbBlockBegin
  2
*D12
 70
     1
 10
0.0
 20
0.0
 30
0.0
  3
*D12
  1

  0
TEXT
  5
B8
330
B6
100
AcDbEntity
  8
CSLAYER1
 62
     4
100
AcDbText
 10
51.982216
 20
125.8790649999999
 30
0.0
 40
3.2
  1
9
 50
90.0
 41
1.5
 51
15.0
  7
FX_FONT
 72
     5
 11
51.982216
 21
129.0790649999999
 31
0.0
100
AcDbText
  0
LINE
  5
B9
330
B6
100
AcDbEntity
  8
CSLAYER1
  6
CONTINUOUS
 62
     4
100
AcDbLine
 10
52.482216
 20
122.9790699999999
 30
0.0
 11
52.482216
 21
131.97907
 31
0.0
  0
LINE
  5
BA
330
B6
100
AcDbEntity
  8
CSLAYER1
  6
CONTINUOUS
 62
     4
100
AcDbLine
 10
52.482216
 20
122.9790699999999
 30
0.0
 11
51.705759
 21
125.8768469999999
 31
0.0
  0
LINE
  5
BB
330
B6
100
AcDbEntity
  8
CSLAYER1
  6
CONTINUOUS
 62
     4
100
AcDbLine
 10
52.482216
 20
122.9790699999999
 30
0.0
 11
53.25867299999998
 21
125.8768469999999
 31
0.0
  0
LINE
  5
BC
330
B6
100
AcDbEntity
  8
CSLAYER1
  6
CONTINUOUS
 62
     4
100
AcDbLine
 10
52.482216
 20
131.97907
 30
0.0
 11
51.705759
 21
129.081292
 31
0.0
  0
LINE
  5
BD
330
B6
100
AcDbEntity
  8
CSLAYER1
  6
CONTINUOUS
 62
     4
100
AcDbLine
 10
52.482216
 20
131.97907
 30
0.0
 11
53.25867299999998
 21
129.081292
 31
0.0
  0
LINE
  5
BE
330
B6
100
AcDbEntity
  8
CSLAYER1
  6
CONTINUOUS
 62
     4
100
AcDbLine
 10
62.4707
 20
122.9790699999999
 30
0.0
 11
51.48221599999999
 21
122.9790699999999
 31
0.0
  0
LINE
  5
BF
330
B6
100
AcDbEntity
  8
CSLAYER1
  6
CONTINUOUS
 62
     4
100
AcDbLine
 10
62.4707
 20
131.97907
 30
0.0
 11
51.48221599999999
 21
131.97907
 31
0.0
  0
ENDBLK
  5
C0
330
B6
100
AcDbEntity
  8
0
100
AcDbBlockEnd
  0
BLOCK
  5
C2
330
C1
100
AcDbEntity
  8
0
100
AcDbBlockBegin
  2
*D13
 70
     1
 10
0.0
 20
0.0
 30
0.0
  3
*D13
  1

  0
TEXT
  5
C3
330
C1
100
AcDbEntity
  8
CSLAYER1
 62
     4
100
AcDbText
 10
45.98221599999999
 20
61.47906800000001
 30
0.0
 40
3.2
  1
%%c34
 50
90.0
 41
1.125
 51
15.0
  7
FX_FONT
 72
     5
 11
45.98221599999999
 21
71.07906800000002
 31
0.0
100
AcDbText
  0
LINE
  5
C4
330
C1
100
AcDbEntity
  8
CSLAYER1
  6
CONTINUOUS
 62
     4
100
AcDbLine
 10
46.48221599999999
 20
49.27907000000001
 30
0.0
 11
46.48221599999999
 21
83.27906999999997
 31
0.0
  0
LINE
  5
C5
330
C1
100
AcDbEntity
  8
CSLAYER1
  6
CONTINUOUS
 62
     4
100
AcDbLine
 10
46.48221599999999
 20
49.27907000000001
 30
0.0
 11
45.705759
 21
52.17684699999999
 31
0.0
  0
LINE
  5
C6
330
C1
100
AcDbEntity
  8
CSLAYER1
  6
CONTINUOUS
 62
     4
100
AcDbLine
 10
46.48221599999999
 20
49.27907000000001
 30
0.0
 11
47.25867299999999
 21
52.17684699999999
 31
0.0
  0
LINE
  5
C7
330
C1
100
AcDbEntity
  8
CSLAYER1
  6
CONTINUOUS
 62
     4
100
AcDbLine
 10
46.48221599999999
 20
83.27906999999997
 30
0.0
 11
45.705759
 21
80.381292
 31
0.0
  0
LINE
  5
C8
330
C1
100
AcDbEntity
  8
CSLAYER1
  6
CONTINUOUS
 62
     4
100
AcDbLine
 10
46.48221599999999
 20
83.27906999999997
 30
0.0
 11
47.25867299999999
 21
80.381292
 31
0.0
  0
LINE
  5
C9
330
C1
100
AcDbEntity
  8
CSLAYER1
  6
CONTINUOUS
 62
     4
100
AcDbLine
 10
93.4707
 20
49.27907000000001
 30
0.0
 11
45.48221599999999
 21
49.27907000000001
 31
0.0
  0
LINE
  5
CA
330
C1
100
AcDbEntity
  8
CSLAYER1
  6
CONTINUOUS
 62
     4
100
AcDbLine
 10
93.4707
 20
83.27906999999997
 30
0.0
 11
45.48221599999999
 21
83.27906999999997
 31
0.0
  0
ENDBLK
  5
CB
330
C1
100
AcDbEntity
  8
0
100
AcDbBlockEnd
  0
BLOCK
  5
CD
330
CC
100
AcDbEntity
  8
0
100
AcDbBlockBegin
  2
*D14
 70
     1
 10
0.0
 20
0.0
 30
0.0
  3
*D14
  1

  0
TEXT
  5
CE
330
CC
100
AcDbEntity
  8
CSLAYER1
 62
     4
100
AcDbText
 10
210.9442259999999
 20
112.421183
 30
0.0
 40
3.2
  1
45%%d
 50
112.5000014414556
 41
1.285714224875614
 51
15.0
  7
FX_FONT
 72
     5
 11
207.2704649999999
 21
121.2904259999999
 31
0.0
100
AcDbText
  0
ARC
  5
CF
330
CC
100
AcDbEntity
  8
CSLAYER1
  6
CONTINUOUS
 62
     4
100
AcDbCircle
 10
234.7541629999999
 20
127.47907
 30
0.0
 40
27.259915
100
AcDbArc
 50
180.0
 51
225.0
  0
LINE
  5
D0
330
CC
100
AcDbEntity
  8
CSLAYER1
  6
CONTINUOUS
 62
     4
100
AcDbLine
 10
207.4942479999999
 20
127.47907
 30
0.0
 11
206.717791
 21
124.5812919999998
 31
0.0
  0
LINE
  5
D1
330
CC
100
AcDbEntity
  8
CSLAYER1
  6
CONTINUOUS
 62
     4
100
AcDbLine
 10
207.4942479999999
 20
127.47907
 30
0.0
 11
208.2707049999999
 21
124.5812919999998
 31
0.0
  0
LINE
  5
D2
330
CC
100
AcDbEntity
  8
CSLAYER1
  6
CONTINUOUS
 62
     4
100
AcDbLine
 10
215.4784919999999
 20
108.203399
 30
0.0
 11
212.880416
 21
109.703399
 31
0.0
  0
LINE
  5
D3
330
CC
100
AcDbEntity
  8
CSLAYER1
  6
CONTINUOUS
 62
     4
100
AcDbLine
 10
215.4784919999999
 20
108.203399
 30
0.0
 11
213.9784919999999
 21
110.8014749999999
 31
0.0
  0
LINE
  5
D4
330
CC
100
AcDbEntity
  8
CSLAYER1
  6
CONTINUOUS
 62
     4
100
AcDbLine
 10
215.093474
 20
127.47907
 30
0.0
 11
206.494248
 21
127.47907
 31
0.0
  0
LINE
  5
D5
330
CC
100
AcDbEntity
  8
CSLAYER1
  6
CONTINUOUS
 62
     4
100
AcDbLine
 10
223.14927
 20
115.874176
 30
0.0
 11
214.7713859999999
 21
107.4962919999999
 31
0.0
  0
ENDBLK
  5
D6
330
CC
100
AcDbEntity
  8
0
100
AcDbBlockEnd
  0
BLOCK
  5
D8
330
D7
100
AcDbEntity
  8
0
100
AcDbBlockBegin
  2
*D15
 70
     1
 10
0.0
 20
0.0
 30
0.0
  3
*D15
  1

  0
TEXT
  5
D9
330
D7
100
AcDbEntity
  8
CSLAYER1
 62
     4
100
AcDbText
 10
82.73233199999998
 20
106.928283
 30
0.0
 40
3.2
  1
R14
 50
46.96157167378625
 41
1.125000039302203
 51
15.0
  7
FX_FONT
 72
     5
 11
89.284224
 21
113.944886
 31
0.0
100
AcDbText
  0
LINE
  5
DA
330
D7
100
AcDbEntity
  8
CSLAYER1
  6
CONTINUOUS
 62
     4
100
AcDbLine
 10
91.15115000000001
 20
115.2116149999999
 30
0.0
 11
81.59630699999999
 21
104.9790699999999
 31
0.0
  0
LINE
  5
DB
330
D7
100
AcDbEntity
  8
CSLAYER1
  6
CONTINUOUS
 62
     4
100
AcDbLine
 10
91.15115000000001
 20
115.2116149999999
 30
0.0
 11
89.74095799999998
 21
112.563717
 31
0.0
  0
LINE
  5
DC
330
D7
100
AcDbEntity
  8
CSLAYER1
  6
CONTINUOUS
 62
     4
100
AcDbLine
 10
91.15115000000001
 20
115.2116149999999
 30
0.0
 11
88.60593900000003
 21
113.6235639999999
 31
0.0
  0
ENDBLK
  5
DD
330
D7
100
AcDbEntity
  8
0
100
AcDbBlockEnd
  0
BLOCK
  5
DF
330
DE
100
AcDbEntity
  8
0
100
AcDbBlockBegin
  2
FXDIM0003
 70
     0
 10
0.0
 20
0.0
 30
0.0
  3
FXDIM0003
  1

  0
TEXT
  5
E0
330
DE
100
AcDbEntity
  8
CSLAYER1
 62
     4
100
AcDbText
 10
58.630328
 20
111.281997
 30
0.0
 40
3.2
  1
C2
 50
45.00000000000009
 41
1.200000159206707
 51
15.0
  7
FX_FONT
 72
     5
 11
63.155812
 21
115.807481
 31
0.0
100
AcDbText
  0
LINE
  5
E1
330
DE
100
AcDbEntity
  8
CSLAYER1
  6
CONTINUOUS
 62
     4
100
AcDbLine
 10
64.4707
 20
119.9790699999999
 30
0.0
 11
62.96125799999999
 21
118.469628
 31
0.0
  0
LINE
  5
E2
330
DE
100
AcDbEntity
  8
CSLAYER1
  6
CONTINUOUS
 62
     4
100
AcDbLine
 10
64.4707
 20
119.9790699999999
 30
0.0
 11
62.9707
 21
117.3809939999999
 31
0.0
  0
LINE
  5
E3
330
DE
100
AcDbEntity
  8
CSLAYER1
  6
CONTINUOUS
 62
     4
100
AcDbLine
 10
64.4707
 20
119.9790699999999
 30
0.0
 11
61.872624
 21
118.4790699999999
 31
0.0
  0
ENDBLK
  5
E4
330
DE
100
AcDbEntity
  8
0
100
AcDbBlockEnd
  0
BLOCK
  5
222
330
215
100
AcDbEntity
  8
0
100
AcDbBlockBegin
  2
*D17
 70
     1
 10
0.0
 20
0.0
 30
0.0
  3
*D17
  1

  0
LINE
  5
216
330
215
100
AcDbEntity
  8
CSLAYER1
 62
     0
100
AcDbLine
 10
216.0309739999999
 20
127.47907
 30
0.0
 11
207.3142483532318
 21
127.47907
 31
0.0
  0
LINE
  5
217
330
215
100
AcDbEntity
  8
CSLAYER1
 62
     0
100
AcDbLine
 10
223.8121828301018
 20
116.5370888222499
 30
0.0
 11
215.3512147275264
 21
108.076119216434
 31
0.0
  0
ARC
  5
218
330
215
100
AcDbEntity
  8
CSLAYER1
 62
     0
100
AcDbCircle
 10
234.7541620638159
 20
127.47907
 30
0.0
 40
27.2599137105841
100
AcDbArc
 50
180.3783305830704
 51
202.0911021110445
  0
ARC
  5
219
330
215
100
AcDbEntity
  8
CSLAYER1
 62
     0
100
AcDbCircle
 10
234.7541620638159
 20
127.47907
 30
0.0
 40
27.2599137105841
100
AcDbArc
 50
202.9101153448457
 51
224.6216745067328
  0
SOLID
  5
21A
330
215
100
AcDbEntity
  8
CSLAYER1
 62
     0
100
AcDbTrace
 10
207.4648427959464
 20
127.2989719344891
 30
0.0
 11
207.5248424689382
 21
127.2991700275593
 31
0.0
 12
207.4942483532317
 22
127.47907
 32
0.0
 13
207.4942483532317
 23
127.47907
 33
0.0
  0
SOLID
  5
21B
330
215
100
AcDbEntity
  8
CSLAYER1
 62
     0
100
AcDbTrace
 10
215.3729187398436
 20
108.3522402361042
 30
0.0
 11
215.3303524950052
 21
108.3099541296346
 31
0.0
 12
215.4784939368333
 22
108.2033984483544
 32
0.0
 13
215.4784939368333
 23
108.2033984483544
 33
0.0
  0
MTEXT
  5
21C
330
215
100
AcDbEntity
  8
CSLAYER1
 62
     0
100
AcDbMText
 10
209.5692861919369
 20
117.047151536623
 30
0.0
 40
0.18
 41
0.0
 71
     5
 72
     1
  1
\A1;45°
1001
ACAD
1000
MTEXTBEGIN
1070
    73
1070
     1
1070
    44
1040
1.0
1070
    74
1070
     0
1000
MTEXTEND
  0
POINT
  5
21D
330
215
100
AcDbEntity
  8
DEFPOINTS
 62
     0
100
AcDbPoint
 10
208.4231075972701
 20
120.4236843841534
 30
0.0
  0
POINT
  5
21E
330
215
100
AcDbEntity
  8
DEFPOINTS
 62
     0
100
AcDbPoint
 10
234.7541629999999
 20
127.47907
 30
0.0
  0
POINT
  5
21F
330
215
100
AcDbEntity
  8
DEFPOINTS
 62
     0
100
AcDbPoint
 10
223.856377
 20
116.581283
 30
0.0
  0
POINT
  5
220
330
215
100
AcDbEntity
  8
DEFPOINTS
 62
     0
100
AcDbPoint
 10
229.484863
 20
122.2097699999999
 30
0.0
  0
POINT
  5
221
330
215
100
AcDbEntity
  8
DEFPOINTS
 62
     0
100
AcDbPoint
 10
216.093474
 20
127.47907
 30
0.0
  0
ENDBLK
  5
223
330
215
100
AcDbEntity
  8
0
100
AcDbBlockEnd
  0
ENDSEC
  0
SECTION
  2
ENTITIES
  0
DIMENSION
  5
E5
330
1E
100
AcDbEntity
  8
CSLAYER1
 62
     4
100
AcDbDimension
  2
*D0
 10
259.9842859999999
 20
140.97907
 30
0.0
 11
259.484283
 21
127.4790649999999
 31
0.0
 70
     1
100
AcDbAlignedDimension
 13
245.086152
 23
113.97907
 33
0.0
 14
245.086152
 24
140.97907
 34
0.0
  0
DIMENSION
  5
E6
330
1E
100
AcDbEntity
  8
CSLAYER1
 62
     4
100
AcDbDimension
  2
*D1
 10
227.277399
 20
150.512183
 30
0.0
 11
219.1456759999999
 21
143.087555
 31
0.0
100
AcDbAlignedDimension
 13
223.990832
 23
122.686052
 33
0.0
 14
239.1997429999999
 24
138.5898389999999
 34
0.0
 50
45.0
100
AcDbRotatedDimension
  0
INSERT
  5
E7
330
1E
100
AcDbEntity
  8
CSLAYER1
100
AcDbBlockReference
  2
FXDIM0000
 10
0.0
 20
0.0
 30
0.0
  0
TEXT
  5
E8
330
1E
100
AcDbEntity
  8
CSLAYER1
 62
     3
100
AcDbText
 10
242.3999999999999
 20
17.4
 30
0.0
 40
3.2
  1
GT-NR7
 41
1.05882352941177
  7
FX_FONT
 72
     5
 11
261.6
 21
17.4
 31
0.0
100
AcDbText
  0
POINT
  5
E9
330
1E
100
AcDbEntity
  8
CSLAYER1
 62
     3
100
AcDbPoint
 10
252.0
 20
19.0
 30
0.0
  0
LINE
  5
EA
330
1E
100
AcDbEntity
  8
CSLAYER1
  6
CONTINUOUS
 62
     3
100
AcDbLine
 10
161.4706999999999
 20
144.47907
 30
0.0
 11
161.4706999999999
 21
142.97907
 31
0.0
  0
ARC
  5
EB
330
1E
100
AcDbEntity
  8
CSLAYER1
  6
CONTINUOUS
 62
     3
100
AcDbCircle
 10
163.4706999999998
 20
142.97907
 30
0.0
 40
2.0
100
AcDbArc
 50
180.0
 51
270.0
  0
LINE
  5
EC
330
1E
100
AcDbEntity
  8
CSLAYER1
  6
CONTINUOUS
 62
     3
100
AcDbLine
 10
163.4706999999998
 20
140.97907
 30
0.0
 11
174.9706999999999
 21
140.97907
 31
0.0
  0
LINE
  5
ED
330
1E
100
AcDbEntity
  8
CSLAYER1
  6
CONTINUOUS
 62
     3
100
AcDbLine
 10
176.4707
 20
139.47907
 30
0.0
 11
176.4707
 21
115.4790699999999
 31
0.0
  0
LINE
  5
EE
330
1E
100
AcDbEntity
  8
CSLAYER1
  6
CONTINUOUS
 62
     3
100
AcDbLine
 10
174.9706999999999
 20
140.97907
 30
0.0
 11
174.9706999999999
 21
113.97907
 31
0.0
  0
CIRCLE
  5
EF
330
1E
100
AcDbEntity
  8
CSLAYER1
  6
CONTINUOUS
 62
     3
100
AcDbCircle
 10
226.975989
 20
119.7008949999998
 30
0.0
 40
1.649999999999999
  0
CIRCLE
  5
F0
330
1E
100
AcDbEntity
  8
CSLAYER1
  6
CONTINUOUS
 62
     3
100
AcDbCircle
 10
234.7541629999999
 20
127.47907
 30
0.0
 40
4.25
  0
CIRCLE
  5
F1
330
1E
100
AcDbEntity
  8
CSLAYER1
  6
CONTINUOUS
 62
     3
100
AcDbCircle
 10
242.532338
 20
135.2572439999998
 30
0.0
 40
1.649999999999999
  0
LINE
  5
F2
330
1E
100
AcDbEntity
  8
CSLAYER1
  6
CONTINUOUS
 62
     3
100
AcDbLine
 10
176.4707
 20
81.77906999999997
 30
0.0
 11
174.9706999999999
 21
83.27906999999997
 31
0.0
  0
LINE
  5
F3
330
1E
100
AcDbEntity
  8
CSLAYER1
  6
CONTINUOUS
 62
     3
100
AcDbLine
 10
176.4707
 20
50.77907
 30
0.0
 11
176.4707
 21
81.77906999999997
 31
0.0
  0
LINE
  5
F4
330
1E
100
AcDbEntity
  8
CSLAYER1
  6
CONTINUOUS
 62
     3
100
AcDbLine
 10
174.9706999999999
 20
83.27906999999997
 30
0.0
 11
174.9706999999999
 21
76.105784
 31
0.0
  0
LINE
  5
F5
330
1E
100
AcDbEntity
  8
CSLAYER1
  6
CONTINUOUS
 62
     3
100
AcDbLine
 10
174.9706999999999
 20
76.105784
 30
0.0
 11
163.4706999999998
 21
76.105784
 31
0.0
  0
ARC
  5
F6
330
1E
100
AcDbEntity
  8
CSLAYER1
  6
CONTINUOUS
 62
     3
100
AcDbCircle
 10
163.4706999999998
 20
74.105784
 30
0.0
 40
2.0
100
AcDbArc
 50
90.0
 51
180.0
  0
LINE
  5
F7
330
1E
100
AcDbEntity
  8
CSLAYER1
  6
CONTINUOUS
 62
     3
100
AcDbLine
 10
161.4706999999999
 20
74.105784
 30
0.0
 11
161.4706999999999
 21
58.45235600000001
 31
0.0
  0
LINE
  5
F8
330
1E
100
AcDbEntity
  8
CSLAYER1
  6
CONTINUOUS
 62
     3
100
AcDbLine
 10
174.9706999999999
 20
56.45235600000001
 30
0.0
 11
174.9706999999999
 21
49.27907000000001
 31
0.0
  0
LINE
  5
F9
330
1E
100
AcDbEntity
  8
CSLAYER1
  6
CONTINUOUS
 62
     3
100
AcDbLine
 10
156.4707
 20
49.27907000000001
 30
0.0
 11
156.4707
 21
83.27906999999997
 31
0.0
  0
LINE
  5
FA
330
1E
100
AcDbEntity
  8
CSLAYER1
  6
CONTINUOUS
 62
     3
100
AcDbLine
 10
174.9706999999999
 20
76.105784
 30
0.0
 11
176.4707
 21
74.605784
 31
0.0
  0
LINE
  5
FB
330
1E
100
AcDbEntity
  8
CSLAYER1
  6
CENTER
 62
     4
100
AcDbLine
 10
60.364408
 20
66.27906999999999
 30
0.0
 11
182.310464
 21
66.27906999999999
 31
0.0
  0
LINE
  5
FC
330
1E
100
AcDbEntity
  8
CSLAYER1
  6
CENTER
 62
     4
100
AcDbLine
 10
234.7541629999999
 20
108.996575
 30
0.0
 11
234.7541629999999
 21
145.7443659999998
 31
0.0
  0
LINE
  5
FD
330
1E
100
AcDbEntity
  8
CSLAYER1
  6
CENTER
 62
     4
100
AcDbLine
 10
239.1997429999999
 20
138.5898389999999
 30
0.0
 11
245.5925919999998
 21
132.19699
 31
0.0
  0
CIRCLE
  5
FE
330
1E
100
AcDbEntity
  8
CSLAYER1
  6
CONTINUOUS
 62
     4
100
AcDbCircle
 10
242.532338
 20
135.2572439999998
 30
0.0
 40
2.0
  0
LINE
  5
FF
330
1E
100
AcDbEntity
  8
CSLAYER1
  6
CENTER
 62
     4
100
AcDbLine
 10
245.630424
 20
138.35533
 30
0.0
 11
239.93245
 21
132.6573559999999
 31
0.0
  0
CIRCLE
  5
100
330
1E
100
AcDbEntity
  8
CSLAYER1
  6
CONTINUOUS
 62
     4
100
AcDbCircle
 10
234.7541629999999
 20
127.47907
 30
0.0
 40
4.75
  0
LINE
  5
101
330
1E
100
AcDbEntity
  8
CSLAYER1
  6
CENTER
 62
     4
100
AcDbLine
 10
229.484863
 20
122.2097699999999
 30
0.0
 11
223.856377
 21
116.581283
 31
0.0
  0
LINE
  5
102
330
1E
100
AcDbEntity
  8
CSLAYER1
  6
CENTER
 62
     4
100
AcDbLine
 10
229.549831
 20
117.127053
 30
0.0
 11
223.990832
 21
122.686052
 31
0.0
  0
CIRCLE
  5
103
330
1E
100
AcDbEntity
  8
CSLAYER1
  6
CONTINUOUS
 62
     4
100
AcDbCircle
 10
226.975989
 20
119.7008949999998
 30
0.0
 40
2.0
  0
LINE
  5
104
330
1E
100
AcDbEntity
  8
CSLAYER1
  6
CENTER
 62
     4
100
AcDbLine
 10
216.093474
 20
127.47907
 30
0.0
 11
252.9422209999999
 21
127.47907
 31
0.0
  0
INSERT
  5
105
330
1E
100
AcDbEntity
  8
CSLAYER1
100
AcDbBlockReference
  2
FXDIM0001
 10
0.0
 20
0.0
 30
0.0
  0
LINE
  5
106
330
1E
100
AcDbEntity
  8
CSLAYER1
  6
CENTER
 62
     4
100
AcDbLine
 10
234.7541629999999
 20
127.47907
 30
0.0
 11
214.568431
 21
132.88782
 31
0.0
  0
LINE
  5
107
330
1E
100
AcDbEntity
  8
CSLAYER1
  6
CENTER
 62
     4
100
AcDbLine
 10
173.738911
 20
131.878994
 30
0.0
 11
159.1474929999999
 21
131.878994
 31
0.0
  0
LINE
  5
108
330
1E
100
AcDbEntity
  8
CSLAYER1
  6
CENTER
 62
     4
100
AcDbLine
 10
166.4706999999999
 20
124.770358
 30
0.0
 11
166.4706999999999
 21
138.854738
 31
0.0
  0
POLYLINE
  5
109
330
1E
100
AcDbEntity
  8
CSLAYER1
  6
CONTINUOUS
 62
     4
100
AcDb2dPolyline
 66
     1
 10
0.0
 20
0.0
 30
0.0
  0
VERTEX
  5
10A
330
109
100
AcDbEntity
  8
CSLAYER1
  6
CONTINUOUS
 62
     4
100
AcDbVertex
100
AcDb2dVertex
 10
166.4706999999999
 20
136.628994
 30
0.0
  0
VERTEX
  5
10B
330
109
100
AcDbEntity
  8
CSLAYER1
  6
CONTINUOUS
 62
     4
100
AcDbVertex
100
AcDb2dVertex
 10
166.0710909999998
 20
136.610918
 30
0.0
  0
VERTEX
  5
10C
330
109
100
AcDbEntity
  8
CSLAYER1
  6
CONTINUOUS
 62
     4
100
AcDbVertex
100
AcDb2dVertex
 10
165.674523
 20
136.5568299999999
 30
0.0
  0
VERTEX
  5
10D
330
109
100
AcDbEntity
  8
CSLAYER1
  6
CONTINUOUS
 62
     4
100
AcDbVertex
100
AcDb2dVertex
 10
165.2840139999999
 20
136.4671409999999
 30
0.0
  0
VERTEX
  5
10E
330
109
100
AcDbEntity
  8
CSLAYER1
  6
CONTINUOUS
 62
     4
100
AcDbVertex
100
AcDb2dVertex
 10
164.902537
 20
136.342533
 30
0.0
  0
VERTEX
  5
10F
330
109
100
AcDbEntity
  8
CSLAYER1
  6
CONTINUOUS
 62
     4
100
AcDbVertex
100
AcDb2dVertex
 10
164.5329949999999
 20
136.1839559999999
 30
0.0
  0
VERTEX
  5
110
330
109
100
AcDbEntity
  8
CSLAYER1
  6
CONTINUOUS
 62
     4
100
AcDbVertex
100
AcDb2dVertex
 10
164.1782
 20
135.992614
 30
0.0
  0
VERTEX
  5
111
330
109
100
AcDbEntity
  8
CSLAYER1
  6
CONTINUOUS
 62
     4
100
AcDbVertex
100
AcDb2dVertex
 10
163.840852
 20
135.7699659999999
 30
0.0
  0
VERTEX
  5
112
330
109
100
AcDbEntity
  8
CSLAYER1
  6
CONTINUOUS
 62
     4
100
AcDbVertex
100
AcDb2dVertex
 10
163.5235189999999
 20
135.5177049999998
 30
0.0
  0
VERTEX
  5
113
330
109
100
AcDbEntity
  8
CSLAYER1
  6
CONTINUOUS
 62
     4
100
AcDbVertex
100
AcDb2dVertex
 10
163.2286149999998
 20
135.2377509999999
 30
0.0
  0
VERTEX
  5
114
330
109
100
AcDbEntity
  8
CSLAYER1
  6
CONTINUOUS
 62
     4
100
AcDbVertex
100
AcDb2dVertex
 10
162.958386
 20
134.932235
 30
0.0
  0
VERTEX
  5
115
330
109
100
AcDbEntity
  8
CSLAYER1
  6
CONTINUOUS
 62
     4
100
AcDbVertex
100
AcDb2dVertex
 10
162.714888
 20
134.603482
 30
0.0
  0
VERTEX
  5
116
330
109
100
AcDbEntity
  8
CSLAYER1
  6
CONTINUOUS
 62
     4
100
AcDbVertex
100
AcDb2dVertex
 10
162.499973
 20
134.2539939999998
 30
0.0
  0
VERTEX
  5
117
330
109
100
AcDbEntity
  8
CSLAYER1
  6
CONTINUOUS
 62
     4
100
AcDbVertex
100
AcDb2dVertex
 10
162.3152789999999
 20
133.88643
 30
0.0
  0
VERTEX
  5
118
330
109
100
AcDbEntity
  8
CSLAYER1
  6
CONTINUOUS
 62
     4
100
AcDbVertex
100
AcDb2dVertex
 10
162.162209
 20
133.5035889999999
 30
0.0
  0
VERTEX
  5
119
330
109
100
AcDbEntity
  8
CSLAYER1
  6
CONTINUOUS
 62
     4
100
AcDbVertex
100
AcDb2dVertex
 10
162.04193
 20
133.108384
 30
0.0
  0
VERTEX
  5
11A
330
109
100
AcDbEntity
  8
CSLAYER1
  6
CONTINUOUS
 62
     4
100
AcDbVertex
100
AcDb2dVertex
 10
161.9553559999999
 20
132.703822
 30
0.0
  0
VERTEX
  5
11B
330
109
100
AcDbEntity
  8
CSLAYER1
  6
CONTINUOUS
 62
     4
100
AcDbVertex
100
AcDb2dVertex
 10
161.9031469999999
 20
132.292983
 30
0.0
  0
VERTEX
  5
11C
330
109
100
AcDbEntity
  8
CSLAYER1
  6
CONTINUOUS
 62
     4
100
AcDbVertex
100
AcDb2dVertex
 10
161.8857
 20
131.878994
 30
0.0
  0
VERTEX
  5
11D
330
109
100
AcDbEntity
  8
CSLAYER1
  6
CONTINUOUS
 62
     4
100
AcDbVertex
100
AcDb2dVertex
 10
161.9031469999999
 20
131.4650039999999
 30
0.0
  0
VERTEX
  5
11E
330
109
100
AcDbEntity
  8
CSLAYER1
  6
CONTINUOUS
 62
     4
100
AcDbVertex
100
AcDb2dVertex
 10
161.9553559999999
 20
131.0541649999999
 30
0.0
  0
VERTEX
  5
11F
330
109
100
AcDbEntity
  8
CSLAYER1
  6
CONTINUOUS
 62
     4
100
AcDbVertex
100
AcDb2dVertex
 10
162.04193
 20
130.649603
 30
0.0
  0
VERTEX
  5
120
330
109
100
AcDbEntity
  8
CSLAYER1
  6
CONTINUOUS
 62
     4
100
AcDbVertex
100
AcDb2dVertex
 10
162.162209
 20
130.254398
 30
0.0
  0
VERTEX
  5
121
330
109
100
AcDbEntity
  8
CSLAYER1
  6
CONTINUOUS
 62
     4
100
AcDbVertex
100
AcDb2dVertex
 10
162.3152789999999
 20
129.8715569999999
 30
0.0
  0
VERTEX
  5
122
330
109
100
AcDbEntity
  8
CSLAYER1
  6
CONTINUOUS
 62
     4
100
AcDbVertex
100
AcDb2dVertex
 10
162.499973
 20
129.503994
 30
0.0
  0
VERTEX
  5
123
330
109
100
AcDbEntity
  8
CSLAYER1
  6
CONTINUOUS
 62
     4
100
AcDbVertex
100
AcDb2dVertex
 10
162.714888
 20
129.154505
 30
0.0
  0
VERTEX
  5
124
330
109
100
AcDbEntity
  8
CSLAYER1
  6
CONTINUOUS
 62
     4
100
AcDbVertex
100
AcDb2dVertex
 10
162.958386
 20
128.8257519999999
 30
0.0
  0
VERTEX
  5
125
330
109
100
AcDbEntity
  8
CSLAYER1
  6
CONTINUOUS
 62
     4
100
AcDbVertex
100
AcDb2dVertex
 10
163.2286149999998
 20
128.520236
 30
0.0
  0
VERTEX
  5
126
330
109
100
AcDbEntity
  8
CSLAYER1
  6
CONTINUOUS
 62
     4
100
AcDbVertex
100
AcDb2dVertex
 10
163.5235189999999
 20
128.240282
 30
0.0
  0
VERTEX
  5
127
330
109
100
AcDbEntity
  8
CSLAYER1
  6
CONTINUOUS
 62
     4
100
AcDbVertex
100
AcDb2dVertex
 10
163.840852
 20
127.9880209999999
 30
0.0
  0
VERTEX
  5
128
330
109
100
AcDbEntity
  8
CSLAYER1
  6
CONTINUOUS
 62
     4
100
AcDbVertex
100
AcDb2dVertex
 10
164.1782
 20
127.7653729999999
 30
0.0
  0
VERTEX
  5
129
330
109
100
AcDbEntity
  8
CSLAYER1
  6
CONTINUOUS
 62
     4
100
AcDbVertex
100
AcDb2dVertex
 10
164.5329949999999
 20
127.574032
 30
0.0
  0
VERTEX
  5
12A
330
109
100
AcDbEntity
  8
CSLAYER1
  6
CONTINUOUS
 62
     4
100
AcDbVertex
100
AcDb2dVertex
 10
164.902537
 20
127.415454
 30
0.0
  0
VERTEX
  5
12B
330
109
100
AcDbEntity
  8
CSLAYER1
  6
CONTINUOUS
 62
     4
100
AcDbVertex
100
AcDb2dVertex
 10
165.2840139999999
 20
127.290846
 30
0.0
  0
VERTEX
  5
12C
330
109
100
AcDbEntity
  8
CSLAYER1
  6
CONTINUOUS
 62
     4
100
AcDbVertex
100
AcDb2dVertex
 10
165.674523
 20
127.201157
 30
0.0
  0
VERTEX
  5
12D
330
109
100
AcDbEntity
  8
CSLAYER1
  6
CONTINUOUS
 62
     4
100
AcDbVertex
100
AcDb2dVertex
 10
166.0710909999998
 20
127.1470689999999
 30
0.0
  0
VERTEX
  5
12E
330
109
100
AcDbEntity
  8
CSLAYER1
  6
CONTINUOUS
 62
     4
100
AcDbVertex
100
AcDb2dVertex
 10
166.4706999999999
 20
127.1289939999999
 30
0.0
  0
VERTEX
  5
12F
330
109
100
AcDbEntity
  8
CSLAYER1
  6
CONTINUOUS
 62
     4
100
AcDbVertex
100
AcDb2dVertex
 10
166.870309
 20
127.1470689999999
 30
0.0
  0
VERTEX
  5
130
330
109
100
AcDbEntity
  8
CSLAYER1
  6
CONTINUOUS
 62
     4
100
AcDbVertex
100
AcDb2dVertex
 10
167.266877
 20
127.201157
 30
0.0
  0
VERTEX
  5
131
330
109
100
AcDbEntity
  8
CSLAYER1
  6
CONTINUOUS
 62
     4
100
AcDbVertex
100
AcDb2dVertex
 10
167.657385
 20
127.290846
 30
0.0
  0
VERTEX
  5
132
330
109
100
AcDbEntity
  8
CSLAYER1
  6
CONTINUOUS
 62
     4
100
AcDbVertex
100
AcDb2dVertex
 10
168.038862
 20
127.415454
 30
0.0
  0
VERTEX
  5
133
330
109
100
AcDbEntity
  8
CSLAYER1
  6
CONTINUOUS
 62
     4
100
AcDbVertex
100
AcDb2dVertex
 10
168.4084039999999
 20
127.574032
 30
0.0
  0
VERTEX
  5
134
330
109
100
AcDbEntity
  8
CSLAYER1
  6
CONTINUOUS
 62
     4
100
AcDbVertex
100
AcDb2dVertex
 10
168.7632
 20
127.7653729999999
 30
0.0
  0
VERTEX
  5
135
330
109
100
AcDbEntity
  8
CSLAYER1
  6
CONTINUOUS
 62
     4
100
AcDbVertex
100
AcDb2dVertex
 10
169.100548
 20
127.9880209999999
 30
0.0
  0
VERTEX
  5
136
330
109
100
AcDbEntity
  8
CSLAYER1
  6
CONTINUOUS
 62
     4
100
AcDbVertex
100
AcDb2dVertex
 10
169.4178809999999
 20
128.240282
 30
0.0
  0
VERTEX
  5
137
330
109
100
AcDbEntity
  8
CSLAYER1
  6
CONTINUOUS
 62
     4
100
AcDbVertex
100
AcDb2dVertex
 10
169.712784
 20
128.520236
 30
0.0
  0
VERTEX
  5
138
330
109
100
AcDbEntity
  8
CSLAYER1
  6
CONTINUOUS
 62
     4
100
AcDbVertex
100
AcDb2dVertex
 10
169.983013
 20
128.8257519999999
 30
0.0
  0
VERTEX
  5
139
330
109
100
AcDbEntity
  8
CSLAYER1
  6
CONTINUOUS
 62
     4
100
AcDbVertex
100
AcDb2dVertex
 10
170.226512
 20
129.154505
 30
0.0
  0
VERTEX
  5
13A
330
109
100
AcDbEntity
  8
CSLAYER1
  6
CONTINUOUS
 62
     4
100
AcDbVertex
100
AcDb2dVertex
 10
170.441426
 20
129.503994
 30
0.0
  0
VERTEX
  5
13B
330
109
100
AcDbEntity
  8
CSLAYER1
  6
CONTINUOUS
 62
     4
100
AcDbVertex
100
AcDb2dVertex
 10
170.6261209999999
 20
129.8715569999999
 30
0.0
  0
VERTEX
  5
13C
330
109
100
AcDbEntity
  8
CSLAYER1
  6
CONTINUOUS
 62
     4
100
AcDbVertex
100
AcDb2dVertex
 10
170.77919
 20
130.254398
 30
0.0
  0
VERTEX
  5
13D
330
109
100
AcDbEntity
  8
CSLAYER1
  6
CONTINUOUS
 62
     4
100
AcDbVertex
100
AcDb2dVertex
 10
170.89947
 20
130.649603
 30
0.0
  0
VERTEX
  5
13E
330
109
100
AcDbEntity
  8
CSLAYER1
  6
CONTINUOUS
 62
     4
100
AcDbVertex
100
AcDb2dVertex
 10
170.9860429999999
 20
131.0541649999999
 30
0.0
  0
VERTEX
  5
13F
330
109
100
AcDbEntity
  8
CSLAYER1
  6
CONTINUOUS
 62
     4
100
AcDbVertex
100
AcDb2dVertex
 10
171.038252
 20
131.4650039999999
 30
0.0
  0
VERTEX
  5
140
330
109
100
AcDbEntity
  8
CSLAYER1
  6
CONTINUOUS
 62
     4
100
AcDbVertex
100
AcDb2dVertex
 10
171.0557
 20
131.878994
 30
0.0
  0
VERTEX
  5
141
330
109
100
AcDbEntity
  8
CSLAYER1
  6
CONTINUOUS
 62
     4
100
AcDbVertex
100
AcDb2dVertex
 10
171.038252
 20
132.292983
 30
0.0
  0
VERTEX
  5
142
330
109
100
AcDbEntity
  8
CSLAYER1
  6
CONTINUOUS
 62
     4
100
AcDbVertex
100
AcDb2dVertex
 10
170.9860429999999
 20
132.703822
 30
0.0
  0
VERTEX
  5
143
330
109
100
AcDbEntity
  8
CSLAYER1
  6
CONTINUOUS
 62
     4
100
AcDbVertex
100
AcDb2dVertex
 10
170.89947
 20
133.108384
 30
0.0
  0
VERTEX
  5
144
330
109
100
AcDbEntity
  8
CSLAYER1
  6
CONTINUOUS
 62
     4
100
AcDbVertex
100
AcDb2dVertex
 10
170.77919
 20
133.5035889999999
 30
0.0
  0
VERTEX
  5
145
330
109
100
AcDbEntity
  8
CSLAYER1
  6
CONTINUOUS
 62
     4
100
AcDbVertex
100
AcDb2dVertex
 10
170.6261209999999
 20
133.88643
 30
0.0
  0
VERTEX
  5
146
330
109
100
AcDbEntity
  8
CSLAYER1
  6
CONTINUOUS
 62
     4
100
AcDbVertex
100
AcDb2dVertex
 10
170.441426
 20
134.2539939999998
 30
0.0
  0
VERTEX
  5
147
330
109
100
AcDbEntity
  8
CSLAYER1
  6
CONTINUOUS
 62
     4
100
AcDbVertex
100
AcDb2dVertex
 10
170.226512
 20
134.603482
 30
0.0
  0
VERTEX
  5
148
330
109
100
AcDbEntity
  8
CSLAYER1
  6
CONTINUOUS
 62
     4
100
AcDbVertex
100
AcDb2dVertex
 10
169.983013
 20
134.932235
 30
0.0
  0
VERTEX
  5
149
330
109
100
AcDbEntity
  8
CSLAYER1
  6
CONTINUOUS
 62
     4
100
AcDbVertex
100
AcDb2dVertex
 10
169.712784
 20
135.2377509999999
 30
0.0
  0
VERTEX
  5
14A
330
109
100
AcDbEntity
  8
CSLAYER1
  6
CONTINUOUS
 62
     4
100
AcDbVertex
100
AcDb2dVertex
 10
169.4178809999999
 20
135.5177049999998
 30
0.0
  0
VERTEX
  5
14B
330
109
100
AcDbEntity
  8
CSLAYER1
  6
CONTINUOUS
 62
     4
100
AcDbVertex
100
AcDb2dVertex
 10
169.100548
 20
135.7699659999999
 30
0.0
  0
VERTEX
  5
14C
330
109
100
AcDbEntity
  8
CSLAYER1
  6
CONTINUOUS
 62
     4
100
AcDbVertex
100
AcDb2dVertex
 10
168.7632
 20
135.992614
 30
0.0
  0
VERTEX
  5
14D
330
109
100
AcDbEntity
  8
CSLAYER1
  6
CONTINUOUS
 62
     4
100
AcDbVertex
100
AcDb2dVertex
 10
168.4084039999999
 20
136.1839559999999
 30
0.0
  0
VERTEX
  5
14E
330
109
100
AcDbEntity
  8
CSLAYER1
  6
CONTINUOUS
 62
     4
100
AcDbVertex
100
AcDb2dVertex
 10
168.038862
 20
136.342533
 30
0.0
  0
VERTEX
  5
14F
330
109
100
AcDbEntity
  8
CSLAYER1
  6
CONTINUOUS
 62
     4
100
AcDbVertex
100
AcDb2dVertex
 10
167.657385
 20
136.4671409999999
 30
0.0
  0
VERTEX
  5
150
330
109
100
AcDbEntity
  8
CSLAYER1
  6
CONTINUOUS
 62
     4
100
AcDbVertex
100
AcDb2dVertex
 10
167.266877
 20
136.5568299999999
 30
0.0
  0
VERTEX
  5
151
330
109
100
AcDbEntity
  8
CSLAYER1
  6
CONTINUOUS
 62
     4
100
AcDbVertex
100
AcDb2dVertex
 10
166.870309
 20
136.610918
 30
0.0
  0
VERTEX
  5
152
330
109
100
AcDbEntity
  8
CSLAYER1
  6
CONTINUOUS
 62
     4
100
AcDbVertex
100
AcDb2dVertex
 10
166.4706999999999
 20
136.628994
 30
0.0
  0
SEQEND
  5
153
330
109
100
AcDbEntity
  8
CSLAYER1
 62
     4
  0
POLYLINE
  5
154
330
1E
100
AcDbEntity
  8
CSLAYER1
  6
CONTINUOUS
 62
     3
100
AcDb2dPolyline
 66
     1
 10
0.0
 20
0.0
 30
0.0
  0
VERTEX
  5
155
330
154
100
AcDbEntity
  8
CSLAYER1
  6
CONTINUOUS
 62
     3
100
AcDbVertex
100
AcDb2dVertex
 10
166.4706999999999
 20
136.128994
 30
0.0
  0
VERTEX
  5
156
330
154
100
AcDbEntity
  8
CSLAYER1
  6
CONTINUOUS
 62
     3
100
AcDbVertex
100
AcDb2dVertex
 10
166.1129249999999
 20
136.1128209999999
 30
0.0
  0
VERTEX
  5
157
330
154
100
AcDbEntity
  8
CSLAYER1
  6
CONTINUOUS
 62
     3
100
AcDbVertex
100
AcDb2dVertex
 10
165.7578739999999
 20
136.0644259999999
 30
0.0
  0
VERTEX
  5
158
330
154
100
AcDbEntity
  8
CSLAYER1
  6
CONTINUOUS
 62
     3
100
AcDbVertex
100
AcDb2dVertex
 10
165.4082479999999
 20
135.984178
 30
0.0
  0
VERTEX
  5
159
330
154
100
AcDbEntity
  8
CSLAYER1
  6
CONTINUOUS
 62
     3
100
AcDbVertex
100
AcDb2dVertex
 10
165.066707
 20
135.872687
 30
0.0
  0
VERTEX
  5
15A
330
154
100
AcDbEntity
  8
CSLAYER1
  6
CONTINUOUS
 62
     3
100
AcDbVertex
100
AcDb2dVertex
 10
164.735852
 20
135.730802
 30
0.0
  0
VERTEX
  5
15B
330
154
100
AcDbEntity
  8
CSLAYER1
  6
CONTINUOUS
 62
     3
100
AcDbVertex
100
AcDb2dVertex
 10
164.4182
 20
135.559602
 30
0.0
  0
VERTEX
  5
15C
330
154
100
AcDbEntity
  8
CSLAYER1
  6
CONTINUOUS
 62
     3
100
AcDbVertex
100
AcDb2dVertex
 10
164.1161679999999
 20
135.3603899999999
 30
0.0
  0
VERTEX
  5
15D
330
154
100
AcDbEntity
  8
CSLAYER1
  6
CONTINUOUS
 62
     3
100
AcDbVertex
100
AcDb2dVertex
 10
163.832057
 20
135.134682
 30
0.0
  0
VERTEX
  5
15E
330
154
100
AcDbEntity
  8
CSLAYER1
  6
CONTINUOUS
 62
     3
100
AcDbVertex
100
AcDb2dVertex
 10
163.5680259999999
 20
134.884197
 30
0.0
  0
VERTEX
  5
15F
330
154
100
AcDbEntity
  8
CSLAYER1
  6
CONTINUOUS
 62
     3
100
AcDbVertex
100
AcDb2dVertex
 10
163.3260869999999
 20
134.610841
 30
0.0
  0
VERTEX
  5
160
330
154
100
AcDbEntity
  8
CSLAYER1
  6
CONTINUOUS
 62
     3
100
AcDbVertex
100
AcDb2dVertex
 10
163.108081
 20
134.3166929999999
 30
0.0
  0
VERTEX
  5
161
330
154
100
AcDbEntity
  8
CSLAYER1
  6
CONTINUOUS
 62
     3
100
AcDbVertex
100
AcDb2dVertex
 10
162.9156649999998
 20
134.003994
 30
0.0
  0
VERTEX
  5
162
330
154
100
AcDbEntity
  8
CSLAYER1
  6
CONTINUOUS
 62
     3
100
AcDbVertex
100
AcDb2dVertex
 10
162.750306
 20
133.6751209999998
 30
0.0
  0
VERTEX
  5
163
330
154
100
AcDbEntity
  8
CSLAYER1
  6
CONTINUOUS
 62
     3
100
AcDbVertex
100
AcDb2dVertex
 10
162.613262
 20
133.332579
 30
0.0
  0
VERTEX
  5
164
330
154
100
AcDbEntity
  8
CSLAYER1
  6
CONTINUOUS
 62
     3
100
AcDbVertex
100
AcDb2dVertex
 10
162.505574
 20
132.978974
 30
0.0
  0
VERTEX
  5
165
330
154
100
AcDbEntity
  8
CSLAYER1
  6
CONTINUOUS
 62
     3
100
AcDbVertex
100
AcDb2dVertex
 10
162.4280639999998
 20
132.6169979999999
 30
0.0
  0
VERTEX
  5
166
330
154
100
AcDbEntity
  8
CSLAYER1
  6
CONTINUOUS
 62
     3
100
AcDbVertex
100
AcDb2dVertex
 10
162.3813199999998
 20
132.2494049999999
 30
0.0
  0
VERTEX
  5
167
330
154
100
AcDbEntity
  8
CSLAYER1
  6
CONTINUOUS
 62
     3
100
AcDbVertex
100
AcDb2dVertex
 10
162.3657
 20
131.878994
 30
0.0
  0
VERTEX
  5
168
330
154
100
AcDbEntity
  8
CSLAYER1
  6
CONTINUOUS
 62
     3
100
AcDbVertex
100
AcDb2dVertex
 10
162.3813199999998
 20
131.508582
 30
0.0
  0
VERTEX
  5
169
330
154
100
AcDbEntity
  8
CSLAYER1
  6
CONTINUOUS
 62
     3
100
AcDbVertex
100
AcDb2dVertex
 10
162.4280639999998
 20
131.1409889999999
 30
0.0
  0
VERTEX
  5
16A
330
154
100
AcDbEntity
  8
CSLAYER1
  6
CONTINUOUS
 62
     3
100
AcDbVertex
100
AcDb2dVertex
 10
162.505574
 20
130.7790129999998
 30
0.0
  0
VERTEX
  5
16B
330
154
100
AcDbEntity
  8
CSLAYER1
  6
CONTINUOUS
 62
     3
100
AcDbVertex
100
AcDb2dVertex
 10
162.613262
 20
130.4254079999998
 30
0.0
  0
VERTEX
  5
16C
330
154
100
AcDbEntity
  8
CSLAYER1
  6
CONTINUOUS
 62
     3
100
AcDbVertex
100
AcDb2dVertex
 10
162.750306
 20
130.082866
 30
0.0
  0
VERTEX
  5
16D
330
154
100
AcDbEntity
  8
CSLAYER1
  6
CONTINUOUS
 62
     3
100
AcDbVertex
100
AcDb2dVertex
 10
162.9156649999998
 20
129.753994
 30
0.0
  0
VERTEX
  5
16E
330
154
100
AcDbEntity
  8
CSLAYER1
  6
CONTINUOUS
 62
     3
100
AcDbVertex
100
AcDb2dVertex
 10
163.108081
 20
129.4412939999999
 30
0.0
  0
VERTEX
  5
16F
330
154
100
AcDbEntity
  8
CSLAYER1
  6
CONTINUOUS
 62
     3
100
AcDbVertex
100
AcDb2dVertex
 10
163.3260869999999
 20
129.1471459999999
 30
0.0
  0
VERTEX
  5
170
330
154
100
AcDbEntity
  8
CSLAYER1
  6
CONTINUOUS
 62
     3
100
AcDbVertex
100
AcDb2dVertex
 10
163.5680259999999
 20
128.8737899999999
 30
0.0
  0
VERTEX
  5
171
330
154
100
AcDbEntity
  8
CSLAYER1
  6
CONTINUOUS
 62
     3
100
AcDbVertex
100
AcDb2dVertex
 10
163.832057
 20
128.623305
 30
0.0
  0
VERTEX
  5
172
330
154
100
AcDbEntity
  8
CSLAYER1
  6
CONTINUOUS
 62
     3
100
AcDbVertex
100
AcDb2dVertex
 10
164.1161679999999
 20
128.3975969999999
 30
0.0
  0
VERTEX
  5
173
330
154
100
AcDbEntity
  8
CSLAYER1
  6
CONTINUOUS
 62
     3
100
AcDbVertex
100
AcDb2dVertex
 10
164.4182
 20
128.1983859999999
 30
0.0
  0
VERTEX
  5
174
330
154
100
AcDbEntity
  8
CSLAYER1
  6
CONTINUOUS
 62
     3
100
AcDbVertex
100
AcDb2dVertex
 10
164.735852
 20
128.027185
 30
0.0
  0
VERTEX
  5
175
330
154
100
AcDbEntity
  8
CSLAYER1
  6
CONTINUOUS
 62
     3
100
AcDbVertex
100
AcDb2dVertex
 10
165.066707
 20
127.8853
 30
0.0
  0
VERTEX
  5
176
330
154
100
AcDbEntity
  8
CSLAYER1
  6
CONTINUOUS
 62
     3
100
AcDbVertex
100
AcDb2dVertex
 10
165.4082479999999
 20
127.773809
 30
0.0
  0
VERTEX
  5
177
330
154
100
AcDbEntity
  8
CSLAYER1
  6
CONTINUOUS
 62
     3
100
AcDbVertex
100
AcDb2dVertex
 10
165.7578739999999
 20
127.693561
 30
0.0
  0
VERTEX
  5
178
330
154
100
AcDbEntity
  8
CSLAYER1
  6
CONTINUOUS
 62
     3
100
AcDbVertex
100
AcDb2dVertex
 10
166.1129249999999
 20
127.6451659999999
 30
0.0
  0
VERTEX
  5
179
330
154
100
AcDbEntity
  8
CSLAYER1
  6
CONTINUOUS
 62
     3
100
AcDbVertex
100
AcDb2dVertex
 10
166.4706999999999
 20
127.6289939999999
 30
0.0
  0
VERTEX
  5
17A
330
154
100
AcDbEntity
  8
CSLAYER1
  6
CONTINUOUS
 62
     3
100
AcDbVertex
100
AcDb2dVertex
 10
166.8284739999999
 20
127.6451659999999
 30
0.0
  0
VERTEX
  5
17B
330
154
100
AcDbEntity
  8
CSLAYER1
  6
CONTINUOUS
 62
     3
100
AcDbVertex
100
AcDb2dVertex
 10
167.1835249999999
 20
127.693561
 30
0.0
  0
VERTEX
  5
17C
330
154
100
AcDbEntity
  8
CSLAYER1
  6
CONTINUOUS
 62
     3
100
AcDbVertex
100
AcDb2dVertex
 10
167.533152
 20
127.773809
 30
0.0
  0
VERTEX
  5
17D
330
154
100
AcDbEntity
  8
CSLAYER1
  6
CONTINUOUS
 62
     3
100
AcDbVertex
100
AcDb2dVertex
 10
167.8746919999998
 20
127.8853
 30
0.0
  0
VERTEX
  5
17E
330
154
100
AcDbEntity
  8
CSLAYER1
  6
CONTINUOUS
 62
     3
100
AcDbVertex
100
AcDb2dVertex
 10
168.205548
 20
128.027185
 30
0.0
  0
VERTEX
  5
17F
330
154
100
AcDbEntity
  8
CSLAYER1
  6
CONTINUOUS
 62
     3
100
AcDbVertex
100
AcDb2dVertex
 10
168.5232
 20
128.1983859999999
 30
0.0
  0
VERTEX
  5
180
330
154
100
AcDbEntity
  8
CSLAYER1
  6
CONTINUOUS
 62
     3
100
AcDbVertex
100
AcDb2dVertex
 10
168.825231
 20
128.3975969999999
 30
0.0
  0
VERTEX
  5
181
330
154
100
AcDbEntity
  8
CSLAYER1
  6
CONTINUOUS
 62
     3
100
AcDbVertex
100
AcDb2dVertex
 10
169.109343
 20
128.623305
 30
0.0
  0
VERTEX
  5
182
330
154
100
AcDbEntity
  8
CSLAYER1
  6
CONTINUOUS
 62
     3
100
AcDbVertex
100
AcDb2dVertex
 10
169.3733729999999
 20
128.8737899999999
 30
0.0
  0
VERTEX
  5
183
330
154
100
AcDbEntity
  8
CSLAYER1
  6
CONTINUOUS
 62
     3
100
AcDbVertex
100
AcDb2dVertex
 10
169.615312
 20
129.1471459999999
 30
0.0
  0
VERTEX
  5
184
330
154
100
AcDbEntity
  8
CSLAYER1
  6
CONTINUOUS
 62
     3
100
AcDbVertex
100
AcDb2dVertex
 10
169.8333189999999
 20
129.4412939999999
 30
0.0
  0
VERTEX
  5
185
330
154
100
AcDbEntity
  8
CSLAYER1
  6
CONTINUOUS
 62
     3
100
AcDbVertex
100
AcDb2dVertex
 10
170.025734
 20
129.753994
 30
0.0
  0
VERTEX
  5
186
330
154
100
AcDbEntity
  8
CSLAYER1
  6
CONTINUOUS
 62
     3
100
AcDbVertex
100
AcDb2dVertex
 10
170.1910929999999
 20
130.082866
 30
0.0
  0
VERTEX
  5
187
330
154
100
AcDbEntity
  8
CSLAYER1
  6
CONTINUOUS
 62
     3
100
AcDbVertex
100
AcDb2dVertex
 10
170.3281379999999
 20
130.4254079999998
 30
0.0
  0
VERTEX
  5
188
330
154
100
AcDbEntity
  8
CSLAYER1
  6
CONTINUOUS
 62
     3
100
AcDbVertex
100
AcDb2dVertex
 10
170.435825
 20
130.7790129999998
 30
0.0
  0
VERTEX
  5
189
330
154
100
AcDbEntity
  8
CSLAYER1
  6
CONTINUOUS
 62
     3
100
AcDbVertex
100
AcDb2dVertex
 10
170.513336
 20
131.1409889999999
 30
0.0
  0
VERTEX
  5
18A
330
154
100
AcDbEntity
  8
CSLAYER1
  6
CONTINUOUS
 62
     3
100
AcDbVertex
100
AcDb2dVertex
 10
170.560079
 20
131.508582
 30
0.0
  0
VERTEX
  5
18B
330
154
100
AcDbEntity
  8
CSLAYER1
  6
CONTINUOUS
 62
     3
100
AcDbVertex
100
AcDb2dVertex
 10
170.5757
 20
131.878994
 30
0.0
  0
VERTEX
  5
18C
330
154
100
AcDbEntity
  8
CSLAYER1
  6
CONTINUOUS
 62
     3
100
AcDbVertex
100
AcDb2dVertex
 10
170.560079
 20
132.2494049999999
 30
0.0
  0
VERTEX
  5
18D
330
154
100
AcDbEntity
  8
CSLAYER1
  6
CONTINUOUS
 62
     3
100
AcDbVertex
100
AcDb2dVertex
 10
170.513336
 20
132.6169979999999
 30
0.0
  0
VERTEX
  5
18E
330
154
100
AcDbEntity
  8
CSLAYER1
  6
CONTINUOUS
 62
     3
100
AcDbVertex
100
AcDb2dVertex
 10
170.435825
 20
132.978974
 30
0.0
  0
VERTEX
  5
18F
330
154
100
AcDbEntity
  8
CSLAYER1
  6
CONTINUOUS
 62
     3
100
AcDbVertex
100
AcDb2dVertex
 10
170.3281379999999
 20
133.332579
 30
0.0
  0
VERTEX
  5
190
330
154
100
AcDbEntity
  8
CSLAYER1
  6
CONTINUOUS
 62
     3
100
AcDbVertex
100
AcDb2dVertex
 10
170.1910929999999
 20
133.6751209999998
 30
0.0
  0
VERTEX
  5
191
330
154
100
AcDbEntity
  8
CSLAYER1
  6
CONTINUOUS
 62
     3
100
AcDbVertex
100
AcDb2dVertex
 10
170.025734
 20
134.003994
 30
0.0
  0
VERTEX
  5
192
330
154
100
AcDbEntity
  8
CSLAYER1
  6
CONTINUOUS
 62
     3
100
AcDbVertex
100
AcDb2dVertex
 10
169.8333189999999
 20
134.3166929999999
 30
0.0
  0
VERTEX
  5
193
330
154
100
AcDbEntity
  8
CSLAYER1
  6
CONTINUOUS
 62
     3
100
AcDbVertex
100
AcDb2dVertex
 10
169.615312
 20
134.610841
 30
0.0
  0
VERTEX
  5
194
330
154
100
AcDbEntity
  8
CSLAYER1
  6
CONTINUOUS
 62
     3
100
AcDbVertex
100
AcDb2dVertex
 10
169.3733729999999
 20
134.884197
 30
0.0
  0
VERTEX
  5
195
330
154
100
AcDbEntity
  8
CSLAYER1
  6
CONTINUOUS
 62
     3
100
AcDbVertex
100
AcDb2dVertex
 10
169.109343
 20
135.134682
 30
0.0
  0
VERTEX
  5
196
330
154
100
AcDbEntity
  8
CSLAYER1
  6
CONTINUOUS
 62
     3
100
AcDbVertex
100
AcDb2dVertex
 10
168.825231
 20
135.3603899999999
 30
0.0
  0
VERTEX
  5
197
330
154
100
AcDbEntity
  8
CSLAYER1
  6
CONTINUOUS
 62
     3
100
AcDbVertex
100
AcDb2dVertex
 10
168.5232
 20
135.559602
 30
0.0
  0
VERTEX
  5
198
330
154
100
AcDbEntity
  8
CSLAYER1
  6
CONTINUOUS
 62
     3
100
AcDbVertex
100
AcDb2dVertex
 10
168.205548
 20
135.730802
 30
0.0
  0
VERTEX
  5
199
330
154
100
AcDbEntity
  8
CSLAYER1
  6
CONTINUOUS
 62
     3
100
AcDbVertex
100
AcDb2dVertex
 10
167.8746919999998
 20
135.872687
 30
0.0
  0
VERTEX
  5
19A
330
154
100
AcDbEntity
  8
CSLAYER1
  6
CONTINUOUS
 62
     3
100
AcDbVertex
100
AcDb2dVertex
 10
167.533152
 20
135.984178
 30
0.0
  0
VERTEX
  5
19B
330
154
100
AcDbEntity
  8
CSLAYER1
  6
CONTINUOUS
 62
     3
100
AcDbVertex
100
AcDb2dVertex
 10
167.1835249999999
 20
136.0644259999999
 30
0.0
  0
VERTEX
  5
19C
330
154
100
AcDbEntity
  8
CSLAYER1
  6
CONTINUOUS
 62
     3
100
AcDbVertex
100
AcDb2dVertex
 10
166.8284739999999
 20
136.1128209999999
 30
0.0
  0
VERTEX
  5
19D
330
154
100
AcDbEntity
  8
CSLAYER1
  6
CONTINUOUS
 62
     3
100
AcDbVertex
100
AcDb2dVertex
 10
166.4706999999999
 20
136.128994
 30
0.0
  0
SEQEND
  5
19E
330
154
100
AcDbEntity
  8
CSLAYER1
 62
     3
  0
INSERT
  5
19F
330
1E
100
AcDbEntity
  8
CSLAYER1
100
AcDbBlockReference
  2
FXDIM0002
 10
0.0
 20
0.0
 30
0.0
  0
CIRCLE
  5
1A0
330
1E
100
AcDbEntity
  8
CSLAYER1
  6
CONTINUOUS
 62
     3
100
AcDbCircle
 10
234.7541629999999
 20
127.47907
 30
0.0
 40
3.0
  0
DIMENSION
  5
1A1
330
1E
100
AcDbEntity
  8
CSLAYER1
 62
     4
100
AcDbDimension
  2
*D5
 10
70.47069999999997
 20
156.921261
 30
0.0
 11
66.970703
 21
157.4212649999998
 31
0.0
100
AcDbAlignedDimension
 13
63.4707
 23
133.97907
 33
0.0
 14
70.47069999999997
 24
138.51907
 34
0.0
100
AcDbRotatedDimension
  0
DIMENSION
  5
1A2
330
1E
100
AcDbEntity
  8
CSLAYER1
 62
     4
100
AcDbDimension
  2
*D6
 10
156.4707
 20
162.921261
 30
0.0
 11
109.970703
 21
163.4212649999998
 31
0.0
100
AcDbAlignedDimension
 13
63.4707
 23
133.97907
 33
0.0
 14
156.4707
 24
144.47907
 34
0.0
100
AcDbRotatedDimension
  0
DIMENSION
  5
1A3
330
1E
100
AcDbEntity
  8
CSLAYER1
 62
     4
100
AcDbDimension
  2
*D7
 10
176.4707
 20
162.921261
 30
0.0
 11
166.470703
 21
163.4212649999998
 31
0.0
100
AcDbAlignedDimension
 13
156.4707
 23
144.47907
 33
0.0
 14
176.4707
 24
139.47907
 34
0.0
100
AcDbRotatedDimension
  0
DIMENSION
  5
1A4
330
1E
100
AcDbEntity
  8
CSLAYER1
 62
     4
100
AcDbDimension
  2
*D8
 10
156.4707
 20
156.921261
 30
0.0
 11
125.470703
 21
157.4212649999998
 31
0.0
100
AcDbAlignedDimension
 13
94.4707
 23
144.47907
 33
0.0
 14
156.4707
 24
143.47907
 34
0.0
100
AcDbRotatedDimension
  0
DIMENSION
  5
1A5
330
1E
100
AcDbEntity
  8
CSLAYER1
 62
     4
100
AcDbDimension
  2
*D9
 10
70.47069999999997
 20
91.82991300000001
 30
0.0
 11
66.970703
 21
92.32991
 31
0.0
100
AcDbAlignedDimension
 13
63.4707
 23
72.44975
 33
0.0
 14
70.47069999999997
 24
73.304662
 34
0.0
100
AcDbRotatedDimension
  0
DIMENSION
  5
1A6
330
1E
100
AcDbEntity
  8
CSLAYER1
 62
     4
100
AcDbDimension
  2
*D10
 10
176.4707
 20
97.829913
 30
0.0
 11
119.970703
 21
98.32990999999999
 31
0.0
100
AcDbAlignedDimension
 13
63.4707
 23
72.44975
 33
0.0
 14
176.4707
 24
81.77906999999997
 34
0.0
100
AcDbRotatedDimension
  0
LINE
  5
1A7
330
1E
100
AcDbEntity
  8
CSLAYER1
  6
CONTINUOUS
 62
     3
100
AcDbLine
 10
63.4707
 20
72.44975
 30
0.0
 11
63.4707
 21
60.108389
 31
0.0
  0
LINE
  5
1A8
330
1E
100
AcDbEntity
  8
CSLAYER1
  6
CONTINUOUS
 62
     3
100
AcDbLine
 10
65.47069999999999
 20
69.77906999999999
 30
0.0
 11
82.939281
 21
74.89917099999998
 31
0.0
  0
LINE
  5
1A9
330
1E
100
AcDbEntity
  8
CSLAYER1
  6
CONTINUOUS
 62
     3
100
AcDbLine
 10
87.47069999999999
 20
80.967391
 30
0.0
 11
87.47069999999999
 21
81.472618
 31
0.0
  0
LINE
  5
1AA
330
1E
100
AcDbEntity
  8
CSLAYER1
  6
CONTINUOUS
 62
     3
100
AcDbLine
 10
87.47069999999999
 20
81.472618
 30
0.0
 11
94.4707
 21
83.27906999999997
 31
0.0
  0
LINE
  5
1AB
330
1E
100
AcDbEntity
  8
CSLAYER1
  6
CONTINUOUS
 62
     3
100
AcDbLine
 10
94.4707
 20
83.27906999999997
 30
0.0
 11
174.9706999999999
 21
83.27906999999997
 31
0.0
  0
LINE
  5
1AC
330
1E
100
AcDbEntity
  8
CSLAYER1
  6
CONTINUOUS
 62
     3
100
AcDbLine
 10
94.4707
 20
83.27906999999997
 30
0.0
 11
94.4707
 21
49.27907000000001
 31
0.0
  0
LINE
  5
1AD
330
1E
100
AcDbEntity
  8
CSLAYER1
  6
CONTINUOUS
 62
     3
100
AcDbLine
 10
87.47069999999999
 20
80.967391
 30
0.0
 11
65.72106600000001
 21
75.35458199999998
 31
0.0
  0
ARC
  5
1AE
330
1E
100
AcDbEntity
  8
CSLAYER1
  6
CONTINUOUS
 62
     3
100
AcDbCircle
 10
66.47069999999999
 20
72.44975
 30
0.0
 40
3.0
100
AcDbArc
 50
104.470294
 51
180.0
  0
LINE
  5
1AF
330
1E
100
AcDbEntity
  8
CSLAYER1
  6
CONTINUOUS
 62
     3
100
AcDbLine
 10
65.47069999999999
 20
69.77906999999999
 30
0.0
 11
65.47069999999999
 21
62.77906999999999
 31
0.0
  0
ARC
  5
1B0
330
1E
100
AcDbEntity
  8
CSLAYER1
  6
CONTINUOUS
 62
     3
100
AcDbCircle
 10
64.4707
 20
69.77906999999999
 30
0.0
 40
1.0
100
AcDbArc
 50
0.0
 51
180.0
  0
ARC
  5
1B1
330
1E
100
AcDbEntity
  8
CSLAYER1
  6
CONTINUOUS
 62
     3
100
AcDbCircle
 10
85.47071499999999
 20
66.262514
 30
0.0
 40
9.0
100
AcDbArc
 50
0.105395
 51
106.3360429999999
  0
LINE
  5
1B2
330
1E
100
AcDbEntity
  8
CSLAYER1
  6
CENTER
 62
     4
100
AcDbLine
 10
70.47069999999997
 20
59.87619200000001
 30
0.0
 11
70.47069999999997
 21
78.339313
 31
0.0
  0
LINE
  5
1B3
330
1E
100
AcDbEntity
  8
CSLAYER1
  6
CONTINUOUS
 62
     3
100
AcDbLine
 10
65.47069999999999
 20
62.77906999999999
 30
0.0
 11
82.939281
 21
57.65896800000001
 31
0.0
  0
LINE
  5
1B4
330
1E
100
AcDbEntity
  8
CSLAYER1
  6
CONTINUOUS
 62
     3
100
AcDbLine
 10
87.47069999999999
 20
51.590749
 30
0.0
 11
87.47069999999999
 21
51.085521
 31
0.0
  0
LINE
  5
1B5
330
1E
100
AcDbEntity
  8
CSLAYER1
  6
CONTINUOUS
 62
     3
100
AcDbLine
 10
87.47069999999999
 20
51.085521
 30
0.0
 11
94.4707
 21
49.27907000000001
 31
0.0
  0
LINE
  5
1B6
330
1E
100
AcDbEntity
  8
CSLAYER1
  6
CONTINUOUS
 62
     3
100
AcDbLine
 10
94.4707
 20
49.27907000000001
 30
0.0
 11
174.9706999999999
 21
49.27907000000001
 31
0.0
  0
LINE
  5
1B7
330
1E
100
AcDbEntity
  8
CSLAYER1
  6
CONTINUOUS
 62
     3
100
AcDbLine
 10
87.47069999999999
 20
51.590749
 30
0.0
 11
65.72106600000001
 21
57.20355699999998
 31
0.0
  0
ARC
  5
1B8
330
1E
100
AcDbEntity
  8
CSLAYER1
  6
CONTINUOUS
 62
     3
100
AcDbCircle
 10
66.47069999999999
 20
60.108389
 30
0.0
 40
3.0
100
AcDbArc
 50
180.0
 51
255.529706
  0
ARC
  5
1B9
330
1E
100
AcDbEntity
  8
CSLAYER1
  6
CONTINUOUS
 62
     3
100
AcDbCircle
 10
64.4707
 20
62.77906999999999
 30
0.0
 40
1.0
100
AcDbArc
 50
180.0
 51
0.0
  0
ARC
  5
1BA
330
1E
100
AcDbEntity
  8
CSLAYER1
  6
CONTINUOUS
 62
     3
100
AcDbCircle
 10
85.47071499999999
 20
66.295625
 30
0.0
 40
9.0
100
AcDbArc
 50
253.6639569999999
 51
359.8946049999998
  0
LINE
  5
1BB
330
1E
100
AcDbEntity
  8
CSLAYER1
  6
CONTINUOUS
 62
     3
100
AcDbLine
 10
156.4707
 20
110.4790699999999
 30
0.0
 11
156.4707
 21
144.47907
 31
0.0
  0
LINE
  5
1BC
330
1E
100
AcDbEntity
  8
CSLAYER1
  6
CONTINUOUS
 62
     3
100
AcDbLine
 10
161.4706999999999
 20
144.47907
 30
0.0
 11
156.4707
 21
144.47907
 31
0.0
  0
LINE
  5
1BD
330
1E
100
AcDbEntity
  8
CSLAYER1
  6
CONTINUOUS
 62
     3
100
AcDbLine
 10
94.4707
 20
144.47907
 30
0.0
 11
94.4707
 21
110.4790699999999
 31
0.0
  0
ARC
  5
1BE
330
1E
100
AcDbEntity
  8
CSLAYER1
  6
CONTINUOUS
 62
     3
100
AcDbCircle
 10
81.59630699999999
 20
104.9790699999999
 30
0.0
 40
14.0
100
AcDbArc
 50
23.132396
 51
90.0
  0
LINE
  5
1BF
330
1E
100
AcDbEntity
  8
CSLAYER1
  6
CONTINUOUS
 62
     3
100
AcDbLine
 10
81.59630699999999
 20
118.9790699999999
 30
0.0
 11
65.47069999999999
 21
118.9790699999999
 31
0.0
  0
LINE
  5
1C0
330
1E
100
AcDbEntity
  8
CSLAYER1
  6
CONTINUOUS
 62
     3
100
AcDbLine
 10
65.47069999999999
 20
118.9790699999999
 30
0.0
 11
63.4707
 21
120.9790699999998
 31
0.0
  0
LINE
  5
1C1
330
1E
100
AcDbEntity
  8
CSLAYER1
  6
CONTINUOUS
 62
     3
100
AcDbLine
 10
63.4707
 20
120.9790699999998
 30
0.0
 11
63.4707
 21
122.9790699999999
 31
0.0
  0
LINE
  5
1C2
330
1E
100
AcDbEntity
  8
CSLAYER1
  6
CONTINUOUS
 62
     3
100
AcDbLine
 10
63.4707
 20
122.9790699999999
 30
0.0
 11
87.47069999999999
 21
122.9790699999999
 31
0.0
  0
LINE
  5
1C3
330
1E
100
AcDbEntity
  8
CSLAYER1
  6
CONTINUOUS
 62
     3
100
AcDbLine
 10
87.47069999999999
 20
122.9790699999999
 30
0.0
 11
87.47069999999999
 21
131.97907
 31
0.0
  0
LINE
  5
1C4
330
1E
100
AcDbEntity
  8
CSLAYER1
  6
CONTINUOUS
 62
     3
100
AcDbLine
 10
87.47069999999999
 20
131.97907
 30
0.0
 11
63.4707
 21
131.97907
 31
0.0
  0
LINE
  5
1C5
330
1E
100
AcDbEntity
  8
CSLAYER1
  6
CONTINUOUS
 62
     3
100
AcDbLine
 10
63.4707
 20
131.97907
 30
0.0
 11
63.4707
 21
133.97907
 31
0.0
  0
LINE
  5
1C6
330
1E
100
AcDbEntity
  8
CSLAYER1
  6
CONTINUOUS
 62
     3
100
AcDbLine
 10
63.4707
 20
133.97907
 30
0.0
 11
65.47069999999999
 21
135.97907
 31
0.0
  0
LINE
  5
1C7
330
1E
100
AcDbEntity
  8
CSLAYER1
  6
CONTINUOUS
 62
     3
100
AcDbLine
 10
65.47069999999999
 20
135.97907
 30
0.0
 11
81.59630699999999
 21
135.97907
 31
0.0
  0
ARC
  5
1C8
330
1E
100
AcDbEntity
  8
CSLAYER1
  6
CONTINUOUS
 62
     3
100
AcDbCircle
 10
81.59630699999999
 20
149.97907
 30
0.0
 40
14.0
100
AcDbArc
 50
270.0
 51
336.867604
  0
LINE
  5
1C9
330
1E
100
AcDbEntity
  8
CSLAYER1
  6
CENTER
 62
     4
100
AcDbLine
 10
61.39191199999999
 20
127.47907
 30
0.0
 11
181.425254
 21
127.47907
 31
0.0
  0
LINE
  5
1CA
330
1E
100
AcDbEntity
  8
CSLAYER1
  6
CENTER
 62
     4
100
AcDbLine
 10
70.47069999999997
 20
138.51907
 30
0.0
 11
70.47069999999997
 21
113.286576
 31
0.0
  0
LINE
  5
1CB
330
1E
100
AcDbEntity
  8
CSLAYER1
  6
CONTINUOUS
 62
     3
100
AcDbLine
 10
156.1707
 20
110.4790699999999
 30
0.0
 11
94.4707
 21
110.4790699999999
 31
0.0
  0
LINE
  5
1CC
330
1E
100
AcDbEntity
  8
CSLAYER1
  6
CONTINUOUS
 62
     3
100
AcDbLine
 10
68.47069999999999
 20
131.97907
 30
0.0
 11
68.47069999999999
 21
122.9790699999999
 31
0.0
  0
LINE
  5
1CD
330
1E
100
AcDbEntity
  8
CSLAYER1
  6
CONTINUOUS
 62
     3
100
AcDbLine
 10
72.47069999999998
 20
131.97907
 30
0.0
 11
72.47069999999998
 21
122.9790699999999
 31
0.0
  0
LINE
  5
1CE
330
1E
100
AcDbEntity
  8
CSLAYER1
  6
CONTINUOUS
 62
     3
100
AcDbLine
 10
69.4707
 20
115.17907
 30
0.0
 11
71.47069999999998
 21
115.17907
 31
0.0
  0
LINE
  5
1CF
330
1E
100
AcDbEntity
  8
CSLAYER1
  6
CONTINUOUS
 62
     3
100
AcDbLine
 10
68.97069999999999
 20
118.57907
 30
0.0
 11
68.97069999999999
 21
115.6790699999999
 31
0.0
  0
LINE
  5
1D0
330
1E
100
AcDbEntity
  8
CSLAYER1
  6
CONTINUOUS
 62
     4
100
AcDbLine
 10
69.22069999999999
 20
118.57907
 30
0.0
 11
69.22069999999999
 21
115.42907
 31
0.0
  0
LINE
  5
1D1
330
1E
100
AcDbEntity
  8
CSLAYER1
  6
CONTINUOUS
 62
     3
100
AcDbLine
 10
69.4707
 20
115.17907
 30
0.0
 11
68.97069999999999
 21
115.6790699999999
 31
0.0
  0
LINE
  5
1D2
330
1E
100
AcDbEntity
  8
CSLAYER1
  6
CONTINUOUS
 62
     4
100
AcDbLine
 10
68.97069999999999
 20
115.6790699999999
 30
0.0
 11
71.9707
 21
115.6790699999999
 31
0.0
  0
LINE
  5
1D3
330
1E
100
AcDbEntity
  8
CSLAYER1
  6
CONTINUOUS
 62
     3
100
AcDbLine
 10
71.9707
 20
118.57907
 30
0.0
 11
71.9707
 21
115.6790699999999
 31
0.0
  0
LINE
  5
1D4
330
1E
100
AcDbEntity
  8
CSLAYER1
  6
CONTINUOUS
 62
     3
100
AcDbLine
 10
71.47069999999998
 20
115.17907
 30
0.0
 11
71.9707
 21
115.6790699999999
 31
0.0
  0
LINE
  5
1D5
330
1E
100
AcDbEntity
  8
CSLAYER1
  6
CONTINUOUS
 62
     4
100
AcDbLine
 10
71.72069999999997
 20
118.57907
 30
0.0
 11
71.72069999999997
 21
115.42907
 31
0.0
  0
LINE
  5
1D6
330
1E
100
AcDbEntity
  8
CSLAYER1
  6
CONTINUOUS
 62
     3
100
AcDbLine
 10
73.2207
 20
118.57907
 30
0.0
 11
67.72069999999999
 21
118.57907
 31
0.0
  0
LINE
  5
1D7
330
1E
100
AcDbEntity
  8
CSLAYER1
  6
CONTINUOUS
 62
     3
100
AcDbLine
 10
68.882986
 20
118.9790699999999
 30
0.0
 11
68.882986
 21
118.82469
 31
0.0
  0
LINE
  5
1D8
330
1E
100
AcDbEntity
  8
CSLAYER1
  6
CONTINUOUS
 62
     3
100
AcDbLine
 10
67.29527299999999
 20
118.9790699999999
 30
0.0
 11
67.29527299999999
 21
118.82469
 31
0.0
  0
LINE
  5
1D9
330
1E
100
AcDbEntity
  8
CSLAYER1
  6
CONTINUOUS
 62
     3
100
AcDbLine
 10
72.058413
 20
118.9790699999999
 30
0.0
 11
72.058413
 21
118.82469
 31
0.0
  0
LINE
  5
1DA
330
1E
100
AcDbEntity
  8
CSLAYER1
  6
CONTINUOUS
 62
     3
100
AcDbLine
 10
73.646126
 20
118.9790699999999
 30
0.0
 11
73.646126
 21
118.82469
 31
0.0
  0
LINE
  5
1DB
330
1E
100
AcDbEntity
  8
CSLAYER1
  6
CONTINUOUS
 62
     3
100
AcDbLine
 10
67.29527299999999
 20
118.82469
 30
0.0
 11
67.72069999999999
 21
118.57907
 31
0.0
  0
ARC
  5
1DC
330
1E
100
AcDbEntity
  8
CSLAYER1
  6
CONTINUOUS
 62
     3
100
AcDbCircle
 10
70.47069999999997
 20
123.83345
 30
0.0
 40
5.25438
100
AcDbArc
 50
252.412046
 51
287.587954
  0
ARC
  5
1DD
330
1E
100
AcDbEntity
  8
CSLAYER1
  6
CONTINUOUS
 62
     3
100
AcDbCircle
 10
67.27537099999999
 20
123.5591989999999
 30
0.0
 40
5.0
100
AcDbArc
 50
275.109864
 51
288.755062
  0
ARC
  5
1DE
330
1E
100
AcDbEntity
  8
CSLAYER1
  6
CONTINUOUS
 62
     3
100
AcDbCircle
 10
73.66602900000002
 20
123.5591989999999
 30
0.0
 40
5.0
100
AcDbArc
 50
251.244938
 51
264.8901359999999
  0
LINE
  5
1DF
330
1E
100
AcDbEntity
  8
CSLAYER1
  6
CONTINUOUS
 62
     3
100
AcDbLine
 10
73.646126
 20
118.82469
 30
0.0
 11
73.2207
 21
118.57907
 31
0.0
  0
CIRCLE
  5
1E0
330
1E
100
AcDbEntity
  8
CSLAYER1
  6
CONTINUOUS
 62
     3
100
AcDbCircle
 10
70.47069999999997
 20
66.27906999999999
 30
0.0
 40
3.5
  0
CIRCLE
  5
1E1
330
1E
100
AcDbEntity
  8
CSLAYER1
  6
CONTINUOUS
 62
     3
100
AcDbCircle
 10
70.47069999999997
 20
66.27906999999999
 30
0.0
 40
1.5
  0
CIRCLE
  5
1E2
330
1E
100
AcDbEntity
  8
CSLAYER1
  6
CONTINUOUS
 62
     4
100
AcDbCircle
 10
70.47069999999997
 20
66.27906999999999
 30
0.0
 40
1.25
  0
LINE
  5
1E3
330
1E
100
AcDbEntity
  8
CSLAYER1
  6
CONTINUOUS
 62
     3
100
AcDbLine
 10
68.882986
 20
63.52907
 30
0.0
 11
72.058413
 21
63.52907
 31
0.0
  0
LINE
  5
1E4
330
1E
100
AcDbEntity
  8
CSLAYER1
  6
CONTINUOUS
 62
     3
100
AcDbLine
 10
67.29527299999999
 20
66.27906999999999
 30
0.0
 11
68.882986
 21
63.52907
 31
0.0
  0
LINE
  5
1E5
330
1E
100
AcDbEntity
  8
CSLAYER1
  6
CONTINUOUS
 62
     3
100
AcDbLine
 10
73.646126
 20
66.27906999999999
 30
0.0
 11
72.058413
 21
63.52907
 31
0.0
  0
LINE
  5
1E6
330
1E
100
AcDbEntity
  8
CSLAYER1
  6
CONTINUOUS
 62
     3
100
AcDbLine
 10
68.882986
 20
69.02906999999999
 30
0.0
 11
72.058413
 21
69.02906999999999
 31
0.0
  0
LINE
  5
1E7
330
1E
100
AcDbEntity
  8
CSLAYER1
  6
CONTINUOUS
 62
     3
100
AcDbLine
 10
67.29527299999999
 20
66.27906999999999
 30
0.0
 11
68.882986
 21
69.02906999999999
 31
0.0
  0
LINE
  5
1E8
330
1E
100
AcDbEntity
  8
CSLAYER1
  6
CONTINUOUS
 62
     3
100
AcDbLine
 10
73.646126
 20
66.27906999999999
 30
0.0
 11
72.058413
 21
69.02906999999999
 31
0.0
  0
CIRCLE
  5
1E9
330
1E
100
AcDbEntity
  8
CSLAYER1
  6
CONTINUOUS
 62
     3
100
AcDbCircle
 10
70.47069999999997
 20
66.27906999999999
 30
0.0
 40
2.75
  0
DIMENSION
  5
1EA
330
1E
100
AcDbEntity
  8
CSLAYER1
 62
     4
100
AcDbDimension
  2
*D11
 10
46.48221599999999
 20
135.97907
 30
0.0
 11
45.98221599999999
 21
127.4790649999999
 31
0.0
 70
     1
100
AcDbAlignedDimension
 13
65.47069999999999
 23
118.9790699999999
 33
0.0
 14
65.47069999999999
 24
135.97907
 34
0.0
  0
DIMENSION
  5
1EB
330
1E
100
AcDbEntity
  8
CSLAYER1
 62
     4
100
AcDbDimension
  2
*D12
 10
52.482216
 20
131.97907
 30
0.0
 11
51.982216
 21
127.4790649999999
 31
0.0
 70
     1
100
AcDbAlignedDimension
 13
63.4707
 23
122.9790699999999
 33
0.0
 14
63.4707
 24
131.97907
 34
0.0
  0
DIMENSION
  5
1EC
330
1E
100
AcDbEntity
  8
CSLAYER1
 62
     4
100
AcDbDimension
  2
*D13
 10
46.48221599999999
 20
83.27906999999997
 30
0.0
 11
45.98221599999999
 21
66.27906800000001
 31
0.0
 70
     1
100
AcDbAlignedDimension
 13
94.4707
 23
49.27907000000001
 33
0.0
 14
94.4707
 24
83.27906999999997
 34
0.0
  0
CIRCLE
  5
1ED
330
1E
100
AcDbEntity
  8
CSLAYER1
  6
CONTINUOUS
 62
     3
100
AcDbCircle
 10
234.7541629999999
 20
127.47907
 30
0.0
 40
17.0
  0
ARC
  5
1EE
330
1E
100
AcDbEntity
  8
CSLAYER1
  6
CONTINUOUS
 62
     3
100
AcDbCircle
 10
234.7541629999999
 20
127.47907
 30
0.0
 40
15.5
100
AcDbArc
 50
119.428707
 51
240.571293
  0
ARC
  5
1EF
330
1E
100
AcDbEntity
  8
CSLAYER1
  6
CONTINUOUS
 62
     3
100
AcDbCircle
 10
234.7541629999999
 20
127.47907
 30
0.0
 40
15.5
100
AcDbArc
 50
299.428707
 51
60.57129300000001
  0
LINE
  5
1F0
330
1E
100
AcDbEntity
  8
CSLAYER1
  6
CONTINUOUS
 62
     3
100
AcDbLine
 10
224.4221739999999
 20
140.97907
 30
0.0
 11
245.086152
 21
140.97907
 31
0.0
  0
LINE
  5
1F1
330
1E
100
AcDbEntity
  8
CSLAYER1
  6
CONTINUOUS
 62
     3
100
AcDbLine
 10
224.4221739999999
 20
113.97907
 30
0.0
 11
245.086152
 21
113.97907
 31
0.0
  0
LINE
  5
1F3
330
1E
100
AcDbEntity
  8
CSLAYER1
  6
CONTINUOUS
 62
     3
100
AcDbLine
 10
156.4707
 20
144.17907
 30
0.0
 11
156.1707
 21
144.47907
 31
0.0
  0
LINE
  5
1F4
330
1E
100
AcDbEntity
  8
CSLAYER1
  6
CONTINUOUS
 62
     3
100
AcDbLine
 10
156.1707
 20
144.47907
 30
0.0
 11
94.4707
 21
144.47907
 31
0.0
  0
LINE
  5
1F5
330
1E
100
AcDbEntity
  8
CSLAYER1
  6
CONTINUOUS
 62
     3
100
AcDbLine
 10
161.4706999999999
 20
110.4790699999999
 30
0.0
 11
161.4706999999999
 21
111.97907
 31
0.0
  0
ARC
  5
1F6
330
1E
100
AcDbEntity
  8
CSLAYER1
  6
CONTINUOUS
 62
     3
100
AcDbCircle
 10
163.4706999999998
 20
111.97907
 30
0.0
 40
2.0
100
AcDbArc
 50
90.0
 51
180.0
  0
LINE
  5
1F7
330
1E
100
AcDbEntity
  8
CSLAYER1
  6
CONTINUOUS
 62
     3
100
AcDbLine
 10
163.4706999999998
 20
113.97907
 30
0.0
 11
174.9706999999999
 21
113.97907
 31
0.0
  0
LINE
  5
1F8
330
1E
100
AcDbEntity
  8
CSLAYER1
  6
CONTINUOUS
 62
     3
100
AcDbLine
 10
161.4706999999999
 20
110.4790699999999
 30
0.0
 11
156.4707
 21
110.4790699999999
 31
0.0
  0
LINE
  5
1F9
330
1E
100
AcDbEntity
  8
CSLAYER1
  6
CONTINUOUS
 62
     3
100
AcDbLine
 10
156.4707
 20
110.77907
 30
0.0
 11
156.1707
 21
110.4790699999999
 31
0.0
  0
LINE
  5
1FA
330
1E
100
AcDbEntity
  8
CSLAYER1
  6
CONTINUOUS
 62
     3
100
AcDbLine
 10
174.9706999999999
 20
56.45235600000001
 30
0.0
 11
163.4706999999998
 21
56.45235600000001
 31
0.0
  0
ARC
  5
1FB
330
1E
100
AcDbEntity
  8
CSLAYER1
  6
CONTINUOUS
 62
     3
100
AcDbCircle
 10
163.4706999999998
 20
58.45235600000001
 30
0.0
 40
2.0
100
AcDbArc
 50
180.0
 51
270.0
  0
LINE
  5
1FC
330
1E
100
AcDbEntity
  8
CSLAYER1
  6
CONTINUOUS
 62
     3
100
AcDbLine
 10
174.9706999999999
 20
56.45235600000001
 30
0.0
 11
176.4707
 21
57.95235600000001
 31
0.0
  0
LINE
  5
1FD
330
1E
100
AcDbEntity
  8
CSLAYER1
  6
CONTINUOUS
 62
     3
100
AcDbLine
 10
176.4707
 20
50.77907
 30
0.0
 11
174.9706999999999
 21
49.27907000000001
 31
0.0
  0
LINE
  5
1FE
330
1E
100
AcDbEntity
  8
CSLAYER1
  6
CONTINUOUS
 62
     3
100
AcDbLine
 10
176.4707
 20
139.47907
 30
0.0
 11
174.9706999999999
 21
140.97907
 31
0.0
  0
LINE
  5
1FF
330
1E
100
AcDbEntity
  8
CSLAYER1
  6
CONTINUOUS
 62
     3
100
AcDbLine
 10
176.4707
 20
115.4790699999999
 30
0.0
 11
174.9706999999999
 21
113.97907
 31
0.0
  0
DIMENSION
  5
200
330
1E
100
AcDbEntity
  8
CSLAYER1
 62
     4
100
AcDbDimension
  2
*D15
 10
81.59630699999999
 20
104.9790699999999
 30
0.0
 11
86.00827800000002
 21
110.436584
 31
0.0
 70
     4
100
AcDbRadialDimension
 15
91.15115000000001
 25
115.2116149999999
 35
0.0
 40
0.0
  0
INSERT
  5
201
330
1E
100
AcDbEntity
  8
CSLAYER1
100
AcDbBlockReference
  2
FXDIM0003
 10
0.0
 20
0.0
 30
0.0
  0
LINE
  5
202
330
1E
100
AcDbEntity
  8
CSLAYER1
  6
DOT
 62
     3
100
AcDbLine
 10
4.0
 20
1.0
 30
0.0
 11
283.0
 21
1.0
 31
0.0
  0
LINE
  5
203
330
1E
100
AcDbEntity
  8
CSLAYER1
  6
DOT
 62
     3
100
AcDbLine
 10
283.0
 20
1.0
 30
0.0
 11
283.0
 21
195.0
 31
0.0
  0
LINE
  5
204
330
1E
100
AcDbEntity
  8
CSLAYER1
  6
DOT
 62
     3
100
AcDbLine
 10
283.0
 20
195.0
 30
0.0
 11
4.0
 21
195.0
 31
0.0
  0
LINE
  5
205
330
1E
100
AcDbEntity
  8
CSLAYER1
  6
DOT
 62
     3
100
AcDbLine
 10
4.0
 20
195.0
 30
0.0
 11
4.0
 21
1.0
 31
0.0
  0
LINE
  5
206
330
1E
100
AcDbEntity
  8
CSLAYER1
  6
DOT
 62
     3
100
AcDbLine
 10
4.0
 20
98.0
 30
0.0
 11
0.0
 21
98.0
 31
0.0
  0
LINE
  5
207
330
1E
100
AcDbEntity
  8
CSLAYER1
  6
DOT
 62
     3
100
AcDbLine
 10
283.0
 20
86.27906999999998
 30
0.0
 11
287.0
 21
86.27906999999998
 31
0.0
  0
LINE
  5
208
330
1E
100
AcDbEntity
  8
CSLAYER1
  6
DOT
 62
     3
100
AcDbLine
 10
143.5
 20
195.0
 30
0.0
 11
143.5
 21
199.0
 31
0.0
  0
ENDSEC
  0
SECTION
  2
OBJECTS
  0
DICTIONARY
  5
C
330
0
100
AcDbDictionary
  3
ACAD_GROUP
350
D
  3
ACAD_LAYOUT
350
19
  3
ACAD_MLINESTYLE
350
16
  3
ACAD_PLOTSETTINGS
350
18
1001
ACAD
1000
TREAT_AS_HARD
1070
     0
1000
TREAT_AS_HARD
1070
     0
  0
DICTIONARY
  5
212
330
1E
100
AcDbDictionary
  3
ACAD_LAYOUTSELFREF
350
231
1001
ACAD
1000
TREAT_AS_HARD
1070
     0
  0
DICTIONARY
  5
210
330
1A
100
AcDbDictionary
  3
ACAD_LAYOUTSELFREF
350
230
1001
ACAD
1000
TREAT_AS_HARD
1070
     0
  0
DICTIONARY
  5
D
102
{ACAD_REACTORS
330
C
102
}
330
C
100
AcDbDictionary
1001
ACAD
1000
TREAT_AS_HARD
1070
     0
1000
TREAT_AS_HARD
1070
     0
  0
DICTIONARY
  5
19
102
{ACAD_REACTORS
330
C
102
}
330
C
100
AcDbDictionary
1001
ACAD
1000
TREAT_AS_HARD
1070
     0
1000
TREAT_AS_HARD
1070
     0
  0
DICTIONARY
  5
16
102
{ACAD_REACTORS
330
C
102
}
330
C
100
AcDbDictionary
  3
STANDARD
350
17
1001
ACAD
1000
TREAT_AS_HARD
1070
     0
1000
TREAT_AS_HARD
1070
     0
  0
DICTIONARY
  5
18
102
{ACAD_REACTORS
330
C
102
}
330
C
100
AcDbDictionary
1001
ACAD
1000
TREAT_AS_HARD
1070
     0
1000
TREAT_AS_HARD
1070
     0
  0
XRECORD
  5
231
102
{ACAD_REACTORS
330
212
102
}
330
212
100
AcDbXrecord
340
1E
  0
XRECORD
  5
230
102
{ACAD_REACTORS
330
210
102
}
330
210
100
AcDbXrecord
340
1A
  0
MLINESTYLE
  5
17
102
{ACAD_REACTORS
330
16
102
}
330
16
100
AcDbMlineStyle
  2
STANDARD
 70
     0
  3

 62
   256
 51
90.0
 52
90.0
 71
     2
 49
0.5
 62
   256
  6
BYLAYER
 49
-0.5
 62
   256
  6
BYLAYER
  0
ENDSEC
  0
EOF
