  0
SECTION
  2
HEADER
  9
$ACADVER
  1
AC1012
  9
$DWGCODEPAGE
  3
dos932
  9
$INSBASE
 10
0.0
 20
0.0
 30
0.0
  9
$EXTMIN
 10
9.98474220045
 20
2.981964806306564
 30
-0.0015258207003583
  9
$EXTMAX
 10
395.0189218472444
 20
275.0068823797708
 30
0.0000000349246037
  9
$LIMMIN
 10
0.0
 20
0.0
  9
$LIMMAX
 10
420.0
 20
297.0
  9
$ORTHOMODE
 70
     0
  9
$REGENMODE
 70
     1
  9
$FILLMODE
 70
     1
  9
$QTEXTMODE
 70
     0
  9
$MIRRTEXT
 70
     1
  9
$DRAGMODE
 70
     2
  9
$LTSCALE
 40
15.0
  9
$OSMODE
 70
    37
  9
$ATTMODE
 70
     1
  9
$TEXTSIZE
 40
0.2
  9
$TRACEWID
 40
0.05
  9
$TEXTSTYLE
  7
GOTHIC
  9
$CLAYER
  8
CSLAYER1
  9
$CELTYPE
  6
BYLAYER
  9
$CECOLOR
 62
   256
  9
$CELTSCALE
 40
1.0
  9
$DELOBJ
 70
     1
  9
$DISPSILH
 70
     0
  9
$DIMSCALE
 40
1.0
  9
$DIMASZ
 40
0.18
  9
$DIMEXO
 40
0.0625
  9
$DIMDLI
 40
0.38
  9
$DIMRND
 40
0.0
  9
$DIMDLE
 40
0.0
  9
$DIMEXE
 40
0.18
  9
$DIMTP
 40
0.0
  9
$DIMTM
 40
0.0
  9
$DIMTXT
 40
0.18
  9
$DIMCEN
 40
0.09
  9
$DIMTSZ
 40
0.0
  9
$DIMTOL
 70
     0
  9
$DIMLIM
 70
     0
  9
$DIMTIH
 70
     1
  9
$DIMTOH
 70
     1
  9
$DIMSE1
 70
     0
  9
$DIMSE2
 70
     0
  9
$DIMTAD
 70
     0
  9
$DIMZIN
 70
     0
  9
$DIMBLK
  1

  9
$DIMASO
 70
     1
  9
$DIMSHO
 70
     1
  9
$DIMPOST
  1

  9
$DIMAPOST
  1

  9
$DIMALT
 70
     0
  9
$DIMALTD
 70
     2
  9
$DIMALTF
 40
25.4
  9
$DIMLFAC
 40
1.0
  9
$DIMTOFL
 70
     0
  9
$DIMTVP
 40
0.0
  9
$DIMTIX
 70
     0
  9
$DIMSOXD
 70
     0
  9
$DIMSAH
 70
     0
  9
$DIMBLK1
  1

  9
$DIMBLK2
  1

  9
$DIMSTYLE
  2
STANDARD
  9
$DIMCLRD
 70
     0
  9
$DIMCLRE
 70
     0
  9
$DIMCLRT
 70
     0
  9
$DIMTFAC
 40
1.0
  9
$DIMGAP
 40
0.09
  9
$DIMJUST
 70
     0
  9
$DIMSD1
 70
     0
  9
$DIMSD2
 70
     0
  9
$DIMTOLJ
 70
     1
  9
$DIMTZIN
 70
     0
  9
$DIMALTZ
 70
     0
  9
$DIMALTTZ
 70
     0
  9
$DIMFIT
 70
     3
  9
$DIMUPT
 70
     0
  9
$DIMUNIT
 70
     2
  9
$DIMDEC
 70
     4
  9
$DIMTDEC
 70
     4
  9
$DIMALTU
 70
     2
  9
$DIMALTTD
 70
     2
  9
$DIMTXSTY
  7
STANDARD
  9
$DIMAUNIT
 70
     0
  9
$LUNITS
 70
     2
  9
$LUPREC
 70
     4
  9
$SKETCHINC
 40
0.1
  9
$FILLETRAD
 40
0.0
  9
$AUNITS
 70
     0
  9
$AUPREC
 70
     0
  9
$MENU
  1
ACAD
  9
$ELEVATION
 40
0.0
  9
$PELEVATION
 40
0.0
  9
$THICKNESS
 40
0.0
  9
$LIMCHECK
 70
     0
  9
$BLIPMODE
 70
     1
  9
$CHAMFERA
 40
0.0
  9
$CHAMFERB
 40
0.0
  9
$CHAMFERC
 40
0.0
  9
$CHAMFERD
 40
0.0
  9
$SKPOLY
 70
     0
  9
$TDCREATE
 40
2453482.000000000
  9
$TDUPDATE
 40
2453516.444401608
  9
$TDINDWG
 40
0.0007492245
  9
$TDUSRTIMER
 40
0.0007491088
  9
$USRTIMER
 70
     1
  9
$ANGBASE
 50
0.0
  9
$ANGDIR
 70
     0
  9
$PDMODE
 70
     0
  9
$PDSIZE
 40
0.0
  9
$PLINEWID
 40
0.0
  9
$COORDS
 70
     0
  9
$SPLFRAME
 70
     0
  9
$SPLINETYPE
 70
     6
  9
$SPLINESEGS
 70
     8
  9
$ATTDIA
 70
     0
  9
$ATTREQ
 70
     1
  9
$HANDLING
 70
-16383
  9
$HANDSEED
  5
1A2
  9
$SURFTAB1
 70
     6
  9
$SURFTAB2
 70
     6
  9
$SURFTYPE
 70
     6
  9
$SURFU
 70
     6
  9
$SURFV
 70
     6
  9
$UCSNAME
  2

  9
$UCSORG
 10
0.0
 20
0.0
 30
0.0
  9
$UCSXDIR
 10
1.0
 20
0.0
 30
0.0
  9
$UCSYDIR
 10
0.0
 20
1.0
 30
0.0
  9
$PUCSNAME
  2

  9
$PUCSORG
 10
0.0
 20
0.0
 30
0.0
  9
$PUCSXDIR
 10
1.0
 20
0.0
 30
0.0
  9
$PUCSYDIR
 10
0.0
 20
1.0
 30
0.0
  9
$USERI1
 70
     0
  9
$USERI2
 70
     0
  9
$USERI3
 70
     0
  9
$USERI4
 70
     0
  9
$USERI5
 70
     0
  9
$USERR1
 40
0.0
  9
$USERR2
 40
0.0
  9
$USERR3
 40
0.0
  9
$USERR4
 40
0.0
  9
$USERR5
 40
0.0
  9
$WORLDVIEW
 70
     1
  9
$SHADEDGE
 70
     3
  9
$SHADEDIF
 70
    70
  9
$TILEMODE
 70
     1
  9
$MAXACTVP
 70
    64
  9
$PINSBASE
 10
0.0
 20
0.0
 30
0.0
  9
$PLIMCHECK
 70
     0
  9
$PEXTMIN
 10
1.000000000000000E+20
 20
1.000000000000000E+20
 30
1.000000000000000E+20
  9
$PEXTMAX
 10
-1.000000000000000E+20
 20
-1.000000000000000E+20
 30
-1.000000000000000E+20
  9
$PLIMMIN
 10
0.0
 20
0.0
  9
$PLIMMAX
 10
12.0
 20
9.0
  9
$UNITMODE
 70
     0
  9
$VISRETAIN
 70
     1
  9
$PLINEGEN
 70
     0
  9
$PSLTSCALE
 70
     1
  9
$TREEDEPTH
 70
  3020
  9
$PICKSTYLE
 70
     3
  9
$CMLSTYLE
  2
STANDARD
  9
$CMLJUST
 70
     0
  9
$CMLSCALE
 40
1.0
  9
$SAVEIMAGES
 70
     1
  0
ENDSEC
  0
SECTION
  2
CLASSES
  0
CLASS
  1
ACDBDICTIONARYWDFLT
  2
AcDbDictionaryWithDefault
  3
AutoCAD 2000
 90
    32768
280
     0
281
     0
  0
CLASS
  1
ACDBPLACEHOLDER
  2
AcDbPlaceHolder
  3
AutoCAD 2000
 90
    32768
280
     0
281
     0
  0
CLASS
  1
LAYOUT
  2
AcDbLayout
  3
AutoCAD 2000
 90
    32768
280
     0
281
     0
  0
CLASS
  1
DICTIONARYVAR
  2
AcDbDictionaryVar
  3
AutoCAD 2000
 90
    32768
280
     0
281
     0
  0
CLASS
  1
LONG_TRANSACTION
  2
AcDbLongTransaction
  3
AutoCAD 2000
 90
    32768
280
     0
281
     0
  0
CLASS
  1
LWPOLYLINE
  2
AcDbPolyline
  3
AutoCAD 2000
 90
    32768
280
     0
281
     1
  0
CLASS
  1
HATCH
  2
AcDbHatch
  3
AutoCAD 2000
 90
    32768
280
     0
281
     1
  0
CLASS
  1
XRECORD
  2
AcDbXrecord
  3
AutoCAD 2000
 90
    32768
280
     0
281
     0
  0
CLASS
  1
LONG_TRANSACTION
  2
AcDbLongTransaction
  3
AutoCAD 2000
 90
    32768
280
     0
281
     0
  0
CLASS
  1
LWPOLYLINE
  2
AcDbPolyline
  3
AutoCAD 2000
 90
    32768
280
     0
281
     1
  0
CLASS
  1
HATCH
  2
AcDbHatch
  3
AutoCAD 2000
 90
    32768
280
     0
281
     1
  0
CLASS
  1
XRECORD
  2
AcDbXrecord
  3
AutoCAD 2000
 90
    32768
280
     0
281
     0
  0
ENDSEC
  0
SECTION
  2
TABLES
  0
TABLE
  2
VPORT
  5
8
330
0
100
AcDbSymbolTable
 70
     2
  0
VPORT
  5
19F
330
8
100
AcDbSymbolTableRecord
100
AcDbViewportTableRecord
  2
*ACTIVE
 70
     0
 10
0.0
 20
0.0
 11
1.0
 21
1.0
 12
202.5018320238472
 22
138.9944235930387
 13
0.0
 23
0.0
 14
1.0
 24
1.0
 15
0.0
 25
0.0
 16
0.0
 26
0.0
 36
1.0
 17
0.0
 27
0.0
 37
0.0
 40
274.0676578806492
 41
1.510025062656641
 42
50.0
 43
0.0
 44
0.0
 50
0.0
 51
0.0
 71
     0
 72
   100
 73
     1
 74
     1
 75
     0
 76
     0
 77
     0
 78
     0
  0
ENDTAB
  0
TABLE
  2
LTYPE
  5
5
330
0
100
AcDbSymbolTable
 70
     3
  0
LTYPE
  5
13
330
5
100
AcDbSymbolTableRecord
100
AcDbLinetypeTableRecord
  2
BYBLOCK
 70
     0
  3

 72
    65
 73
     0
 40
0.0
  0
LTYPE
  5
14
330
5
100
AcDbSymbolTableRecord
100
AcDbLinetypeTableRecord
  2
BYLAYER
 70
     0
  3

 72
    65
 73
     0
 40
0.0
  0
LTYPE
  5
15
330
5
100
AcDbSymbolTableRecord
100
AcDbLinetypeTableRecord
  2
CONTINUOUS
 70
     0
  3
Solid line
 72
    65
 73
     0
 40
0.0
  0
LTYPE
  5
25
330
5
100
AcDbSymbolTableRecord
100
AcDbLinetypeTableRecord
  2
DOT
 70
     0
  3
...............................................
 72
    65
 73
     2
 40
0.25
 49
0.0
 74
     0
 49
-0.25
 74
     0
  0
LTYPE
  5
28
330
5
100
AcDbSymbolTableRecord
100
AcDbLinetypeTableRecord
  2
CENTER
 70
     0
  3
____ _ ____ _ ____ _ ____ _ ____ _ ____ _ ____ 
 72
    65
 73
     4
 40
2.0
 49
1.25
 74
     0
 49
-0.25
 74
     0
 49
0.25
 74
     0
 49
-0.25
 74
     0
  0
ENDTAB
  0
TABLE
  2
LAYER
  5
2
330
0
100
AcDbSymbolTable
 70
     3
  0
LAYER
  5
10
330
2
100
AcDbSymbolTableRecord
100
AcDbLayerTableRecord
  2
0
 70
     0
 62
     7
  6
CONTINUOUS
  0
LAYER
  5
22
330
2
100
AcDbSymbolTableRecord
100
AcDbLayerTableRecord
  2
CSLAYER1
 70
     0
 62
     7
  6
CONTINUOUS
  0
LAYER
  5
184
330
2
100
AcDbSymbolTableRecord
100
AcDbLayerTableRecord
  2
DEFPOINTS
 70
     0
 62
     7
  6
CONTINUOUS
  0
ENDTAB
  0
TABLE
  2
STYLE
  5
3
330
0
100
AcDbSymbolTable
 70
     3
  0
STYLE
  5
11
330
3
100
AcDbSymbolTableRecord
100
AcDbTextStyleTableRecord
  2
STANDARD
 70
     0
 40
0.0
 41
1.0
 50
0.0
 71
     0
 42
0.2
  3
txt
  4
extfont.shx
  0
STYLE
  5
3A
330
3
100
AcDbSymbolTableRecord
100
AcDbTextStyleTableRecord
  2
FX_FONT
 70
     0
 40
1.0
 41
1.0
 50
0.0
 71
     0
 42
1.0
  3
monotxt
  4
bigfont
  0
STYLE
  5
17C
330
3
100
AcDbSymbolTableRecord
100
AcDbTextStyleTableRecord
  2
GOTHIC
 70
     0
 40
0.0
 41
1.0
 50
0.0
 71
     0
 42
0.2
  3
txt.shx
  4
extfont.shx
  0
ENDTAB
  0
TABLE
  2
VIEW
  5
6
330
0
100
AcDbSymbolTable
 70
     0
  0
ENDTAB
  0
TABLE
  2
UCS
  5
7
330
0
100
AcDbSymbolTable
 70
     0
  0
ENDTAB
  0
TABLE
  2
APPID
  5
9
330
0
100
AcDbSymbolTable
 70
     1
  0
APPID
  5
12
330
9
100
AcDbSymbolTableRecord
100
AcDbRegAppTableRecord
  2
ACAD
 70
     0
  0
ENDTAB
  0
TABLE
  2
DIMSTYLE
  5
A
330
0
100
AcDbSymbolTable
 70
     1
  0
DIMSTYLE
105
179
330
A
100
AcDbSymbolTableRecord
100
AcDbDimStyleTableRecord
  2
STANDARD
 70
     0
  3

  4

  5

  6

  7

 40
1.0
 41
0.18
 42
0.0625
 43
0.38
 44
0.18
 45
0.0
 46
0.0
 47
0.0
 48
0.0
140
0.18
141
0.09
142
0.0
143
25.4
144
1.0
145
0.0
146
1.0
147
0.09
 71
     0
 72
     0
 73
     1
 74
     1
 75
     0
 76
     0
 77
     0
 78
     0
170
     0
171
     2
172
     0
173
     0
174
     0
175
     0
176
     0
177
     0
178
     0
270
     2
271
     4
272
     4
273
     2
274
     2
340
11
275
     0
280
     0
281
     0
282
     0
283
     1
284
     0
285
     0
286
     0
287
     3
288
     0
  0
ENDTAB
  0
TABLE
  2
BLOCK_RECORD
  5
1
330
0
100
AcDbSymbolTable
 70
    18
  0
BLOCK_RECORD
  5
1E
102
{ACAD_XDICTIONARY
360
182
102
}
330
1
100
AcDbSymbolTableRecord
100
AcDbBlockTableRecord
  2
*MODEL_SPACE
  0
BLOCK_RECORD
  5
1A
102
{ACAD_XDICTIONARY
360
180
102
}
330
1
100
AcDbSymbolTableRecord
100
AcDbBlockTableRecord
  2
*PAPER_SPACE
  0
BLOCK_RECORD
  5
3F
330
1
100
AcDbSymbolTableRecord
100
AcDbBlockTableRecord
  2
*D0
  0
BLOCK_RECORD
  5
49
330
1
100
AcDbSymbolTableRecord
100
AcDbBlockTableRecord
  2
*D1
  0
BLOCK_RECORD
  5
54
330
1
100
AcDbSymbolTableRecord
100
AcDbBlockTableRecord
  2
*D2
  0
BLOCK_RECORD
  5
5E
330
1
100
AcDbSymbolTableRecord
100
AcDbBlockTableRecord
  2
*D3
  0
BLOCK_RECORD
  5
68
330
1
100
AcDbSymbolTableRecord
100
AcDbBlockTableRecord
  2
*D4
  0
BLOCK_RECORD
  5
73
330
1
100
AcDbSymbolTableRecord
100
AcDbBlockTableRecord
  2
*D5
  0
BLOCK_RECORD
  5
7E
330
1
100
AcDbSymbolTableRecord
100
AcDbBlockTableRecord
  2
*D6
  0
BLOCK_RECORD
  5
89
330
1
100
AcDbSymbolTableRecord
100
AcDbBlockTableRecord
  2
*D7
  0
BLOCK_RECORD
  5
94
330
1
100
AcDbSymbolTableRecord
100
AcDbBlockTableRecord
  2
*D8
  0
BLOCK_RECORD
  5
9E
330
1
100
AcDbSymbolTableRecord
100
AcDbBlockTableRecord
  2
*D9
  0
BLOCK_RECORD
  5
A9
330
1
100
AcDbSymbolTableRecord
100
AcDbBlockTableRecord
  2
*D10
  0
BLOCK_RECORD
  5
B4
330
1
100
AcDbSymbolTableRecord
100
AcDbBlockTableRecord
  2
*D11
  0
BLOCK_RECORD
  5
BF
330
1
100
AcDbSymbolTableRecord
100
AcDbBlockTableRecord
  2
FXDIM0000
  0
BLOCK_RECORD
  5
C7
330
1
100
AcDbSymbolTableRecord
100
AcDbBlockTableRecord
  2
FXDIM0001
  0
BLOCK_RECORD
  5
CF
330
1
100
AcDbSymbolTableRecord
100
AcDbBlockTableRecord
  2
FXDIM0002
  0
BLOCK_RECORD
  5
D7
330
1
100
AcDbSymbolTableRecord
100
AcDbBlockTableRecord
  2
*D15
  0
BLOCK_RECORD
  5
DE
330
1
100
AcDbSymbolTableRecord
100
AcDbBlockTableRecord
  2
FXDIM0003
  0
BLOCK_RECORD
  5
185
330
1
100
AcDbSymbolTableRecord
100
AcDbBlockTableRecord
  2
*D17
  0
ENDTAB
  0
ENDSEC
  0
SECTION
  2
BLOCKS
  0
BLOCK
  5
1F
330
1E
100
AcDbEntity
  8
0
100
AcDbBlockBegin
  2
*MODEL_SPACE
 70
     0
 10
0.0
 20
0.0
 30
0.0
  3
*MODEL_SPACE
  1

  0
ENDBLK
  5
20
330
1E
100
AcDbEntity
  8
0
100
AcDbBlockEnd
  0
BLOCK
  5
1B
330
1A
100
AcDbEntity
 67
     1
  8
0
100
AcDbBlockBegin
  2
*PAPER_SPACE
 70
     0
 10
0.0
 20
0.0
 30
0.0
  3
*PAPER_SPACE
  1

  0
ENDBLK
  5
1C
330
1A
100
AcDbEntity
 67
     1
  8
0
100
AcDbBlockEnd
  0
BLOCK
  5
40
330
3F
100
AcDbEntity
  8
0
100
AcDbBlockBegin
  2
*D0
 70
     1
 10
0.0
 20
0.0
 30
0.0
  3
*D0
  1

  0
TEXT
  5
41
330
3F
100
AcDbEntity
  8
CSLAYER1
 62
     4
100
AcDbText
 10
53.851449
 20
251.4534759999999
 30
0.0
 40
3.2
  1
15
 41
1.199999999999999
 51
15.0
  7
FX_FONT
 72
     5
 11
60.251449
 21
251.4534759999999
 31
0.0
100
AcDbText
  0
LINE
  5
42
330
3F
100
AcDbEntity
  8
CSLAYER1
  6
CONTINUOUS
 62
     4
100
AcDbLine
 10
49.551448
 20
250.9534879999999
 30
0.0
 11
64.55144799999999
 21
250.9534879999999
 31
0.0
  0
LINE
  5
43
330
3F
100
AcDbEntity
  8
CSLAYER1
  6
CONTINUOUS
 62
     4
100
AcDbLine
 10
49.551448
 20
250.9534879999999
 30
0.0
 11
52.449226
 21
251.7299459999999
 31
0.0
  0
LINE
  5
44
330
3F
100
AcDbEntity
  8
CSLAYER1
  6
CONTINUOUS
 62
     4
100
AcDbLine
 10
49.551448
 20
250.9534879999999
 30
0.0
 11
52.449226
 21
250.1770309999999
 31
0.0
  0
LINE
  5
45
330
3F
100
AcDbEntity
  8
CSLAYER1
  6
CONTINUOUS
 62
     4
100
AcDbLine
 10
64.55144799999999
 20
250.9534879999999
 30
0.0
 11
61.653671
 21
251.7299459999999
 31
0.0
  0
LINE
  5
46
330
3F
100
AcDbEntity
  8
CSLAYER1
  6
CONTINUOUS
 62
     4
100
AcDbLine
 10
64.55144799999999
 20
250.9534879999999
 30
0.0
 11
61.653671
 21
250.1770309999999
 31
0.0
  0
LINE
  5
47
330
3F
100
AcDbEntity
  8
CSLAYER1
  6
CONTINUOUS
 62
     4
100
AcDbLine
 10
64.55144799999999
 20
233.017711
 30
0.0
 11
64.55144799999999
 21
251.953488
 31
0.0
  0
ENDBLK
  5
48
330
3F
100
AcDbEntity
  8
0
100
AcDbBlockEnd
  0
BLOCK
  5
4A
330
49
100
AcDbEntity
  8
0
100
AcDbBlockBegin
  2
*D1
 70
     1
 10
0.0
 20
0.0
 30
0.0
  3
*D1
  1

  0
TEXT
  5
4B
330
49
100
AcDbEntity
  8
CSLAYER1
 62
     4
100
AcDbText
 10
144.751453
 20
257.453491
 30
0.0
 40
3.2
  1
200
 41
1.124999999999989
 51
15.0
  7
FX_FONT
 72
     5
 11
154.3514529999999
 21
257.453491
 31
0.0
100
AcDbText
  0
LINE
  5
4C
330
49
100
AcDbEntity
  8
CSLAYER1
  6
CONTINUOUS
 62
     4
100
AcDbLine
 10
49.551448
 20
256.9534879999999
 30
0.0
 11
249.551448
 21
256.9534879999999
 31
0.0
  0
LINE
  5
4D
330
49
100
AcDbEntity
  8
CSLAYER1
  6
CONTINUOUS
 62
     4
100
AcDbLine
 10
49.551448
 20
256.9534879999999
 30
0.0
 11
52.449226
 21
257.7299459999999
 31
0.0
  0
LINE
  5
4E
330
49
100
AcDbEntity
  8
CSLAYER1
  6
CONTINUOUS
 62
     4
100
AcDbLine
 10
49.551448
 20
256.9534879999999
 30
0.0
 11
52.449226
 21
256.1770309999999
 31
0.0
  0
LINE
  5
4F
330
49
100
AcDbEntity
  8
CSLAYER1
  6
CONTINUOUS
 62
     4
100
AcDbLine
 10
249.551448
 20
256.9534879999999
 30
0.0
 11
246.653671
 21
257.7299459999999
 31
0.0
  0
LINE
  5
50
330
49
100
AcDbEntity
  8
CSLAYER1
  6
CONTINUOUS
 62
     4
100
AcDbLine
 10
249.551448
 20
256.9534879999999
 30
0.0
 11
246.653671
 21
256.1770309999999
 31
0.0
  0
LINE
  5
51
330
49
100
AcDbEntity
  8
CSLAYER1
  6
CONTINUOUS
 62
     4
100
AcDbLine
 10
49.551448
 20
219.9449839999999
 30
0.0
 11
49.551448
 21
257.953488
 31
0.0
  0
LINE
  5
52
330
49
100
AcDbEntity
  8
CSLAYER1
  6
CONTINUOUS
 62
     4
100
AcDbLine
 10
249.551448
 20
239.9449839999999
 30
0.0
 11
249.551448
 21
257.953488
 31
0.0
  0
ENDBLK
  5
53
330
49
100
AcDbEntity
  8
0
100
AcDbBlockEnd
  0
BLOCK
  5
55
330
54
100
AcDbEntity
  8
0
100
AcDbBlockBegin
  2
*D2
 70
     1
 10
0.0
 20
0.0
 30
0.0
  3
*D2
  1

  0
TEXT
  5
56
330
54
100
AcDbEntity
  8
CSLAYER1
 62
     4
100
AcDbText
 10
257.351453
 20
257.453491
 30
0.0
 40
3.2
  1
22
 41
1.199999999999985
 51
15.0
  7
FX_FONT
 72
     5
 11
263.7514529999999
 21
257.453491
 31
0.0
100
AcDbText
  0
LINE
  5
57
330
54
100
AcDbEntity
  8
CSLAYER1
  6
CONTINUOUS
 62
     4
100
AcDbLine
 10
249.551448
 20
256.9534879999999
 30
0.0
 11
271.5514479999999
 21
256.9534879999999
 31
0.0
  0
LINE
  5
58
330
54
100
AcDbEntity
  8
CSLAYER1
  6
CONTINUOUS
 62
     4
100
AcDbLine
 10
249.551448
 20
256.9534879999999
 30
0.0
 11
252.4492259999999
 21
257.7299459999999
 31
0.0
  0
LINE
  5
59
330
54
100
AcDbEntity
  8
CSLAYER1
  6
CONTINUOUS
 62
     4
100
AcDbLine
 10
249.551448
 20
256.9534879999999
 30
0.0
 11
252.4492259999999
 21
256.1770309999999
 31
0.0
  0
LINE
  5
5A
330
54
100
AcDbEntity
  8
CSLAYER1
  6
CONTINUOUS
 62
     4
100
AcDbLine
 10
271.5514479999999
 20
256.9534879999999
 30
0.0
 11
268.6536709999999
 21
257.7299459999999
 31
0.0
  0
LINE
  5
5B
330
54
100
AcDbEntity
  8
CSLAYER1
  6
CONTINUOUS
 62
     4
100
AcDbLine
 10
271.5514479999999
 20
256.9534879999999
 30
0.0
 11
268.6536709999999
 21
256.1770309999999
 31
0.0
  0
LINE
  5
5C
330
54
100
AcDbEntity
  8
CSLAYER1
  6
CONTINUOUS
 62
     4
100
AcDbLine
 10
271.5514479999999
 20
230.9449839999999
 30
0.0
 11
271.5514479999999
 21
257.953488
 31
0.0
  0
ENDBLK
  5
5D
330
54
100
AcDbEntity
  8
0
100
AcDbBlockEnd
  0
BLOCK
  5
5F
330
5E
100
AcDbEntity
  8
0
100
AcDbBlockBegin
  2
*D3
 70
     1
 10
0.0
 20
0.0
 30
0.0
  3
*D3
  1

  0
TEXT
  5
60
330
5E
100
AcDbEntity
  8
CSLAYER1
 62
     4
100
AcDbText
 10
179.7514529999999
 20
251.4534759999999
 30
0.0
 40
3.2
  1
130
 41
1.125000000000009
 51
15.0
  7
FX_FONT
 72
     5
 11
189.351453
 21
251.4534759999999
 31
0.0
100
AcDbText
  0
LINE
  5
61
330
5E
100
AcDbEntity
  8
CSLAYER1
  6
CONTINUOUS
 62
     4
100
AcDbLine
 10
119.5514479999999
 20
250.9534879999999
 30
0.0
 11
249.551448
 21
250.9534879999999
 31
0.0
  0
LINE
  5
62
330
5E
100
AcDbEntity
  8
CSLAYER1
  6
CONTINUOUS
 62
     4
100
AcDbLine
 10
119.5514479999999
 20
250.9534879999999
 30
0.0
 11
122.4492259999999
 21
251.7299459999999
 31
0.0
  0
LINE
  5
63
330
5E
100
AcDbEntity
  8
CSLAYER1
  6
CONTINUOUS
 62
     4
100
AcDbLine
 10
119.5514479999999
 20
250.9534879999999
 30
0.0
 11
122.4492259999999
 21
250.1770309999999
 31
0.0
  0
LINE
  5
64
330
5E
100
AcDbEntity
  8
CSLAYER1
  6
CONTINUOUS
 62
     4
100
AcDbLine
 10
249.551448
 20
250.9534879999999
 30
0.0
 11
246.653671
 21
251.7299459999999
 31
0.0
  0
LINE
  5
65
330
5E
100
AcDbEntity
  8
CSLAYER1
  6
CONTINUOUS
 62
     4
100
AcDbLine
 10
249.551448
 20
250.9534879999999
 30
0.0
 11
246.653671
 21
250.1770309999999
 31
0.0
  0
LINE
  5
66
330
5E
100
AcDbEntity
  8
CSLAYER1
  6
CONTINUOUS
 62
     4
100
AcDbLine
 10
119.5514479999999
 20
239.9449839999999
 30
0.0
 11
119.5514479999999
 21
251.953488
 31
0.0
  0
ENDBLK
  5
67
330
5E
100
AcDbEntity
  8
0
100
AcDbBlockEnd
  0
BLOCK
  5
69
330
68
100
AcDbEntity
  8
0
100
AcDbBlockBegin
  2
*D4
 70
     1
 10
0.0
 20
0.0
 30
0.0
  3
*D4
  1

  0
TEXT
  5
6A
330
68
100
AcDbEntity
  8
CSLAYER1
 62
     4
100
AcDbText
 10
25.826675
 20
198.244977
 30
0.0
 40
3.2
  1
43
 50
90.0
 41
1.200000000000001
 51
15.0
  7
FX_FONT
 72
     5
 11
25.826675
 21
204.644977
 31
0.0
100
AcDbText
  0
LINE
  5
6B
330
68
100
AcDbEntity
  8
CSLAYER1
  6
CONTINUOUS
 62
     4
100
AcDbLine
 10
26.326676
 20
179.944984
 30
0.0
 11
26.326676
 21
222.944984
 31
0.0
  0
LINE
  5
6C
330
68
100
AcDbEntity
  8
CSLAYER1
  6
CONTINUOUS
 62
     4
100
AcDbLine
 10
26.326676
 20
179.944984
 30
0.0
 11
25.55021899999999
 21
182.842761
 31
0.0
  0
LINE
  5
6D
330
68
100
AcDbEntity
  8
CSLAYER1
  6
CONTINUOUS
 62
     4
100
AcDbLine
 10
26.326676
 20
179.944984
 30
0.0
 11
27.103133
 21
182.842761
 31
0.0
  0
LINE
  5
6E
330
68
100
AcDbEntity
  8
CSLAYER1
  6
CONTINUOUS
 62
     4
100
AcDbLine
 10
26.326676
 20
222.944984
 30
0.0
 11
25.55021899999999
 21
220.047206
 31
0.0
  0
LINE
  5
6F
330
68
100
AcDbEntity
  8
CSLAYER1
  6
CONTINUOUS
 62
     4
100
AcDbLine
 10
26.326676
 20
222.944984
 30
0.0
 11
27.103133
 21
220.047206
 31
0.0
  0
LINE
  5
70
330
68
100
AcDbEntity
  8
CSLAYER1
  6
CONTINUOUS
 62
     4
100
AcDbLine
 10
52.551448
 20
179.944984
 30
0.0
 11
25.326676
 21
179.944984
 31
0.0
  0
LINE
  5
71
330
68
100
AcDbEntity
  8
CSLAYER1
  6
CONTINUOUS
 62
     4
100
AcDbLine
 10
52.551448
 20
222.944984
 30
0.0
 11
25.326676
 21
222.944984
 31
0.0
  0
ENDBLK
  5
72
330
68
100
AcDbEntity
  8
0
100
AcDbBlockEnd
  0
BLOCK
  5
74
330
73
100
AcDbEntity
  8
0
100
AcDbBlockBegin
  2
*D5
 70
     1
 10
0.0
 20
0.0
 30
0.0
  3
*D5
  1

  0
TEXT
  5
75
330
73
100
AcDbEntity
  8
CSLAYER1
 62
     4
100
AcDbText
 10
31.826675
 20
195.0449769999999
 30
0.0
 40
3.2
  1
25.2
 50
90.0
 41
1.090909090909096
 51
15.0
  7
FX_FONT
 72
     5
 11
31.826675
 21
207.844977
 31
0.0
100
AcDbText
  0
LINE
  5
76
330
73
100
AcDbEntity
  8
CSLAYER1
  6
CONTINUOUS
 62
     4
100
AcDbLine
 10
32.326676
 20
188.844984
 30
0.0
 11
32.326676
 21
214.0449839999999
 31
0.0
  0
LINE
  5
77
330
73
100
AcDbEntity
  8
CSLAYER1
  6
CONTINUOUS
 62
     4
100
AcDbLine
 10
32.326676
 20
188.844984
 30
0.0
 11
31.55021899999999
 21
191.742761
 31
0.0
  0
LINE
  5
78
330
73
100
AcDbEntity
  8
CSLAYER1
  6
CONTINUOUS
 62
     4
100
AcDbLine
 10
32.326676
 20
188.844984
 30
0.0
 11
33.103133
 21
191.742761
 31
0.0
  0
LINE
  5
79
330
73
100
AcDbEntity
  8
CSLAYER1
  6
CONTINUOUS
 62
     4
100
AcDbLine
 10
32.326676
 20
214.0449839999999
 30
0.0
 11
31.55021899999999
 21
211.147206
 31
0.0
  0
LINE
  5
7A
330
73
100
AcDbEntity
  8
CSLAYER1
  6
CONTINUOUS
 62
     4
100
AcDbLine
 10
32.326676
 20
214.0449839999999
 30
0.0
 11
33.103133
 21
211.147206
 31
0.0
  0
LINE
  5
7B
330
73
100
AcDbEntity
  8
CSLAYER1
  6
CONTINUOUS
 62
     4
100
AcDbLine
 10
48.551448
 20
188.844984
 30
0.0
 11
31.326676
 21
188.844984
 31
0.0
  0
LINE
  5
7C
330
73
100
AcDbEntity
  8
CSLAYER1
  6
CONTINUOUS
 62
     4
100
AcDbLine
 10
48.551448
 20
214.0449839999999
 30
0.0
 11
31.326676
 21
214.0449839999999
 31
0.0
  0
ENDBLK
  5
7D
330
73
100
AcDbEntity
  8
0
100
AcDbBlockEnd
  0
BLOCK
  5
7F
330
7E
100
AcDbEntity
  8
0
100
AcDbBlockBegin
  2
*D6
 70
     1
 10
0.0
 20
0.0
 30
0.0
  3
*D6
  1

  0
TEXT
  5
80
330
7E
100
AcDbEntity
  8
CSLAYER1
 62
     4
100
AcDbText
 10
31.826675
 20
80.28525100000001
 30
0.0
 40
3.2
  1
%%c75
 50
90.0
 41
1.124999999999997
 51
15.0
  7
FX_FONT
 72
     5
 11
31.826675
 21
89.885251
 31
0.0
100
AcDbText
  0
LINE
  5
81
330
7E
100
AcDbEntity
  8
CSLAYER1
  6
CONTINUOUS
 62
     4
100
AcDbLine
 10
32.326676
 20
47.58525
 30
0.0
 11
32.326676
 21
122.58525
 31
0.0
  0
LINE
  5
82
330
7E
100
AcDbEntity
  8
CSLAYER1
  6
CONTINUOUS
 62
     4
100
AcDbLine
 10
32.326676
 20
47.58525
 30
0.0
 11
31.55021899999999
 21
50.483027
 31
0.0
  0
LINE
  5
83
330
7E
100
AcDbEntity
  8
CSLAYER1
  6
CONTINUOUS
 62
     4
100
AcDbLine
 10
32.326676
 20
47.58525
 30
0.0
 11
33.103133
 21
50.483027
 31
0.0
  0
LINE
  5
84
330
7E
100
AcDbEntity
  8
CSLAYER1
  6
CONTINUOUS
 62
     4
100
AcDbLine
 10
32.326676
 20
122.58525
 30
0.0
 11
31.55021899999999
 21
119.687472
 31
0.0
  0
LINE
  5
85
330
7E
100
AcDbEntity
  8
CSLAYER1
  6
CONTINUOUS
 62
     4
100
AcDbLine
 10
32.326676
 20
122.58525
 30
0.0
 11
33.103133
 21
119.687472
 31
0.0
  0
LINE
  5
86
330
7E
100
AcDbEntity
  8
CSLAYER1
  6
CONTINUOUS
 62
     4
100
AcDbLine
 10
118.5514479999999
 20
47.58525
 30
0.0
 11
31.326676
 21
47.58525
 31
0.0
  0
LINE
  5
87
330
7E
100
AcDbEntity
  8
CSLAYER1
  6
CONTINUOUS
 62
     4
100
AcDbLine
 10
118.5514479999999
 20
122.58525
 30
0.0
 11
31.326676
 21
122.58525
 31
0.0
  0
ENDBLK
  5
88
330
7E
100
AcDbEntity
  8
0
100
AcDbBlockEnd
  0
BLOCK
  5
8A
330
89
100
AcDbEntity
  8
0
100
AcDbBlockBegin
  2
*D7
 70
     1
 10
0.0
 20
0.0
 30
0.0
  3
*D7
  1

  0
TEXT
  5
8B
330
89
100
AcDbEntity
  8
CSLAYER1
 62
     4
100
AcDbText
 10
155.7514529999999
 20
143.993973
 30
0.0
 40
3.2
  1
222
 41
1.124999999999999
 51
15.0
  7
FX_FONT
 72
     5
 11
165.3514529999999
 21
143.993973
 31
0.0
100
AcDbText
  0
LINE
  5
8C
330
89
100
AcDbEntity
  8
CSLAYER1
  6
CONTINUOUS
 62
     4
100
AcDbLine
 10
49.551448
 20
143.493981
 30
0.0
 11
271.5514479999999
 21
143.493981
 31
0.0
  0
LINE
  5
8D
330
89
100
AcDbEntity
  8
CSLAYER1
  6
CONTINUOUS
 62
     4
100
AcDbLine
 10
49.551448
 20
143.493981
 30
0.0
 11
52.449226
 21
144.2704379999999
 31
0.0
  0
LINE
  5
8E
330
89
100
AcDbEntity
  8
CSLAYER1
  6
CONTINUOUS
 62
     4
100
AcDbLine
 10
49.551448
 20
143.493981
 30
0.0
 11
52.449226
 21
142.7175239999999
 31
0.0
  0
LINE
  5
8F
330
89
100
AcDbEntity
  8
CSLAYER1
  6
CONTINUOUS
 62
     4
100
AcDbLine
 10
271.5514479999999
 20
143.493981
 30
0.0
 11
268.6536709999999
 21
144.2704379999999
 31
0.0
  0
LINE
  5
90
330
89
100
AcDbEntity
  8
CSLAYER1
  6
CONTINUOUS
 62
     4
100
AcDbLine
 10
271.5514479999999
 20
143.493981
 30
0.0
 11
268.6536709999999
 21
142.7175239999999
 31
0.0
  0
LINE
  5
91
330
89
100
AcDbEntity
  8
CSLAYER1
  6
CONTINUOUS
 62
     4
100
AcDbLine
 10
49.551448
 20
102.3135209999999
 30
0.0
 11
49.551448
 21
144.493981
 31
0.0
  0
LINE
  5
92
330
89
100
AcDbEntity
  8
CSLAYER1
  6
CONTINUOUS
 62
     4
100
AcDbLine
 10
271.5514479999999
 20
122.08525
 30
0.0
 11
271.5514479999999
 21
144.493981
 31
0.0
  0
ENDBLK
  5
93
330
89
100
AcDbEntity
  8
0
100
AcDbBlockEnd
  0
BLOCK
  5
95
330
94
100
AcDbEntity
  8
0
100
AcDbBlockBegin
  2
*D8
 70
     1
 10
0.0
 20
0.0
 30
0.0
  3
*D8
  1

  0
TEXT
  5
96
330
94
100
AcDbEntity
  8
CSLAYER1
 62
     4
100
AcDbText
 10
53.851449
 20
137.993973
 30
0.0
 40
3.2
  1
15
 41
1.199999999999999
 51
15.0
  7
FX_FONT
 72
     5
 11
60.251449
 21
137.993973
 31
0.0
100
AcDbText
  0
LINE
  5
97
330
94
100
AcDbEntity
  8
CSLAYER1
  6
CONTINUOUS
 62
     4
100
AcDbLine
 10
49.551448
 20
137.493981
 30
0.0
 11
64.55144799999999
 21
137.493981
 31
0.0
  0
LINE
  5
98
330
94
100
AcDbEntity
  8
CSLAYER1
  6
CONTINUOUS
 62
     4
100
AcDbLine
 10
49.551448
 20
137.493981
 30
0.0
 11
52.449226
 21
138.2704379999998
 31
0.0
  0
LINE
  5
99
330
94
100
AcDbEntity
  8
CSLAYER1
  6
CONTINUOUS
 62
     4
100
AcDbLine
 10
49.551448
 20
137.493981
 30
0.0
 11
52.449226
 21
136.7175239999999
 31
0.0
  0
LINE
  5
9A
330
94
100
AcDbEntity
  8
CSLAYER1
  6
CONTINUOUS
 62
     4
100
AcDbLine
 10
64.55144799999999
 20
137.493981
 30
0.0
 11
61.653671
 21
138.2704379999998
 31
0.0
  0
LINE
  5
9B
330
94
100
AcDbEntity
  8
CSLAYER1
  6
CONTINUOUS
 62
     4
100
AcDbLine
 10
64.55144799999999
 20
137.493981
 30
0.0
 11
61.653671
 21
136.7175239999999
 31
0.0
  0
LINE
  5
9C
330
94
100
AcDbEntity
  8
CSLAYER1
  6
CONTINUOUS
 62
     4
100
AcDbLine
 10
64.55144799999999
 20
96.56131700000001
 30
0.0
 11
64.55144799999999
 21
138.493981
 31
0.0
  0
ENDBLK
  5
9D
330
94
100
AcDbEntity
  8
0
100
AcDbBlockEnd
  0
BLOCK
  5
9F
330
9E
100
AcDbEntity
  8
0
100
AcDbBlockBegin
  2
*D9
 70
     1
 10
0.0
 20
0.0
 30
0.0
  3
*D9
  1

  0
TEXT
  5
A0
330
9E
100
AcDbEntity
  8
CSLAYER1
 62
     4
100
AcDbText
 10
299.256393
 20
236.4759819999999
 30
0.0
 40
3.2
  1
50
 50
45.00000000000054
 41
1.199999894041648
 51
15.0
  7
FX_FONT
 72
     5
 11
303.7818759999999
 21
241.0014649999999
 31
0.0
100
AcDbText
  0
LINE
  5
A1
330
9E
100
AcDbEntity
  8
CSLAYER1
  6
CONTINUOUS
 62
     4
100
AcDbLine
 10
284.195
 20
220.7075039999998
 30
0.0
 11
319.550339
 21
256.062843
 31
0.0
  0
LINE
  5
A2
330
9E
100
AcDbEntity
  8
CSLAYER1
  6
CONTINUOUS
 62
     4
100
AcDbLine
 10
284.195
 20
220.7075039999998
 30
0.0
 11
285.6949999999999
 21
223.3055799999999
 31
0.0
  0
LINE
  5
A3
330
9E
100
AcDbEntity
  8
CSLAYER1
  6
CONTINUOUS
 62
     4
100
AcDbLine
 10
284.195
 20
220.7075039999998
 30
0.0
 11
286.7930759999998
 21
222.207504
 31
0.0
  0
LINE
  5
A4
330
9E
100
AcDbEntity
  8
CSLAYER1
  6
CONTINUOUS
 62
     4
100
AcDbLine
 10
319.550339
 20
256.062843
 30
0.0
 11
318.050339
 21
253.464767
 31
0.0
  0
LINE
  5
A5
330
9E
100
AcDbEntity
  8
CSLAYER1
  6
CONTINUOUS
 62
     4
100
AcDbLine
 10
319.550339
 20
256.062843
 30
0.0
 11
316.952263
 21
254.562843
 31
0.0
  0
LINE
  5
A6
330
9E
100
AcDbEntity
  8
CSLAYER1
  6
CONTINUOUS
 62
     4
100
AcDbLine
 10
314.030181
 20
190.8723229999999
 30
0.0
 11
283.487893
 21
221.4146109999999
 31
0.0
  0
LINE
  5
A7
330
9E
100
AcDbEntity
  8
CSLAYER1
  6
CONTINUOUS
 62
     4
100
AcDbLine
 10
349.1721749999998
 20
226.4410069999999
 30
0.0
 11
318.8432319999999
 21
256.7699499999999
 31
0.0
  0
ENDBLK
  5
A8
330
9E
100
AcDbEntity
  8
0
100
AcDbBlockEnd
  0
BLOCK
  5
AA
330
A9
100
AcDbEntity
  8
0
100
AcDbBlockBegin
  2
*D10
 70
     1
 10
0.0
 20
0.0
 30
0.0
  3
*D10
  1

  0
TEXT
  5
AB
330
A9
100
AcDbEntity
  8
CSLAYER1
 62
     4
100
AcDbText
 10
385.3794859999998
 20
198.244977
 30
0.0
 40
3.2
  1
60
 50
90.0
 41
1.200000000000001
 51
15.0
  7
FX_FONT
 72
     5
 11
385.3794859999998
 21
204.644977
 31
0.0
100
AcDbText
  0
LINE
  5
AC
330
A9
100
AcDbEntity
  8
CSLAYER1
  6
CONTINUOUS
 62
     4
100
AcDbLine
 10
385.87947
 20
171.444984
 30
0.0
 11
385.87947
 21
231.4449839999999
 31
0.0
  0
LINE
  5
AD
330
A9
100
AcDbEntity
  8
CSLAYER1
  6
CONTINUOUS
 62
     4
100
AcDbLine
 10
385.87947
 20
171.444984
 30
0.0
 11
385.1030129999998
 21
174.342761
 31
0.0
  0
LINE
  5
AE
330
A9
100
AcDbEntity
  8
CSLAYER1
  6
CONTINUOUS
 62
     4
100
AcDbLine
 10
385.87947
 20
171.444984
 30
0.0
 11
386.655927
 21
174.342761
 31
0.0
  0
LINE
  5
AF
330
A9
100
AcDbEntity
  8
CSLAYER1
  6
CONTINUOUS
 62
     4
100
AcDbLine
 10
385.87947
 20
231.4449839999999
 30
0.0
 11
385.1030129999998
 21
228.547206
 31
0.0
  0
LINE
  5
B0
330
A9
100
AcDbEntity
  8
CSLAYER1
  6
CONTINUOUS
 62
     4
100
AcDbLine
 10
385.87947
 20
231.4449839999999
 30
0.0
 11
386.655927
 21
228.547206
 31
0.0
  0
LINE
  5
B1
330
A9
100
AcDbEntity
  8
CSLAYER1
  6
CONTINUOUS
 62
     4
100
AcDbLine
 10
362.312859
 20
171.444984
 30
0.0
 11
386.87947
 21
171.444984
 31
0.0
  0
LINE
  5
B2
330
A9
100
AcDbEntity
  8
CSLAYER1
  6
CONTINUOUS
 62
     4
100
AcDbLine
 10
362.312859
 20
231.4449839999999
 30
0.0
 11
386.87947
 21
231.4449839999999
 31
0.0
  0
ENDBLK
  5
B3
330
A9
100
AcDbEntity
  8
0
100
AcDbBlockEnd
  0
BLOCK
  5
B5
330
B4
100
AcDbEntity
  8
0
100
AcDbBlockBegin
  2
*D11
 70
     1
 10
0.0
 20
0.0
 30
0.0
  3
*D11
  1

  0
TEXT
  5
B6
330
B4
100
AcDbEntity
  8
CSLAYER1
 62
     4
100
AcDbText
 10
294.9851959999998
 20
178.0954839999999
 30
0.0
 40
3.2
  1
45%%d
 50
112.5000014414542
 41
1.28571422487563
 51
15.0
  7
FX_FONT
 72
     5
 11
291.311435
 21
186.964727
 31
0.0
100
AcDbText
  0
ARC
  5
B7
330
B4
100
AcDbEntity
  8
CSLAYER1
  6
CONTINUOUS
 62
     4
100
AcDbCircle
 10
338.8128589999999
 20
201.444984
 30
0.0
 40
48.926957
100
AcDbArc
 50
180.0
 51
225.0
  0
LINE
  5
B8
330
B4
100
AcDbEntity
  8
CSLAYER1
  6
CONTINUOUS
 62
     4
100
AcDbLine
 10
289.885903
 20
201.444984
 30
0.0
 11
289.109445
 21
198.547206
 31
0.0
  0
LINE
  5
B9
330
B4
100
AcDbEntity
  8
CSLAYER1
  6
CONTINUOUS
 62
     4
100
AcDbLine
 10
289.885903
 20
201.444984
 30
0.0
 11
290.66236
 21
198.547206
 31
0.0
  0
LINE
  5
BA
330
B4
100
AcDbEntity
  8
CSLAYER1
  6
CONTINUOUS
 62
     4
100
AcDbLine
 10
304.216276
 20
166.848401
 30
0.0
 11
301.6182
 21
168.3484009999999
 31
0.0
  0
LINE
  5
BB
330
B4
100
AcDbEntity
  8
CSLAYER1
  6
CONTINUOUS
 62
     4
100
AcDbLine
 10
304.216276
 20
166.848401
 30
0.0
 11
302.7162759999999
 21
169.446477
 31
0.0
  0
LINE
  5
BC
330
B4
100
AcDbEntity
  8
CSLAYER1
  6
CONTINUOUS
 62
     4
100
AcDbLine
 10
296.007561
 20
201.444984
 30
0.0
 11
288.8859029999998
 21
201.444984
 31
0.0
  0
LINE
  5
BD
330
B4
100
AcDbEntity
  8
CSLAYER1
  6
CONTINUOUS
 62
     4
100
AcDbLine
 10
314.728703
 20
177.3608269999999
 30
0.0
 11
303.50917
 21
166.1412939999999
 31
0.0
  0
ENDBLK
  5
BE
330
B4
100
AcDbEntity
  8
0
100
AcDbBlockEnd
  0
BLOCK
  5
C0
330
BF
100
AcDbEntity
  8
0
100
AcDbBlockBegin
  2
FXDIM0000
 70
     0
 10
0.0
 20
0.0
 30
0.0
  3
FXDIM0000
  1

  0
LINE
  5
C1
330
BF
100
AcDbEntity
  8
CSLAYER1
  6
CONTINUOUS
 62
     4
100
AcDbLine
 10
340.671129
 20
207.75557
 30
0.0
 11
352.63603
 21
248.3877339999999
 31
0.0
  0
LINE
  5
C2
330
BF
100
AcDbEntity
  8
CSLAYER1
  6
CONTINUOUS
 62
     4
100
AcDbLine
 10
340.671129
 20
207.75557
 30
0.0
 11
340.7448469999998
 21
210.754664
 31
0.0
  0
LINE
  5
C3
330
BF
100
AcDbEntity
  8
CSLAYER1
  6
CONTINUOUS
 62
     4
100
AcDbLine
 10
340.671129
 20
207.75557
 30
0.0
 11
342.234518
 21
210.3160029999999
 31
0.0
  0
LINE
  5
C4
330
BF
100
AcDbEntity
  8
CSLAYER1
  6
CONTINUOUS
 62
     4
100
AcDbLine
 10
352.63603
 20
248.3877339999999
 30
0.0
 11
377.036031
 21
248.3877339999999
 31
0.0
  0
TEXT
  5
C5
330
BF
100
AcDbEntity
  8
CSLAYER1
 62
     4
100
AcDbText
 10
353.636029
 20
248.8877259999999
 30
0.0
 40
3.2
  1
Rc1/4ネジ
 41
0.981308411214947
 51
15.0
  7
FX_FONT
 72
     5
 11
376.0360289999998
 21
248.8877259999999
 31
0.0
100
AcDbText
  0
ENDBLK
  5
C6
330
BF
100
AcDbEntity
  8
0
100
AcDbBlockEnd
  0
BLOCK
  5
C8
330
C7
100
AcDbEntity
  8
0
100
AcDbBlockBegin
  2
FXDIM0001
 70
     0
 10
0.0
 20
0.0
 30
0.0
  3
FXDIM0001
  1

  0
LINE
  5
C9
330
C7
100
AcDbEntity
  8
CSLAYER1
  6
CONTINUOUS
 62
     4
100
AcDbLine
 10
319.724014
 20
180.02451
 30
0.0
 11
307.865971
 21
148.5738889999999
 31
0.0
  0
LINE
  5
CA
330
C7
100
AcDbEntity
  8
CSLAYER1
  6
CONTINUOUS
 62
     4
100
AcDbLine
 10
319.724014
 20
180.02451
 30
0.0
 11
319.4282279999999
 21
177.039127
 31
0.0
  0
LINE
  5
CB
330
C7
100
AcDbEntity
  8
CSLAYER1
  6
CONTINUOUS
 62
     4
100
AcDbLine
 10
319.724014
 20
180.02451
 30
0.0
 11
317.975165
 21
177.586986
 31
0.0
  0
LINE
  5
CC
330
C7
100
AcDbEntity
  8
CSLAYER1
  6
CONTINUOUS
 62
     4
100
AcDbLine
 10
307.865971
 20
148.5738889999999
 30
0.0
 11
332.2659709999998
 21
148.5738889999999
 31
0.0
  0
TEXT
  5
CD
330
C7
100
AcDbEntity
  8
CSLAYER1
 62
     4
100
AcDbText
 10
308.8659789999998
 20
149.0738829999999
 30
0.0
 40
3.2
  1
M8ネジ深12
 41
0.963302752293584
 51
15.0
  7
FX_FONT
 72
     5
 11
331.265979
 21
149.0738829999999
 31
0.0
100
AcDbText
  0
ENDBLK
  5
CE
330
C7
100
AcDbEntity
  8
0
100
AcDbBlockEnd
  0
BLOCK
  5
D0
330
CF
100
AcDbEntity
  8
0
100
AcDbBlockBegin
  2
FXDIM0002
 70
     0
 10
0.0
 20
0.0
 30
0.0
  3
FXDIM0002
  1

  0
LINE
  5
D1
330
CF
100
AcDbEntity
  8
CSLAYER1
  6
CONTINUOUS
 62
     4
100
AcDbLine
 10
261.4097189999999
 20
217.4612839999999
 30
0.0
 11
277.540535
 21
252.6618379999999
 31
0.0
  0
LINE
  5
D2
330
CF
100
AcDbEntity
  8
CSLAYER1
  6
CONTINUOUS
 62
     4
100
AcDbLine
 10
261.4097189999999
 20
217.4612839999999
 30
0.0
 11
261.911049
 21
220.419099
 31
0.0
  0
LINE
  5
D3
330
CF
100
AcDbEntity
  8
CSLAYER1
  6
CONTINUOUS
 62
     4
100
AcDbLine
 10
261.4097189999999
 20
217.4612839999999
 30
0.0
 11
263.322791
 21
219.772162
 31
0.0
  0
LINE
  5
D4
330
CF
100
AcDbEntity
  8
CSLAYER1
  6
CONTINUOUS
 62
     4
100
AcDbLine
 10
277.540535
 20
252.6618379999999
 30
0.0
 11
301.9405349999999
 21
252.6618379999999
 31
0.0
  0
TEXT
  5
D5
330
CF
100
AcDbEntity
  8
CSLAYER1
 62
     4
100
AcDbText
 10
278.540539
 20
253.161819
 30
0.0
 40
3.2
  1
Rc1/4ネジ
 41
0.9813084550233575
 51
15.0
  7
FX_FONT
 72
     5
 11
300.9405399999999
 21
253.161819
 31
0.0
100
AcDbText
  0
ENDBLK
  5
D6
330
CF
100
AcDbEntity
  8
0
100
AcDbBlockEnd
  0
BLOCK
  5
D8
330
D7
100
AcDbEntity
  8
0
100
AcDbBlockBegin
  2
*D15
 70
     1
 10
0.0
 20
0.0
 30
0.0
  3
*D15
  1

  0
TEXT
  5
D9
330
D7
100
AcDbEntity
  8
CSLAYER1
 62
     4
100
AcDbText
 10
103.9667909999999
 20
165.492104
 30
0.0
 40
3.2
  1
R18
 50
50.2069298640719
 41
1.124999998438389
 51
15.0
  7
FX_FONT
 72
     5
 11
110.110952
 21
172.8683689999999
 31
0.0
100
AcDbText
  0
LINE
  5
DA
330
D7
100
AcDbEntity
  8
CSLAYER1
  6
CONTINUOUS
 62
     4
100
AcDbLine
 10
113.183206
 20
175.775481
 30
0.0
 11
101.662905
 21
161.944984
 31
0.0
  0
LINE
  5
DB
330
D7
100
AcDbEntity
  8
CSLAYER1
  6
CONTINUOUS
 62
     4
100
AcDbLine
 10
113.183206
 20
175.775481
 30
0.0
 11
111.92518
 21
173.051996
 31
0.0
  0
LINE
  5
DC
330
D7
100
AcDbEntity
  8
CSLAYER1
  6
CONTINUOUS
 62
     4
100
AcDbLine
 10
113.183206
 20
175.775481
 30
0.0
 11
110.731981
 21
174.045888
 31
0.0
  0
ENDBLK
  5
DD
330
D7
100
AcDbEntity
  8
0
100
AcDbBlockEnd
  0
BLOCK
  5
DF
330
DE
100
AcDbEntity
  8
0
100
AcDbBlockBegin
  2
FXDIM0003
 70
     0
 10
0.0
 20
0.0
 30
0.0
  3
FXDIM0003
  1

  0
TEXT
  5
E0
330
DE
100
AcDbEntity
  8
CSLAYER1
 62
     4
100
AcDbText
 10
44.51846999999999
 20
171.8190909999999
 30
0.0
 40
3.2
  1
C4
 50
45.0
 41
1.200000159206709
 51
15.0
  7
FX_FONT
 72
     5
 11
49.043954
 21
176.3445749999999
 31
0.0
100
AcDbText
  0
LINE
  5
E1
330
DE
100
AcDbEntity
  8
CSLAYER1
  6
CONTINUOUS
 62
     4
100
AcDbLine
 10
51.551448
 20
181.944984
 30
0.0
 11
49.781409
 21
180.1749439999999
 31
0.0
  0
LINE
  5
E2
330
DE
100
AcDbEntity
  8
CSLAYER1
  6
CONTINUOUS
 62
     4
100
AcDbLine
 10
51.551448
 20
181.944984
 30
0.0
 11
50.051448
 21
179.346908
 31
0.0
  0
LINE
  5
E3
330
DE
100
AcDbEntity
  8
CSLAYER1
  6
CONTINUOUS
 62
     4
100
AcDbLine
 10
51.551448
 20
181.944984
 30
0.0
 11
48.953372
 21
180.444984
 31
0.0
  0
ENDBLK
  5
E4
330
DE
100
AcDbEntity
  8
0
100
AcDbBlockEnd
  0
BLOCK
  5
192
330
185
100
AcDbEntity
  8
0
100
AcDbBlockBegin
  2
*D17
 70
     1
 10
0.0
 20
0.0
 30
0.0
  3
*D17
  1

  0
LINE
  5
186
330
185
100
AcDbEntity
  8
CSLAYER1
 62
     0
100
AcDbLine
 10
296.9450609999999
 20
201.444984
 30
0.0
 11
289.7059020869006
 21
201.444984
 31
0.0
  0
LINE
  5
187
330
185
100
AcDbEntity
  8
CSLAYER1
 62
     0
100
AcDbLine
 10
315.3916148261759
 20
178.0237398261759
 30
0.0
 11
304.0889967633118
 21
166.7211217633117
 31
0.0
  0
ARC
  5
188
330
185
100
AcDbEntity
  8
CSLAYER1
 62
     0
100
AcDbCircle
 10
338.8128589999999
 20
201.4449839999999
 30
0.0
 40
48.92695691309945
100
AcDbArc
 50
180.2107886281745
 51
202.2720314144238
  0
ARC
  5
189
330
185
100
AcDbEntity
  8
CSLAYER1
 62
     0
100
AcDbCircle
 10
338.8128589999999
 20
201.4449839999999
 30
0.0
 40
48.92695691309945
100
AcDbArc
 50
202.7283449178784
 51
224.7892113718251
  0
SOLID
  5
18A
330
185
100
AcDbEntity
  8
CSLAYER1
 62
     0
100
AcDbTrace
 10
289.8562332434718
 20
201.2649291202283
 30
0.0
 11
289.9162331419615
 21
201.2650394888336
 31
0.0
 12
289.8859020869006
 22
201.444984
 32
0.0
 13
289.8859020869006
 23
201.444984
 33
0.0
  0
SOLID
  5
18B
330
185
100
AcDbEntity
  8
CSLAYER1
 62
     0
100
AcDbTrace
 10
304.1104832945563
 20
166.9970882627224
 30
0.0
 11
304.0679789170745
 21
166.9547399700191
 31
0.0
 12
304.2162759839253
 22
166.8484009839253
 32
0.0
 13
304.2162759839253
 23
166.8484009839253
 33
0.0
  0
MTEXT
  5
18C
330
185
100
AcDbEntity
  8
CSLAYER1
 62
     0
100
AcDbMText
 10
293.6102449199256
 20
182.7214481933162
 30
0.0
 40
0.18
 41
0.0
 71
     5
 72
     1
  1
\A1;45°
1001
ACAD
1000
MTEXTBEGIN
1070
    73
1070
     1
1070
    44
1040
1.0
1070
    74
1070
     0
1000
MTEXTEND
  0
POINT
  5
18D
330
185
100
AcDbEntity
  8
DEFPOINTS
 62
     0
100
AcDbPoint
 10
291.5530477159047
 20
188.7817557319794
 30
0.0
  0
POINT
  5
18E
330
185
100
AcDbEntity
  8
DEFPOINTS
 62
     0
100
AcDbPoint
 10
338.8128589999999
 20
201.444984
 30
0.0
  0
POINT
  5
18F
330
185
100
AcDbEntity
  8
DEFPOINTS
 62
     0
100
AcDbPoint
 10
315.435809
 20
178.067934
 30
0.0
  0
POINT
  5
190
330
185
100
AcDbEntity
  8
DEFPOINTS
 62
     0
100
AcDbPoint
 10
326.466904
 20
189.0990289999999
 30
0.0
  0
POINT
  5
191
330
185
100
AcDbEntity
  8
DEFPOINTS
 62
     0
100
AcDbPoint
 10
297.007561
 20
201.444984
 30
0.0
  0
ENDBLK
  5
193
330
185
100
AcDbEntity
  8
0
100
AcDbBlockEnd
  0
ENDSEC
  0
SECTION
  2
ENTITIES
  0
POINT
  5
E5
330
1E
100
AcDbEntity
  8
CSLAYER1
 62
     3
100
AcDbPoint
 10
10.0
 20
3.0
 30
0.0
  0
POINT
  5
E6
330
1E
100
AcDbEntity
  8
CSLAYER1
 62
     3
100
AcDbPoint
 10
365.5
 20
20.5
 30
0.0
  0
LINE
  5
E7
330
1E
100
AcDbEntity
  8
CSLAYER1
  6
CONTINUOUS
 62
     3
100
AcDbLine
 10
61.251448
 20
168.9449839999998
 30
0.0
 11
67.85144800000001
 21
168.9449839999998
 31
0.0
  0
LINE
  5
E8
330
1E
100
AcDbEntity
  8
CSLAYER1
  6
CONTINUOUS
 62
     3
100
AcDbLine
 10
67.85144800000001
 20
168.9449839999998
 30
0.0
 11
68.55144799999999
 21
169.644984
 31
0.0
  0
LINE
  5
E9
330
1E
100
AcDbEntity
  8
CSLAYER1
  6
CONTINUOUS
 62
     3
100
AcDbLine
 10
68.55144799999999
 20
169.644984
 30
0.0
 11
68.55144799999999
 21
173.144984
 31
0.0
  0
LINE
  5
EA
330
1E
100
AcDbEntity
  8
CSLAYER1
  6
CONTINUOUS
 62
     3
100
AcDbLine
 10
72.05700199999999
 20
173.7255409999999
 30
0.0
 11
72.05700199999999
 21
179.944984
 31
0.0
  0
LINE
  5
EB
330
1E
100
AcDbEntity
  8
CSLAYER1
  6
CONTINUOUS
 62
     3
100
AcDbLine
 10
68.304225
 20
179.944984
 30
0.0
 11
68.304225
 21
173.7255409999999
 31
0.0
  0
LINE
  5
EC
330
1E
100
AcDbEntity
  8
CSLAYER1
  6
CONTINUOUS
 62
     3
100
AcDbLine
 10
57.04589499999999
 20
173.7255409999999
 30
0.0
 11
57.04589499999999
 21
179.944984
 31
0.0
  0
LINE
  5
ED
330
1E
100
AcDbEntity
  8
CSLAYER1
  6
CONTINUOUS
 62
     3
100
AcDbLine
 10
53.551448
 20
179.944984
 30
0.0
 11
49.551448
 21
183.944984
 31
0.0
  0
LINE
  5
EE
330
1E
100
AcDbEntity
  8
CSLAYER1
  6
CONTINUOUS
 62
     3
100
AcDbLine
 10
49.551448
 20
183.944984
 30
0.0
 11
49.551448
 21
188.844984
 31
0.0
  0
LINE
  5
EF
330
1E
100
AcDbEntity
  8
CSLAYER1
  6
CONTINUOUS
 62
     3
100
AcDbLine
 10
49.551448
 20
188.844984
 30
0.0
 11
96.551448
 21
188.844984
 31
0.0
  0
LINE
  5
F0
330
1E
100
AcDbEntity
  8
CSLAYER1
  6
CONTINUOUS
 62
     3
100
AcDbLine
 10
96.551448
 20
188.844984
 30
0.0
 11
96.551448
 21
214.0449839999999
 31
0.0
  0
LINE
  5
F1
330
1E
100
AcDbEntity
  8
CSLAYER1
  6
CONTINUOUS
 62
     3
100
AcDbLine
 10
96.551448
 20
214.0449839999999
 30
0.0
 11
49.551448
 21
214.0449839999999
 31
0.0
  0
LINE
  5
F2
330
1E
100
AcDbEntity
  8
CSLAYER1
  6
CONTINUOUS
 62
     3
100
AcDbLine
 10
49.551448
 20
214.0449839999999
 30
0.0
 11
49.551448
 21
218.9449839999999
 31
0.0
  0
LINE
  5
F3
330
1E
100
AcDbEntity
  8
CSLAYER1
  6
CONTINUOUS
 62
     3
100
AcDbLine
 10
49.551448
 20
218.9449839999999
 30
0.0
 11
53.551448
 21
222.944984
 31
0.0
  0
LINE
  5
F4
330
1E
100
AcDbEntity
  8
CSLAYER1
  6
CONTINUOUS
 62
     3
100
AcDbLine
 10
53.551448
 20
222.944984
 30
0.0
 11
102.123023
 21
222.944984
 31
0.0
  0
ARC
  5
F5
330
1E
100
AcDbEntity
  8
CSLAYER1
  6
CONTINUOUS
 62
     3
100
AcDbCircle
 10
101.662905
 20
240.9449839999999
 30
0.0
 40
18.0
100
AcDbArc
 50
270.0
 51
353.62063
  0
LINE
  5
F6
330
1E
100
AcDbEntity
  8
CSLAYER1
  6
CONTINUOUS
 62
     3
100
AcDbLine
 10
119.5514479999999
 20
163.944984
 30
0.0
 11
119.5514479999999
 21
238.9449839999999
 31
0.0
  0
LINE
  5
F7
330
1E
100
AcDbEntity
  8
CSLAYER1
  6
CONTINUOUS
 62
     3
100
AcDbLine
 10
119.5514479999999
 20
47.58525
 30
0.0
 11
270.0514479999999
 21
47.58525
 31
0.0
  0
LINE
  5
F8
330
1E
100
AcDbEntity
  8
CSLAYER1
  6
CONTINUOUS
 62
     3
100
AcDbLine
 10
249.551448
 20
47.58525
 30
0.0
 11
249.551448
 21
122.58525
 31
0.0
  0
LINE
  5
F9
330
1E
100
AcDbEntity
  8
CSLAYER1
  6
CONTINUOUS
 62
     3
100
AcDbLine
 10
270.0514479999999
 20
122.58525
 30
0.0
 11
119.5514479999999
 21
122.58525
 31
0.0
  0
LINE
  5
FA
330
1E
100
AcDbEntity
  8
CSLAYER1
  6
CONTINUOUS
 62
     3
100
AcDbLine
 10
96.551448
 20
52.678107
 30
0.0
 11
96.551448
 21
55.238662
 31
0.0
  0
LINE
  5
FB
330
1E
100
AcDbEntity
  8
CSLAYER1
  6
CONTINUOUS
 62
     3
100
AcDbLine
 10
96.551448
 20
55.238662
 30
0.0
 11
52.68668100000001
 21
64.95157500000001
 31
0.0
  0
LINE
  5
FC
330
1E
100
AcDbEntity
  8
CSLAYER1
  6
CONTINUOUS
 62
     3
100
AcDbLine
 10
49.551448
 20
68.85697799999999
 30
0.0
 11
49.551448
 21
101.3135209999999
 31
0.0
  0
ARC
  5
FD
330
1E
100
AcDbEntity
  8
CSLAYER1
  6
CONTINUOUS
 62
     3
100
AcDbCircle
 10
53.551448
 20
101.3135209999999
 30
0.0
 40
4.0
100
AcDbArc
 50
102.485467
 51
180.0
  0
LINE
  5
FE
330
1E
100
AcDbEntity
  8
CSLAYER1
  6
CONTINUOUS
 62
     3
100
AcDbLine
 10
52.68668100000001
 20
105.218925
 30
0.0
 11
96.551448
 21
114.9318379999999
 31
0.0
  0
LINE
  5
FF
330
1E
100
AcDbEntity
  8
CSLAYER1
  6
CONTINUOUS
 62
     3
100
AcDbLine
 10
96.551448
 20
114.9318379999999
 30
0.0
 11
96.551448
 21
117.492393
 31
0.0
  0
LINE
  5
100
330
1E
100
AcDbEntity
  8
CSLAYER1
  6
CONTINUOUS
 62
     3
100
AcDbLine
 10
96.551448
 20
117.492393
 30
0.0
 11
119.5514479999999
 21
122.58525
 31
0.0
  0
LINE
  5
101
330
1E
100
AcDbEntity
  8
CSLAYER1
  6
CONTINUOUS
 62
     3
100
AcDbLine
 10
119.5514479999999
 20
122.58525
 30
0.0
 11
119.5514479999999
 21
47.58525
 31
0.0
  0
ARC
  5
102
330
1E
100
AcDbEntity
  8
CSLAYER1
  6
CONTINUOUS
 62
     3
100
AcDbCircle
 10
99.75015200000001
 20
87.897487
 30
0.0
 40
20.0
100
AcDbArc
 50
8.083252999999999
 51
107.4471879999999
  0
LINE
  5
103
330
1E
100
AcDbEntity
  8
CSLAYER1
  6
CONTINUOUS
 62
     3
100
AcDbLine
 10
93.753621
 20
106.977361
 30
0.0
 11
54.95179499999998
 21
94.78250199999999
 31
0.0
  0
ARC
  5
104
330
1E
100
AcDbEntity
  8
CSLAYER1
  6
CONTINUOUS
 62
     3
100
AcDbCircle
 10
55.551448
 20
92.874514
 30
0.0
 40
2.0
100
AcDbArc
 50
107.4471879999999
 51
180.0
  0
LINE
  5
105
330
1E
100
AcDbEntity
  8
CSLAYER1
  6
CONTINUOUS
 62
     3
100
AcDbLine
 10
53.551448
 20
92.874514
 30
0.0
 11
53.551448
 21
77.295985
 31
0.0
  0
ARC
  5
106
330
1E
100
AcDbEntity
  8
CSLAYER1
  6
CONTINUOUS
 62
     3
100
AcDbCircle
 10
55.551448
 20
77.295985
 30
0.0
 40
2.0
100
AcDbArc
 50
180.0
 51
252.552812
  0
LINE
  5
107
330
1E
100
AcDbEntity
  8
CSLAYER1
  6
CONTINUOUS
 62
     3
100
AcDbLine
 10
54.95179499999998
 20
75.38799799999998
 30
0.0
 11
93.753621
 21
63.19313799999999
 31
0.0
  0
ARC
  5
108
330
1E
100
AcDbEntity
  8
CSLAYER1
  6
CONTINUOUS
 62
     3
100
AcDbCircle
 10
99.75015200000001
 20
82.273013
 30
0.0
 40
20.0
100
AcDbArc
 50
252.552812
 51
351.916747
  0
LINE
  5
109
330
1E
100
AcDbEntity
  8
CSLAYER1
  6
CONTINUOUS
 62
     3
100
AcDbLine
 10
119.5514479999999
 20
163.944984
 30
0.0
 11
256.551448
 21
163.944984
 31
0.0
  0
LINE
  5
10A
330
1E
100
AcDbEntity
  8
CSLAYER1
  6
CONTINUOUS
 62
     3
100
AcDbLine
 10
249.551448
 20
163.944984
 30
0.0
 11
249.551448
 21
238.9449839999999
 31
0.0
  0
LINE
  5
10B
330
1E
100
AcDbEntity
  8
CSLAYER1
  6
CONTINUOUS
 62
     3
100
AcDbLine
 10
256.551448
 20
238.9449839999999
 30
0.0
 11
119.5514479999999
 21
238.9449839999999
 31
0.0
  0
LINE
  5
10C
330
1E
100
AcDbEntity
  8
CSLAYER1
  6
CONTINUOUS
 62
     3
100
AcDbLine
 10
96.551448
 20
52.678107
 30
0.0
 11
119.5514479999999
 21
47.58525
 31
0.0
  0
ARC
  5
10D
330
1E
100
AcDbEntity
  8
CSLAYER1
  6
CONTINUOUS
 62
     3
100
AcDbCircle
 10
51.551448
 20
77.09816700000001
 30
0.0
 40
2.0
100
AcDbArc
 50
180.0
 51
0.0
  0
ARC
  5
10E
330
1E
100
AcDbEntity
  8
CSLAYER1
  6
CONTINUOUS
 62
     3
100
AcDbCircle
 10
53.551448
 20
68.85697799999999
 30
0.0
 40
4.0
100
AcDbArc
 50
180.0
 51
257.514533
  0
ARC
  5
10F
330
1E
100
AcDbEntity
  8
CSLAYER1
  6
CONTINUOUS
 62
     3
100
AcDbCircle
 10
51.551448
 20
93.07233199999997
 30
0.0
 40
2.0
100
AcDbArc
 50
0.0
 51
180.0
  0
ARC
  5
110
330
1E
100
AcDbEntity
  8
CSLAYER1
  6
CONTINUOUS
 62
     3
100
AcDbCircle
 10
101.662905
 20
161.944984
 30
0.0
 40
18.0
100
AcDbArc
 50
6.379369999999998
 51
90.0
  0
LINE
  5
111
330
1E
100
AcDbEntity
  8
CSLAYER1
  6
CONTINUOUS
 62
     3
100
AcDbLine
 10
102.123023
 20
179.944984
 30
0.0
 11
53.551448
 21
179.944984
 31
0.0
  0
LINE
  5
112
330
1E
100
AcDbEntity
  8
CSLAYER1
  6
CONTINUOUS
 62
     3
100
AcDbLine
 10
60.79867199999998
 20
179.944984
 30
0.0
 11
60.79867199999998
 21
173.7255409999999
 31
0.0
  0
LINE
  5
113
330
1E
100
AcDbEntity
  8
CSLAYER1
  6
CONTINUOUS
 62
     4
100
AcDbLine
 10
68.55144799999999
 20
169.644984
 30
0.0
 11
60.551448
 21
169.644984
 31
0.0
  0
LINE
  5
114
330
1E
100
AcDbEntity
  8
CSLAYER1
  6
CONTINUOUS
 62
     3
100
AcDbLine
 10
60.551448
 20
169.644984
 30
0.0
 11
61.251448
 21
168.9449839999998
 31
0.0
  0
LINE
  5
115
330
1E
100
AcDbEntity
  8
CSLAYER1
  6
CONTINUOUS
 62
     3
100
AcDbLine
 10
60.551448
 20
169.644984
 30
0.0
 11
60.551448
 21
173.144984
 31
0.0
  0
LINE
  5
116
330
1E
100
AcDbEntity
  8
CSLAYER1
  6
CONTINUOUS
 62
     3
100
AcDbLine
 10
60.551448
 20
188.844984
 30
0.0
 11
60.551448
 21
214.0449839999999
 31
0.0
  0
LINE
  5
117
330
1E
100
AcDbEntity
  8
CSLAYER1
  6
CONTINUOUS
 62
     3
100
AcDbLine
 10
68.55144799999999
 20
214.0449839999999
 30
0.0
 11
68.55144799999999
 21
188.844984
 31
0.0
  0
LINE
  5
118
330
1E
100
AcDbEntity
  8
CSLAYER1
  6
CONTINUOUS
 62
     3
100
AcDbLine
 10
70.55144799999998
 20
222.944984
 30
0.0
 11
70.55144799999998
 21
225.9449839999999
 31
0.0
  0
LINE
  5
119
330
1E
100
AcDbEntity
  8
CSLAYER1
  6
CONTINUOUS
 62
     3
100
AcDbLine
 10
70.55144799999998
 20
225.9449839999999
 30
0.0
 11
58.551448
 21
225.9449839999999
 31
0.0
  0
LINE
  5
11A
330
1E
100
AcDbEntity
  8
CSLAYER1
  6
CONTINUOUS
 62
     3
100
AcDbLine
 10
58.551448
 20
225.9449839999999
 30
0.0
 11
58.551448
 21
222.944984
 31
0.0
  0
LINE
  5
11B
330
1E
100
AcDbEntity
  8
CSLAYER1
  6
CONTINUOUS
 62
     3
100
AcDbLine
 10
58.551448
 20
225.9449839999999
 30
0.0
 11
59.551448
 21
226.9449839999999
 31
0.0
  0
LINE
  5
11C
330
1E
100
AcDbEntity
  8
CSLAYER1
  6
CONTINUOUS
 62
     3
100
AcDbLine
 10
59.551448
 20
226.9449839999999
 30
0.0
 11
64.05144799999999
 21
226.9449839999999
 31
0.0
  0
LINE
  5
11D
330
1E
100
AcDbEntity
  8
CSLAYER1
  6
CONTINUOUS
 62
     3
100
AcDbLine
 10
64.05144799999999
 20
226.9449839999999
 30
0.0
 11
64.05144799999999
 21
225.9449839999999
 31
0.0
  0
LINE
  5
11E
330
1E
100
AcDbEntity
  8
CSLAYER1
  6
CONTINUOUS
 62
     3
100
AcDbLine
 10
65.051448
 20
225.9449839999999
 30
0.0
 11
65.051448
 21
226.9449839999999
 31
0.0
  0
LINE
  5
11F
330
1E
100
AcDbEntity
  8
CSLAYER1
  6
CONTINUOUS
 62
     3
100
AcDbLine
 10
65.051448
 20
226.9449839999999
 30
0.0
 11
69.55144799999999
 21
226.9449839999999
 31
0.0
  0
LINE
  5
120
330
1E
100
AcDbEntity
  8
CSLAYER1
  6
CONTINUOUS
 62
     3
100
AcDbLine
 10
69.55144799999999
 20
226.9449839999999
 30
0.0
 11
70.55144799999998
 21
225.9449839999999
 31
0.0
  0
LINE
  5
121
330
1E
100
AcDbEntity
  8
CSLAYER1
  6
CONTINUOUS
 62
     4
100
AcDbLine
 10
61.176448
 20
169.019984
 30
0.0
 11
61.176448
 21
173.144984
 31
0.0
  0
LINE
  5
122
330
1E
100
AcDbEntity
  8
CSLAYER1
  6
CONTINUOUS
 62
     4
100
AcDbLine
 10
67.92644799999999
 20
173.144984
 30
0.0
 11
67.92644799999999
 21
169.019984
 31
0.0
  0
LINE
  5
123
330
1E
100
AcDbEntity
  8
CSLAYER1
  6
CENTER
 62
     4
100
AcDbLine
 10
64.55144799999999
 20
166.965572
 30
0.0
 11
64.55144799999999
 21
232.0177109999999
 31
0.0
  0
LINE
  5
124
330
1E
100
AcDbEntity
  8
CSLAYER1
  6
CENTER
 62
     4
100
AcDbLine
 10
43.54251
 20
85.08525
 30
0.0
 11
277.564052
 21
85.08525
 31
0.0
  0
LINE
  5
125
330
1E
100
AcDbEntity
  8
CSLAYER1
  6
CENTER
 62
     4
100
AcDbLine
 10
64.55144799999999
 20
74.44827700000002
 30
0.0
 11
64.55144799999999
 21
95.56131699999999
 31
0.0
  0
LINE
  5
126
330
1E
100
AcDbEntity
  8
CSLAYER1
  6
CENTER
 62
     4
100
AcDbLine
 10
43.945463
 20
201.444984
 30
0.0
 11
278.182767
 21
201.444984
 31
0.0
  0
CIRCLE
  5
127
330
1E
100
AcDbEntity
  8
CSLAYER1
  6
CONTINUOUS
 62
     3
100
AcDbCircle
 10
64.55144799999999
 20
85.08525
 30
0.0
 40
4.0
  0
CIRCLE
  5
128
330
1E
100
AcDbEntity
  8
CSLAYER1
  6
CONTINUOUS
 62
     4
100
AcDbCircle
 10
64.55144799999999
 20
85.08525
 30
0.0
 40
3.375
  0
LINE
  5
129
330
1E
100
AcDbEntity
  8
CSLAYER1
  6
CONTINUOUS
 62
     3
100
AcDbLine
 10
60.79867199999998
 20
91.58525
 30
0.0
 11
68.304225
 21
91.58525
 31
0.0
  0
LINE
  5
12A
330
1E
100
AcDbEntity
  8
CSLAYER1
  6
CONTINUOUS
 62
     3
100
AcDbLine
 10
68.304225
 20
91.58525
 30
0.0
 11
72.05700199999999
 21
85.08525
 31
0.0
  0
LINE
  5
12B
330
1E
100
AcDbEntity
  8
CSLAYER1
  6
CONTINUOUS
 62
     3
100
AcDbLine
 10
60.79867199999998
 20
91.58525
 30
0.0
 11
57.04589499999999
 21
85.08525
 31
0.0
  0
LINE
  5
12C
330
1E
100
AcDbEntity
  8
CSLAYER1
  6
CONTINUOUS
 62
     3
100
AcDbLine
 10
68.304225
 20
78.58525
 30
0.0
 11
72.05700199999999
 21
85.08525
 31
0.0
  0
LINE
  5
12D
330
1E
100
AcDbEntity
  8
CSLAYER1
  6
CONTINUOUS
 62
     3
100
AcDbLine
 10
60.79867199999998
 20
78.58525
 30
0.0
 11
57.04589499999999
 21
85.08525
 31
0.0
  0
LINE
  5
12E
330
1E
100
AcDbEntity
  8
CSLAYER1
  6
CONTINUOUS
 62
     3
100
AcDbLine
 10
60.79867199999998
 20
78.58525
 30
0.0
 11
68.304225
 21
78.58525
 31
0.0
  0
CIRCLE
  5
12F
330
1E
100
AcDbEntity
  8
CSLAYER1
  6
CONTINUOUS
 62
     3
100
AcDbCircle
 10
64.55144799999999
 20
85.08525
 30
0.0
 40
6.5
  0
LINE
  5
130
330
1E
100
AcDbEntity
  8
CSLAYER1
  6
CONTINUOUS
 62
     3
100
AcDbLine
 10
71.05144799999997
 20
173.144984
 30
0.0
 11
58.051448
 21
173.144984
 31
0.0
  0
LINE
  5
131
330
1E
100
AcDbEntity
  8
CSLAYER1
  6
CONTINUOUS
 62
     3
100
AcDbLine
 10
58.051448
 20
173.144984
 30
0.0
 11
57.04589499999999
 21
173.7255409999999
 31
0.0
  0
LINE
  5
132
330
1E
100
AcDbEntity
  8
CSLAYER1
  6
CONTINUOUS
 62
     3
100
AcDbLine
 10
71.05144799999997
 20
173.144984
 30
0.0
 11
72.05700199999999
 21
173.7255409999999
 31
0.0
  0
ARC
  5
133
330
1E
100
AcDbEntity
  8
CSLAYER1
  6
CONTINUOUS
 62
     3
100
AcDbCircle
 10
64.55144799999999
 20
185.5644269999999
 30
0.0
 40
12.419443
100
AcDbArc
 50
252.412046
 51
287.587954
  0
ARC
  5
134
330
1E
100
AcDbEntity
  8
CSLAYER1
  6
CONTINUOUS
 62
     3
100
AcDbCircle
 10
72.14190000000002
 20
185.095336
 30
0.0
 40
12.0
100
AcDbArc
 50
251.348791
 51
264.786283
  0
ARC
  5
135
330
1E
100
AcDbEntity
  8
CSLAYER1
  6
CONTINUOUS
 62
     3
100
AcDbCircle
 10
56.960997
 20
185.095336
 30
0.0
 40
12.0
100
AcDbArc
 50
275.2137169999999
 51
288.651209
  0
LINE
  5
136
330
1E
100
AcDbEntity
  8
CSLAYER1
  6
CENTER
 62
     4
100
AcDbLine
 10
338.8128589999999
 20
242.804404
 30
0.0
 11
338.8128589999999
 21
160.184035
 31
0.0
  0
CIRCLE
  5
137
330
1E
100
AcDbEntity
  8
CSLAYER1
  6
CONTINUOUS
 62
     3
100
AcDbCircle
 10
338.8128589999999
 20
201.444984
 30
0.0
 40
37.5
  0
LINE
  5
138
330
1E
100
AcDbEntity
  8
CSLAYER1
  6
CONTINUOUS
 62
     3
100
AcDbLine
 10
316.3128589999999
 20
231.4449839999999
 30
0.0
 11
361.312859
 21
231.4449839999999
 31
0.0
  0
ARC
  5
139
330
1E
100
AcDbEntity
  8
CSLAYER1
  6
CONTINUOUS
 62
     3
100
AcDbCircle
 10
338.8128589999999
 20
201.444984
 30
0.0
 40
36.0
100
AcDbArc
 50
123.55731
 51
236.44269
  0
LINE
  5
13A
330
1E
100
AcDbEntity
  8
CSLAYER1
  6
CONTINUOUS
 62
     3
100
AcDbLine
 10
316.3128589999999
 20
171.444984
 30
0.0
 11
361.312859
 21
171.444984
 31
0.0
  0
ARC
  5
13B
330
1E
100
AcDbEntity
  8
CSLAYER1
  6
CONTINUOUS
 62
     3
100
AcDbCircle
 10
338.8128589999999
 20
201.444984
 30
0.0
 40
36.0
100
AcDbArc
 50
303.5573099999998
 51
56.44269000000001
  0
CIRCLE
  5
13C
330
1E
100
AcDbEntity
  8
CSLAYER1
  6
CONTINUOUS
 62
     3
100
AcDbCircle
 10
321.1351899999999
 20
183.7673139999999
 30
0.0
 40
3.399999999999999
  0
CIRCLE
  5
13D
330
1E
100
AcDbEntity
  8
CSLAYER1
  6
CONTINUOUS
 62
     3
100
AcDbCircle
 10
356.490529
 20
219.1226529999999
 30
0.0
 40
3.399999999999999
  0
LINE
  5
13E
330
1E
100
AcDbEntity
  8
CSLAYER1
  6
CENTER
 62
     4
100
AcDbLine
 10
314.737287
 20
190.165217
 30
0.0
 11
327.964629
 21
176.937875
 31
0.0
  0
CIRCLE
  5
13F
330
1E
100
AcDbEntity
  8
CSLAYER1
  6
CONTINUOUS
 62
     4
100
AcDbCircle
 10
321.1351899999999
 20
183.7673139999999
 30
0.0
 40
4.0
  0
LINE
  5
140
330
1E
100
AcDbEntity
  8
CSLAYER1
  6
CENTER
 62
     4
100
AcDbLine
 10
338.8128589999999
 20
201.444984
 30
0.0
 11
298.287073
 21
212.3038359999999
 31
0.0
  0
LINE
  5
141
330
1E
100
AcDbEntity
  8
CSLAYER1
  6
CENTER
 62
     4
100
AcDbLine
 10
349.8792819999998
 20
225.7338999999999
 30
0.0
 11
364.173345
 21
211.4398369999999
 31
0.0
  0
CIRCLE
  5
142
330
1E
100
AcDbEntity
  8
CSLAYER1
  6
CONTINUOUS
 62
     4
100
AcDbCircle
 10
356.490529
 20
219.1226529999999
 30
0.0
 40
4.0
  0
CIRCLE
  5
143
330
1E
100
AcDbEntity
  8
CSLAYER1
  6
CONTINUOUS
 62
     3
100
AcDbCircle
 10
338.8128589999999
 20
201.444984
 30
0.0
 40
5.7225
  0
CIRCLE
  5
144
330
1E
100
AcDbEntity
  8
CSLAYER1
  6
CONTINUOUS
 62
     4
100
AcDbCircle
 10
338.8128589999999
 20
201.444984
 30
0.0
 40
6.5785
  0
CIRCLE
  5
145
330
1E
100
AcDbEntity
  8
CSLAYER1
  6
CONTINUOUS
 62
     3
100
AcDbCircle
 10
338.8128589999999
 20
201.444984
 30
0.0
 40
5.0
  0
LINE
  5
146
330
1E
100
AcDbEntity
  8
CSLAYER1
  6
CENTER
 62
     4
100
AcDbLine
 10
315.435809
 20
178.067934
 30
0.0
 11
326.466904
 21
189.0990289999999
 31
0.0
  0
LINE
  5
147
330
1E
100
AcDbEntity
  8
CSLAYER1
  6
CENTER
 62
     4
100
AcDbLine
 10
351.768995
 20
214.40112
 30
0.0
 11
362.1058249999998
 21
224.73795
 31
0.0
  0
LINE
  5
148
330
1E
100
AcDbEntity
  8
CSLAYER1
  6
CENTER
 62
     4
100
AcDbLine
 10
297.007561
 20
201.444984
 30
0.0
 11
380.366739
 21
201.444984
 31
0.0
  0
LINE
  5
149
330
1E
100
AcDbEntity
  8
CSLAYER1
  6
CONTINUOUS
 62
     3
100
AcDbLine
 10
271.5514479999999
 20
172.944984
 30
0.0
 11
271.5514479999999
 21
229.9449839999999
 31
0.0
  0
LINE
  5
14A
330
1E
100
AcDbEntity
  8
CSLAYER1
  6
CONTINUOUS
 62
     3
100
AcDbLine
 10
270.0514479999999
 20
231.4449839999999
 30
0.0
 11
258.551448
 21
231.4449839999999
 31
0.0
  0
LINE
  5
14B
330
1E
100
AcDbEntity
  8
CSLAYER1
  6
CONTINUOUS
 62
     3
100
AcDbLine
 10
256.551448
 20
233.4449839999999
 30
0.0
 11
256.551448
 21
238.9449839999999
 31
0.0
  0
ARC
  5
14C
330
1E
100
AcDbEntity
  8
CSLAYER1
  6
CONTINUOUS
 62
     3
100
AcDbCircle
 10
258.551448
 20
233.4449839999999
 30
0.0
 40
2.0
100
AcDbArc
 50
180.0
 51
270.0
  0
LINE
  5
14D
330
1E
100
AcDbEntity
  8
CSLAYER1
  6
CONTINUOUS
 62
     3
100
AcDbLine
 10
270.0514479999999
 20
231.4449839999999
 30
0.0
 11
271.5514479999999
 21
229.9449839999999
 31
0.0
  0
LINE
  5
14E
330
1E
100
AcDbEntity
  8
CSLAYER1
  6
CONTINUOUS
 62
     3
100
AcDbLine
 10
270.0514479999999
 20
231.4449839999999
 30
0.0
 11
270.0514479999999
 21
171.444984
 31
0.0
  0
LINE
  5
14F
330
1E
100
AcDbEntity
  8
CSLAYER1
  6
CONTINUOUS
 62
     3
100
AcDbLine
 10
270.0514479999999
 20
171.444984
 30
0.0
 11
258.551448
 21
171.444984
 31
0.0
  0
LINE
  5
150
330
1E
100
AcDbEntity
  8
CSLAYER1
  6
CONTINUOUS
 62
     3
100
AcDbLine
 10
256.551448
 20
169.444984
 30
0.0
 11
256.551448
 21
163.944984
 31
0.0
  0
ARC
  5
151
330
1E
100
AcDbEntity
  8
CSLAYER1
  6
CONTINUOUS
 62
     3
100
AcDbCircle
 10
258.551448
 20
169.444984
 30
0.0
 40
2.0
100
AcDbArc
 50
90.0
 51
180.0
  0
LINE
  5
152
330
1E
100
AcDbEntity
  8
CSLAYER1
  6
CONTINUOUS
 62
     3
100
AcDbLine
 10
270.0514479999999
 20
171.444984
 30
0.0
 11
271.5514479999999
 21
172.944984
 31
0.0
  0
LINE
  5
153
330
1E
100
AcDbEntity
  8
CSLAYER1
  6
CENTER
 62
     4
100
AcDbLine
 10
250.669567
 20
211.150698
 30
0.0
 11
267.877606
 21
211.150698
 31
0.0
  0
LINE
  5
154
330
1E
100
AcDbEntity
  8
CSLAYER1
  6
CENTER
 62
     4
100
AcDbLine
 10
259.5514479999999
 20
202.819685
 30
0.0
 11
259.5514479999999
 21
220.598494
 31
0.0
  0
CIRCLE
  5
155
330
1E
100
AcDbEntity
  8
CSLAYER1
  6
CONTINUOUS
 62
     3
100
AcDbCircle
 10
259.5514479999999
 20
211.150698
 30
0.0
 40
5.7225
  0
CIRCLE
  5
156
330
1E
100
AcDbEntity
  8
CSLAYER1
  6
CONTINUOUS
 62
     4
100
AcDbCircle
 10
259.5514479999999
 20
211.150698
 30
0.0
 40
6.5785
  0
LINE
  5
157
330
1E
100
AcDbEntity
  8
CSLAYER1
  6
CONTINUOUS
 62
     3
100
AcDbLine
 10
271.5514479999999
 20
49.08525
 30
0.0
 11
271.5514479999999
 21
121.08525
 31
0.0
  0
LINE
  5
158
330
1E
100
AcDbEntity
  8
CSLAYER1
  6
CONTINUOUS
 62
     3
100
AcDbLine
 10
270.0514479999999
 20
122.58525
 30
0.0
 11
270.0514479999999
 21
107.58525
 31
0.0
  0
LINE
  5
159
330
1E
100
AcDbEntity
  8
CSLAYER1
  6
CONTINUOUS
 62
     3
100
AcDbLine
 10
270.0514479999999
 20
47.58525
 30
0.0
 11
271.5514479999999
 21
49.08525
 31
0.0
  0
LINE
  5
15A
330
1E
100
AcDbEntity
  8
CSLAYER1
  6
CONTINUOUS
 62
     3
100
AcDbLine
 10
270.0514479999999
 20
122.58525
 30
0.0
 11
271.5514479999999
 21
121.08525
 31
0.0
  0
LINE
  5
15B
330
1E
100
AcDbEntity
  8
CSLAYER1
  6
CONTINUOUS
 62
     3
100
AcDbLine
 10
270.0514479999999
 20
107.58525
 30
0.0
 11
258.551448
 21
107.58525
 31
0.0
  0
LINE
  5
15C
330
1E
100
AcDbEntity
  8
CSLAYER1
  6
CONTINUOUS
 62
     3
100
AcDbLine
 10
256.551448
 20
105.58525
 30
0.0
 11
256.551448
 21
64.58525
 31
0.0
  0
ARC
  5
15D
330
1E
100
AcDbEntity
  8
CSLAYER1
  6
CONTINUOUS
 62
     3
100
AcDbCircle
 10
258.551448
 20
105.58525
 30
0.0
 40
2.0
100
AcDbArc
 50
90.0
 51
180.0
  0
LINE
  5
15E
330
1E
100
AcDbEntity
  8
CSLAYER1
  6
CONTINUOUS
 62
     3
100
AcDbLine
 10
270.0514479999999
 20
62.58525
 30
0.0
 11
258.551448
 21
62.58525
 31
0.0
  0
ARC
  5
15F
330
1E
100
AcDbEntity
  8
CSLAYER1
  6
CONTINUOUS
 62
     3
100
AcDbCircle
 10
258.551448
 20
64.58525
 30
0.0
 40
2.0
100
AcDbArc
 50
180.0
 51
270.0
  0
LINE
  5
160
330
1E
100
AcDbEntity
  8
CSLAYER1
  6
CONTINUOUS
 62
     3
100
AcDbLine
 10
270.0514479999999
 20
62.58525
 30
0.0
 11
271.5514479999999
 21
64.08525
 31
0.0
  0
LINE
  5
161
330
1E
100
AcDbEntity
  8
CSLAYER1
  6
CONTINUOUS
 62
     3
100
AcDbLine
 10
270.0514479999999
 20
107.58525
 30
0.0
 11
271.5514479999999
 21
106.0852499999999
 31
0.0
  0
LINE
  5
162
330
1E
100
AcDbEntity
  8
CSLAYER1
  6
CONTINUOUS
 62
     3
100
AcDbLine
 10
270.0514479999999
 20
62.58525
 30
0.0
 11
270.0514479999999
 21
47.58525
 31
0.0
  0
DIMENSION
  5
163
330
1E
100
AcDbEntity
  8
CSLAYER1
 62
     4
100
AcDbDimension
  2
*D0
 10
64.55144799999999
 20
250.9534879999999
 30
0.0
 11
57.051449
 21
251.4534759999999
 31
0.0
100
AcDbAlignedDimension
 13
49.551448
 23
218.9449839999999
 33
0.0
 14
64.55144799999999
 24
232.0177109999999
 34
0.0
100
AcDbRotatedDimension
  0
DIMENSION
  5
164
330
1E
100
AcDbEntity
  8
CSLAYER1
 62
     4
100
AcDbDimension
  2
*D1
 10
249.551448
 20
256.9534879999999
 30
0.0
 11
149.551453
 21
257.453491
 31
0.0
100
AcDbAlignedDimension
 13
49.551448
 23
218.9449839999999
 33
0.0
 14
249.551448
 24
238.9449839999999
 34
0.0
100
AcDbRotatedDimension
  0
DIMENSION
  5
165
330
1E
100
AcDbEntity
  8
CSLAYER1
 62
     4
100
AcDbDimension
  2
*D2
 10
271.5514479999999
 20
256.9534879999999
 30
0.0
 11
260.5514529999999
 21
257.453491
 31
0.0
100
AcDbAlignedDimension
 13
249.551448
 23
238.9449839999999
 33
0.0
 14
271.5514479999999
 24
229.9449839999999
 34
0.0
100
AcDbRotatedDimension
  0
DIMENSION
  5
166
330
1E
100
AcDbEntity
  8
CSLAYER1
 62
     4
100
AcDbDimension
  2
*D3
 10
249.551448
 20
250.9534879999999
 30
0.0
 11
184.551453
 21
251.4534759999999
 31
0.0
100
AcDbAlignedDimension
 13
119.5514479999999
 23
238.9449839999999
 33
0.0
 14
249.551448
 24
239.9449839999999
 34
0.0
100
AcDbRotatedDimension
  0
DIMENSION
  5
167
330
1E
100
AcDbEntity
  8
CSLAYER1
 62
     4
100
AcDbDimension
  2
*D4
 10
26.326676
 20
222.944984
 30
0.0
 11
25.826675
 21
201.444977
 31
0.0
 70
     1
100
AcDbAlignedDimension
 13
53.551448
 23
179.944984
 33
0.0
 14
53.551448
 24
222.944984
 34
0.0
  0
DIMENSION
  5
168
330
1E
100
AcDbEntity
  8
CSLAYER1
 62
     4
100
AcDbDimension
  2
*D5
 10
32.326676
 20
214.0449839999999
 30
0.0
 11
31.826675
 21
201.444977
 31
0.0
 70
     1
100
AcDbAlignedDimension
 13
49.551448
 23
188.844984
 33
0.0
 14
49.551448
 24
214.0449839999999
 34
0.0
  0
DIMENSION
  5
169
330
1E
100
AcDbEntity
  8
CSLAYER1
 62
     4
100
AcDbDimension
  2
*D6
 10
32.326676
 20
122.58525
 30
0.0
 11
31.826675
 21
85.08525099999998
 31
0.0
 70
     1
100
AcDbAlignedDimension
 13
119.5514479999999
 23
47.58525
 33
0.0
 14
119.5514479999999
 24
122.58525
 34
0.0
  0
DIMENSION
  5
16A
330
1E
100
AcDbEntity
  8
CSLAYER1
 62
     4
100
AcDbDimension
  2
*D7
 10
271.5514479999999
 20
143.493981
 30
0.0
 11
160.551453
 21
143.993973
 31
0.0
100
AcDbAlignedDimension
 13
49.551448
 23
101.3135209999999
 33
0.0
 14
271.5514479999999
 24
121.08525
 34
0.0
100
AcDbRotatedDimension
  0
DIMENSION
  5
16B
330
1E
100
AcDbEntity
  8
CSLAYER1
 62
     4
100
AcDbDimension
  2
*D8
 10
64.55144799999999
 20
137.493981
 30
0.0
 11
57.051449
 21
137.993973
 31
0.0
100
AcDbAlignedDimension
 13
49.551448
 23
101.3135209999999
 33
0.0
 14
64.55144799999999
 24
95.56131699999999
 34
0.0
100
AcDbRotatedDimension
  0
DIMENSION
  5
16C
330
1E
100
AcDbEntity
  8
CSLAYER1
 62
     4
100
AcDbDimension
  2
*D9
 10
319.550339
 20
256.062843
 30
0.0
 11
301.519135
 21
238.738724
 31
0.0
100
AcDbAlignedDimension
 13
314.737287
 23
190.165217
 33
0.0
 14
349.8792819999998
 24
225.7338999999999
 34
0.0
 50
45.0
100
AcDbRotatedDimension
  0
DIMENSION
  5
16D
330
1E
100
AcDbEntity
  8
CSLAYER1
 62
     4
100
AcDbDimension
  2
*D10
 10
385.87947
 20
231.4449839999999
 30
0.0
 11
385.3794859999998
 21
201.444977
 31
0.0
 70
     1
100
AcDbAlignedDimension
 13
361.312859
 23
171.444984
 33
0.0
 14
361.312859
 24
231.4449839999999
 34
0.0
  0
INSERT
  5
16F
330
1E
100
AcDbEntity
  8
CSLAYER1
100
AcDbBlockReference
  2
FXDIM0000
 10
0.0
 20
0.0
 30
0.0
  0
INSERT
  5
170
330
1E
100
AcDbEntity
  8
CSLAYER1
100
AcDbBlockReference
  2
FXDIM0001
 10
0.0
 20
0.0
 30
0.0
  0
INSERT
  5
171
330
1E
100
AcDbEntity
  8
CSLAYER1
100
AcDbBlockReference
  2
FXDIM0002
 10
0.0
 20
0.0
 30
0.0
  0
TEXT
  5
172
330
1E
100
AcDbEntity
  8
CSLAYER1
 62
     3
100
AcDbText
 10
354.3
 20
18.89999999999998
 30
0.0
 40
3.2
  1
GT-NR50
 41
1.049999999999994
  7
FX_FONT
 72
     5
 11
376.6999999999999
 21
18.89999999999998
 31
0.0
100
AcDbText
  0
DIMENSION
  5
173
330
1E
100
AcDbEntity
  8
CSLAYER1
 62
     4
100
AcDbDimension
  2
*D15
 10
101.662905
 20
161.944984
 30
0.0
 11
107.0388719999999
 21
169.1802369999998
 31
0.0
 70
     4
100
AcDbRadialDimension
 15
113.183206
 25
175.775481
 35
0.0
 40
0.0
  0
INSERT
  5
174
330
1E
100
AcDbEntity
  8
CSLAYER1
100
AcDbBlockReference
  2
FXDIM0003
 10
0.0
 20
0.0
 30
0.0
  0
LINE
  5
175
330
1E
100
AcDbEntity
  8
CSLAYER1
  6
DOT
 62
     3
100
AcDbLine
 10
10.0
 20
3.0
 30
0.0
 11
395.0
 21
3.0
 31
0.0
  0
LINE
  5
176
330
1E
100
AcDbEntity
  8
CSLAYER1
  6
DOT
 62
     3
100
AcDbLine
 10
395.0
 20
3.0
 30
0.0
 11
395.0
 21
275.0
 31
0.0
  0
LINE
  5
177
330
1E
100
AcDbEntity
  8
CSLAYER1
  6
DOT
 62
     3
100
AcDbLine
 10
395.0
 20
275.0
 30
0.0
 11
10.0
 21
275.0
 31
0.0
  0
LINE
  5
178
330
1E
100
AcDbEntity
  8
CSLAYER1
  6
DOT
 62
     3
100
AcDbLine
 10
10.0
 20
275.0
 30
0.0
 11
10.0
 21
3.0
 31
0.0
  0
ENDSEC
  0
SECTION
  2
OBJECTS
  0
DICTIONARY
  5
C
330
0
100
AcDbDictionary
  3
ACAD_GROUP
350
D
  3
ACAD_LAYOUT
350
19
  3
ACAD_MLINESTYLE
350
16
  3
ACAD_PLOTSETTINGS
350
18
1001
ACAD
1000
TREAT_AS_HARD
1070
     0
1000
TREAT_AS_HARD
1070
     0
  0
DICTIONARY
  5
182
330
1E
100
AcDbDictionary
  3
ACAD_LAYOUTSELFREF
350
1A1
1001
ACAD
1000
TREAT_AS_HARD
1070
     0
  0
DICTIONARY
  5
180
330
1A
100
AcDbDictionary
  3
ACAD_LAYOUTSELFREF
350
1A0
1001
ACAD
1000
TREAT_AS_HARD
1070
     0
  0
DICTIONARY
  5
D
102
{ACAD_REACTORS
330
C
102
}
330
C
100
AcDbDictionary
1001
ACAD
1000
TREAT_AS_HARD
1070
     0
1000
TREAT_AS_HARD
1070
     0
  0
DICTIONARY
  5
19
102
{ACAD_REACTORS
330
C
102
}
330
C
100
AcDbDictionary
1001
ACAD
1000
TREAT_AS_HARD
1070
     0
1000
TREAT_AS_HARD
1070
     0
  0
DICTIONARY
  5
16
102
{ACAD_REACTORS
330
C
102
}
330
C
100
AcDbDictionary
  3
STANDARD
350
17
1001
ACAD
1000
TREAT_AS_HARD
1070
     0
1000
TREAT_AS_HARD
1070
     0
  0
DICTIONARY
  5
18
102
{ACAD_REACTORS
330
C
102
}
330
C
100
AcDbDictionary
1001
ACAD
1000
TREAT_AS_HARD
1070
     0
1000
TREAT_AS_HARD
1070
     0
  0
XRECORD
  5
1A1
102
{ACAD_REACTORS
330
182
102
}
330
182
100
AcDbXrecord
340
1E
  0
XRECORD
  5
1A0
102
{ACAD_REACTORS
330
180
102
}
330
180
100
AcDbXrecord
340
1A
  0
MLINESTYLE
  5
17
102
{ACAD_REACTORS
330
16
102
}
330
16
100
AcDbMlineStyle
  2
STANDARD
 70
     0
  3

 62
   256
 51
90.0
 52
90.0
 71
     2
 49
0.5
 62
   256
  6
BYLAYER
 49
-0.5
 62
   256
  6
BYLAYER
  0
ENDSEC
  0
EOF
