  0
SECTION
  2
HEADER
  9
$ACADVER
  1
AC1012
  9
$DWGCODEPAGE
  3
dos932
  9
$INSBASE
 10
0.0
 20
0.0
 30
0.0
  9
$EXTMIN
 10
9.98474220045
 20
2.981964806306564
 30
-0.0015258207003583
  9
$EXTMAX
 10
395.0189218472444
 20
275.0068823797708
 30
0.0000000349246037
  9
$LIMMIN
 10
0.0
 20
0.0
  9
$LIMMAX
 10
420.0
 20
297.0
  9
$ORTHOMODE
 70
     0
  9
$REGENMODE
 70
     1
  9
$FILLMODE
 70
     1
  9
$QTEXTMODE
 70
     0
  9
$MIRRTEXT
 70
     1
  9
$DRAGMODE
 70
     2
  9
$LTSCALE
 40
15.0
  9
$OSMODE
 70
    37
  9
$ATTMODE
 70
     1
  9
$TEXTSIZE
 40
0.2
  9
$TRACEWID
 40
0.05
  9
$TEXTSTYLE
  7
GOTHIC
  9
$CLAYER
  8
CSLAYER1
  9
$CELTYPE
  6
BYLAYER
  9
$CECOLOR
 62
   256
  9
$CELTSCALE
 40
1.0
  9
$DELOBJ
 70
     1
  9
$DISPSILH
 70
     0
  9
$DIMSCALE
 40
1.0
  9
$DIMASZ
 40
0.18
  9
$DIMEXO
 40
0.0625
  9
$DIMDLI
 40
0.38
  9
$DIMRND
 40
0.0
  9
$DIMDLE
 40
0.0
  9
$DIMEXE
 40
0.18
  9
$DIMTP
 40
0.0
  9
$DIMTM
 40
0.0
  9
$DIMTXT
 40
0.18
  9
$DIMCEN
 40
0.09
  9
$DIMTSZ
 40
0.0
  9
$DIMTOL
 70
     0
  9
$DIMLIM
 70
     0
  9
$DIMTIH
 70
     1
  9
$DIMTOH
 70
     1
  9
$DIMSE1
 70
     0
  9
$DIMSE2
 70
     0
  9
$DIMTAD
 70
     0
  9
$DIMZIN
 70
     0
  9
$DIMBLK
  1

  9
$DIMASO
 70
     1
  9
$DIMSHO
 70
     1
  9
$DIMPOST
  1

  9
$DIMAPOST
  1

  9
$DIMALT
 70
     0
  9
$DIMALTD
 70
     2
  9
$DIMALTF
 40
25.4
  9
$DIMLFAC
 40
1.0
  9
$DIMTOFL
 70
     0
  9
$DIMTVP
 40
0.0
  9
$DIMTIX
 70
     0
  9
$DIMSOXD
 70
     0
  9
$DIMSAH
 70
     0
  9
$DIMBLK1
  1

  9
$DIMBLK2
  1

  9
$DIMSTYLE
  2
STANDARD
  9
$DIMCLRD
 70
     0
  9
$DIMCLRE
 70
     0
  9
$DIMCLRT
 70
     0
  9
$DIMTFAC
 40
1.0
  9
$DIMGAP
 40
0.09
  9
$DIMJUST
 70
     0
  9
$DIMSD1
 70
     0
  9
$DIMSD2
 70
     0
  9
$DIMTOLJ
 70
     1
  9
$DIMTZIN
 70
     0
  9
$DIMALTZ
 70
     0
  9
$DIMALTTZ
 70
     0
  9
$DIMFIT
 70
     3
  9
$DIMUPT
 70
     0
  9
$DIMUNIT
 70
     2
  9
$DIMDEC
 70
     4
  9
$DIMTDEC
 70
     4
  9
$DIMALTU
 70
     2
  9
$DIMALTTD
 70
     2
  9
$DIMTXSTY
  7
STANDARD
  9
$DIMAUNIT
 70
     0
  9
$LUNITS
 70
     2
  9
$LUPREC
 70
     4
  9
$SKETCHINC
 40
0.1
  9
$FILLETRAD
 40
0.0
  9
$AUNITS
 70
     0
  9
$AUPREC
 70
     0
  9
$MENU
  1
ACAD
  9
$ELEVATION
 40
0.0
  9
$PELEVATION
 40
0.0
  9
$THICKNESS
 40
0.0
  9
$LIMCHECK
 70
     0
  9
$BLIPMODE
 70
     1
  9
$CHAMFERA
 40
0.0
  9
$CHAMFERB
 40
0.0
  9
$CHAMFERC
 40
0.0
  9
$CHAMFERD
 40
0.0
  9
$SKPOLY
 70
     0
  9
$TDCREATE
 40
2453482.000000000
  9
$TDUPDATE
 40
2453516.439162129
  9
$TDINDWG
 40
0.0004970139
  9
$TDUSRTIMER
 40
0.0004968981
  9
$USRTIMER
 70
     1
  9
$ANGBASE
 50
0.0
  9
$ANGDIR
 70
     0
  9
$PDMODE
 70
     0
  9
$PDSIZE
 40
0.0
  9
$PLINEWID
 40
0.0
  9
$COORDS
 70
     0
  9
$SPLFRAME
 70
     0
  9
$SPLINETYPE
 70
     6
  9
$SPLINESEGS
 70
     8
  9
$ATTDIA
 70
     0
  9
$ATTREQ
 70
     1
  9
$HANDLING
 70
-16383
  9
$HANDSEED
  5
22D
  9
$SURFTAB1
 70
     6
  9
$SURFTAB2
 70
     6
  9
$SURFTYPE
 70
     6
  9
$SURFU
 70
     6
  9
$SURFV
 70
     6
  9
$UCSNAME
  2

  9
$UCSORG
 10
0.0
 20
0.0
 30
0.0
  9
$UCSXDIR
 10
1.0
 20
0.0
 30
0.0
  9
$UCSYDIR
 10
0.0
 20
1.0
 30
0.0
  9
$PUCSNAME
  2

  9
$PUCSORG
 10
0.0
 20
0.0
 30
0.0
  9
$PUCSXDIR
 10
1.0
 20
0.0
 30
0.0
  9
$PUCSYDIR
 10
0.0
 20
1.0
 30
0.0
  9
$USERI1
 70
     0
  9
$USERI2
 70
     0
  9
$USERI3
 70
     0
  9
$USERI4
 70
     0
  9
$USERI5
 70
     0
  9
$USERR1
 40
0.0
  9
$USERR2
 40
0.0
  9
$USERR3
 40
0.0
  9
$USERR4
 40
0.0
  9
$USERR5
 40
0.0
  9
$WORLDVIEW
 70
     1
  9
$SHADEDGE
 70
     3
  9
$SHADEDIF
 70
    70
  9
$TILEMODE
 70
     1
  9
$MAXACTVP
 70
    64
  9
$PINSBASE
 10
0.0
 20
0.0
 30
0.0
  9
$PLIMCHECK
 70
     0
  9
$PEXTMIN
 10
1.000000000000000E+20
 20
1.000000000000000E+20
 30
1.000000000000000E+20
  9
$PEXTMAX
 10
-1.000000000000000E+20
 20
-1.000000000000000E+20
 30
-1.000000000000000E+20
  9
$PLIMMIN
 10
0.0
 20
0.0
  9
$PLIMMAX
 10
12.0
 20
9.0
  9
$UNITMODE
 70
     0
  9
$VISRETAIN
 70
     1
  9
$PLINEGEN
 70
     0
  9
$PSLTSCALE
 70
     1
  9
$TREEDEPTH
 70
  3020
  9
$PICKSTYLE
 70
     3
  9
$CMLSTYLE
  2
STANDARD
  9
$CMLJUST
 70
     0
  9
$CMLSCALE
 40
1.0
  9
$SAVEIMAGES
 70
     1
  0
ENDSEC
  0
SECTION
  2
CLASSES
  0
CLASS
  1
ACDBDICTIONARYWDFLT
  2
AcDbDictionaryWithDefault
  3
AutoCAD 2000
 90
    32768
280
     0
281
     0
  0
CLASS
  1
ACDBPLACEHOLDER
  2
AcDbPlaceHolder
  3
AutoCAD 2000
 90
    32768
280
     0
281
     0
  0
CLASS
  1
LAYOUT
  2
AcDbLayout
  3
AutoCAD 2000
 90
    32768
280
     0
281
     0
  0
CLASS
  1
DICTIONARYVAR
  2
AcDbDictionaryVar
  3
AutoCAD 2000
 90
    32768
280
     0
281
     0
  0
CLASS
  1
LONG_TRANSACTION
  2
AcDbLongTransaction
  3
AutoCAD 2000
 90
    32768
280
     0
281
     0
  0
CLASS
  1
LWPOLYLINE
  2
AcDbPolyline
  3
AutoCAD 2000
 90
    32768
280
     0
281
     1
  0
CLASS
  1
HATCH
  2
AcDbHatch
  3
AutoCAD 2000
 90
    32768
280
     0
281
     1
  0
CLASS
  1
XRECORD
  2
AcDbXrecord
  3
AutoCAD 2000
 90
    32768
280
     0
281
     0
  0
CLASS
  1
LONG_TRANSACTION
  2
AcDbLongTransaction
  3
AutoCAD 2000
 90
    32768
280
     0
281
     0
  0
CLASS
  1
LWPOLYLINE
  2
AcDbPolyline
  3
AutoCAD 2000
 90
    32768
280
     0
281
     1
  0
CLASS
  1
HATCH
  2
AcDbHatch
  3
AutoCAD 2000
 90
    32768
280
     0
281
     1
  0
CLASS
  1
XRECORD
  2
AcDbXrecord
  3
AutoCAD 2000
 90
    32768
280
     0
281
     0
  0
ENDSEC
  0
SECTION
  2
TABLES
  0
TABLE
  2
VPORT
  5
8
330
0
100
AcDbSymbolTable
 70
     2
  0
VPORT
  5
22A
330
8
100
AcDbSymbolTableRecord
100
AcDbViewportTableRecord
  2
*ACTIVE
 70
     0
 10
0.0
 20
0.0
 11
1.0
 21
1.0
 12
202.5018320238472
 22
138.9944235930387
 13
0.0
 23
0.0
 14
1.0
 24
1.0
 15
0.0
 25
0.0
 16
0.0
 26
0.0
 36
1.0
 17
0.0
 27
0.0
 37
0.0
 40
274.0676578806492
 41
1.510025062656641
 42
50.0
 43
0.0
 44
0.0
 50
0.0
 51
0.0
 71
     0
 72
   100
 73
     1
 74
     1
 75
     0
 76
     0
 77
     0
 78
     0
  0
ENDTAB
  0
TABLE
  2
LTYPE
  5
5
330
0
100
AcDbSymbolTable
 70
     3
  0
LTYPE
  5
13
330
5
100
AcDbSymbolTableRecord
100
AcDbLinetypeTableRecord
  2
BYBLOCK
 70
     0
  3

 72
    65
 73
     0
 40
0.0
  0
LTYPE
  5
14
330
5
100
AcDbSymbolTableRecord
100
AcDbLinetypeTableRecord
  2
BYLAYER
 70
     0
  3

 72
    65
 73
     0
 40
0.0
  0
LTYPE
  5
15
330
5
100
AcDbSymbolTableRecord
100
AcDbLinetypeTableRecord
  2
CONTINUOUS
 70
     0
  3
Solid line
 72
    65
 73
     0
 40
0.0
  0
LTYPE
  5
25
330
5
100
AcDbSymbolTableRecord
100
AcDbLinetypeTableRecord
  2
DOT
 70
     0
  3
...............................................
 72
    65
 73
     2
 40
0.25
 49
0.0
 74
     0
 49
-0.25
 74
     0
  0
LTYPE
  5
28
330
5
100
AcDbSymbolTableRecord
100
AcDbLinetypeTableRecord
  2
CENTER
 70
     0
  3
____ _ ____ _ ____ _ ____ _ ____ _ ____ _ ____ 
 72
    65
 73
     4
 40
2.0
 49
1.25
 74
     0
 49
-0.25
 74
     0
 49
0.25
 74
     0
 49
-0.25
 74
     0
  0
ENDTAB
  0
TABLE
  2
LAYER
  5
2
330
0
100
AcDbSymbolTable
 70
     3
  0
LAYER
  5
10
330
2
100
AcDbSymbolTableRecord
100
AcDbLayerTableRecord
  2
0
 70
     0
 62
     7
  6
CONTINUOUS
  0
LAYER
  5
22
330
2
100
AcDbSymbolTableRecord
100
AcDbLayerTableRecord
  2
CSLAYER1
 70
     0
 62
     7
  6
CONTINUOUS
  0
LAYER
  5
20F
330
2
100
AcDbSymbolTableRecord
100
AcDbLayerTableRecord
  2
DEFPOINTS
 70
     0
 62
     7
  6
CONTINUOUS
  0
ENDTAB
  0
TABLE
  2
STYLE
  5
3
330
0
100
AcDbSymbolTable
 70
     3
  0
STYLE
  5
11
330
3
100
AcDbSymbolTableRecord
100
AcDbTextStyleTableRecord
  2
STANDARD
 70
     0
 40
0.0
 41
1.0
 50
0.0
 71
     0
 42
0.2
  3
txt
  4
extfont.shx
  0
STYLE
  5
3A
330
3
100
AcDbSymbolTableRecord
100
AcDbTextStyleTableRecord
  2
FX_FONT
 70
     0
 40
1.0
 41
1.0
 50
0.0
 71
     0
 42
1.0
  3
monotxt
  4
bigfont
  0
STYLE
  5
207
330
3
100
AcDbSymbolTableRecord
100
AcDbTextStyleTableRecord
  2
GOTHIC
 70
     0
 40
0.0
 41
1.0
 50
0.0
 71
     0
 42
0.2
  3
txt.shx
  4
extfont.shx
  0
ENDTAB
  0
TABLE
  2
VIEW
  5
6
330
0
100
AcDbSymbolTable
 70
     0
  0
ENDTAB
  0
TABLE
  2
UCS
  5
7
330
0
100
AcDbSymbolTable
 70
     0
  0
ENDTAB
  0
TABLE
  2
APPID
  5
9
330
0
100
AcDbSymbolTable
 70
     1
  0
APPID
  5
12
330
9
100
AcDbSymbolTableRecord
100
AcDbRegAppTableRecord
  2
ACAD
 70
     0
  0
ENDTAB
  0
TABLE
  2
DIMSTYLE
  5
A
330
0
100
AcDbSymbolTable
 70
     1
  0
DIMSTYLE
105
204
330
A
100
AcDbSymbolTableRecord
100
AcDbDimStyleTableRecord
  2
STANDARD
 70
     0
  3

  4

  5

  6

  7

 40
1.0
 41
0.18
 42
0.0625
 43
0.38
 44
0.18
 45
0.0
 46
0.0
 47
0.0
 48
0.0
140
0.18
141
0.09
142
0.0
143
25.4
144
1.0
145
0.0
146
1.0
147
0.09
 71
     0
 72
     0
 73
     1
 74
     1
 75
     0
 76
     0
 77
     0
 78
     0
170
     0
171
     2
172
     0
173
     0
174
     0
175
     0
176
     0
177
     0
178
     0
270
     2
271
     4
272
     4
273
     2
274
     2
340
11
275
     0
280
     0
281
     0
282
     0
283
     1
284
     0
285
     0
286
     0
287
     3
288
     0
  0
ENDTAB
  0
TABLE
  2
BLOCK_RECORD
  5
1
330
0
100
AcDbSymbolTable
 70
    18
  0
BLOCK_RECORD
  5
1E
102
{ACAD_XDICTIONARY
360
20D
102
}
330
1
100
AcDbSymbolTableRecord
100
AcDbBlockTableRecord
  2
*MODEL_SPACE
  0
BLOCK_RECORD
  5
1A
102
{ACAD_XDICTIONARY
360
20B
102
}
330
1
100
AcDbSymbolTableRecord
100
AcDbBlockTableRecord
  2
*PAPER_SPACE
  0
BLOCK_RECORD
  5
3F
330
1
100
AcDbSymbolTableRecord
100
AcDbBlockTableRecord
  2
FXDIM0000
  0
BLOCK_RECORD
  5
47
330
1
100
AcDbSymbolTableRecord
100
AcDbBlockTableRecord
  2
*D1
  0
BLOCK_RECORD
  5
52
330
1
100
AcDbSymbolTableRecord
100
AcDbBlockTableRecord
  2
FXDIM0001
  0
BLOCK_RECORD
  5
5A
330
1
100
AcDbSymbolTableRecord
100
AcDbBlockTableRecord
  2
*D3
  0
BLOCK_RECORD
  5
65
330
1
100
AcDbSymbolTableRecord
100
AcDbBlockTableRecord
  2
*D4
  0
BLOCK_RECORD
  5
70
330
1
100
AcDbSymbolTableRecord
100
AcDbBlockTableRecord
  2
FXDIM0002
  0
BLOCK_RECORD
  5
78
330
1
100
AcDbSymbolTableRecord
100
AcDbBlockTableRecord
  2
*D6
  0
BLOCK_RECORD
  5
83
330
1
100
AcDbSymbolTableRecord
100
AcDbBlockTableRecord
  2
*D7
  0
BLOCK_RECORD
  5
8E
330
1
100
AcDbSymbolTableRecord
100
AcDbBlockTableRecord
  2
*D8
  0
BLOCK_RECORD
  5
98
330
1
100
AcDbSymbolTableRecord
100
AcDbBlockTableRecord
  2
*D9
  0
BLOCK_RECORD
  5
A4
330
1
100
AcDbSymbolTableRecord
100
AcDbBlockTableRecord
  2
*D10
  0
BLOCK_RECORD
  5
AE
330
1
100
AcDbSymbolTableRecord
100
AcDbBlockTableRecord
  2
*D11
  0
BLOCK_RECORD
  5
B9
330
1
100
AcDbSymbolTableRecord
100
AcDbBlockTableRecord
  2
*D12
  0
BLOCK_RECORD
  5
C4
330
1
100
AcDbSymbolTableRecord
100
AcDbBlockTableRecord
  2
FXDIM0003
  0
BLOCK_RECORD
  5
CB
330
1
100
AcDbSymbolTableRecord
100
AcDbBlockTableRecord
  2
*D14
  0
BLOCK_RECORD
  5
D2
330
1
100
AcDbSymbolTableRecord
100
AcDbBlockTableRecord
  2
*D15
  0
BLOCK_RECORD
  5
DD
330
1
100
AcDbSymbolTableRecord
100
AcDbBlockTableRecord
  2
*D16
  0
BLOCK_RECORD
  5
210
330
1
100
AcDbSymbolTableRecord
100
AcDbBlockTableRecord
  2
*D17
  0
ENDTAB
  0
ENDSEC
  0
SECTION
  2
BLOCKS
  0
BLOCK
  5
1F
330
1E
100
AcDbEntity
  8
0
100
AcDbBlockBegin
  2
*MODEL_SPACE
 70
     0
 10
0.0
 20
0.0
 30
0.0
  3
*MODEL_SPACE
  1

  0
ENDBLK
  5
20
330
1E
100
AcDbEntity
  8
0
100
AcDbBlockEnd
  0
BLOCK
  5
1B
330
1A
100
AcDbEntity
 67
     1
  8
0
100
AcDbBlockBegin
  2
*PAPER_SPACE
 70
     0
 10
0.0
 20
0.0
 30
0.0
  3
*PAPER_SPACE
  1

  0
ENDBLK
  5
1C
330
1A
100
AcDbEntity
 67
     1
  8
0
100
AcDbBlockEnd
  0
BLOCK
  5
40
330
3F
100
AcDbEntity
  8
0
100
AcDbBlockBegin
  2
FXDIM0000
 70
     0
 10
0.0
 20
0.0
 30
0.0
  3
FXDIM0000
  1

  0
LINE
  5
41
330
3F
100
AcDbEntity
  8
CSLAYER1
  6
CONTINUOUS
 62
     4
100
AcDbLine
 10
310.335206
 20
162.9592519999999
 30
0.0
 11
303.3003009999998
 21
140.631544
 31
0.0
  0
LINE
  5
42
330
3F
100
AcDbEntity
  8
CSLAYER1
  6
CONTINUOUS
 62
     4
100
AcDbLine
 10
310.335206
 20
162.9592519999999
 30
0.0
 11
310.204958
 21
159.962081
 31
0.0
  0
LINE
  5
43
330
3F
100
AcDbEntity
  8
CSLAYER1
  6
CONTINUOUS
 62
     4
100
AcDbLine
 10
310.335206
 20
162.9592519999999
 30
0.0
 11
308.723822
 21
160.42875
 31
0.0
  0
LINE
  5
44
330
3F
100
AcDbEntity
  8
CSLAYER1
  6
CONTINUOUS
 62
     4
100
AcDbLine
 10
303.3003009999998
 20
140.631544
 30
0.0
 11
327.700302
 21
140.631544
 31
0.0
  0
TEXT
  5
45
330
3F
100
AcDbEntity
  8
CSLAYER1
 62
     4
100
AcDbText
 10
304.300293
 20
141.1315459999999
 30
0.0
 40
3.2
  1
M5ネジ深１２
 41
0.9210526315789488
 51
15.0
  7
FX_FONT
 72
     5
 11
326.700293
 21
141.1315459999999
 31
0.0
100
AcDbText
  0
ENDBLK
  5
46
330
3F
100
AcDbEntity
  8
0
100
AcDbBlockEnd
  0
BLOCK
  5
48
330
47
100
AcDbEntity
  8
0
100
AcDbBlockBegin
  2
*D1
 70
     1
 10
0.0
 20
0.0
 30
0.0
  3
*D1
  1

  0
TEXT
  5
49
330
47
100
AcDbEntity
  8
CSLAYER1
 62
     4
100
AcDbText
 10
361.9993589999998
 20
172.750302
 30
0.0
 40
3.2
  1
36
 50
90.0
 41
1.200000000000001
 51
15.0
  7
FX_FONT
 72
     5
 11
361.9993589999998
 21
179.150302
 31
0.0
100
AcDbText
  0
LINE
  5
4A
330
47
100
AcDbEntity
  8
CSLAYER1
  6
CONTINUOUS
 62
     4
100
AcDbLine
 10
336.193087
 20
157.9502989999999
 30
0.0
 11
363.499381
 21
157.9502989999999
 31
0.0
  0
LINE
  5
4B
330
47
100
AcDbEntity
  8
CSLAYER1
  6
CONTINUOUS
 62
     4
100
AcDbLine
 10
336.193087
 20
193.950299
 30
0.0
 11
363.499381
 21
193.950299
 31
0.0
  0
LINE
  5
4C
330
47
100
AcDbEntity
  8
CSLAYER1
  6
CONTINUOUS
 62
     4
100
AcDbLine
 10
362.499381
 20
157.9502989999999
 30
0.0
 11
362.499381
 21
193.950299
 31
0.0
  0
LINE
  5
4D
330
47
100
AcDbEntity
  8
CSLAYER1
  6
CONTINUOUS
 62
     4
100
AcDbLine
 10
362.499381
 20
157.9502989999999
 30
0.0
 11
361.722924
 21
160.8480759999999
 31
0.0
  0
LINE
  5
4E
330
47
100
AcDbEntity
  8
CSLAYER1
  6
CONTINUOUS
 62
     4
100
AcDbLine
 10
362.499381
 20
157.9502989999999
 30
0.0
 11
363.275839
 21
160.8480759999999
 31
0.0
  0
LINE
  5
4F
330
47
100
AcDbEntity
  8
CSLAYER1
  6
CONTINUOUS
 62
     4
100
AcDbLine
 10
362.499381
 20
193.950299
 30
0.0
 11
361.722924
 21
191.052522
 31
0.0
  0
LINE
  5
50
330
47
100
AcDbEntity
  8
CSLAYER1
  6
CONTINUOUS
 62
     4
100
AcDbLine
 10
362.499381
 20
193.950299
 30
0.0
 11
363.275839
 21
191.052522
 31
0.0
  0
ENDBLK
  5
51
330
47
100
AcDbEntity
  8
0
100
AcDbBlockEnd
  0
BLOCK
  5
53
330
52
100
AcDbEntity
  8
0
100
AcDbBlockBegin
  2
FXDIM0001
 70
     0
 10
0.0
 20
0.0
 30
0.0
  3
FXDIM0001
  1

  0
LINE
  5
54
330
52
100
AcDbEntity
  8
CSLAYER1
  6
CONTINUOUS
 62
     4
100
AcDbLine
 10
323.8557339999998
 20
180.1794199999999
 30
0.0
 11
335.411451
 21
209.3064299999999
 31
0.0
  0
LINE
  5
55
330
52
100
AcDbEntity
  8
CSLAYER1
  6
CONTINUOUS
 62
     4
100
AcDbLine
 10
323.8557339999998
 20
180.1794199999999
 30
0.0
 11
324.202625
 21
183.159297
 31
0.0
  0
LINE
  5
56
330
52
100
AcDbEntity
  8
CSLAYER1
  6
CONTINUOUS
 62
     4
100
AcDbLine
 10
323.8557339999998
 20
180.1794199999999
 30
0.0
 11
325.6460879999999
 21
182.586623
 31
0.0
  0
LINE
  5
57
330
52
100
AcDbEntity
  8
CSLAYER1
  6
CONTINUOUS
 62
     4
100
AcDbLine
 10
335.411451
 20
209.3064299999999
 30
0.0
 11
359.8114509999998
 21
209.3064299999999
 31
0.0
  0
TEXT
  5
58
330
52
100
AcDbEntity
  8
CSLAYER1
 62
     4
100
AcDbText
 10
336.4114499999999
 20
209.806427
 30
0.0
 40
3.2
  1
Rc1/8ネジ
 41
0.9813084112149519
 51
15.0
  7
FX_FONT
 72
     5
 11
358.8114499999998
 21
209.806427
 31
0.0
100
AcDbText
  0
ENDBLK
  5
59
330
52
100
AcDbEntity
  8
0
100
AcDbBlockEnd
  0
BLOCK
  5
5B
330
5A
100
AcDbEntity
  8
0
100
AcDbBlockBegin
  2
*D3
 70
     1
 10
0.0
 20
0.0
 30
0.0
  3
*D3
  1

  0
TEXT
  5
5C
330
5A
100
AcDbEntity
  8
CSLAYER1
 62
     4
100
AcDbText
 10
291.7937589999999
 20
158.3701269999999
 30
0.0
 40
3.2
  1
45%%d
 50
112.5000014414545
 41
1.285714224875633
 51
15.0
  7
FX_FONT
 72
     5
 11
288.119998
 21
167.23937
 31
0.0
100
AcDbText
  0
ARC
  5
5D
330
5A
100
AcDbEntity
  8
CSLAYER1
  6
CONTINUOUS
 62
     4
100
AcDbCircle
 10
321.693087
 20
175.950299
 30
0.0
 40
33.85100399999998
100
AcDbArc
 50
180.0
 51
225.0
  0
LINE
  5
5E
330
5A
100
AcDbEntity
  8
CSLAYER1
  6
CONTINUOUS
 62
     4
100
AcDbLine
 10
287.842084
 20
175.950299
 30
0.0
 11
287.0656269999999
 21
173.052522
 31
0.0
  0
LINE
  5
5F
330
5A
100
AcDbEntity
  8
CSLAYER1
  6
CONTINUOUS
 62
     4
100
AcDbLine
 10
287.842084
 20
175.950299
 30
0.0
 11
288.6185409999999
 21
173.052522
 31
0.0
  0
LINE
  5
60
330
5A
100
AcDbEntity
  8
CSLAYER1
  6
CONTINUOUS
 62
     4
100
AcDbLine
 10
297.7568129999998
 20
152.014025
 30
0.0
 11
295.158737
 21
153.5140249999999
 31
0.0
  0
LINE
  5
61
330
5A
100
AcDbEntity
  8
CSLAYER1
  6
CONTINUOUS
 62
     4
100
AcDbLine
 10
297.7568129999998
 20
152.014025
 30
0.0
 11
296.2568129999999
 21
154.612101
 31
0.0
  0
LINE
  5
62
330
5A
100
AcDbEntity
  8
CSLAYER1
  6
CONTINUOUS
 62
     4
100
AcDbLine
 10
292.919906
 20
175.950299
 30
0.0
 11
286.842084
 21
175.950299
 31
0.0
  0
LINE
  5
63
330
5A
100
AcDbEntity
  8
CSLAYER1
  6
CONTINUOUS
 62
     4
100
AcDbLine
 10
307.314374
 20
161.5715859999999
 30
0.0
 11
297.0497059999999
 21
151.306918
 31
0.0
  0
ENDBLK
  5
64
330
5A
100
AcDbEntity
  8
0
100
AcDbBlockEnd
  0
BLOCK
  5
66
330
65
100
AcDbEntity
  8
0
100
AcDbBlockBegin
  2
*D4
 70
     1
 10
0.0
 20
0.0
 30
0.0
  3
*D4
  1

  0
TEXT
  5
67
330
65
100
AcDbEntity
  8
CSLAYER1
 62
     4
100
AcDbText
 10
296.152338
 20
197.466787
 30
0.0
 40
3.2
  1
30
 50
44.28562697234403
 41
1.200000092940029
 51
15.0
  7
FX_FONT
 72
     5
 11
300.733893
 21
201.935496
 31
0.0
100
AcDbText
  0
LINE
  5
68
330
65
100
AcDbEntity
  8
CSLAYER1
  6
CONTINUOUS
 62
     4
100
AcDbLine
 10
288.0533769999999
 20
188.868857
 30
0.0
 11
309.5310859999999
 21
209.8175549999999
 31
0.0
  0
LINE
  5
69
330
65
100
AcDbEntity
  8
CSLAYER1
  6
CONTINUOUS
 62
     4
100
AcDbLine
 10
288.0533769999999
 20
188.868857
 30
0.0
 11
289.5856529999998
 21
191.448029
 31
0.0
  0
LINE
  5
6A
330
65
100
AcDbEntity
  8
CSLAYER1
  6
CONTINUOUS
 62
     4
100
AcDbLine
 10
288.0533769999999
 20
188.868857
 30
0.0
 11
290.669954
 21
190.3363479999999
 31
0.0
  0
LINE
  5
6B
330
65
100
AcDbEntity
  8
CSLAYER1
  6
CONTINUOUS
 62
     4
100
AcDbLine
 10
309.5310859999999
 20
209.8175549999999
 30
0.0
 11
307.99881
 21
207.238383
 31
0.0
  0
LINE
  5
6C
330
65
100
AcDbEntity
  8
CSLAYER1
  6
CONTINUOUS
 62
     4
100
AcDbLine
 10
309.5310859999999
 20
209.8175549999999
 30
0.0
 11
306.91451
 21
208.3500649999999
 31
0.0
  0
LINE
  5
6D
330
65
100
AcDbEntity
  8
CSLAYER1
  6
CONTINUOUS
 62
     4
100
AcDbLine
 10
306.840293
 20
169.6075219999999
 30
0.0
 11
287.355142
 21
189.5847249999999
 31
0.0
  0
LINE
  5
6E
330
65
100
AcDbEntity
  8
CSLAYER1
  6
CONTINUOUS
 62
     4
100
AcDbLine
 10
328.3180019999998
 20
190.556221
 30
0.0
 11
308.83285
 21
210.5334229999999
 31
0.0
  0
ENDBLK
  5
6F
330
65
100
AcDbEntity
  8
0
100
AcDbBlockEnd
  0
BLOCK
  5
71
330
70
100
AcDbEntity
  8
0
100
AcDbBlockBegin
  2
FXDIM0002
 70
     0
 10
0.0
 20
0.0
 30
0.0
  3
FXDIM0002
  1

  0
LINE
  5
72
330
70
100
AcDbEntity
  8
CSLAYER1
  6
CONTINUOUS
 62
     4
100
AcDbLine
 10
237.176772
 20
186.002848
 30
0.0
 11
255.542049
 21
211.3924899999999
 31
0.0
  0
LINE
  5
73
330
70
100
AcDbEntity
  8
CSLAYER1
  6
CONTINUOUS
 62
     4
100
AcDbLine
 10
237.176772
 20
186.002848
 30
0.0
 11
238.245989
 21
188.8058419999999
 31
0.0
  0
LINE
  5
74
330
70
100
AcDbEntity
  8
CSLAYER1
  6
CONTINUOUS
 62
     4
100
AcDbLine
 10
237.176772
 20
186.002848
 30
0.0
 11
239.504238
 21
187.8957039999999
 31
0.0
  0
LINE
  5
75
330
70
100
AcDbEntity
  8
CSLAYER1
  6
CONTINUOUS
 62
     4
100
AcDbLine
 10
255.542049
 20
211.3924899999999
 30
0.0
 11
279.942049
 21
211.3924899999999
 31
0.0
  0
TEXT
  5
76
330
70
100
AcDbEntity
  8
CSLAYER1
 62
     4
100
AcDbText
 10
256.5420649999999
 20
211.892487
 30
0.0
 40
3.2
  1
Rc1/8ネジ
 41
0.9813084550233684
 51
15.0
  7
FX_FONT
 72
     5
 11
278.942066
 21
211.892487
 31
0.0
100
AcDbText
  0
ENDBLK
  5
77
330
70
100
AcDbEntity
  8
0
100
AcDbBlockEnd
  0
BLOCK
  5
79
330
78
100
AcDbEntity
  8
0
100
AcDbBlockBegin
  2
*D6
 70
     1
 10
0.0
 20
0.0
 30
0.0
  3
*D6
  1

  0
TEXT
  5
7A
330
78
100
AcDbEntity
  8
CSLAYER1
 62
     4
100
AcDbText
 10
101.86615
 20
79.504581
 30
0.0
 40
3.2
  1
%%c45
 50
90.0
 41
1.125000000000002
 51
15.0
  7
FX_FONT
 72
     5
 11
101.86615
 21
89.10458100000003
 31
0.0
100
AcDbText
  0
LINE
  5
7B
330
78
100
AcDbEntity
  8
CSLAYER1
  6
CONTINUOUS
 62
     4
100
AcDbLine
 10
102.366143
 20
61.804585
 30
0.0
 11
102.366143
 21
106.804585
 31
0.0
  0
LINE
  5
7C
330
78
100
AcDbEntity
  8
CSLAYER1
  6
CONTINUOUS
 62
     4
100
AcDbLine
 10
102.366143
 20
61.804585
 30
0.0
 11
101.589686
 21
64.70236199999999
 31
0.0
  0
LINE
  5
7D
330
78
100
AcDbEntity
  8
CSLAYER1
  6
CONTINUOUS
 62
     4
100
AcDbLine
 10
102.366143
 20
61.804585
 30
0.0
 11
103.1425999999999
 21
64.70236199999999
 31
0.0
  0
LINE
  5
7E
330
78
100
AcDbEntity
  8
CSLAYER1
  6
CONTINUOUS
 62
     4
100
AcDbLine
 10
102.366143
 20
106.804585
 30
0.0
 11
101.589686
 21
103.906807
 31
0.0
  0
LINE
  5
7F
330
78
100
AcDbEntity
  8
CSLAYER1
  6
CONTINUOUS
 62
     4
100
AcDbLine
 10
102.366143
 20
106.804585
 30
0.0
 11
103.1425999999999
 21
103.906807
 31
0.0
  0
LINE
  5
80
330
78
100
AcDbEntity
  8
CSLAYER1
  6
CONTINUOUS
 62
     4
100
AcDbLine
 10
145.014126
 20
61.804585
 30
0.0
 11
101.366143
 21
61.804585
 31
0.0
  0
LINE
  5
81
330
78
100
AcDbEntity
  8
CSLAYER1
  6
CONTINUOUS
 62
     4
100
AcDbLine
 10
145.014126
 20
106.804585
 30
0.0
 11
101.366143
 21
106.804585
 31
0.0
  0
ENDBLK
  5
82
330
78
100
AcDbEntity
  8
0
100
AcDbBlockEnd
  0
BLOCK
  5
84
330
83
100
AcDbEntity
  8
0
100
AcDbBlockBegin
  2
*D7
 70
     1
 10
0.0
 20
0.0
 30
0.0
  3
*D7
  1

  0
TEXT
  5
85
330
83
100
AcDbEntity
  8
CSLAYER1
 62
     4
100
AcDbText
 10
165.71413
 20
223.035568
 30
0.0
 40
3.2
  1
109
 41
1.124999999999999
 51
15.0
  7
FX_FONT
 72
     5
 11
175.31413
 21
223.035568
 31
0.0
100
AcDbText
  0
LINE
  5
86
330
83
100
AcDbEntity
  8
CSLAYER1
  6
CONTINUOUS
 62
     4
100
AcDbLine
 10
116.014126
 20
222.535568
 30
0.0
 11
225.0141259999999
 21
222.535568
 31
0.0
  0
LINE
  5
87
330
83
100
AcDbEntity
  8
CSLAYER1
  6
CONTINUOUS
 62
     4
100
AcDbLine
 10
116.014126
 20
222.535568
 30
0.0
 11
118.911904
 21
223.312025
 31
0.0
  0
LINE
  5
88
330
83
100
AcDbEntity
  8
CSLAYER1
  6
CONTINUOUS
 62
     4
100
AcDbLine
 10
116.014126
 20
222.535568
 30
0.0
 11
118.911904
 21
221.7591109999999
 31
0.0
  0
LINE
  5
89
330
83
100
AcDbEntity
  8
CSLAYER1
  6
CONTINUOUS
 62
     4
100
AcDbLine
 10
225.0141259999999
 20
222.535568
 30
0.0
 11
222.116349
 21
223.312025
 31
0.0
  0
LINE
  5
8A
330
83
100
AcDbEntity
  8
CSLAYER1
  6
CONTINUOUS
 62
     4
100
AcDbLine
 10
225.0141259999999
 20
222.535568
 30
0.0
 11
222.116349
 21
221.7591109999999
 31
0.0
  0
LINE
  5
8B
330
83
100
AcDbEntity
  8
CSLAYER1
  6
CONTINUOUS
 62
     4
100
AcDbLine
 10
116.014126
 20
184.9502989999999
 30
0.0
 11
116.014126
 21
223.535568
 31
0.0
  0
LINE
  5
8C
330
83
100
AcDbEntity
  8
CSLAYER1
  6
CONTINUOUS
 62
     4
100
AcDbLine
 10
225.0141259999999
 20
199.4502989999999
 30
0.0
 11
225.0141259999999
 21
223.535568
 31
0.0
  0
ENDBLK
  5
8D
330
83
100
AcDbEntity
  8
0
100
AcDbBlockEnd
  0
BLOCK
  5
8F
330
8E
100
AcDbEntity
  8
0
100
AcDbBlockBegin
  2
*D8
 70
     1
 10
0.0
 20
0.0
 30
0.0
  3
*D8
  1

  0
TEXT
  5
90
330
8E
100
AcDbEntity
  8
CSLAYER1
 62
     4
100
AcDbText
 10
231.8141299999999
 20
223.035568
 30
0.0
 40
3.2
  1
20
 41
1.200000000000001
 51
15.0
  7
FX_FONT
 72
     5
 11
238.2141299999999
 21
223.035568
 31
0.0
100
AcDbText
  0
LINE
  5
91
330
8E
100
AcDbEntity
  8
CSLAYER1
  6
CONTINUOUS
 62
     4
100
AcDbLine
 10
225.0141259999999
 20
222.535568
 30
0.0
 11
245.0141259999999
 21
222.535568
 31
0.0
  0
LINE
  5
92
330
8E
100
AcDbEntity
  8
CSLAYER1
  6
CONTINUOUS
 62
     4
100
AcDbLine
 10
225.0141259999999
 20
222.535568
 30
0.0
 11
227.9119039999999
 21
223.312025
 31
0.0
  0
LINE
  5
93
330
8E
100
AcDbEntity
  8
CSLAYER1
  6
CONTINUOUS
 62
     4
100
AcDbLine
 10
225.0141259999999
 20
222.535568
 30
0.0
 11
227.9119039999999
 21
221.7591109999999
 31
0.0
  0
LINE
  5
94
330
8E
100
AcDbEntity
  8
CSLAYER1
  6
CONTINUOUS
 62
     4
100
AcDbLine
 10
245.0141259999999
 20
222.535568
 30
0.0
 11
242.116349
 21
223.312025
 31
0.0
  0
LINE
  5
95
330
8E
100
AcDbEntity
  8
CSLAYER1
  6
CONTINUOUS
 62
     4
100
AcDbLine
 10
245.0141259999999
 20
222.535568
 30
0.0
 11
242.116349
 21
221.7591109999999
 31
0.0
  0
LINE
  5
96
330
8E
100
AcDbEntity
  8
CSLAYER1
  6
CONTINUOUS
 62
     4
100
AcDbLine
 10
245.0141259999999
 20
193.450299
 30
0.0
 11
245.0141259999999
 21
223.535568
 31
0.0
  0
ENDBLK
  5
97
330
8E
100
AcDbEntity
  8
0
100
AcDbBlockEnd
  0
BLOCK
  5
99
330
98
100
AcDbEntity
  8
0
100
AcDbBlockBegin
  2
*D9
 70
     1
 10
0.0
 20
0.0
 30
0.0
  3
*D9
  1

  0
TEXT
  5
9A
330
98
100
AcDbEntity
  8
CSLAYER1
 62
     4
100
AcDbText
 10
116.045299
 20
217.545776
 30
0.0
 40
3.2
  1
9.5
 41
1.124999999999989
 51
15.0
  7
FX_FONT
 72
     5
 11
125.6452989999999
 21
217.545776
 31
0.0
100
AcDbText
  0
LINE
  5
9B
330
98
100
AcDbEntity
  8
CSLAYER1
  6
CONTINUOUS
 62
     4
100
AcDbLine
 10
116.014126
 20
216.535568
 30
0.0
 11
125.514126
 21
216.535568
 31
0.0
  0
LINE
  5
9C
330
98
100
AcDbEntity
  8
CSLAYER1
  6
CONTINUOUS
 62
     4
100
AcDbLine
 10
125.514126
 20
190.511511
 30
0.0
 11
125.514126
 21
217.535568
 31
0.0
  0
LINE
  5
9D
330
98
100
AcDbEntity
  8
CSLAYER1
  6
CONTINUOUS
 62
     4
100
AcDbLine
 10
113.014126
 20
216.535568
 30
0.0
 11
116.014126
 21
216.535568
 31
0.0
  0
LINE
  5
9E
330
98
100
AcDbEntity
  8
CSLAYER1
  6
CONTINUOUS
 62
     4
100
AcDbLine
 10
116.014126
 20
216.535568
 30
0.0
 11
113.116349
 21
217.312025
 31
0.0
  0
LINE
  5
9F
330
98
100
AcDbEntity
  8
CSLAYER1
  6
CONTINUOUS
 62
     4
100
AcDbLine
 10
116.014126
 20
216.535568
 30
0.0
 11
113.116349
 21
215.7591109999999
 31
0.0
  0
LINE
  5
A0
330
98
100
AcDbEntity
  8
CSLAYER1
  6
CONTINUOUS
 62
     4
100
AcDbLine
 10
125.514126
 20
216.535568
 30
0.0
 11
128.514126
 21
216.535568
 31
0.0
  0
LINE
  5
A1
330
98
100
AcDbEntity
  8
CSLAYER1
  6
CONTINUOUS
 62
     4
100
AcDbLine
 10
125.514126
 20
216.535568
 30
0.0
 11
128.4119039999999
 21
217.312025
 31
0.0
  0
LINE
  5
A2
330
98
100
AcDbEntity
  8
CSLAYER1
  6
CONTINUOUS
 62
     4
100
AcDbLine
 10
125.514126
 20
216.535568
 30
0.0
 11
128.4119039999999
 21
215.7591109999999
 31
0.0
  0
ENDBLK
  5
A3
330
98
100
AcDbEntity
  8
0
100
AcDbBlockEnd
  0
BLOCK
  5
A5
330
A4
100
AcDbEntity
  8
0
100
AcDbBlockBegin
  2
*D10
 70
     1
 10
0.0
 20
0.0
 30
0.0
  3
*D10
  1

  0
TEXT
  5
A6
330
A4
100
AcDbEntity
  8
CSLAYER1
 62
     4
100
AcDbText
 10
182.3141299999999
 20
217.035568
 30
0.0
 40
3.2
  1
79
 41
1.200000000000017
 51
15.0
  7
FX_FONT
 72
     5
 11
188.71413
 21
217.035568
 31
0.0
100
AcDbText
  0
LINE
  5
A7
330
A4
100
AcDbEntity
  8
CSLAYER1
  6
CONTINUOUS
 62
     4
100
AcDbLine
 10
146.014126
 20
216.535568
 30
0.0
 11
225.0141259999999
 21
216.535568
 31
0.0
  0
LINE
  5
A8
330
A4
100
AcDbEntity
  8
CSLAYER1
  6
CONTINUOUS
 62
     4
100
AcDbLine
 10
146.014126
 20
216.535568
 30
0.0
 11
148.911904
 21
217.312025
 31
0.0
  0
LINE
  5
A9
330
A4
100
AcDbEntity
  8
CSLAYER1
  6
CONTINUOUS
 62
     4
100
AcDbLine
 10
146.014126
 20
216.535568
 30
0.0
 11
148.911904
 21
215.7591109999999
 31
0.0
  0
LINE
  5
AA
330
A4
100
AcDbEntity
  8
CSLAYER1
  6
CONTINUOUS
 62
     4
100
AcDbLine
 10
225.0141259999999
 20
216.535568
 30
0.0
 11
222.116349
 21
217.312025
 31
0.0
  0
LINE
  5
AB
330
A4
100
AcDbEntity
  8
CSLAYER1
  6
CONTINUOUS
 62
     4
100
AcDbLine
 10
225.0141259999999
 20
216.535568
 30
0.0
 11
222.116349
 21
215.7591109999999
 31
0.0
  0
LINE
  5
AC
330
A4
100
AcDbEntity
  8
CSLAYER1
  6
CONTINUOUS
 62
     4
100
AcDbLine
 10
146.014126
 20
199.4502989999999
 30
0.0
 11
146.014126
 21
217.535568
 31
0.0
  0
ENDBLK
  5
AD
330
A4
100
AcDbEntity
  8
0
100
AcDbBlockEnd
  0
BLOCK
  5
AF
330
AE
100
AcDbEntity
  8
0
100
AcDbBlockBegin
  2
*D11
 70
     1
 10
0.0
 20
0.0
 30
0.0
  3
*D11
  1

  0
TEXT
  5
B0
330
AE
100
AcDbEntity
  8
CSLAYER1
 62
     4
100
AcDbText
 10
88.86579899999999
 20
172.750302
 30
0.0
 40
3.2
  1
23
 50
90.0
 41
1.200000000000001
 51
15.0
  7
FX_FONT
 72
     5
 11
88.86579899999999
 21
179.150302
 31
0.0
100
AcDbText
  0
LINE
  5
B1
330
AE
100
AcDbEntity
  8
CSLAYER1
  6
CONTINUOUS
 62
     4
100
AcDbLine
 10
89.365804
 20
164.450299
 30
0.0
 11
89.365804
 21
187.450299
 31
0.0
  0
LINE
  5
B2
330
AE
100
AcDbEntity
  8
CSLAYER1
  6
CONTINUOUS
 62
     4
100
AcDbLine
 10
89.365804
 20
164.450299
 30
0.0
 11
88.589347
 21
167.3480759999999
 31
0.0
  0
LINE
  5
B3
330
AE
100
AcDbEntity
  8
CSLAYER1
  6
CONTINUOUS
 62
     4
100
AcDbLine
 10
89.365804
 20
164.450299
 30
0.0
 11
90.142261
 21
167.3480759999999
 31
0.0
  0
LINE
  5
B4
330
AE
100
AcDbEntity
  8
CSLAYER1
  6
CONTINUOUS
 62
     4
100
AcDbLine
 10
89.365804
 20
187.450299
 30
0.0
 11
88.589347
 21
184.552522
 31
0.0
  0
LINE
  5
B5
330
AE
100
AcDbEntity
  8
CSLAYER1
  6
CONTINUOUS
 62
     4
100
AcDbLine
 10
89.365804
 20
187.450299
 30
0.0
 11
90.142261
 21
184.552522
 31
0.0
  0
LINE
  5
B6
330
AE
100
AcDbEntity
  8
CSLAYER1
  6
CONTINUOUS
 62
     4
100
AcDbLine
 10
118.5141259999999
 20
164.450299
 30
0.0
 11
88.365804
 21
164.450299
 31
0.0
  0
LINE
  5
B7
330
AE
100
AcDbEntity
  8
CSLAYER1
  6
CONTINUOUS
 62
     4
100
AcDbLine
 10
118.5141259999999
 20
187.450299
 30
0.0
 11
88.365804
 21
187.450299
 31
0.0
  0
ENDBLK
  5
B8
330
AE
100
AcDbEntity
  8
0
100
AcDbBlockEnd
  0
BLOCK
  5
BA
330
B9
100
AcDbEntity
  8
0
100
AcDbBlockBegin
  2
*D12
 70
     1
 10
0.0
 20
0.0
 30
0.0
  3
*D12
  1

  0
TEXT
  5
BB
330
B9
100
AcDbEntity
  8
CSLAYER1
 62
     4
100
AcDbText
 10
94.865799
 20
172.750302
 30
0.0
 40
3.2
  1
12
 50
90.0
 41
1.200000000000001
 51
15.0
  7
FX_FONT
 72
     5
 11
94.865799
 21
179.150302
 31
0.0
100
AcDbText
  0
LINE
  5
BC
330
B9
100
AcDbEntity
  8
CSLAYER1
  6
CONTINUOUS
 62
     4
100
AcDbLine
 10
95.365804
 20
169.950299
 30
0.0
 11
95.365804
 21
181.950299
 31
0.0
  0
LINE
  5
BD
330
B9
100
AcDbEntity
  8
CSLAYER1
  6
CONTINUOUS
 62
     4
100
AcDbLine
 10
95.365804
 20
169.950299
 30
0.0
 11
94.589347
 21
172.848076
 31
0.0
  0
LINE
  5
BE
330
B9
100
AcDbEntity
  8
CSLAYER1
  6
CONTINUOUS
 62
     4
100
AcDbLine
 10
95.365804
 20
169.950299
 30
0.0
 11
96.14226100000001
 21
172.848076
 31
0.0
  0
LINE
  5
BF
330
B9
100
AcDbEntity
  8
CSLAYER1
  6
CONTINUOUS
 62
     4
100
AcDbLine
 10
95.365804
 20
181.950299
 30
0.0
 11
94.589347
 21
179.052522
 31
0.0
  0
LINE
  5
C0
330
B9
100
AcDbEntity
  8
CSLAYER1
  6
CONTINUOUS
 62
     4
100
AcDbLine
 10
95.365804
 20
181.950299
 30
0.0
 11
96.14226100000001
 21
179.052522
 31
0.0
  0
LINE
  5
C1
330
B9
100
AcDbEntity
  8
CSLAYER1
  6
CONTINUOUS
 62
     4
100
AcDbLine
 10
115.014126
 20
169.950299
 30
0.0
 11
94.365804
 21
169.950299
 31
0.0
  0
LINE
  5
C2
330
B9
100
AcDbEntity
  8
CSLAYER1
  6
CONTINUOUS
 62
     4
100
AcDbLine
 10
115.014126
 20
181.950299
 30
0.0
 11
94.365804
 21
181.950299
 31
0.0
  0
ENDBLK
  5
C3
330
B9
100
AcDbEntity
  8
0
100
AcDbBlockEnd
  0
BLOCK
  5
C5
330
C4
100
AcDbEntity
  8
0
100
AcDbBlockBegin
  2
FXDIM0003
 70
     0
 10
0.0
 20
0.0
 30
0.0
  3
FXDIM0003
  1

  0
TEXT
  5
C6
330
C4
100
AcDbEntity
  8
CSLAYER1
 62
     4
100
AcDbText
 10
106.704909
 20
152.166182
 30
0.0
 40
3.2
  1
C3.5
 50
45.0
 41
1.090909115112895
 51
15.0
  7
FX_FONT
 72
     5
 11
115.755876
 21
161.217149
 31
0.0
100
AcDbText
  0
LINE
  5
C7
330
C4
100
AcDbEntity
  8
CSLAYER1
  6
CONTINUOUS
 62
     4
100
AcDbLine
 10
117.764126
 20
166.2002989999999
 30
0.0
 11
115.84571
 21
164.2818829999999
 31
0.0
  0
LINE
  5
C8
330
C4
100
AcDbEntity
  8
CSLAYER1
  6
CONTINUOUS
 62
     4
100
AcDbLine
 10
117.764126
 20
166.2002989999999
 30
0.0
 11
116.264126
 21
163.602223
 31
0.0
  0
LINE
  5
C9
330
C4
100
AcDbEntity
  8
CSLAYER1
  6
CONTINUOUS
 62
     4
100
AcDbLine
 10
117.764126
 20
166.2002989999999
 30
0.0
 11
115.1660499999999
 21
164.700299
 31
0.0
  0
ENDBLK
  5
CA
330
C4
100
AcDbEntity
  8
0
100
AcDbBlockEnd
  0
BLOCK
  5
CC
330
CB
100
AcDbEntity
  8
0
100
AcDbBlockBegin
  2
*D14
 70
     1
 10
0.0
 20
0.0
 30
0.0
  3
*D14
  1

  0
TEXT
  5
CD
330
CB
100
AcDbEntity
  8
CSLAYER1
 62
     4
100
AcDbText
 10
132.7844409999999
 20
151.0218959999999
 30
0.0
 40
3.2
  1
R16
 50
43.67914853838294
 41
1.125000020394478
 51
15.0
  7
FX_FONT
 72
     5
 11
139.727339
 21
157.651841
 31
0.0
100
AcDbText
  0
LINE
  5
CE
330
CB
100
AcDbEntity
  8
CSLAYER1
  6
CONTINUOUS
 62
     4
100
AcDbLine
 10
142.3869389999999
 20
159.500207
 30
0.0
 11
130.8154419999999
 21
148.450299
 31
0.0
  0
LINE
  5
CF
330
CB
100
AcDbEntity
  8
CSLAYER1
  6
CONTINUOUS
 62
     4
100
AcDbLine
 10
142.3869389999999
 20
159.500207
 30
0.0
 11
140.827448
 21
156.9373979999999
 31
0.0
  0
LINE
  5
D0
330
CB
100
AcDbEntity
  8
CSLAYER1
  6
CONTINUOUS
 62
     4
100
AcDbLine
 10
142.3869389999999
 20
159.500207
 30
0.0
 11
139.7549759999999
 21
158.060494
 31
0.0
  0
ENDBLK
  5
D1
330
CB
100
AcDbEntity
  8
0
100
AcDbBlockEnd
  0
BLOCK
  5
D3
330
D2
100
AcDbEntity
  8
0
100
AcDbBlockBegin
  2
*D15
 70
     1
 10
0.0
 20
0.0
 30
0.0
  3
*D15
  1

  0
TEXT
  5
D4
330
D2
100
AcDbEntity
  8
CSLAYER1
 62
     4
100
AcDbText
 10
175.71413
 20
126.7941889999999
 30
0.0
 40
3.2
  1
129
 41
1.124999999999999
 51
15.0
  7
FX_FONT
 72
     5
 11
185.31413
 21
126.7941889999999
 31
0.0
100
AcDbText
  0
LINE
  5
D5
330
D2
100
AcDbEntity
  8
CSLAYER1
  6
CONTINUOUS
 62
     4
100
AcDbLine
 10
116.014126
 20
126.294187
 30
0.0
 11
245.0141259999999
 21
126.294187
 31
0.0
  0
LINE
  5
D6
330
D2
100
AcDbEntity
  8
CSLAYER1
  6
CONTINUOUS
 62
     4
100
AcDbLine
 10
116.014126
 20
126.294187
 30
0.0
 11
118.911904
 21
127.070644
 31
0.0
  0
LINE
  5
D7
330
D2
100
AcDbEntity
  8
CSLAYER1
  6
CONTINUOUS
 62
     4
100
AcDbLine
 10
116.014126
 20
126.294187
 30
0.0
 11
118.911904
 21
125.5177299999999
 31
0.0
  0
LINE
  5
D8
330
D2
100
AcDbEntity
  8
CSLAYER1
  6
CONTINUOUS
 62
     4
100
AcDbLine
 10
245.0141259999999
 20
126.294187
 30
0.0
 11
242.116349
 21
127.070644
 31
0.0
  0
LINE
  5
D9
330
D2
100
AcDbEntity
  8
CSLAYER1
  6
CONTINUOUS
 62
     4
100
AcDbLine
 10
245.0141259999999
 20
126.294187
 30
0.0
 11
242.116349
 21
125.5177299999999
 31
0.0
  0
LINE
  5
DA
330
D2
100
AcDbEntity
  8
CSLAYER1
  6
CONTINUOUS
 62
     4
100
AcDbLine
 10
116.014126
 20
92.22125099999999
 30
0.0
 11
116.014126
 21
127.294187
 31
0.0
  0
LINE
  5
DB
330
D2
100
AcDbEntity
  8
CSLAYER1
  6
CONTINUOUS
 62
     4
100
AcDbLine
 10
245.0141259999999
 20
106.3045849999999
 30
0.0
 11
245.0141259999999
 21
127.294187
 31
0.0
  0
ENDBLK
  5
DC
330
D2
100
AcDbEntity
  8
0
100
AcDbBlockEnd
  0
BLOCK
  5
DE
330
DD
100
AcDbEntity
  8
0
100
AcDbBlockBegin
  2
*D16
 70
     1
 10
0.0
 20
0.0
 30
0.0
  3
*D16
  1

  0
TEXT
  5
DF
330
DD
100
AcDbEntity
  8
CSLAYER1
 62
     4
100
AcDbText
 10
116.143993
 20
121.647217
 30
0.0
 40
3.2
  1
9.5
 41
1.124999999999989
 51
15.0
  7
FX_FONT
 72
     5
 11
125.7439929999998
 21
121.647217
 31
0.0
100
AcDbText
  0
LINE
  5
E0
330
DD
100
AcDbEntity
  8
CSLAYER1
  6
CONTINUOUS
 62
     4
100
AcDbLine
 10
116.014126
 20
120.294187
 30
0.0
 11
125.514126
 21
120.294187
 31
0.0
  0
LINE
  5
E1
330
DD
100
AcDbEntity
  8
CSLAYER1
  6
CONTINUOUS
 62
     4
100
AcDbLine
 10
125.514126
 20
93.50922799999999
 30
0.0
 11
125.514126
 21
121.294187
 31
0.0
  0
LINE
  5
E2
330
DD
100
AcDbEntity
  8
CSLAYER1
  6
CONTINUOUS
 62
     4
100
AcDbLine
 10
113.014126
 20
120.294187
 30
0.0
 11
116.014126
 21
120.294187
 31
0.0
  0
LINE
  5
E3
330
DD
100
AcDbEntity
  8
CSLAYER1
  6
CONTINUOUS
 62
     4
100
AcDbLine
 10
116.014126
 20
120.294187
 30
0.0
 11
113.116349
 21
121.070644
 31
0.0
  0
LINE
  5
E4
330
DD
100
AcDbEntity
  8
CSLAYER1
  6
CONTINUOUS
 62
     4
100
AcDbLine
 10
116.014126
 20
120.294187
 30
0.0
 11
113.116349
 21
119.51773
 31
0.0
  0
LINE
  5
E5
330
DD
100
AcDbEntity
  8
CSLAYER1
  6
CONTINUOUS
 62
     4
100
AcDbLine
 10
125.514126
 20
120.294187
 30
0.0
 11
128.514126
 21
120.294187
 31
0.0
  0
LINE
  5
E6
330
DD
100
AcDbEntity
  8
CSLAYER1
  6
CONTINUOUS
 62
     4
100
AcDbLine
 10
125.514126
 20
120.294187
 30
0.0
 11
128.4119039999999
 21
121.070644
 31
0.0
  0
LINE
  5
E7
330
DD
100
AcDbEntity
  8
CSLAYER1
  6
CONTINUOUS
 62
     4
100
AcDbLine
 10
125.514126
 20
120.294187
 30
0.0
 11
128.4119039999999
 21
119.51773
 31
0.0
  0
ENDBLK
  5
E8
330
DD
100
AcDbEntity
  8
0
100
AcDbBlockEnd
  0
BLOCK
  5
21D
330
210
100
AcDbEntity
  8
0
100
AcDbBlockBegin
  2
*D17
 70
     1
 10
0.0
 20
0.0
 30
0.0
  3
*D17
  1

  0
LINE
  5
211
330
210
100
AcDbEntity
  8
CSLAYER1
 62
     0
100
AcDbLine
 10
293.857406
 20
175.950299
 30
0.0
 11
287.6620838463928
 21
175.950299
 31
0.0
  0
LINE
  5
212
330
210
100
AcDbEntity
  8
CSLAYER1
 62
     0
100
AcDbLine
 10
307.9772868261759
 20
162.2344988261758
 30
0.0
 11
297.6295338995035
 21
151.8867458995035
 31
0.0
  0
ARC
  5
213
330
210
100
AcDbEntity
  8
CSLAYER1
 62
     0
100
AcDbCircle
 10
321.693087
 20
175.950299
 30
0.0
 40
33.85100315360722
100
AcDbArc
 50
180.3046660808206
 51
202.1706225401759
  0
ARC
  5
214
330
210
100
AcDbEntity
  8
CSLAYER1
 62
     0
100
AcDbCircle
 10
321.693087
 20
175.950299
 30
0.0
 40
33.85100315360722
100
AcDbArc
 50
202.8301636580409
 51
224.6953339191792
  0
SOLID
  5
215
330
210
100
AcDbEntity
  8
CSLAYER1
 62
     0
100
AcDbTrace
 10
287.8125625202208
 20
175.770219874888
 30
0.0
 11
287.8725623081583
 21
175.770379397487
 31
0.0
 12
287.8420838463928
 22
175.950299
 32
0.0
 13
287.8420838463928
 23
175.950299
 33
0.0
  0
SOLID
  5
216
330
210
100
AcDbEntity
  8
CSLAYER1
 62
     0
100
AcDbTrace
 10
297.6511422761063
 20
152.1627990181169
 30
0.0
 11
297.6086032196746
 21
152.1204855607081
 31
0.0
 12
297.756813120117
 22
152.014025120117
 32
0.0
 13
297.756813120117
 23
152.014025120117
 33
0.0
  0
MTEXT
  5
217
330
210
100
AcDbEntity
  8
CSLAYER1
 62
     0
100
AcDbMText
 10
290.4188380314073
 20
162.9960809241761
 30
0.0
 40
0.18
 41
0.0
 71
     5
 72
     1
  1
\A1;45°
1001
ACAD
1000
MTEXTBEGIN
1070
    73
1070
     1
1070
    44
1040
1.0
1070
    74
1070
     0
1000
MTEXTEND
  0
POINT
  5
218
330
210
100
AcDbEntity
  8
DEFPOINTS
 62
     0
100
AcDbPoint
 10
288.9955288081381
 20
167.1890146880208
 30
0.0
  0
POINT
  5
219
330
210
100
AcDbEntity
  8
DEFPOINTS
 62
     0
100
AcDbPoint
 10
321.693087
 20
175.950299
 30
0.0
  0
POINT
  5
21A
330
210
100
AcDbEntity
  8
DEFPOINTS
 62
     0
100
AcDbPoint
 10
308.021481
 20
162.278693
 30
0.0
  0
POINT
  5
21B
330
210
100
AcDbEntity
  8
DEFPOINTS
 62
     0
100
AcDbPoint
 10
321.693087
 20
175.950299
 30
0.0
  0
POINT
  5
21C
330
210
100
AcDbEntity
  8
DEFPOINTS
 62
     0
100
AcDbPoint
 10
293.919906
 20
175.950299
 30
0.0
  0
ENDBLK
  5
21E
330
210
100
AcDbEntity
  8
0
100
AcDbBlockEnd
  0
ENDSEC
  0
SECTION
  2
ENTITIES
  0
LINE
  5
E9
330
1E
100
AcDbEntity
  8
CSLAYER1
  6
CONTINUOUS
 62
     3
100
AcDbLine
 10
245.0141259999999
 20
63.30458499999998
 30
0.0
 11
245.0141259999999
 21
105.3045849999999
 31
0.0
  0
LINE
  5
EA
330
1E
100
AcDbEntity
  8
CSLAYER1
  6
CONTINUOUS
 62
     3
100
AcDbLine
 10
245.0141259999999
 20
105.3045849999999
 30
0.0
 11
243.5141259999999
 21
106.804585
 31
0.0
  0
LINE
  5
EB
330
1E
100
AcDbEntity
  8
CSLAYER1
  6
CONTINUOUS
 62
     3
100
AcDbLine
 10
243.5141259999999
 20
106.804585
 30
0.0
 11
243.5141259999999
 21
97.80458500000001
 31
0.0
  0
LINE
  5
EC
330
1E
100
AcDbEntity
  8
CSLAYER1
  6
CONTINUOUS
 62
     3
100
AcDbLine
 10
243.5141259999999
 20
97.80458500000001
 30
0.0
 11
230.0141259999999
 21
97.80458500000001
 31
0.0
  0
LINE
  5
ED
330
1E
100
AcDbEntity
  8
CSLAYER1
  6
CONTINUOUS
 62
     3
100
AcDbLine
 10
230.0141259999999
 20
97.80458500000001
 30
0.0
 11
230.0141259999999
 21
70.804585
 31
0.0
  0
LINE
  5
EE
330
1E
100
AcDbEntity
  8
CSLAYER1
  6
CONTINUOUS
 62
     3
100
AcDbLine
 10
230.0141259999999
 20
70.804585
 30
0.0
 11
243.5141259999999
 21
70.804585
 31
0.0
  0
LINE
  5
EF
330
1E
100
AcDbEntity
  8
CSLAYER1
  6
CONTINUOUS
 62
     3
100
AcDbLine
 10
243.5141259999999
 20
70.804585
 30
0.0
 11
245.0141259999999
 21
72.30458500000001
 31
0.0
  0
LINE
  5
F0
330
1E
100
AcDbEntity
  8
CSLAYER1
  6
CONTINUOUS
 62
     3
100
AcDbLine
 10
243.5141259999999
 20
70.804585
 30
0.0
 11
243.5141259999999
 21
61.804585
 31
0.0
  0
LINE
  5
F1
330
1E
100
AcDbEntity
  8
CSLAYER1
  6
CONTINUOUS
 62
     3
100
AcDbLine
 10
243.5141259999999
 20
61.804585
 30
0.0
 11
245.0141259999999
 21
63.30458499999998
 31
0.0
  0
LINE
  5
F2
330
1E
100
AcDbEntity
  8
CSLAYER1
  6
CONTINUOUS
 62
     3
100
AcDbLine
 10
243.5141259999999
 20
61.804585
 30
0.0
 11
146.014126
 21
61.804585
 31
0.0
  0
LINE
  5
F3
330
1E
100
AcDbEntity
  8
CSLAYER1
  6
CONTINUOUS
 62
     3
100
AcDbLine
 10
146.014126
 20
61.804585
 30
0.0
 11
139.614126
 21
64.471251
 31
0.0
  0
LINE
  5
F4
330
1E
100
AcDbEntity
  8
CSLAYER1
  6
CONTINUOUS
 62
     3
100
AcDbLine
 10
139.614126
 20
64.471251
 30
0.0
 11
139.614126
 21
65.554585
 31
0.0
  0
LINE
  5
F5
330
1E
100
AcDbEntity
  8
CSLAYER1
  6
CONTINUOUS
 62
     3
100
AcDbLine
 10
139.614126
 20
65.554585
 30
0.0
 11
117.8602799999999
 21
74.618687
 31
0.0
  0
ARC
  5
F6
330
1E
100
AcDbEntity
  8
CSLAYER1
  6
CONTINUOUS
 62
     3
100
AcDbCircle
 10
119.014126
 20
77.387918
 30
0.0
 40
3.0
100
AcDbArc
 50
180.0
 51
247.3801349999999
  0
LINE
  5
F7
330
1E
100
AcDbEntity
  8
CSLAYER1
  6
CONTINUOUS
 62
     3
100
AcDbLine
 10
116.014126
 20
77.387918
 30
0.0
 11
116.014126
 21
91.22125099999999
 31
0.0
  0
ARC
  5
F8
330
1E
100
AcDbEntity
  8
CSLAYER1
  6
CONTINUOUS
 62
     3
100
AcDbCircle
 10
119.014126
 20
91.22125099999999
 30
0.0
 40
3.0
100
AcDbArc
 50
112.6198649999998
 51
180.0
  0
LINE
  5
F9
330
1E
100
AcDbEntity
  8
CSLAYER1
  6
CONTINUOUS
 62
     3
100
AcDbLine
 10
117.8602799999999
 20
93.99048200000001
 30
0.0
 11
139.614126
 21
103.0545849999999
 31
0.0
  0
LINE
  5
FA
330
1E
100
AcDbEntity
  8
CSLAYER1
  6
CONTINUOUS
 62
     3
100
AcDbLine
 10
139.614126
 20
103.0545849999999
 30
0.0
 11
139.614126
 21
104.137918
 31
0.0
  0
LINE
  5
FB
330
1E
100
AcDbEntity
  8
CSLAYER1
  6
CONTINUOUS
 62
     3
100
AcDbLine
 10
139.614126
 20
104.137918
 30
0.0
 11
146.014126
 21
106.804585
 31
0.0
  0
LINE
  5
FC
330
1E
100
AcDbEntity
  8
CSLAYER1
  6
CONTINUOUS
 62
     3
100
AcDbLine
 10
146.014126
 20
106.804585
 30
0.0
 11
146.014126
 21
61.804585
 31
0.0
  0
ARC
  5
FD
330
1E
100
AcDbEntity
  8
CSLAYER1
  6
CONTINUOUS
 62
     3
100
AcDbCircle
 10
134.0229919999998
 20
84.765788
 30
0.0
 40
12.0
100
AcDbArc
 50
246.037511
 51
357.797374
  0
ARC
  5
FE
330
1E
100
AcDbEntity
  8
CSLAYER1
  6
CONTINUOUS
 62
     3
100
AcDbCircle
 10
134.0229919999998
 20
83.843381
 30
0.0
 40
12.0
100
AcDbArc
 50
2.202625999999999
 51
113.9624889999999
  0
LINE
  5
FF
330
1E
100
AcDbEntity
  8
CSLAYER1
  6
CONTINUOUS
 62
     3
100
AcDbLine
 10
129.149331
 20
94.80912
 30
0.0
 11
119.014126
 21
90.30458499999999
 31
0.0
  0
LINE
  5
100
330
1E
100
AcDbEntity
  8
CSLAYER1
  6
CONTINUOUS
 62
     3
100
AcDbLine
 10
119.014126
 20
90.30458499999999
 30
0.0
 11
119.014126
 21
78.304585
 31
0.0
  0
LINE
  5
101
330
1E
100
AcDbEntity
  8
CSLAYER1
  6
CONTINUOUS
 62
     3
100
AcDbLine
 10
119.014126
 20
78.304585
 30
0.0
 11
129.149331
 21
73.800049
 31
0.0
  0
LINE
  5
102
330
1E
100
AcDbEntity
  8
CSLAYER1
  6
CONTINUOUS
 62
     3
100
AcDbLine
 10
127.534852
 20
80.804585
 30
0.0
 11
123.4933999999999
 21
80.804585
 31
0.0
  0
LINE
  5
103
330
1E
100
AcDbEntity
  8
CSLAYER1
  6
CONTINUOUS
 62
     3
100
AcDbLine
 10
123.4933999999999
 20
80.804585
 30
0.0
 11
121.4726739999999
 21
84.304585
 31
0.0
  0
LINE
  5
104
330
1E
100
AcDbEntity
  8
CSLAYER1
  6
CONTINUOUS
 62
     3
100
AcDbLine
 10
121.4726739999999
 20
84.304585
 30
0.0
 11
123.4933999999999
 21
87.80458499999998
 31
0.0
  0
LINE
  5
105
330
1E
100
AcDbEntity
  8
CSLAYER1
  6
CONTINUOUS
 62
     3
100
AcDbLine
 10
123.4933999999999
 20
87.80458499999998
 30
0.0
 11
127.534852
 21
87.80458499999998
 31
0.0
  0
LINE
  5
106
330
1E
100
AcDbEntity
  8
CSLAYER1
  6
CONTINUOUS
 62
     3
100
AcDbLine
 10
127.534852
 20
87.80458499999998
 30
0.0
 11
129.5555779999999
 21
84.304585
 31
0.0
  0
LINE
  5
107
330
1E
100
AcDbEntity
  8
CSLAYER1
  6
CONTINUOUS
 62
     3
100
AcDbLine
 10
129.5555779999999
 20
84.304585
 30
0.0
 11
127.534852
 21
80.804585
 31
0.0
  0
CIRCLE
  5
108
330
1E
100
AcDbEntity
  8
CSLAYER1
  6
CONTINUOUS
 62
     3
100
AcDbCircle
 10
125.514126
 20
84.304585
 30
0.0
 40
5.0
  0
CIRCLE
  5
109
330
1E
100
AcDbEntity
  8
CSLAYER1
  6
CONTINUOUS
 62
     3
100
AcDbCircle
 10
125.514126
 20
84.304585
 30
0.0
 40
2.0
  0
CIRCLE
  5
10A
330
1E
100
AcDbEntity
  8
CSLAYER1
  6
CONTINUOUS
 62
     3
100
AcDbCircle
 10
125.514126
 20
84.304585
 30
0.0
 40
3.5
  0
ARC
  5
10B
330
1E
100
AcDbEntity
  8
CSLAYER1
  6
CONTINUOUS
 62
     3
100
AcDbCircle
 10
117.5141259999999
 20
78.304585
 30
0.0
 40
1.5
100
AcDbArc
 50
180.0
 51
0.0
  0
ARC
  5
10C
330
1E
100
AcDbEntity
  8
CSLAYER1
  6
CONTINUOUS
 62
     3
100
AcDbCircle
 10
117.5141259999999
 20
90.30458499999999
 30
0.0
 40
1.5
100
AcDbArc
 50
0.0
 51
180.0
  0
LINE
  5
10D
330
1E
100
AcDbEntity
  8
CSLAYER1
  6
CONTINUOUS
 62
     3
100
AcDbLine
 10
146.014126
 20
106.804585
 30
0.0
 11
243.5141259999999
 21
106.804585
 31
0.0
  0
LINE
  5
10E
330
1E
100
AcDbEntity
  8
CSLAYER1
  6
CONTINUOUS
 62
     3
100
AcDbLine
 10
243.5141259999999
 20
97.80458500000001
 30
0.0
 11
245.0141259999999
 21
96.30458500000001
 31
0.0
  0
LINE
  5
10F
330
1E
100
AcDbEntity
  8
CSLAYER1
  6
CONTINUOUS
 62
     3
100
AcDbLine
 10
225.0141259999999
 20
106.804585
 30
0.0
 11
225.0141259999999
 21
61.804585
 31
0.0
  0
LINE
  5
110
330
1E
100
AcDbEntity
  8
CSLAYER1
  6
CONTINUOUS
 62
     3
100
AcDbLine
 10
225.0141259999999
 20
153.450299
 30
0.0
 11
225.0141259999999
 21
198.450299
 31
0.0
  0
LINE
  5
111
330
1E
100
AcDbEntity
  8
CSLAYER1
  6
CONTINUOUS
 62
     3
100
AcDbLine
 10
230.0141259999999
 20
198.450299
 30
0.0
 11
146.014126
 21
198.450299
 31
0.0
  0
LINE
  5
112
330
1E
100
AcDbEntity
  8
CSLAYER1
  6
CONTINUOUS
 62
     3
100
AcDbLine
 10
146.014126
 20
198.450299
 30
0.0
 11
146.014126
 21
153.450299
 31
0.0
  0
LINE
  5
113
330
1E
100
AcDbEntity
  8
CSLAYER1
  6
CONTINUOUS
 62
     3
100
AcDbLine
 10
146.014126
 20
153.450299
 30
0.0
 11
230.0141259999999
 21
153.450299
 31
0.0
  0
LINE
  5
114
330
1E
100
AcDbEntity
  8
CSLAYER1
  6
CONTINUOUS
 62
     3
100
AcDbLine
 10
230.0141259999999
 20
153.450299
 30
0.0
 11
230.0141259999999
 21
155.950299
 31
0.0
  0
ARC
  5
115
330
1E
100
AcDbEntity
  8
CSLAYER1
  6
CONTINUOUS
 62
     3
100
AcDbCircle
 10
232.0141259999999
 20
155.950299
 30
0.0
 40
2.0
100
AcDbArc
 50
90.0
 51
180.0
  0
LINE
  5
116
330
1E
100
AcDbEntity
  8
CSLAYER1
  6
CONTINUOUS
 62
     3
100
AcDbLine
 10
232.0141259999999
 20
157.9502989999999
 30
0.0
 11
243.5141259999999
 21
157.9502989999999
 31
0.0
  0
LINE
  5
117
330
1E
100
AcDbEntity
  8
CSLAYER1
  6
CONTINUOUS
 62
     3
100
AcDbLine
 10
243.5141259999999
 20
157.9502989999999
 30
0.0
 11
243.5141259999999
 21
193.950299
 31
0.0
  0
LINE
  5
118
330
1E
100
AcDbEntity
  8
CSLAYER1
  6
CONTINUOUS
 62
     3
100
AcDbLine
 10
243.5141259999999
 20
193.950299
 30
0.0
 11
232.0141259999999
 21
193.950299
 31
0.0
  0
ARC
  5
119
330
1E
100
AcDbEntity
  8
CSLAYER1
  6
CONTINUOUS
 62
     3
100
AcDbCircle
 10
232.0141259999999
 20
195.950299
 30
0.0
 40
2.0
100
AcDbArc
 50
180.0
 51
270.0
  0
LINE
  5
11A
330
1E
100
AcDbEntity
  8
CSLAYER1
  6
CONTINUOUS
 62
     3
100
AcDbLine
 10
230.0141259999999
 20
195.950299
 30
0.0
 11
230.0141259999999
 21
198.450299
 31
0.0
  0
LINE
  5
11B
330
1E
100
AcDbEntity
  8
CSLAYER1
  6
CONTINUOUS
 62
     3
100
AcDbLine
 10
243.5141259999999
 20
193.950299
 30
0.0
 11
245.0141259999999
 21
192.450299
 31
0.0
  0
LINE
  5
11C
330
1E
100
AcDbEntity
  8
CSLAYER1
  6
CONTINUOUS
 62
     3
100
AcDbLine
 10
245.0141259999999
 20
192.450299
 30
0.0
 11
245.0141259999999
 21
159.450299
 31
0.0
  0
LINE
  5
11D
330
1E
100
AcDbEntity
  8
CSLAYER1
  6
CONTINUOUS
 62
     3
100
AcDbLine
 10
245.0141259999999
 20
159.450299
 30
0.0
 11
243.5141259999999
 21
157.9502989999999
 31
0.0
  0
LINE
  5
11E
330
1E
100
AcDbEntity
  8
CSLAYER1
  6
CONTINUOUS
 62
     3
100
AcDbLine
 10
308.1930869999998
 20
157.9502989999999
 30
0.0
 11
335.1930869999999
 21
157.9502989999999
 31
0.0
  0
ARC
  5
11F
330
1E
100
AcDbEntity
  8
CSLAYER1
  6
CONTINUOUS
 62
     3
100
AcDbCircle
 10
321.693087
 20
175.950299
 30
0.0
 40
21.0
100
AcDbArc
 50
301.002719
 51
58.997281
  0
LINE
  5
120
330
1E
100
AcDbEntity
  8
CSLAYER1
  6
CONTINUOUS
 62
     3
100
AcDbLine
 10
335.1930869999999
 20
193.950299
 30
0.0
 11
308.1930869999998
 21
193.950299
 31
0.0
  0
ARC
  5
121
330
1E
100
AcDbEntity
  8
CSLAYER1
  6
CONTINUOUS
 62
     3
100
AcDbCircle
 10
321.693087
 20
175.950299
 30
0.0
 40
21.0
100
AcDbArc
 50
121.0027189999998
 51
238.997281
  0
CIRCLE
  5
122
330
1E
100
AcDbEntity
  8
CSLAYER1
  6
CONTINUOUS
 62
     3
100
AcDbCircle
 10
311.0864859999998
 20
165.343697
 30
0.0
 40
2.1
  0
CIRCLE
  5
123
330
1E
100
AcDbEntity
  8
CSLAYER1
  6
CONTINUOUS
 62
     3
100
AcDbCircle
 10
321.693087
 20
175.950299
 30
0.0
 40
4.25
  0
CIRCLE
  5
124
330
1E
100
AcDbEntity
  8
CSLAYER1
  6
CONTINUOUS
 62
     3
100
AcDbCircle
 10
321.693087
 20
175.950299
 30
0.0
 40
22.5
  0
CIRCLE
  5
125
330
1E
100
AcDbEntity
  8
CSLAYER1
  6
CONTINUOUS
 62
     3
100
AcDbCircle
 10
321.693087
 20
175.950299
 30
0.0
 40
3.0
  0
CIRCLE
  5
126
330
1E
100
AcDbEntity
  8
CSLAYER1
  6
CONTINUOUS
 62
     3
100
AcDbCircle
 10
332.299689
 20
186.556901
 30
0.0
 40
2.1
  0
ARC
  5
127
330
1E
100
AcDbEntity
  8
CSLAYER1
  6
CONTINUOUS
 62
     3
100
AcDbCircle
 10
130.8154419999999
 20
203.450299
 30
0.0
 40
16.0
100
AcDbArc
 50
270.0
 51
341.790043
  0
LINE
  5
128
330
1E
100
AcDbEntity
  8
CSLAYER1
  6
CONTINUOUS
 62
     3
100
AcDbLine
 10
130.8154419999999
 20
187.450299
 30
0.0
 11
119.5141259999999
 21
187.450299
 31
0.0
  0
LINE
  5
129
330
1E
100
AcDbEntity
  8
CSLAYER1
  6
CONTINUOUS
 62
     3
100
AcDbLine
 10
119.5141259999999
 20
187.450299
 30
0.0
 11
116.014126
 21
183.9502989999999
 31
0.0
  0
LINE
  5
12A
330
1E
100
AcDbEntity
  8
CSLAYER1
  6
CONTINUOUS
 62
     3
100
AcDbLine
 10
116.014126
 20
183.9502989999999
 30
0.0
 11
116.014126
 21
181.950299
 31
0.0
  0
LINE
  5
12B
330
1E
100
AcDbEntity
  8
CSLAYER1
  6
CONTINUOUS
 62
     3
100
AcDbLine
 10
116.014126
 20
181.950299
 30
0.0
 11
139.014126
 21
181.950299
 31
0.0
  0
LINE
  5
12C
330
1E
100
AcDbEntity
  8
CSLAYER1
  6
CONTINUOUS
 62
     3
100
AcDbLine
 10
139.014126
 20
181.950299
 30
0.0
 11
139.014126
 21
169.950299
 31
0.0
  0
LINE
  5
12D
330
1E
100
AcDbEntity
  8
CSLAYER1
  6
CONTINUOUS
 62
     3
100
AcDbLine
 10
139.014126
 20
169.950299
 30
0.0
 11
116.014126
 21
169.950299
 31
0.0
  0
LINE
  5
12E
330
1E
100
AcDbEntity
  8
CSLAYER1
  6
CONTINUOUS
 62
     3
100
AcDbLine
 10
116.014126
 20
169.950299
 30
0.0
 11
116.014126
 21
167.950299
 31
0.0
  0
LINE
  5
12F
330
1E
100
AcDbEntity
  8
CSLAYER1
  6
CONTINUOUS
 62
     3
100
AcDbLine
 10
116.014126
 20
167.950299
 30
0.0
 11
119.5141259999999
 21
164.450299
 31
0.0
  0
LINE
  5
130
330
1E
100
AcDbEntity
  8
CSLAYER1
  6
CONTINUOUS
 62
     3
100
AcDbLine
 10
119.5141259999999
 20
164.450299
 30
0.0
 11
130.8154419999999
 21
164.450299
 31
0.0
  0
ARC
  5
131
330
1E
100
AcDbEntity
  8
CSLAYER1
  6
CONTINUOUS
 62
     3
100
AcDbCircle
 10
130.8154419999999
 20
148.450299
 30
0.0
 40
16.0
100
AcDbArc
 50
18.209957
 51
90.0
  0
LINE
  5
132
330
1E
100
AcDbEntity
  8
CSLAYER1
  6
CONTINUOUS
 62
     3
100
AcDbLine
 10
130.1555779999999
 20
163.562906
 30
0.0
 11
130.1555779999999
 21
164.450299
 31
0.0
  0
LINE
  5
133
330
1E
100
AcDbEntity
  8
CSLAYER1
  6
CONTINUOUS
 62
     3
100
AcDbLine
 10
130.1555779999999
 20
163.562906
 30
0.0
 11
129.6141259999999
 21
163.250299
 31
0.0
  0
LINE
  5
134
330
1E
100
AcDbEntity
  8
CSLAYER1
  6
CONTINUOUS
 62
     3
100
AcDbLine
 10
129.6141259999999
 20
163.250299
 30
0.0
 11
121.4141259999999
 21
163.250299
 31
0.0
  0
LINE
  5
135
330
1E
100
AcDbEntity
  8
CSLAYER1
  6
CONTINUOUS
 62
     3
100
AcDbLine
 10
121.4141259999999
 20
163.250299
 30
0.0
 11
120.872674
 21
163.562906
 31
0.0
  0
LINE
  5
136
330
1E
100
AcDbEntity
  8
CSLAYER1
  6
CONTINUOUS
 62
     3
100
AcDbLine
 10
120.872674
 20
163.562906
 30
0.0
 11
120.872674
 21
164.450299
 31
0.0
  0
ARC
  5
137
330
1E
100
AcDbEntity
  8
CSLAYER1
  6
CONTINUOUS
 62
     3
100
AcDbCircle
 10
120.0920939999999
 20
173.162525
 30
0.0
 40
10.0
100
AcDbArc
 50
277.596926
 51
286.2679999999998
  0
LINE
  5
138
330
1E
100
AcDbEntity
  8
CSLAYER1
  6
CONTINUOUS
 62
     3
100
AcDbLine
 10
122.8933999999999
 20
163.562906
 30
0.0
 11
122.8933999999999
 21
164.450299
 31
0.0
  0
ARC
  5
139
330
1E
100
AcDbEntity
  8
CSLAYER1
  6
CONTINUOUS
 62
     3
100
AcDbCircle
 10
125.514126
 20
174.391955
 30
0.0
 40
11.14165599999999
100
AcDbArc
 50
256.395484
 51
283.6045159999999
  0
LINE
  5
13A
330
1E
100
AcDbEntity
  8
CSLAYER1
  6
CONTINUOUS
 62
     3
100
AcDbLine
 10
128.1348519999999
 20
163.562906
 30
0.0
 11
128.1348519999999
 21
164.450299
 31
0.0
  0
ARC
  5
13B
330
1E
100
AcDbEntity
  8
CSLAYER1
  6
CONTINUOUS
 62
     3
100
AcDbCircle
 10
130.936158
 20
173.162525
 30
0.0
 40
10.0
100
AcDbArc
 50
253.732
 51
262.403074
  0
LINE
  5
13C
330
1E
100
AcDbEntity
  8
CSLAYER1
  6
CONTINUOUS
 62
     3
100
AcDbLine
 10
127.514126
 20
163.250299
 30
0.0
 11
127.514126
 21
157.9502989999999
 31
0.0
  0
LINE
  5
13D
330
1E
100
AcDbEntity
  8
CSLAYER1
  6
CONTINUOUS
 62
     3
100
AcDbLine
 10
127.514126
 20
157.9502989999999
 30
0.0
 11
127.014126
 21
157.450299
 31
0.0
  0
LINE
  5
13E
330
1E
100
AcDbEntity
  8
CSLAYER1
  6
CONTINUOUS
 62
     3
100
AcDbLine
 10
127.014126
 20
157.450299
 30
0.0
 11
124.014126
 21
157.450299
 31
0.0
  0
LINE
  5
13F
330
1E
100
AcDbEntity
  8
CSLAYER1
  6
CONTINUOUS
 62
     3
100
AcDbLine
 10
124.014126
 20
157.450299
 30
0.0
 11
123.514126
 21
157.9502989999999
 31
0.0
  0
LINE
  5
140
330
1E
100
AcDbEntity
  8
CSLAYER1
  6
CONTINUOUS
 62
     3
100
AcDbLine
 10
123.514126
 20
157.9502989999999
 30
0.0
 11
123.514126
 21
163.250299
 31
0.0
  0
LINE
  5
141
330
1E
100
AcDbEntity
  8
CSLAYER1
  6
CONTINUOUS
 62
     3
100
AcDbLine
 10
123.514126
 20
169.950299
 30
0.0
 11
123.514126
 21
181.950299
 31
0.0
  0
LINE
  5
142
330
1E
100
AcDbEntity
  8
CSLAYER1
  6
CONTINUOUS
 62
     3
100
AcDbLine
 10
127.514126
 20
181.950299
 30
0.0
 11
127.514126
 21
169.950299
 31
0.0
  0
POINT
  5
143
330
1E
100
AcDbEntity
  8
CSLAYER1
 62
     3
100
AcDbPoint
 10
10.0
 20
3.0
 30
0.0
  0
POINT
  5
144
330
1E
100
AcDbEntity
  8
CSLAYER1
 62
     3
100
AcDbPoint
 10
365.5
 20
20.5
 30
0.0
  0
TEXT
  5
145
330
1E
100
AcDbEntity
  8
CSLAYER1
 62
     3
100
AcDbText
 10
354.3
 20
18.89999999999998
 30
0.0
 40
3.2
  1
GT-NR20
 41
1.049999999999993
  7
FX_FONT
 72
     5
 11
376.6999999999999
 21
18.89999999999998
 31
0.0
100
AcDbText
  0
POLYLINE
  5
146
330
1E
100
AcDbEntity
  8
CSLAYER1
  6
CONTINUOUS
 62
     3
100
AcDb2dPolyline
 66
     1
 10
0.0
 20
0.0
 30
0.0
  0
VERTEX
  5
147
330
146
100
AcDbEntity
  8
CSLAYER1
  6
CONTINUOUS
 62
     3
100
AcDbVertex
100
AcDb2dVertex
 10
235.014126
 20
186.0237279999999
 30
0.0
  0
VERTEX
  5
148
330
146
100
AcDbEntity
  8
CSLAYER1
  6
CONTINUOUS
 62
     3
100
AcDbVertex
100
AcDb2dVertex
 10
234.656352
 20
186.0075549999999
 30
0.0
  0
VERTEX
  5
149
330
146
100
AcDbEntity
  8
CSLAYER1
  6
CONTINUOUS
 62
     3
100
AcDbVertex
100
AcDb2dVertex
 10
234.3013
 20
185.9591599999999
 30
0.0
  0
VERTEX
  5
14A
330
146
100
AcDbEntity
  8
CSLAYER1
  6
CONTINUOUS
 62
     3
100
AcDbVertex
100
AcDb2dVertex
 10
233.951674
 20
185.878912
 30
0.0
  0
VERTEX
  5
14B
330
146
100
AcDbEntity
  8
CSLAYER1
  6
CONTINUOUS
 62
     3
100
AcDbVertex
100
AcDb2dVertex
 10
233.6101339999999
 20
185.7674209999999
 30
0.0
  0
VERTEX
  5
14C
330
146
100
AcDbEntity
  8
CSLAYER1
  6
CONTINUOUS
 62
     3
100
AcDbVertex
100
AcDb2dVertex
 10
233.2792779999999
 20
185.625536
 30
0.0
  0
VERTEX
  5
14D
330
146
100
AcDbEntity
  8
CSLAYER1
  6
CONTINUOUS
 62
     3
100
AcDbVertex
100
AcDb2dVertex
 10
232.9616259999998
 20
185.454335
 30
0.0
  0
VERTEX
  5
14E
330
146
100
AcDbEntity
  8
CSLAYER1
  6
CONTINUOUS
 62
     3
100
AcDbVertex
100
AcDb2dVertex
 10
232.659595
 20
185.255124
 30
0.0
  0
VERTEX
  5
14F
330
146
100
AcDbEntity
  8
CSLAYER1
  6
CONTINUOUS
 62
     3
100
AcDbVertex
100
AcDb2dVertex
 10
232.3754829999999
 20
185.0294159999999
 30
0.0
  0
VERTEX
  5
150
330
146
100
AcDbEntity
  8
CSLAYER1
  6
CONTINUOUS
 62
     3
100
AcDbVertex
100
AcDb2dVertex
 10
232.111453
 20
184.7789309999999
 30
0.0
  0
VERTEX
  5
151
330
146
100
AcDbEntity
  8
CSLAYER1
  6
CONTINUOUS
 62
     3
100
AcDbVertex
100
AcDb2dVertex
 10
231.8695139999999
 20
184.505575
 30
0.0
  0
VERTEX
  5
152
330
146
100
AcDbEntity
  8
CSLAYER1
  6
CONTINUOUS
 62
     3
100
AcDbVertex
100
AcDb2dVertex
 10
231.6515069999999
 20
184.211427
 30
0.0
  0
VERTEX
  5
153
330
146
100
AcDbEntity
  8
CSLAYER1
  6
CONTINUOUS
 62
     3
100
AcDbVertex
100
AcDb2dVertex
 10
231.459092
 20
183.8987279999999
 30
0.0
  0
VERTEX
  5
154
330
146
100
AcDbEntity
  8
CSLAYER1
  6
CONTINUOUS
 62
     3
100
AcDbVertex
100
AcDb2dVertex
 10
231.293733
 20
183.569855
 30
0.0
  0
VERTEX
  5
155
330
146
100
AcDbEntity
  8
CSLAYER1
  6
CONTINUOUS
 62
     3
100
AcDbVertex
100
AcDb2dVertex
 10
231.1566879999999
 20
183.2273129999999
 30
0.0
  0
VERTEX
  5
156
330
146
100
AcDbEntity
  8
CSLAYER1
  6
CONTINUOUS
 62
     3
100
AcDbVertex
100
AcDb2dVertex
 10
231.0490009999999
 20
182.8737079999999
 30
0.0
  0
VERTEX
  5
157
330
146
100
AcDbEntity
  8
CSLAYER1
  6
CONTINUOUS
 62
     3
100
AcDbVertex
100
AcDb2dVertex
 10
230.9714899999999
 20
182.511732
 30
0.0
  0
VERTEX
  5
158
330
146
100
AcDbEntity
  8
CSLAYER1
  6
CONTINUOUS
 62
     3
100
AcDbVertex
100
AcDb2dVertex
 10
230.924747
 20
182.144139
 30
0.0
  0
VERTEX
  5
159
330
146
100
AcDbEntity
  8
CSLAYER1
  6
CONTINUOUS
 62
     3
100
AcDbVertex
100
AcDb2dVertex
 10
230.9091259999999
 20
181.773728
 30
0.0
  0
VERTEX
  5
15A
330
146
100
AcDbEntity
  8
CSLAYER1
  6
CONTINUOUS
 62
     3
100
AcDbVertex
100
AcDb2dVertex
 10
230.924747
 20
181.4033159999999
 30
0.0
  0
VERTEX
  5
15B
330
146
100
AcDbEntity
  8
CSLAYER1
  6
CONTINUOUS
 62
     3
100
AcDbVertex
100
AcDb2dVertex
 10
230.9714899999999
 20
181.0357229999999
 30
0.0
  0
VERTEX
  5
15C
330
146
100
AcDbEntity
  8
CSLAYER1
  6
CONTINUOUS
 62
     3
100
AcDbVertex
100
AcDb2dVertex
 10
231.0490009999999
 20
180.6737469999999
 30
0.0
  0
VERTEX
  5
15D
330
146
100
AcDbEntity
  8
CSLAYER1
  6
CONTINUOUS
 62
     3
100
AcDbVertex
100
AcDb2dVertex
 10
231.1566879999999
 20
180.320142
 30
0.0
  0
VERTEX
  5
15E
330
146
100
AcDbEntity
  8
CSLAYER1
  6
CONTINUOUS
 62
     3
100
AcDbVertex
100
AcDb2dVertex
 10
231.293733
 20
179.9776
 30
0.0
  0
VERTEX
  5
15F
330
146
100
AcDbEntity
  8
CSLAYER1
  6
CONTINUOUS
 62
     3
100
AcDbVertex
100
AcDb2dVertex
 10
231.459092
 20
179.648728
 30
0.0
  0
VERTEX
  5
160
330
146
100
AcDbEntity
  8
CSLAYER1
  6
CONTINUOUS
 62
     3
100
AcDbVertex
100
AcDb2dVertex
 10
231.6515069999999
 20
179.3360279999999
 30
0.0
  0
VERTEX
  5
161
330
146
100
AcDbEntity
  8
CSLAYER1
  6
CONTINUOUS
 62
     3
100
AcDbVertex
100
AcDb2dVertex
 10
231.8695139999999
 20
179.0418799999999
 30
0.0
  0
VERTEX
  5
162
330
146
100
AcDbEntity
  8
CSLAYER1
  6
CONTINUOUS
 62
     3
100
AcDbVertex
100
AcDb2dVertex
 10
232.111453
 20
178.7685239999999
 30
0.0
  0
VERTEX
  5
163
330
146
100
AcDbEntity
  8
CSLAYER1
  6
CONTINUOUS
 62
     3
100
AcDbVertex
100
AcDb2dVertex
 10
232.3754829999999
 20
178.5180389999999
 30
0.0
  0
VERTEX
  5
164
330
146
100
AcDbEntity
  8
CSLAYER1
  6
CONTINUOUS
 62
     3
100
AcDbVertex
100
AcDb2dVertex
 10
232.659595
 20
178.292331
 30
0.0
  0
VERTEX
  5
165
330
146
100
AcDbEntity
  8
CSLAYER1
  6
CONTINUOUS
 62
     3
100
AcDbVertex
100
AcDb2dVertex
 10
232.9616259999998
 20
178.0931199999999
 30
0.0
  0
VERTEX
  5
166
330
146
100
AcDbEntity
  8
CSLAYER1
  6
CONTINUOUS
 62
     3
100
AcDbVertex
100
AcDb2dVertex
 10
233.2792779999999
 20
177.921919
 30
0.0
  0
VERTEX
  5
167
330
146
100
AcDbEntity
  8
CSLAYER1
  6
CONTINUOUS
 62
     3
100
AcDbVertex
100
AcDb2dVertex
 10
233.6101339999999
 20
177.7800339999999
 30
0.0
  0
VERTEX
  5
168
330
146
100
AcDbEntity
  8
CSLAYER1
  6
CONTINUOUS
 62
     3
100
AcDbVertex
100
AcDb2dVertex
 10
233.951674
 20
177.668543
 30
0.0
  0
VERTEX
  5
169
330
146
100
AcDbEntity
  8
CSLAYER1
  6
CONTINUOUS
 62
     3
100
AcDbVertex
100
AcDb2dVertex
 10
234.3013
 20
177.5882949999999
 30
0.0
  0
VERTEX
  5
16A
330
146
100
AcDbEntity
  8
CSLAYER1
  6
CONTINUOUS
 62
     3
100
AcDbVertex
100
AcDb2dVertex
 10
234.656352
 20
177.5398999999999
 30
0.0
  0
VERTEX
  5
16B
330
146
100
AcDbEntity
  8
CSLAYER1
  6
CONTINUOUS
 62
     3
100
AcDbVertex
100
AcDb2dVertex
 10
235.014126
 20
177.5237279999999
 30
0.0
  0
VERTEX
  5
16C
330
146
100
AcDbEntity
  8
CSLAYER1
  6
CONTINUOUS
 62
     3
100
AcDbVertex
100
AcDb2dVertex
 10
235.3719009999999
 20
177.5398999999999
 30
0.0
  0
VERTEX
  5
16D
330
146
100
AcDbEntity
  8
CSLAYER1
  6
CONTINUOUS
 62
     3
100
AcDbVertex
100
AcDb2dVertex
 10
235.726952
 20
177.5882949999999
 30
0.0
  0
VERTEX
  5
16E
330
146
100
AcDbEntity
  8
CSLAYER1
  6
CONTINUOUS
 62
     3
100
AcDbVertex
100
AcDb2dVertex
 10
236.0765779999999
 20
177.668543
 30
0.0
  0
VERTEX
  5
16F
330
146
100
AcDbEntity
  8
CSLAYER1
  6
CONTINUOUS
 62
     3
100
AcDbVertex
100
AcDb2dVertex
 10
236.418119
 20
177.7800339999999
 30
0.0
  0
VERTEX
  5
170
330
146
100
AcDbEntity
  8
CSLAYER1
  6
CONTINUOUS
 62
     3
100
AcDbVertex
100
AcDb2dVertex
 10
236.748974
 20
177.921919
 30
0.0
  0
VERTEX
  5
171
330
146
100
AcDbEntity
  8
CSLAYER1
  6
CONTINUOUS
 62
     3
100
AcDbVertex
100
AcDb2dVertex
 10
237.0666259999999
 20
178.0931199999999
 30
0.0
  0
VERTEX
  5
172
330
146
100
AcDbEntity
  8
CSLAYER1
  6
CONTINUOUS
 62
     3
100
AcDbVertex
100
AcDb2dVertex
 10
237.3686569999999
 20
178.292331
 30
0.0
  0
VERTEX
  5
173
330
146
100
AcDbEntity
  8
CSLAYER1
  6
CONTINUOUS
 62
     3
100
AcDbVertex
100
AcDb2dVertex
 10
237.652769
 20
178.5180389999999
 30
0.0
  0
VERTEX
  5
174
330
146
100
AcDbEntity
  8
CSLAYER1
  6
CONTINUOUS
 62
     3
100
AcDbVertex
100
AcDb2dVertex
 10
237.9167999999999
 20
178.7685239999999
 30
0.0
  0
VERTEX
  5
175
330
146
100
AcDbEntity
  8
CSLAYER1
  6
CONTINUOUS
 62
     3
100
AcDbVertex
100
AcDb2dVertex
 10
238.158739
 20
179.0418799999999
 30
0.0
  0
VERTEX
  5
176
330
146
100
AcDbEntity
  8
CSLAYER1
  6
CONTINUOUS
 62
     3
100
AcDbVertex
100
AcDb2dVertex
 10
238.376745
 20
179.3360279999999
 30
0.0
  0
VERTEX
  5
177
330
146
100
AcDbEntity
  8
CSLAYER1
  6
CONTINUOUS
 62
     3
100
AcDbVertex
100
AcDb2dVertex
 10
238.56916
 20
179.648728
 30
0.0
  0
VERTEX
  5
178
330
146
100
AcDbEntity
  8
CSLAYER1
  6
CONTINUOUS
 62
     3
100
AcDbVertex
100
AcDb2dVertex
 10
238.73452
 20
179.9776
 30
0.0
  0
VERTEX
  5
179
330
146
100
AcDbEntity
  8
CSLAYER1
  6
CONTINUOUS
 62
     3
100
AcDbVertex
100
AcDb2dVertex
 10
238.871564
 20
180.320142
 30
0.0
  0
VERTEX
  5
17A
330
146
100
AcDbEntity
  8
CSLAYER1
  6
CONTINUOUS
 62
     3
100
AcDbVertex
100
AcDb2dVertex
 10
238.9792519999999
 20
180.6737469999999
 30
0.0
  0
VERTEX
  5
17B
330
146
100
AcDbEntity
  8
CSLAYER1
  6
CONTINUOUS
 62
     3
100
AcDbVertex
100
AcDb2dVertex
 10
239.056762
 20
181.0357229999999
 30
0.0
  0
VERTEX
  5
17C
330
146
100
AcDbEntity
  8
CSLAYER1
  6
CONTINUOUS
 62
     3
100
AcDbVertex
100
AcDb2dVertex
 10
239.1035049999999
 20
181.4033159999999
 30
0.0
  0
VERTEX
  5
17D
330
146
100
AcDbEntity
  8
CSLAYER1
  6
CONTINUOUS
 62
     3
100
AcDbVertex
100
AcDb2dVertex
 10
239.1191259999999
 20
181.773728
 30
0.0
  0
VERTEX
  5
17E
330
146
100
AcDbEntity
  8
CSLAYER1
  6
CONTINUOUS
 62
     3
100
AcDbVertex
100
AcDb2dVertex
 10
239.1035049999999
 20
182.144139
 30
0.0
  0
VERTEX
  5
17F
330
146
100
AcDbEntity
  8
CSLAYER1
  6
CONTINUOUS
 62
     3
100
AcDbVertex
100
AcDb2dVertex
 10
239.056762
 20
182.511732
 30
0.0
  0
VERTEX
  5
180
330
146
100
AcDbEntity
  8
CSLAYER1
  6
CONTINUOUS
 62
     3
100
AcDbVertex
100
AcDb2dVertex
 10
238.9792519999999
 20
182.8737079999999
 30
0.0
  0
VERTEX
  5
181
330
146
100
AcDbEntity
  8
CSLAYER1
  6
CONTINUOUS
 62
     3
100
AcDbVertex
100
AcDb2dVertex
 10
238.871564
 20
183.2273129999999
 30
0.0
  0
VERTEX
  5
182
330
146
100
AcDbEntity
  8
CSLAYER1
  6
CONTINUOUS
 62
     3
100
AcDbVertex
100
AcDb2dVertex
 10
238.73452
 20
183.569855
 30
0.0
  0
VERTEX
  5
183
330
146
100
AcDbEntity
  8
CSLAYER1
  6
CONTINUOUS
 62
     3
100
AcDbVertex
100
AcDb2dVertex
 10
238.56916
 20
183.8987279999999
 30
0.0
  0
VERTEX
  5
184
330
146
100
AcDbEntity
  8
CSLAYER1
  6
CONTINUOUS
 62
     3
100
AcDbVertex
100
AcDb2dVertex
 10
238.376745
 20
184.211427
 30
0.0
  0
VERTEX
  5
185
330
146
100
AcDbEntity
  8
CSLAYER1
  6
CONTINUOUS
 62
     3
100
AcDbVertex
100
AcDb2dVertex
 10
238.158739
 20
184.505575
 30
0.0
  0
VERTEX
  5
186
330
146
100
AcDbEntity
  8
CSLAYER1
  6
CONTINUOUS
 62
     3
100
AcDbVertex
100
AcDb2dVertex
 10
237.9167999999999
 20
184.7789309999999
 30
0.0
  0
VERTEX
  5
187
330
146
100
AcDbEntity
  8
CSLAYER1
  6
CONTINUOUS
 62
     3
100
AcDbVertex
100
AcDb2dVertex
 10
237.652769
 20
185.0294159999999
 30
0.0
  0
VERTEX
  5
188
330
146
100
AcDbEntity
  8
CSLAYER1
  6
CONTINUOUS
 62
     3
100
AcDbVertex
100
AcDb2dVertex
 10
237.3686569999999
 20
185.255124
 30
0.0
  0
VERTEX
  5
189
330
146
100
AcDbEntity
  8
CSLAYER1
  6
CONTINUOUS
 62
     3
100
AcDbVertex
100
AcDb2dVertex
 10
237.0666259999999
 20
185.454335
 30
0.0
  0
VERTEX
  5
18A
330
146
100
AcDbEntity
  8
CSLAYER1
  6
CONTINUOUS
 62
     3
100
AcDbVertex
100
AcDb2dVertex
 10
236.748974
 20
185.625536
 30
0.0
  0
VERTEX
  5
18B
330
146
100
AcDbEntity
  8
CSLAYER1
  6
CONTINUOUS
 62
     3
100
AcDbVertex
100
AcDb2dVertex
 10
236.418119
 20
185.7674209999999
 30
0.0
  0
VERTEX
  5
18C
330
146
100
AcDbEntity
  8
CSLAYER1
  6
CONTINUOUS
 62
     3
100
AcDbVertex
100
AcDb2dVertex
 10
236.0765779999999
 20
185.878912
 30
0.0
  0
VERTEX
  5
18D
330
146
100
AcDbEntity
  8
CSLAYER1
  6
CONTINUOUS
 62
     3
100
AcDbVertex
100
AcDb2dVertex
 10
235.726952
 20
185.9591599999999
 30
0.0
  0
VERTEX
  5
18E
330
146
100
AcDbEntity
  8
CSLAYER1
  6
CONTINUOUS
 62
     3
100
AcDbVertex
100
AcDb2dVertex
 10
235.3719009999999
 20
186.0075549999999
 30
0.0
  0
VERTEX
  5
18F
330
146
100
AcDbEntity
  8
CSLAYER1
  6
CONTINUOUS
 62
     3
100
AcDbVertex
100
AcDb2dVertex
 10
235.014126
 20
186.0237279999999
 30
0.0
  0
SEQEND
  5
190
330
146
100
AcDbEntity
  8
CSLAYER1
 62
     3
  0
LINE
  5
191
330
1E
100
AcDbEntity
  8
CSLAYER1
  6
CENTER
 62
     4
100
AcDbLine
 10
125.514126
 20
77.12765799999998
 30
0.0
 11
125.514126
 21
92.50922799999999
 31
0.0
  0
CIRCLE
  5
192
330
1E
100
AcDbEntity
  8
CSLAYER1
  6
CONTINUOUS
 62
     4
100
AcDbCircle
 10
125.514126
 20
84.304585
 30
0.0
 40
1.649999999999999
  0
LINE
  5
193
330
1E
100
AcDbEntity
  8
CSLAYER1
  6
CENTER
 62
     4
100
AcDbLine
 10
113.1471749999999
 20
84.304585
 30
0.0
 11
250.981395
 21
84.304585
 31
0.0
  0
LINE
  5
194
330
1E
100
AcDbEntity
  8
CSLAYER1
  6
CENTER
 62
     4
100
AcDbLine
 10
251.44186
 20
175.950299
 30
0.0
 11
108.629854
 21
175.950299
 31
0.0
  0
LINE
  5
195
330
1E
100
AcDbEntity
  8
CSLAYER1
  6
CONTINUOUS
 62
     4
100
AcDbLine
 10
123.864126
 20
163.250299
 30
0.0
 11
123.864126
 21
157.600299
 31
0.0
  0
LINE
  5
196
330
1E
100
AcDbEntity
  8
CSLAYER1
  6
CONTINUOUS
 62
     4
100
AcDbLine
 10
123.514126
 20
157.9502989999999
 30
0.0
 11
127.514126
 21
157.9502989999999
 31
0.0
  0
LINE
  5
197
330
1E
100
AcDbEntity
  8
CSLAYER1
  6
CONTINUOUS
 62
     4
100
AcDbLine
 10
127.1641259999999
 20
157.600299
 30
0.0
 11
127.1641259999999
 21
163.250299
 31
0.0
  0
LINE
  5
198
330
1E
100
AcDbEntity
  8
CSLAYER1
  6
CENTER
 62
     4
100
AcDbLine
 10
125.514126
 20
155.0807629999999
 30
0.0
 11
125.514126
 21
189.511511
 31
0.0
  0
LINE
  5
199
330
1E
100
AcDbEntity
  8
CSLAYER1
  6
CENTER
 62
     4
100
AcDbLine
 10
227.6909199999999
 20
181.773728
 30
0.0
 11
242.282338
 21
181.773728
 31
0.0
  0
LINE
  5
19A
330
1E
100
AcDbEntity
  8
CSLAYER1
  6
CENTER
 62
     4
100
AcDbLine
 10
235.014126
 20
188.749472
 30
0.0
 11
235.014126
 21
174.6650919999999
 31
0.0
  0
LINE
  5
19B
330
1E
100
AcDbEntity
  8
CSLAYER1
  6
CENTER
 62
     4
100
AcDbLine
 10
293.919906
 20
175.950299
 30
0.0
 11
349.269428
 21
175.950299
 31
0.0
  0
LINE
  5
19C
330
1E
100
AcDbEntity
  8
CSLAYER1
  6
CENTER
 62
     4
100
AcDbLine
 10
335.496608
 20
183.359982
 30
0.0
 11
329.016237
 21
189.8403529999999
 31
0.0
  0
CIRCLE
  5
19D
330
1E
100
AcDbEntity
  8
CSLAYER1
  6
CONTINUOUS
 62
     4
100
AcDbCircle
 10
332.299689
 20
186.556901
 30
0.0
 40
2.5
  0
LINE
  5
19E
330
1E
100
AcDbEntity
  8
CSLAYER1
  6
CENTER
 62
     4
100
AcDbLine
 10
335.517054
 20
189.7742659999999
 30
0.0
 11
308.021481
 21
162.278693
 31
0.0
  0
CIRCLE
  5
19F
330
1E
100
AcDbEntity
  8
CSLAYER1
  6
CONTINUOUS
 62
     4
100
AcDbCircle
 10
311.0864859999998
 20
165.343697
 30
0.0
 40
2.5
  0
LINE
  5
1A0
330
1E
100
AcDbEntity
  8
CSLAYER1
  6
CENTER
 62
     4
100
AcDbLine
 10
307.5385289999998
 20
168.891654
 30
0.0
 11
315.539802
 21
160.890381
 31
0.0
  0
CIRCLE
  5
1A1
330
1E
100
AcDbEntity
  8
CSLAYER1
  6
CONTINUOUS
 62
     4
100
AcDbCircle
 10
321.693087
 20
175.950299
 30
0.0
 40
4.75
  0
LINE
  5
1A2
330
1E
100
AcDbEntity
  8
CSLAYER1
  6
CENTER
 62
     4
100
AcDbLine
 10
321.693087
 20
175.950299
 30
0.0
 11
295.5913939999998
 21
182.944227
 31
0.0
  0
LINE
  5
1A3
330
1E
100
AcDbEntity
  8
CSLAYER1
  6
CENTER
 62
     4
100
AcDbLine
 10
321.693087
 20
204.750301
 30
0.0
 11
321.693087
 21
147.50153
 31
0.0
  0
POLYLINE
  5
1A4
330
1E
100
AcDbEntity
  8
CSLAYER1
  6
CONTINUOUS
 62
     4
100
AcDb2dPolyline
 66
     1
 10
0.0
 20
0.0
 30
0.0
  0
VERTEX
  5
1A5
330
1A4
100
AcDbEntity
  8
CSLAYER1
  6
CONTINUOUS
 62
     4
100
AcDbVertex
100
AcDb2dVertex
 10
235.014126
 20
186.523728
 30
0.0
  0
VERTEX
  5
1A6
330
1A4
100
AcDbEntity
  8
CSLAYER1
  6
CONTINUOUS
 62
     4
100
AcDbVertex
100
AcDb2dVertex
 10
234.614517
 20
186.5056519999999
 30
0.0
  0
VERTEX
  5
1A7
330
1A4
100
AcDbEntity
  8
CSLAYER1
  6
CONTINUOUS
 62
     4
100
AcDbVertex
100
AcDb2dVertex
 10
234.217949
 20
186.451564
 30
0.0
  0
VERTEX
  5
1A8
330
1A4
100
AcDbEntity
  8
CSLAYER1
  6
CONTINUOUS
 62
     4
100
AcDbVertex
100
AcDb2dVertex
 10
233.827441
 20
186.361875
 30
0.0
  0
VERTEX
  5
1A9
330
1A4
100
AcDbEntity
  8
CSLAYER1
  6
CONTINUOUS
 62
     4
100
AcDbVertex
100
AcDb2dVertex
 10
233.4459639999999
 20
186.237267
 30
0.0
  0
VERTEX
  5
1AA
330
1A4
100
AcDbEntity
  8
CSLAYER1
  6
CONTINUOUS
 62
     4
100
AcDbVertex
100
AcDb2dVertex
 10
233.0764209999999
 20
186.0786899999999
 30
0.0
  0
VERTEX
  5
1AB
330
1A4
100
AcDbEntity
  8
CSLAYER1
  6
CONTINUOUS
 62
     4
100
AcDbVertex
100
AcDb2dVertex
 10
232.7216259999999
 20
185.8873479999999
 30
0.0
  0
VERTEX
  5
1AC
330
1A4
100
AcDbEntity
  8
CSLAYER1
  6
CONTINUOUS
 62
     4
100
AcDbVertex
100
AcDb2dVertex
 10
232.3842779999999
 20
185.6647
 30
0.0
  0
VERTEX
  5
1AD
330
1A4
100
AcDbEntity
  8
CSLAYER1
  6
CONTINUOUS
 62
     4
100
AcDbVertex
100
AcDb2dVertex
 10
232.066945
 20
185.4124389999999
 30
0.0
  0
VERTEX
  5
1AE
330
1A4
100
AcDbEntity
  8
CSLAYER1
  6
CONTINUOUS
 62
     4
100
AcDbVertex
100
AcDb2dVertex
 10
231.772042
 20
185.132485
 30
0.0
  0
VERTEX
  5
1AF
330
1A4
100
AcDbEntity
  8
CSLAYER1
  6
CONTINUOUS
 62
     4
100
AcDbVertex
100
AcDb2dVertex
 10
231.5018119999999
 20
184.826969
 30
0.0
  0
VERTEX
  5
1B0
330
1A4
100
AcDbEntity
  8
CSLAYER1
  6
CONTINUOUS
 62
     4
100
AcDbVertex
100
AcDb2dVertex
 10
231.258314
 20
184.4982159999999
 30
0.0
  0
VERTEX
  5
1B1
330
1A4
100
AcDbEntity
  8
CSLAYER1
  6
CONTINUOUS
 62
     4
100
AcDbVertex
100
AcDb2dVertex
 10
231.0433999999999
 20
184.148728
 30
0.0
  0
VERTEX
  5
1B2
330
1A4
100
AcDbEntity
  8
CSLAYER1
  6
CONTINUOUS
 62
     4
100
AcDbVertex
100
AcDb2dVertex
 10
230.8587049999999
 20
183.7811639999999
 30
0.0
  0
VERTEX
  5
1B3
330
1A4
100
AcDbEntity
  8
CSLAYER1
  6
CONTINUOUS
 62
     4
100
AcDbVertex
100
AcDb2dVertex
 10
230.705636
 20
183.398323
 30
0.0
  0
VERTEX
  5
1B4
330
1A4
100
AcDbEntity
  8
CSLAYER1
  6
CONTINUOUS
 62
     4
100
AcDbVertex
100
AcDb2dVertex
 10
230.585356
 20
183.0031179999999
 30
0.0
  0
VERTEX
  5
1B5
330
1A4
100
AcDbEntity
  8
CSLAYER1
  6
CONTINUOUS
 62
     4
100
AcDbVertex
100
AcDb2dVertex
 10
230.4987829999999
 20
182.598556
 30
0.0
  0
VERTEX
  5
1B6
330
1A4
100
AcDbEntity
  8
CSLAYER1
  6
CONTINUOUS
 62
     4
100
AcDbVertex
100
AcDb2dVertex
 10
230.446574
 20
182.187717
 30
0.0
  0
VERTEX
  5
1B7
330
1A4
100
AcDbEntity
  8
CSLAYER1
  6
CONTINUOUS
 62
     4
100
AcDbVertex
100
AcDb2dVertex
 10
230.4291259999998
 20
181.773728
 30
0.0
  0
VERTEX
  5
1B8
330
1A4
100
AcDbEntity
  8
CSLAYER1
  6
CONTINUOUS
 62
     4
100
AcDbVertex
100
AcDb2dVertex
 10
230.446574
 20
181.359738
 30
0.0
  0
VERTEX
  5
1B9
330
1A4
100
AcDbEntity
  8
CSLAYER1
  6
CONTINUOUS
 62
     4
100
AcDbVertex
100
AcDb2dVertex
 10
230.4987829999999
 20
180.948899
 30
0.0
  0
VERTEX
  5
1BA
330
1A4
100
AcDbEntity
  8
CSLAYER1
  6
CONTINUOUS
 62
     4
100
AcDbVertex
100
AcDb2dVertex
 10
230.585356
 20
180.544337
 30
0.0
  0
VERTEX
  5
1BB
330
1A4
100
AcDbEntity
  8
CSLAYER1
  6
CONTINUOUS
 62
     4
100
AcDbVertex
100
AcDb2dVertex
 10
230.705636
 20
180.149132
 30
0.0
  0
VERTEX
  5
1BC
330
1A4
100
AcDbEntity
  8
CSLAYER1
  6
CONTINUOUS
 62
     4
100
AcDbVertex
100
AcDb2dVertex
 10
230.8587049999999
 20
179.7662909999999
 30
0.0
  0
VERTEX
  5
1BD
330
1A4
100
AcDbEntity
  8
CSLAYER1
  6
CONTINUOUS
 62
     4
100
AcDbVertex
100
AcDb2dVertex
 10
231.0433999999999
 20
179.398728
 30
0.0
  0
VERTEX
  5
1BE
330
1A4
100
AcDbEntity
  8
CSLAYER1
  6
CONTINUOUS
 62
     4
100
AcDbVertex
100
AcDb2dVertex
 10
231.258314
 20
179.049239
 30
0.0
  0
VERTEX
  5
1BF
330
1A4
100
AcDbEntity
  8
CSLAYER1
  6
CONTINUOUS
 62
     4
100
AcDbVertex
100
AcDb2dVertex
 10
231.5018119999999
 20
178.720486
 30
0.0
  0
VERTEX
  5
1C0
330
1A4
100
AcDbEntity
  8
CSLAYER1
  6
CONTINUOUS
 62
     4
100
AcDbVertex
100
AcDb2dVertex
 10
231.772042
 20
178.4149699999999
 30
0.0
  0
VERTEX
  5
1C1
330
1A4
100
AcDbEntity
  8
CSLAYER1
  6
CONTINUOUS
 62
     4
100
AcDbVertex
100
AcDb2dVertex
 10
232.066945
 20
178.1350159999999
 30
0.0
  0
VERTEX
  5
1C2
330
1A4
100
AcDbEntity
  8
CSLAYER1
  6
CONTINUOUS
 62
     4
100
AcDbVertex
100
AcDb2dVertex
 10
232.3842779999999
 20
177.882755
 30
0.0
  0
VERTEX
  5
1C3
330
1A4
100
AcDbEntity
  8
CSLAYER1
  6
CONTINUOUS
 62
     4
100
AcDbVertex
100
AcDb2dVertex
 10
232.7216259999999
 20
177.660107
 30
0.0
  0
VERTEX
  5
1C4
330
1A4
100
AcDbEntity
  8
CSLAYER1
  6
CONTINUOUS
 62
     4
100
AcDbVertex
100
AcDb2dVertex
 10
233.0764209999999
 20
177.4687659999999
 30
0.0
  0
VERTEX
  5
1C5
330
1A4
100
AcDbEntity
  8
CSLAYER1
  6
CONTINUOUS
 62
     4
100
AcDbVertex
100
AcDb2dVertex
 10
233.4459639999999
 20
177.3101879999999
 30
0.0
  0
VERTEX
  5
1C6
330
1A4
100
AcDbEntity
  8
CSLAYER1
  6
CONTINUOUS
 62
     4
100
AcDbVertex
100
AcDb2dVertex
 10
233.827441
 20
177.18558
 30
0.0
  0
VERTEX
  5
1C7
330
1A4
100
AcDbEntity
  8
CSLAYER1
  6
CONTINUOUS
 62
     4
100
AcDbVertex
100
AcDb2dVertex
 10
234.217949
 20
177.095891
 30
0.0
  0
VERTEX
  5
1C8
330
1A4
100
AcDbEntity
  8
CSLAYER1
  6
CONTINUOUS
 62
     4
100
AcDbVertex
100
AcDb2dVertex
 10
234.614517
 20
177.041803
 30
0.0
  0
VERTEX
  5
1C9
330
1A4
100
AcDbEntity
  8
CSLAYER1
  6
CONTINUOUS
 62
     4
100
AcDbVertex
100
AcDb2dVertex
 10
235.014126
 20
177.023728
 30
0.0
  0
VERTEX
  5
1CA
330
1A4
100
AcDbEntity
  8
CSLAYER1
  6
CONTINUOUS
 62
     4
100
AcDbVertex
100
AcDb2dVertex
 10
235.413735
 20
177.041803
 30
0.0
  0
VERTEX
  5
1CB
330
1A4
100
AcDbEntity
  8
CSLAYER1
  6
CONTINUOUS
 62
     4
100
AcDbVertex
100
AcDb2dVertex
 10
235.8103029999999
 20
177.095891
 30
0.0
  0
VERTEX
  5
1CC
330
1A4
100
AcDbEntity
  8
CSLAYER1
  6
CONTINUOUS
 62
     4
100
AcDbVertex
100
AcDb2dVertex
 10
236.200812
 20
177.18558
 30
0.0
  0
VERTEX
  5
1CD
330
1A4
100
AcDbEntity
  8
CSLAYER1
  6
CONTINUOUS
 62
     4
100
AcDbVertex
100
AcDb2dVertex
 10
236.582289
 20
177.3101879999999
 30
0.0
  0
VERTEX
  5
1CE
330
1A4
100
AcDbEntity
  8
CSLAYER1
  6
CONTINUOUS
 62
     4
100
AcDbVertex
100
AcDb2dVertex
 10
236.951831
 20
177.4687659999999
 30
0.0
  0
VERTEX
  5
1CF
330
1A4
100
AcDbEntity
  8
CSLAYER1
  6
CONTINUOUS
 62
     4
100
AcDbVertex
100
AcDb2dVertex
 10
237.3066259999999
 20
177.660107
 30
0.0
  0
VERTEX
  5
1D0
330
1A4
100
AcDbEntity
  8
CSLAYER1
  6
CONTINUOUS
 62
     4
100
AcDbVertex
100
AcDb2dVertex
 10
237.643974
 20
177.882755
 30
0.0
  0
VERTEX
  5
1D1
330
1A4
100
AcDbEntity
  8
CSLAYER1
  6
CONTINUOUS
 62
     4
100
AcDbVertex
100
AcDb2dVertex
 10
237.9613069999999
 20
178.1350159999999
 30
0.0
  0
VERTEX
  5
1D2
330
1A4
100
AcDbEntity
  8
CSLAYER1
  6
CONTINUOUS
 62
     4
100
AcDbVertex
100
AcDb2dVertex
 10
238.2562109999999
 20
178.4149699999999
 30
0.0
  0
VERTEX
  5
1D3
330
1A4
100
AcDbEntity
  8
CSLAYER1
  6
CONTINUOUS
 62
     4
100
AcDbVertex
100
AcDb2dVertex
 10
238.52644
 20
178.720486
 30
0.0
  0
VERTEX
  5
1D4
330
1A4
100
AcDbEntity
  8
CSLAYER1
  6
CONTINUOUS
 62
     4
100
AcDbVertex
100
AcDb2dVertex
 10
238.7699379999999
 20
179.049239
 30
0.0
  0
VERTEX
  5
1D5
330
1A4
100
AcDbEntity
  8
CSLAYER1
  6
CONTINUOUS
 62
     4
100
AcDbVertex
100
AcDb2dVertex
 10
238.984853
 20
179.398728
 30
0.0
  0
VERTEX
  5
1D6
330
1A4
100
AcDbEntity
  8
CSLAYER1
  6
CONTINUOUS
 62
     4
100
AcDbVertex
100
AcDb2dVertex
 10
239.169547
 20
179.7662909999999
 30
0.0
  0
VERTEX
  5
1D7
330
1A4
100
AcDbEntity
  8
CSLAYER1
  6
CONTINUOUS
 62
     4
100
AcDbVertex
100
AcDb2dVertex
 10
239.3226169999999
 20
180.149132
 30
0.0
  0
VERTEX
  5
1D8
330
1A4
100
AcDbEntity
  8
CSLAYER1
  6
CONTINUOUS
 62
     4
100
AcDbVertex
100
AcDb2dVertex
 10
239.4428959999999
 20
180.544337
 30
0.0
  0
VERTEX
  5
1D9
330
1A4
100
AcDbEntity
  8
CSLAYER1
  6
CONTINUOUS
 62
     4
100
AcDbVertex
100
AcDb2dVertex
 10
239.52947
 20
180.948899
 30
0.0
  0
VERTEX
  5
1DA
330
1A4
100
AcDbEntity
  8
CSLAYER1
  6
CONTINUOUS
 62
     4
100
AcDbVertex
100
AcDb2dVertex
 10
239.581679
 20
181.359738
 30
0.0
  0
VERTEX
  5
1DB
330
1A4
100
AcDbEntity
  8
CSLAYER1
  6
CONTINUOUS
 62
     4
100
AcDbVertex
100
AcDb2dVertex
 10
239.5991259999999
 20
181.773728
 30
0.0
  0
VERTEX
  5
1DC
330
1A4
100
AcDbEntity
  8
CSLAYER1
  6
CONTINUOUS
 62
     4
100
AcDbVertex
100
AcDb2dVertex
 10
239.581679
 20
182.187717
 30
0.0
  0
VERTEX
  5
1DD
330
1A4
100
AcDbEntity
  8
CSLAYER1
  6
CONTINUOUS
 62
     4
100
AcDbVertex
100
AcDb2dVertex
 10
239.52947
 20
182.598556
 30
0.0
  0
VERTEX
  5
1DE
330
1A4
100
AcDbEntity
  8
CSLAYER1
  6
CONTINUOUS
 62
     4
100
AcDbVertex
100
AcDb2dVertex
 10
239.4428959999999
 20
183.0031179999999
 30
0.0
  0
VERTEX
  5
1DF
330
1A4
100
AcDbEntity
  8
CSLAYER1
  6
CONTINUOUS
 62
     4
100
AcDbVertex
100
AcDb2dVertex
 10
239.3226169999999
 20
183.398323
 30
0.0
  0
VERTEX
  5
1E0
330
1A4
100
AcDbEntity
  8
CSLAYER1
  6
CONTINUOUS
 62
     4
100
AcDbVertex
100
AcDb2dVertex
 10
239.169547
 20
183.7811639999999
 30
0.0
  0
VERTEX
  5
1E1
330
1A4
100
AcDbEntity
  8
CSLAYER1
  6
CONTINUOUS
 62
     4
100
AcDbVertex
100
AcDb2dVertex
 10
238.984853
 20
184.148728
 30
0.0
  0
VERTEX
  5
1E2
330
1A4
100
AcDbEntity
  8
CSLAYER1
  6
CONTINUOUS
 62
     4
100
AcDbVertex
100
AcDb2dVertex
 10
238.7699379999999
 20
184.4982159999999
 30
0.0
  0
VERTEX
  5
1E3
330
1A4
100
AcDbEntity
  8
CSLAYER1
  6
CONTINUOUS
 62
     4
100
AcDbVertex
100
AcDb2dVertex
 10
238.52644
 20
184.826969
 30
0.0
  0
VERTEX
  5
1E4
330
1A4
100
AcDbEntity
  8
CSLAYER1
  6
CONTINUOUS
 62
     4
100
AcDbVertex
100
AcDb2dVertex
 10
238.2562109999999
 20
185.132485
 30
0.0
  0
VERTEX
  5
1E5
330
1A4
100
AcDbEntity
  8
CSLAYER1
  6
CONTINUOUS
 62
     4
100
AcDbVertex
100
AcDb2dVertex
 10
237.9613069999999
 20
185.4124389999999
 30
0.0
  0
VERTEX
  5
1E6
330
1A4
100
AcDbEntity
  8
CSLAYER1
  6
CONTINUOUS
 62
     4
100
AcDbVertex
100
AcDb2dVertex
 10
237.643974
 20
185.6647
 30
0.0
  0
VERTEX
  5
1E7
330
1A4
100
AcDbEntity
  8
CSLAYER1
  6
CONTINUOUS
 62
     4
100
AcDbVertex
100
AcDb2dVertex
 10
237.3066259999999
 20
185.8873479999999
 30
0.0
  0
VERTEX
  5
1E8
330
1A4
100
AcDbEntity
  8
CSLAYER1
  6
CONTINUOUS
 62
     4
100
AcDbVertex
100
AcDb2dVertex
 10
236.951831
 20
186.0786899999999
 30
0.0
  0
VERTEX
  5
1E9
330
1A4
100
AcDbEntity
  8
CSLAYER1
  6
CONTINUOUS
 62
     4
100
AcDbVertex
100
AcDb2dVertex
 10
236.582289
 20
186.237267
 30
0.0
  0
VERTEX
  5
1EA
330
1A4
100
AcDbEntity
  8
CSLAYER1
  6
CONTINUOUS
 62
     4
100
AcDbVertex
100
AcDb2dVertex
 10
236.200812
 20
186.361875
 30
0.0
  0
VERTEX
  5
1EB
330
1A4
100
AcDbEntity
  8
CSLAYER1
  6
CONTINUOUS
 62
     4
100
AcDbVertex
100
AcDb2dVertex
 10
235.8103029999999
 20
186.451564
 30
0.0
  0
VERTEX
  5
1EC
330
1A4
100
AcDbEntity
  8
CSLAYER1
  6
CONTINUOUS
 62
     4
100
AcDbVertex
100
AcDb2dVertex
 10
235.413735
 20
186.5056519999999
 30
0.0
  0
VERTEX
  5
1ED
330
1A4
100
AcDbEntity
  8
CSLAYER1
  6
CONTINUOUS
 62
     4
100
AcDbVertex
100
AcDb2dVertex
 10
235.014126
 20
186.523728
 30
0.0
  0
SEQEND
  5
1EE
330
1A4
100
AcDbEntity
  8
CSLAYER1
 62
     4
  0
INSERT
  5
1EF
330
1E
100
AcDbEntity
  8
CSLAYER1
100
AcDbBlockReference
  2
FXDIM0000
 10
0.0
 20
0.0
 30
0.0
  0
DIMENSION
  5
1F0
330
1E
100
AcDbEntity
  8
CSLAYER1
 62
     4
100
AcDbDimension
  2
*D1
 10
362.499381
 20
193.950299
 30
0.0
 11
361.9993589999998
 21
175.9503019999999
 31
0.0
 70
     1
100
AcDbAlignedDimension
 13
335.1930869999999
 23
157.9502989999999
 33
0.0
 14
335.1930869999999
 24
193.950299
 34
0.0
  0
INSERT
  5
1F1
330
1E
100
AcDbEntity
  8
CSLAYER1
100
AcDbBlockReference
  2
FXDIM0001
 10
0.0
 20
0.0
 30
0.0
  0
DIMENSION
  5
1F3
330
1E
100
AcDbEntity
  8
CSLAYER1
 62
     4
100
AcDbDimension
  2
*D4
 10
309.5310859999999
 20
209.8175549999999
 30
0.0
 11
298.4431149999998
 21
199.7011409999999
 31
0.0
 70
     1
100
AcDbAlignedDimension
 13
307.5385289999998
 23
168.891654
 33
0.0
 14
329.016237
 24
189.8403529999999
 34
0.0
  0
INSERT
  5
1F4
330
1E
100
AcDbEntity
  8
CSLAYER1
100
AcDbBlockReference
  2
FXDIM0002
 10
0.0
 20
0.0
 30
0.0
  0
DIMENSION
  5
1F5
330
1E
100
AcDbEntity
  8
CSLAYER1
 62
     4
100
AcDbDimension
  2
*D6
 10
102.366143
 20
106.804585
 30
0.0
 11
101.86615
 21
84.304581
 31
0.0
 70
     1
100
AcDbAlignedDimension
 13
146.014126
 23
61.804585
 33
0.0
 14
146.014126
 24
106.804585
 34
0.0
  0
DIMENSION
  5
1F6
330
1E
100
AcDbEntity
  8
CSLAYER1
 62
     4
100
AcDbDimension
  2
*D7
 10
225.0141259999999
 20
222.535568
 30
0.0
 11
170.51413
 21
223.035568
 31
0.0
100
AcDbAlignedDimension
 13
116.014126
 23
183.9502989999999
 33
0.0
 14
225.0141259999999
 24
198.450299
 34
0.0
100
AcDbRotatedDimension
  0
DIMENSION
  5
1F7
330
1E
100
AcDbEntity
  8
CSLAYER1
 62
     4
100
AcDbDimension
  2
*D8
 10
245.0141259999999
 20
222.535568
 30
0.0
 11
235.01413
 21
223.035568
 31
0.0
100
AcDbAlignedDimension
 13
225.0141259999999
 23
198.450299
 33
0.0
 14
245.0141259999999
 24
192.450299
 34
0.0
100
AcDbRotatedDimension
  0
DIMENSION
  5
1F8
330
1E
100
AcDbEntity
  8
CSLAYER1
 62
     4
100
AcDbDimension
  2
*D9
 10
125.514126
 20
216.535568
 30
0.0
 11
120.845299
 21
217.545776
 31
0.0
100
AcDbAlignedDimension
 13
116.014126
 23
183.9502989999999
 33
0.0
 14
125.514126
 24
189.511511
 34
0.0
100
AcDbRotatedDimension
  0
DIMENSION
  5
1F9
330
1E
100
AcDbEntity
  8
CSLAYER1
 62
     4
100
AcDbDimension
  2
*D10
 10
225.0141259999999
 20
216.535568
 30
0.0
 11
185.5141299999999
 21
217.035568
 31
0.0
100
AcDbAlignedDimension
 13
146.014126
 23
198.450299
 33
0.0
 14
225.0141259999999
 24
199.4502989999999
 34
0.0
100
AcDbRotatedDimension
  0
DIMENSION
  5
1FA
330
1E
100
AcDbEntity
  8
CSLAYER1
 62
     4
100
AcDbDimension
  2
*D11
 10
89.365804
 20
187.450299
 30
0.0
 11
88.86579899999999
 21
175.9503019999999
 31
0.0
 70
     1
100
AcDbAlignedDimension
 13
119.5141259999999
 23
164.450299
 33
0.0
 14
119.5141259999999
 24
187.450299
 34
0.0
  0
DIMENSION
  5
1FB
330
1E
100
AcDbEntity
  8
CSLAYER1
 62
     4
100
AcDbDimension
  2
*D12
 10
95.365804
 20
181.950299
 30
0.0
 11
94.865799
 21
175.9503019999999
 31
0.0
 70
     1
100
AcDbAlignedDimension
 13
116.014126
 23
169.950299
 33
0.0
 14
116.014126
 24
181.950299
 34
0.0
  0
INSERT
  5
1FC
330
1E
100
AcDbEntity
  8
CSLAYER1
100
AcDbBlockReference
  2
FXDIM0003
 10
0.0
 20
0.0
 30
0.0
  0
DIMENSION
  5
1FD
330
1E
100
AcDbEntity
  8
CSLAYER1
 62
     4
100
AcDbDimension
  2
*D14
 10
130.8154419999999
 20
148.450299
 30
0.0
 11
136.25589
 21
154.3368679999999
 31
0.0
 70
     4
100
AcDbRadialDimension
 15
142.3869389999999
 25
159.500207
 35
0.0
 40
0.0
  0
DIMENSION
  5
1FE
330
1E
100
AcDbEntity
  8
CSLAYER1
 62
     4
100
AcDbDimension
  2
*D15
 10
245.0141259999999
 20
126.294187
 30
0.0
 11
180.51413
 21
126.7941889999999
 31
0.0
100
AcDbAlignedDimension
 13
116.014126
 23
91.22125099999999
 33
0.0
 14
245.0141259999999
 24
105.3045849999999
 34
0.0
100
AcDbRotatedDimension
  0
DIMENSION
  5
1FF
330
1E
100
AcDbEntity
  8
CSLAYER1
 62
     4
100
AcDbDimension
  2
*D16
 10
125.514126
 20
120.294187
 30
0.0
 11
120.943993
 21
121.647217
 31
0.0
100
AcDbAlignedDimension
 13
116.014126
 23
91.22125099999999
 33
0.0
 14
125.514126
 24
92.50922799999999
 34
0.0
100
AcDbRotatedDimension
  0
LINE
  5
200
330
1E
100
AcDbEntity
  8
CSLAYER1
  6
DOT
 62
     3
100
AcDbLine
 10
10.0
 20
3.0
 30
0.0
 11
395.0
 21
3.0
 31
0.0
  0
LINE
  5
201
330
1E
100
AcDbEntity
  8
CSLAYER1
  6
DOT
 62
     3
100
AcDbLine
 10
395.0
 20
3.0
 30
0.0
 11
395.0
 21
275.0
 31
0.0
  0
LINE
  5
202
330
1E
100
AcDbEntity
  8
CSLAYER1
  6
DOT
 62
     3
100
AcDbLine
 10
395.0
 20
275.0
 30
0.0
 11
10.0
 21
275.0
 31
0.0
  0
LINE
  5
203
330
1E
100
AcDbEntity
  8
CSLAYER1
  6
DOT
 62
     3
100
AcDbLine
 10
10.0
 20
275.0
 30
0.0
 11
10.0
 21
3.0
 31
0.0
  0
ENDSEC
  0
SECTION
  2
OBJECTS
  0
DICTIONARY
  5
C
330
0
100
AcDbDictionary
  3
ACAD_GROUP
350
D
  3
ACAD_LAYOUT
350
19
  3
ACAD_MLINESTYLE
350
16
  3
ACAD_PLOTSETTINGS
350
18
1001
ACAD
1000
TREAT_AS_HARD
1070
     0
1000
TREAT_AS_HARD
1070
     0
  0
DICTIONARY
  5
20D
330
1E
100
AcDbDictionary
  3
ACAD_LAYOUTSELFREF
350
22C
1001
ACAD
1000
TREAT_AS_HARD
1070
     0
  0
DICTIONARY
  5
20B
330
1A
100
AcDbDictionary
  3
ACAD_LAYOUTSELFREF
350
22B
1001
ACAD
1000
TREAT_AS_HARD
1070
     0
  0
DICTIONARY
  5
D
102
{ACAD_REACTORS
330
C
102
}
330
C
100
AcDbDictionary
1001
ACAD
1000
TREAT_AS_HARD
1070
     0
1000
TREAT_AS_HARD
1070
     0
  0
DICTIONARY
  5
19
102
{ACAD_REACTORS
330
C
102
}
330
C
100
AcDbDictionary
1001
ACAD
1000
TREAT_AS_HARD
1070
     0
1000
TREAT_AS_HARD
1070
     0
  0
DICTIONARY
  5
16
102
{ACAD_REACTORS
330
C
102
}
330
C
100
AcDbDictionary
  3
STANDARD
350
17
1001
ACAD
1000
TREAT_AS_HARD
1070
     0
1000
TREAT_AS_HARD
1070
     0
  0
DICTIONARY
  5
18
102
{ACAD_REACTORS
330
C
102
}
330
C
100
AcDbDictionary
1001
ACAD
1000
TREAT_AS_HARD
1070
     0
1000
TREAT_AS_HARD
1070
     0
  0
XRECORD
  5
22C
102
{ACAD_REACTORS
330
20D
102
}
330
20D
100
AcDbXrecord
340
1E
  0
XRECORD
  5
22B
102
{ACAD_REACTORS
330
20B
102
}
330
20B
100
AcDbXrecord
340
1A
  0
MLINESTYLE
  5
17
102
{ACAD_REACTORS
330
16
102
}
330
16
100
AcDbMlineStyle
  2
STANDARD
 70
     0
  3

 62
   256
 51
90.0
 52
90.0
 71
     2
 49
0.5
 62
   256
  6
BYLAYER
 49
-0.5
 62
   256
  6
BYLAYER
  0
ENDSEC
  0
EOF
